  0
SECTION
  2
HEADER
  9
$ACADVER
  1
AC1024
  9
$ACADMAINTVER
 70
   226
  9
$DWGCODEPAGE
  3
ANSI_1252
  9
$LASTSAVEDBY
  1
mhumphreys
  9
$INSBASE
 10
0.0
 20
0.0
 30
0.0
  9
$EXTMIN
 10
5289.96155620904
 20
-3310.590259579833
 30
0.0
  9
$EXTMAX
 10
11145.18081386403
 20
517.3108987394388
 30
0.0
  9
$LIMMIN
 10
0.0
 20
0.0
  9
$LIMMAX
 10
12.0
 20
9.0
  9
$ORTHOMODE
 70
     0
  9
$REGENMODE
 70
     1
  9
$FILLMODE
 70
     1
  9
$QTEXTMODE
 70
     0
  9
$MIRRTEXT
 70
     0
  9
$LTSCALE
 40
1.0
  9
$ATTMODE
 70
     1
  9
$TEXTSIZE
 40
2.5
  9
$TRACEWID
 40
0.05
  9
$TEXTSTYLE
  7
fastrack
  9
$CLAYER
  8
0
  9
$CELTYPE
  6
ByLayer
  9
$CECOLOR
 62
   256
  9
$CELTSCALE
 40
1.0
  9
$DISPSILH
 70
     0
  9
$DIMSCALE
 40
1.0
  9
$DIMASZ
 40
0.18
  9
$DIMEXO
 40
0.0625
  9
$DIMDLI
 40
0.38
  9
$DIMRND
 40
0.0
  9
$DIMDLE
 40
0.0
  9
$DIMEXE
 40
0.18
  9
$DIMTP
 40
0.0
  9
$DIMTM
 40
0.0
  9
$DIMTXT
 40
0.18
  9
$DIMCEN
 40
0.09
  9
$DIMTSZ
 40
0.0
  9
$DIMTOL
 70
     0
  9
$DIMLIM
 70
     0
  9
$DIMTIH
 70
     1
  9
$DIMTOH
 70
     1
  9
$DIMSE1
 70
     0
  9
$DIMSE2
 70
     0
  9
$DIMTAD
 70
     0
  9
$DIMZIN
 70
     0
  9
$DIMBLK
  1

  9
$DIMASO
 70
     1
  9
$DIMSHO
 70
     1
  9
$DIMPOST
  1

  9
$DIMAPOST
  1

  9
$DIMALT
 70
     0
  9
$DIMALTD
 70
     2
  9
$DIMALTF
 40
25.4
  9
$DIMLFAC
 40
1.0
  9
$DIMTOFL
 70
     0
  9
$DIMTVP
 40
0.0
  9
$DIMTIX
 70
     0
  9
$DIMSOXD
 70
     0
  9
$DIMSAH
 70
     0
  9
$DIMBLK1
  1

  9
$DIMBLK2
  1

  9
$DIMSTYLE
  2
Standard
  9
$DIMCLRD
 70
     0
  9
$DIMCLRE
 70
     0
  9
$DIMCLRT
 70
     0
  9
$DIMTFAC
 40
1.0
  9
$DIMGAP
 40
0.09
  9
$DIMJUST
 70
     0
  9
$DIMSD1
 70
     0
  9
$DIMSD2
 70
     0
  9
$DIMTOLJ
 70
     1
  9
$DIMTZIN
 70
     0
  9
$DIMALTZ
 70
     0
  9
$DIMALTTZ
 70
     0
  9
$DIMUPT
 70
     0
  9
$DIMDEC
 70
     4
  9
$DIMTDEC
 70
     4
  9
$DIMALTU
 70
     2
  9
$DIMALTTD
 70
     2
  9
$DIMTXSTY
  7
Standard
  9
$DIMAUNIT
 70
     0
  9
$DIMADEC
 70
     0
  9
$DIMALTRND
 40
0.0
  9
$DIMAZIN
 70
     0
  9
$DIMDSEP
 70
    46
  9
$DIMATFIT
 70
     3
  9
$DIMFRAC
 70
     0
  9
$DIMLDRBLK
  1

  9
$DIMLUNIT
 70
     2
  9
$DIMLWD
 70
    -2
  9
$DIMLWE
 70
    -2
  9
$DIMTMOVE
 70
     0
  9
$DIMFXL
 40
1.0
  9
$DIMFXLON
 70
     0
  9
$DIMJOGANG
 40
0.7853981633974483
  9
$DIMTFILL
 70
     0
  9
$DIMTFILLCLR
 70
     0
  9
$DIMARCSYM
 70
     0
  9
$DIMLTYPE
  6

  9
$DIMLTEX1
  6

  9
$DIMLTEX2
  6

  9
$DIMTXTDIRECTION
 70
     0
  9
$LUNITS
 70
     2
  9
$LUPREC
 70
     4
  9
$SKETCHINC
 40
0.1
  9
$FILLETRAD
 40
0.0
  9
$AUNITS
 70
     0
  9
$AUPREC
 70
     0
  9
$MENU
  1
.
  9
$ELEVATION
 40
0.0
  9
$PELEVATION
 40
0.0
  9
$THICKNESS
 40
0.0
  9
$LIMCHECK
 70
     0
  9
$CHAMFERA
 40
0.0
  9
$CHAMFERB
 40
0.0
  9
$CHAMFERC
 40
0.0
  9
$CHAMFERD
 40
0.0
  9
$SKPOLY
 70
     0
  9
$TDCREATE
 40
2454481.571296296
  9
$TDUCREATE
 40
2454481.571297315
  9
$TDUPDATE
 40
2458815.612083334
  9
$TDUUPDATE
 40
2458815.612083334
  9
$TDINDWG
 40
0.4444997106
  9
$TDUSRTIMER
 40
0.4444996759
  9
$USRTIMER
 70
     1
  9
$ANGBASE
 50
0.0
  9
$ANGDIR
 70
     0
  9
$PDMODE
 70
     0
  9
$PDSIZE
 40
0.0
  9
$PLINEWID
 40
0.0
  9
$SPLFRAME
 70
     0
  9
$SPLINETYPE
 70
     6
  9
$SPLINESEGS
 70
     8
  9
$HANDSEED
  5
571C
  9
$SURFTAB1
 70
     6
  9
$SURFTAB2
 70
     6
  9
$SURFTYPE
 70
     6
  9
$SURFU
 70
     6
  9
$SURFV
 70
     6
  9
$UCSBASE
  2

  9
$UCSNAME
  2

  9
$UCSORG
 10
0.0
 20
0.0
 30
0.0
  9
$UCSXDIR
 10
1.0
 20
0.0
 30
0.0
  9
$UCSYDIR
 10
0.0
 20
1.0
 30
0.0
  9
$UCSORTHOREF
  2

  9
$UCSORTHOVIEW
 70
     0
  9
$UCSORGTOP
 10
0.0
 20
0.0
 30
0.0
  9
$UCSORGBOTTOM
 10
0.0
 20
0.0
 30
0.0
  9
$UCSORGLEFT
 10
0.0
 20
0.0
 30
0.0
  9
$UCSORGRIGHT
 10
0.0
 20
0.0
 30
0.0
  9
$UCSORGFRONT
 10
0.0
 20
0.0
 30
0.0
  9
$UCSORGBACK
 10
0.0
 20
0.0
 30
0.0
  9
$PUCSBASE
  2

  9
$PUCSNAME
  2

  9
$PUCSORG
 10
0.0
 20
0.0
 30
0.0
  9
$PUCSXDIR
 10
1.0
 20
0.0
 30
0.0
  9
$PUCSYDIR
 10
0.0
 20
1.0
 30
0.0
  9
$PUCSORTHOREF
  2

  9
$PUCSORTHOVIEW
 70
     0
  9
$PUCSORGTOP
 10
0.0
 20
0.0
 30
0.0
  9
$PUCSORGBOTTOM
 10
0.0
 20
0.0
 30
0.0
  9
$PUCSORGLEFT
 10
0.0
 20
0.0
 30
0.0
  9
$PUCSORGRIGHT
 10
0.0
 20
0.0
 30
0.0
  9
$PUCSORGFRONT
 10
0.0
 20
0.0
 30
0.0
  9
$PUCSORGBACK
 10
0.0
 20
0.0
 30
0.0
  9
$USERI1
 70
     0
  9
$USERI2
 70
     0
  9
$USERI3
 70
     0
  9
$USERI4
 70
     0
  9
$USERI5
 70
     0
  9
$USERR1
 40
0.0
  9
$USERR2
 40
0.0
  9
$USERR3
 40
0.0
  9
$USERR4
 40
0.0
  9
$USERR5
 40
0.0
  9
$WORLDVIEW
 70
     1
  9
$SHADEDGE
 70
     3
  9
$SHADEDIF
 70
    70
  9
$TILEMODE
 70
     0
  9
$MAXACTVP
 70
    64
  9
$PINSBASE
 10
0.0
 20
0.0
 30
0.0
  9
$PLIMCHECK
 70
     0
  9
$PEXTMIN
 10
0.1238553547713082
 20
1.105400868312983
 30
-0.0015258207003583
  9
$PEXTMAX
 10
278.8488543049806
 20
200.2942707772489
 30
0.0000000349246037
  9
$PLIMMIN
 10
-3.17498779296875
 20
-4.222749710083006
  9
$PLIMMAX
 10
293.7933349609375
 20
205.7505779266358
  9
$UNITMODE
 70
     0
  9
$VISRETAIN
 70
     1
  9
$PLINEGEN
 70
     0
  9
$PSLTSCALE
 70
     1
  9
$TREEDEPTH
 70
  3020
  9
$CMLSTYLE
  2
Standard
  9
$CMLJUST
 70
     0
  9
$CMLSCALE
 40
1.0
  9
$PROXYGRAPHICS
 70
     1
  9
$MEASUREMENT
 70
     0
  9
$CELWEIGHT
370
    -1
  9
$ENDCAPS
280
     0
  9
$JOINSTYLE
280
     0
  9
$LWDISPLAY
290
     0
  9
$INSUNITS
 70
     1
  9
$HYPERLINKBASE
  1

  9
$STYLESHEET
  1
.15MM.CTB
  9
$XEDIT
290
     1
  9
$CEPSNTYPE
380
     0
  9
$PSTYLEMODE
290
     1
  9
$FINGERPRINTGUID
  2
{DF1E48EA-4DA0-47D3-822C-A92F23B33EA5}
  9
$VERSIONGUID
  2
{CAD75325-1EE9-284A-9C64-1352CE2DDC0A}
  9
$EXTNAMES
290
     1
  9
$PSVPSCALE
 40
0.0
  9
$OLESTARTUP
290
     0
  9
$SORTENTS
280
   127
  9
$INDEXCTL
280
     0
  9
$HIDETEXT
280
     1
  9
$XCLIPFRAME
280
     2
  9
$HALOGAP
280
     0
  9
$OBSCOLOR
 70
   257
  9
$OBSLTYPE
280
     0
  9
$INTERSECTIONDISPLAY
280
     0
  9
$INTERSECTIONCOLOR
 70
   257
  9
$DIMASSOC
280
     2
  9
$PROJECTNAME
  1

  9
$CAMERADISPLAY
290
     0
  9
$LENSLENGTH
 40
50.0
  9
$CAMERAHEIGHT
 40
0.0
  9
$STEPSPERSEC
 40
2.0
  9
$STEPSIZE
 40
6.0
  9
$3DDWFPREC
 40
2.0
  9
$PSOLWIDTH
 40
0.25
  9
$PSOLHEIGHT
 40
4.0
  9
$LOFTANG1
 40
1.570796326794896
  9
$LOFTANG2
 40
1.570796326794896
  9
$LOFTMAG1
 40
0.0
  9
$LOFTMAG2
 40
0.0
  9
$LOFTPARAM
 70
     7
  9
$LOFTNORMALS
280
     1
  9
$LATITUDE
 40
37.795
  9
$LONGITUDE
 40
-122.394
  9
$NORTHDIRECTION
 40
0.0
  9
$TIMEZONE
 70
 -8000
  9
$LIGHTGLYPHDISPLAY
280
     1
  9
$TILEMODELIGHTSYNCH
280
     1
  9
$CMATERIAL
347
96
  9
$SOLIDHIST
280
     0
  9
$SHOWHIST
280
     1
  9
$DWFFRAME
280
     2
  9
$DGNFRAME
280
     0
  9
$REALWORLDSCALE
290
     1
  9
$INTERFERECOLOR
 62
     1
  9
$INTERFEREOBJVS
345
A3
  9
$INTERFEREVPVS
346
56AF
  9
$CSHADOW
280
     0
  9
$SHADOWPLANELOCATION
 40
0.0
  0
ENDSEC
  0
SECTION
  2
CLASSES
  0
CLASS
  1
ACDBDICTIONARYWDFLT
  2
AcDbDictionaryWithDefault
  3
ObjectDBX Classes
 90
        0
 91
        1
280
     0
281
     0
  0
CLASS
  1
DICTIONARYVAR
  2
AcDbDictionaryVar
  3
ObjectDBX Classes
 90
        0
 91
       13
280
     0
281
     0
  0
CLASS
  1
TABLESTYLE
  2
AcDbTableStyle
  3
ObjectDBX Classes
 90
     4095
 91
        1
280
     0
281
     0
  0
CLASS
  1
MATERIAL
  2
AcDbMaterial
  3
ObjectDBX Classes
 90
     1153
 91
        3
280
     0
281
     0
  0
CLASS
  1
VISUALSTYLE
  2
AcDbVisualStyle
  3
ObjectDBX Classes
 90
     4095
 91
       26
280
     0
281
     0
  0
CLASS
  1
DIMASSOC
  2
AcDbDimAssoc
  3
"AcDbDimAssoc|Product Desc:     AcDim ARX App For Dimension|Company:          Autodesk, Inc.|WEB Address:      www.autodesk.com"
 90
        0
 91
        2
280
     0
281
     0
  0
CLASS
  1
SORTENTSTABLE
  2
AcDbSortentsTable
  3
ObjectDBX Classes
 90
        0
 91
        1
280
     0
281
     0
  0
CLASS
  1
SCALE
  2
AcDbScale
  3
ObjectDBX Classes
 90
     1153
 91
       33
280
     0
281
     0
  0
CLASS
  1
MLEADERSTYLE
  2
AcDbMLeaderStyle
  3
ACDB_MLEADERSTYLE_CLASS
 90
     4095
 91
        1
280
     0
281
     0
  0
CLASS
  1
CELLSTYLEMAP
  2
AcDbCellStyleMap
  3
ObjectDBX Classes
 90
     1152
 91
        2
280
     0
281
     0
  0
CLASS
  1
ACDBSECTIONVIEWSTYLE
  2
AcDbSectionViewStyle
  3
ObjectDBX Classes
 90
     1025
 91
        1
280
     0
281
     0
  0
CLASS
  1
ACDBDETAILVIEWSTYLE
  2
AcDbDetailViewStyle
  3
ObjectDBX Classes
 90
     1025
 91
        1
280
     0
281
     0
  0
ENDSEC
  0
SECTION
  2
TABLES
  0
TABLE
  2
VPORT
  5
8
102
{ACAD_XDICTIONARY
360
3B5A
102
}
330
0
100
AcDbSymbolTable
 70
     1
  0
VPORT
  5
5552
330
8
100
AcDbSymbolTableRecord
100
AcDbViewportTableRecord
  2
*Active
 70
     0
 10
0.0
 20
0.0
 11
1.0
 21
1.0
 12
10504.23854075671
 22
-1038.82411824771
 13
0.0
 23
0.0
 14
0.5
 24
0.5
 15
0.5
 25
0.5
 16
0.0
 26
0.0
 36
1.0
 17
0.0
 27
0.0
 37
0.0
 40
4848.661881617145
 41
2.292712066905615
 42
50.0
 43
0.0
 44
0.0
 50
0.0
 51
0.0
 71
     0
 72
  1000
 73
     1
 74
     3
 75
     0
 76
     0
 77
     0
 78
     0
281
     0
 65
     1
110
0.0
120
0.0
130
0.0
111
1.0
121
0.0
131
0.0
112
0.0
122
1.0
132
0.0
 79
     0
146
0.0
348
9F
 60
     2
 61
     5
292
     1
282
     1
141
0.0
142
0.0
 63
   250
421
  3355443
1001
ACAD_NAV_VCDISPLAY
1070
     3
  0
ENDTAB
  0
TABLE
  2
LTYPE
  5
5
330
0
100
AcDbSymbolTable
 70
     1
  0
LTYPE
  5
14
330
5
100
AcDbSymbolTableRecord
100
AcDbLinetypeTableRecord
  2
ByBlock
 70
     0
  3

 72
    65
 73
     0
 40
0.0
  0
LTYPE
  5
15
330
5
100
AcDbSymbolTableRecord
100
AcDbLinetypeTableRecord
  2
ByLayer
 70
     0
  3

 72
    65
 73
     0
 40
0.0
  0
LTYPE
  5
16
330
5
100
AcDbSymbolTableRecord
100
AcDbLinetypeTableRecord
  2
Continuous
 70
     0
  3
Solid line
 72
    65
 73
     0
 40
0.0
  0
ENDTAB
  0
TABLE
  2
LAYER
  5
2
102
{ACAD_XDICTIONARY
360
158
102
}
330
0
100
AcDbSymbolTable
 70
     6
  0
LAYER
  5
10
102
{ACAD_XDICTIONARY
360
3BDA
102
}
330
2
100
AcDbSymbolTableRecord
100
AcDbLayerTableRecord
  2
0
 70
     0
 62
     7
  6
Continuous
370
    -3
390
F
347
98
  0
LAYER
  5
150
330
2
100
AcDbSymbolTableRecord
100
AcDbLayerTableRecord
  2
Defpoints
 70
     0
 62
     7
  6
Continuous
290
     0
370
    -3
390
F
347
98
  0
LAYER
  5
151
102
{ACAD_XDICTIONARY
360
3BDC
102
}
330
2
100
AcDbSymbolTableRecord
100
AcDbLayerTableRecord
  2
DIMS
 70
     0
 62
     7
  6
Continuous
370
    -3
390
F
347
98
  0
LAYER
  5
1067
102
{ACAD_XDICTIONARY
360
3BE0
102
}
330
2
100
AcDbSymbolTableRecord
100
AcDbLayerTableRecord
  2
APPLICATION
 70
     0
 62
     3
  6
Continuous
370
    -3
390
F
347
98
  0
LAYER
  5
5546
102
{ACAD_XDICTIONARY
360
5547
102
}
330
2
100
AcDbSymbolTableRecord
100
AcDbLayerTableRecord
  2
DETAIL
 70
     0
 62
     2
  6
Continuous
370
    -3
390
F
347
98
  0
LAYER
  5
5569
102
{ACAD_XDICTIONARY
360
556A
102
}
330
2
100
AcDbSymbolTableRecord
100
AcDbLayerTableRecord
  2
TEXT
 70
     0
 62
     7
  6
Continuous
370
    -3
390
F
347
98
  0
ENDTAB
  0
TABLE
  2
STYLE
  5
3
330
0
100
AcDbSymbolTable
 70
     2
  0
STYLE
  5
11
330
3
100
AcDbSymbolTableRecord
100
AcDbTextStyleTableRecord
  2
Standard
 70
     0
 40
0.0
 41
1.0
 50
0.0
 71
     0
 42
0.2
  3
txt
  4

  0
STYLE
  5
556B
330
3
100
AcDbSymbolTableRecord
100
AcDbTextStyleTableRecord
  2
fastrack
 70
     0
 40
0.0
 41
1.0
 50
0.0
 71
     0
 42
2.5
  3
simplex.shx
  4

  0
ENDTAB
  0
TABLE
  2
VIEW
  5
6
330
0
100
AcDbSymbolTable
 70
     1
  0
ENDTAB
  0
TABLE
  2
UCS
  5
7
330
0
100
AcDbSymbolTable
 70
     0
  0
ENDTAB
  0
TABLE
  2
APPID
  5
9
330
0
100
AcDbSymbolTable
 70
     7
  0
APPID
  5
12
330
9
100
AcDbSymbolTableRecord
100
AcDbRegAppTableRecord
  2
ACAD
 70
     0
  0
APPID
  5
156
330
9
100
AcDbSymbolTableRecord
100
AcDbRegAppTableRecord
  2
ACAD_PSEXT
 70
     0
  0
APPID
  5
157
330
9
100
AcDbSymbolTableRecord
100
AcDbRegAppTableRecord
  2
AcadStringInfo
 70
     0
  0
APPID
  5
1681
330
9
100
AcDbSymbolTableRecord
100
AcDbRegAppTableRecord
  2
ACAD_EXEMPT_FROM_CAD_STANDARDS
 70
     0
  0
APPID
  5
3B76
330
9
100
AcDbSymbolTableRecord
100
AcDbRegAppTableRecord
  2
ACAD_DSTYLE_DIMTEXT_FILL
 70
     0
  0
APPID
  5
3BD3
330
9
100
AcDbSymbolTableRecord
100
AcDbRegAppTableRecord
  2
ACAD_MLEADERVER
 70
     0
  0
APPID
  5
56C7
330
9
100
AcDbSymbolTableRecord
100
AcDbRegAppTableRecord
  2
ACAD_NAV_VCDISPLAY
 70
     0
  0
ENDTAB
  0
TABLE
  2
DIMSTYLE
  5
A
330
0
100
AcDbSymbolTable
 70
     1
100
AcDbDimStyleTable
 71
     1
340
27
  0
DIMSTYLE
105
27
102
{ACAD_REACTORS
330
40C2
330
4140
330
4232
330
42D1
330
4381
330
4440
102
}
330
A
100
AcDbSymbolTableRecord
100
AcDbDimStyleTableRecord
  2
Standard
 70
     0
340
11
  0
ENDTAB
  0
TABLE
  2
BLOCK_RECORD
  5
1
330
0
100
AcDbSymbolTable
 70
     7
  0
BLOCK_RECORD
  5
1F
102
{ACAD_XDICTIONARY
360
350
102
}
330
1
100
AcDbSymbolTableRecord
100
AcDbBlockTableRecord
  2
*Model_Space
340
22
 70
     0
280
     1
281
     0
  0
BLOCK_RECORD
  5
58
330
1
100
AcDbSymbolTableRecord
100
AcDbBlockTableRecord
  2
*Paper_Space
340
59
 70
     0
280
     1
281
     0
  0
BLOCK_RECORD
  5
5D
330
1
100
AcDbSymbolTableRecord
100
AcDbBlockTableRecord
  2
*Paper_Space0
340
5E
 70
     0
280
     1
281
     0
  0
BLOCK_RECORD
  5
40C3
330
1
100
AcDbSymbolTableRecord
100
AcDbBlockTableRecord
  2
*D1
340
0
 70
     0
280
     1
281
     0
  0
BLOCK_RECORD
  5
4141
330
1
100
AcDbSymbolTableRecord
100
AcDbBlockTableRecord
  2
*D2
340
0
 70
     0
280
     1
281
     0
  0
BLOCK_RECORD
  5
4233
330
1
100
AcDbSymbolTableRecord
100
AcDbBlockTableRecord
  2
*D3
340
0
 70
     0
280
     1
281
     0
  0
BLOCK_RECORD
  5
42D4
330
1
100
AcDbSymbolTableRecord
100
AcDbBlockTableRecord
  2
*D4
340
0
 70
     0
280
     1
281
     0
  0
BLOCK_RECORD
  5
4382
330
1
100
AcDbSymbolTableRecord
100
AcDbBlockTableRecord
  2
*D5
340
0
 70
     0
280
     1
281
     0
  0
BLOCK_RECORD
  5
4441
330
1
100
AcDbSymbolTableRecord
100
AcDbBlockTableRecord
  2
*D6
340
0
 70
     0
280
     1
281
     0
  0
ENDTAB
  0
ENDSEC
  0
SECTION
  2
BLOCKS
  0
BLOCK
  5
20
330
1F
100
AcDbEntity
  8
0
100
AcDbBlockBegin
  2
*Model_Space
 70
     0
 10
0.0
 20
0.0
 30
0.0
  3
*Model_Space
  1

  0
ENDBLK
  5
21
330
1F
100
AcDbEntity
  8
0
100
AcDbBlockEnd
  0
BLOCK
  5
5A
330
58
100
AcDbEntity
 67
     1
  8
0
100
AcDbBlockBegin
  2
*Paper_Space
 70
     0
 10
0.0
 20
0.0
 30
0.0
  3
*Paper_Space
  1

  0
ENDBLK
  5
5B
330
58
100
AcDbEntity
 67
     1
  8
0
100
AcDbBlockEnd
  0
BLOCK
  5
5F
330
5D
100
AcDbEntity
 67
     1
  8
0
100
AcDbBlockBegin
  2
*Paper_Space0
 70
     0
 10
0.0
 20
0.0
 30
0.0
  3
*Paper_Space0
  1

  0
ENDBLK
  5
60
330
5D
100
AcDbEntity
 67
     1
  8
0
100
AcDbBlockEnd
  0
BLOCK
  5
40CE
330
40C3
100
AcDbEntity
  8
0
100
AcDbBlockBegin
  2
*D1
 70
     1
 10
0.0
 20
0.0
 30
0.0
  3
*D1
  1

  0
LINE
  5
55E1
330
40C3
100
AcDbEntity
  8
DIMS
 62
     0
440
 16777216
370
    -2
100
AcDbLine
 10
8487.610967506009
 20
149.2424116135589
 30
0.0
 11
8943.680740794672
 21
149.2424116135588
 31
0.0
  0
LINE
  5
55E2
330
40C3
100
AcDbEntity
  8
DIMS
 62
     0
440
 16777216
370
    -2
100
AcDbLine
 10
8511.610967506008
 20
-1050.757588386441
 30
0.0
 11
8943.680740794672
 21
-1050.757588386441
 31
0.0
  0
LINE
  5
55E3
330
40C3
100
AcDbEntity
  8
DIMS
 62
     0
440
 16777216
370
    -2
100
AcDbLine
 10
8913.680740794671
 20
99.2424116135588
 30
0.0
 11
8913.680740794671
 21
-315.9956836245365
 31
0.0
  0
LINE
  5
55E4
330
40C3
100
AcDbEntity
  8
DIMS
 62
     0
440
 16777216
370
    -2
100
AcDbLine
 10
8913.680740794671
 20
-1000.757588386441
 30
0.0
 11
8913.680740794671
 21
-585.519493148346
 31
0.0
  0
SOLID
  5
55E5
330
40C3
100
AcDbEntity
  8
DIMS
 62
     0
440
 16777216
100
AcDbTrace
 10
8905.34740746134
 20
99.2424116135588
 30
0.0
 11
8922.014074128005
 21
99.2424116135588
 31
0.0
 12
8913.680740794671
 22
149.2424116135588
 32
0.0
 13
8913.680740794671
 23
149.2424116135588
 33
0.0
  0
SOLID
  5
55E6
330
40C3
100
AcDbEntity
  8
DIMS
 62
     0
440
 16777216
100
AcDbTrace
 10
8905.34740746134
 20
-1000.757588386441
 30
0.0
 11
8922.014074128005
 21
-1000.757588386441
 31
0.0
 12
8913.680740794671
 22
-1050.757588386441
 32
0.0
 13
8913.680740794671
 23
-1050.757588386441
 33
0.0
  0
MTEXT
  5
55E7
330
40C3
100
AcDbEntity
  8
DIMS
 62
     0
440
 16777216
100
AcDbMText
 10
8913.680740794671
 20
-450.7575883864396
 30
0.0
 40
50.0
 41
0.0
 46
0.0
 71
     5
 72
     1
  1
\A1;DIM A
  7
fastrack
 11
0.0000000000000001
 21
1.0
 31
0.0
 73
     1
 44
1.0
  0
POINT
  5
55E8
330
40C3
100
AcDbEntity
  8
Defpoints
 62
     0
440
 16777216
100
AcDbPoint
 10
8457.61096750601
 20
149.2424116135589
 30
0.0
  0
POINT
  5
55E9
330
40C3
100
AcDbEntity
  8
Defpoints
 62
     0
440
 16777216
100
AcDbPoint
 10
8481.610967506011
 20
-1050.757588386441
 30
0.0
  0
POINT
  5
55EA
330
40C3
100
AcDbEntity
  8
Defpoints
 62
     0
440
 16777216
100
AcDbPoint
 10
8913.680740794671
 20
-1050.757588386441
 30
0.0
  0
ENDBLK
  5
40CF
330
40C3
100
AcDbEntity
  8
0
100
AcDbBlockEnd
  0
BLOCK
  5
414C
330
4141
100
AcDbEntity
  8
0
100
AcDbBlockBegin
  2
*D2
 70
     1
 10
0.0
 20
0.0
 30
0.0
  3
*D2
  1

  0
LINE
  5
55CD
330
4141
100
AcDbEntity
  8
DIMS
 62
     0
440
 16777216
370
    -2
100
AcDbLine
 10
5730.610967506039
 20
229.2424116135594
 30
0.0
 11
5730.610967506039
 21
517.3108987394388
 31
0.0
  0
LINE
  5
55CE
330
4141
100
AcDbEntity
  8
DIMS
 62
     0
440
 16777216
370
    -2
100
AcDbLine
 10
8432.610967506009
 20
229.242411613559
 30
0.0
 11
8432.610967506009
 21
517.3108987394388
 31
0.0
  0
LINE
  5
55CF
330
4141
100
AcDbEntity
  8
DIMS
 62
     0
440
 16777216
370
    -2
100
AcDbLine
 10
5780.610967506039
 20
487.3108987394388
 30
0.0
 11
6963.515729410786
 21
487.3108987394388
 31
0.0
  0
LINE
  5
55D0
330
4141
100
AcDbEntity
  8
DIMS
 62
     0
440
 16777216
370
    -2
100
AcDbLine
 10
8382.610967506009
 20
487.3108987394388
 30
0.0
 11
7199.706205601263
 21
487.3108987394388
 31
0.0
  0
SOLID
  5
55D1
330
4141
100
AcDbEntity
  8
DIMS
 62
     0
440
 16777216
100
AcDbTrace
 10
5780.610967506039
 20
495.6442320727722
 30
0.0
 11
5780.610967506039
 21
478.9775654061056
 31
0.0
 12
5730.610967506039
 22
487.3108987394388
 32
0.0
 13
5730.610967506039
 23
487.3108987394388
 33
0.0
  0
SOLID
  5
55D2
330
4141
100
AcDbEntity
  8
DIMS
 62
     0
440
 16777216
100
AcDbTrace
 10
8382.610967506009
 20
495.6442320727722
 30
0.0
 11
8382.610967506009
 21
478.9775654061056
 31
0.0
 12
8432.610967506009
 22
487.3108987394388
 32
0.0
 13
8432.610967506009
 23
487.3108987394388
 33
0.0
  0
MTEXT
  5
55D3
330
4141
100
AcDbEntity
  8
DIMS
 62
     0
440
 16777216
100
AcDbMText
 10
7081.610967506023
 20
487.3108987394388
 30
0.0
 40
50.0
 41
0.0
 46
0.0
 71
     5
 72
     1
  1
\A1;2750
  7
fastrack
 73
     1
 44
1.0
  0
POINT
  5
55D4
330
4141
100
AcDbEntity
  8
Defpoints
 62
     0
440
 16777216
100
AcDbPoint
 10
5730.610967506039
 20
199.2424116135594
 30
0.0
  0
POINT
  5
55D5
330
4141
100
AcDbEntity
  8
Defpoints
 62
     0
440
 16777216
100
AcDbPoint
 10
8432.610967506009
 20
199.2424116135589
 30
0.0
  0
POINT
  5
55D6
330
4141
100
AcDbEntity
  8
Defpoints
 62
     0
440
 16777216
100
AcDbPoint
 10
8432.610967506009
 20
487.3108987394388
 30
0.0
  0
ENDBLK
  5
414D
330
4141
100
AcDbEntity
  8
0
100
AcDbBlockEnd
  0
BLOCK
  5
423E
330
4233
100
AcDbEntity
  8
0
100
AcDbBlockBegin
  2
*D3
 70
     1
 10
0.0
 20
0.0
 30
0.0
  3
*D3
  1

  0
LINE
  5
55D7
330
4233
100
AcDbEntity
  8
DIMS
 62
     0
440
 16777216
370
    -2
100
AcDbLine
 10
6443.610967506003
 20
204.242411613559
 30
0.0
 11
6443.610967506003
 21
286.618821018772
 31
0.0
  0
LINE
  5
55D8
330
4233
100
AcDbEntity
  8
DIMS
 62
     0
440
 16777216
370
    -2
100
AcDbLine
 10
6559.610967506005
 20
204.2424116135597
 30
0.0
 11
6559.610967506005
 21
286.618821018772
 31
0.0
  0
LINE
  5
55D9
330
4233
100
AcDbEntity
  8
DIMS
 62
     0
440
 16777216
370
    -2
100
AcDbLine
 10
6393.610967506003
 20
256.618821018772
 30
0.0
 11
6343.610967506005
 21
256.618821018772
 31
0.0
  0
LINE
  5
55DA
330
4233
100
AcDbEntity
  8
DIMS
 62
     0
440
 16777216
370
    -2
100
AcDbLine
 10
6609.610967506005
 20
256.618821018772
 30
0.0
 11
6659.610967506004
 21
256.618821018772
 31
0.0
  0
SOLID
  5
55DB
330
4233
100
AcDbEntity
  8
DIMS
 62
     0
440
 16777216
100
AcDbTrace
 10
6393.610967506003
 20
264.9521543521053
 30
0.0
 11
6393.610967506003
 21
248.2854876854386
 31
0.0
 12
6443.610967506003
 22
256.618821018772
 32
0.0
 13
6443.610967506003
 23
256.618821018772
 33
0.0
  0
SOLID
  5
55DC
330
4233
100
AcDbEntity
  8
DIMS
 62
     0
440
 16777216
100
AcDbTrace
 10
6609.610967506005
 20
264.9521543521053
 30
0.0
 11
6609.610967506005
 21
248.2854876854386
 31
0.0
 12
6559.610967506005
 22
256.618821018772
 32
0.0
 13
6559.610967506005
 23
256.618821018772
 33
0.0
  0
MTEXT
  5
55DD
330
4233
100
AcDbEntity
  8
DIMS
 62
     0
440
 16777216
100
AcDbMText
 10
6938.420491315529
 20
256.618821018772
 30
0.0
 40
50.0
 41
0.0
 46
0.0
 71
     5
 72
     1
  1
\A1;126 CENTRES
  7
fastrack
 73
     1
 44
1.0
  0
POINT
  5
55DE
330
4233
100
AcDbEntity
  8
Defpoints
 62
     0
440
 16777216
100
AcDbPoint
 10
6443.610967506003
 20
174.2424116135589
 30
0.0
  0
POINT
  5
55DF
330
4233
100
AcDbEntity
  8
Defpoints
 62
     0
440
 16777216
100
AcDbPoint
 10
6559.610967506005
 20
174.2424116135596
 30
0.0
  0
POINT
  5
55E0
330
4233
100
AcDbEntity
  8
Defpoints
 62
     0
440
 16777216
100
AcDbPoint
 10
6559.610967506005
 20
256.618821018772
 30
0.0
  0
ENDBLK
  5
423F
330
4233
100
AcDbEntity
  8
0
100
AcDbBlockEnd
  0
BLOCK
  5
42DF
330
42D4
100
AcDbEntity
  8
0
100
AcDbBlockBegin
  2
*D4
 70
     1
 10
0.0
 20
0.0
 30
0.0
  3
*D4
  1

  0
LINE
  5
55C3
330
42D4
100
AcDbEntity
  8
DIMS
 62
     0
440
 16777216
370
    -2
100
AcDbLine
 10
5651.610967506011
 20
-1050.757588386441
 30
0.0
 11
5463.727419172133
 21
-1050.757588386441
 31
0.0
  0
LINE
  5
55C4
330
42D4
100
AcDbEntity
  8
DIMS
 62
     0
440
 16777216
370
    -2
100
AcDbLine
 10
5675.610967506038
 20
-975.757588386441
 30
0.0
 11
5463.727419172133
 21
-975.757588386441
 31
0.0
  0
LINE
  5
55C5
330
42D4
100
AcDbEntity
  8
DIMS
 62
     0
440
 16777216
370
    -2
100
AcDbLine
 10
5493.727419172134
 20
-1100.757588386441
 30
0.0
 11
5493.727419172134
 21
-1150.757588386441
 31
0.0
  0
LINE
  5
55C6
330
42D4
100
AcDbEntity
  8
DIMS
 62
     0
440
 16777216
370
    -2
100
AcDbLine
 10
5493.727419172134
 20
-925.757588386441
 30
0.0
 11
5493.727419172134
 21
-841.2337788626315
 31
0.0
  0
SOLID
  5
55C7
330
42D4
100
AcDbEntity
  8
DIMS
 62
     0
440
 16777216
100
AcDbTrace
 10
5485.394085838802
 20
-1100.757588386441
 30
0.0
 11
5502.060752505467
 21
-1100.757588386441
 31
0.0
 12
5493.727419172134
 22
-1050.757588386441
 32
0.0
 13
5493.727419172134
 23
-1050.757588386441
 33
0.0
  0
SOLID
  5
55C8
330
42D4
100
AcDbEntity
  8
DIMS
 62
     0
440
 16777216
100
AcDbTrace
 10
5485.394085838802
 20
-925.757588386441
 30
0.0
 11
5502.060752505467
 21
-925.757588386441
 31
0.0
 12
5493.727419172134
 22
-975.757588386441
 32
0.0
 13
5493.727419172134
 23
-975.757588386441
 33
0.0
  0
MTEXT
  5
55C9
330
42D4
100
AcDbEntity
  8
DIMS
 62
     0
440
 16777216
100
AcDbMText
 10
5493.727419172134
 20
-770.7575883864401
 30
0.0
 40
50.0
 41
0.0
 46
0.0
 71
     5
 72
     1
  1
\A1;75
  7
fastrack
 11
0.0000000000000001
 21
1.0
 31
0.0
 73
     1
 44
1.0
  0
POINT
  5
55CA
330
42D4
100
AcDbEntity
  8
Defpoints
 62
     0
440
 16777216
100
AcDbPoint
 10
5681.61096750601
 20
-1050.757588386441
 30
0.0
  0
POINT
  5
55CB
330
42D4
100
AcDbEntity
  8
Defpoints
 62
     0
440
 16777216
100
AcDbPoint
 10
5705.610967506039
 20
-975.757588386441
 30
0.0
  0
POINT
  5
55CC
330
42D4
100
AcDbEntity
  8
Defpoints
 62
     0
440
 16777216
100
AcDbPoint
 10
5493.727419172134
 20
-975.757588386441
 30
0.0
  0
ENDBLK
  5
42E0
330
42D4
100
AcDbEntity
  8
0
100
AcDbBlockEnd
  0
BLOCK
  5
438D
330
4382
100
AcDbEntity
  8
0
100
AcDbBlockBegin
  2
*D5
 70
     1
 10
0.0
 20
0.0
 30
0.0
  3
*D5
  1

  0
LINE
  5
55AF
330
4382
100
AcDbEntity
  8
DIMS
 62
     0
440
 16777216
370
    -2
100
AcDbLine
 10
8487.610967506009
 20
-1650.757588386441
 30
0.0
 11
8943.680740794672
 21
-1650.757588386441
 31
0.0
  0
LINE
  5
55B0
330
4382
100
AcDbEntity
  8
DIMS
 62
     0
440
 16777216
370
    -2
100
AcDbLine
 10
8487.610967506009
 20
-1050.757588386441
 30
0.0
 11
8943.680740794672
 21
-1050.757588386441
 31
0.0
  0
LINE
  5
55B1
330
4382
100
AcDbEntity
  8
DIMS
 62
     0
440
 16777216
370
    -2
100
AcDbLine
 10
8913.680740794671
 20
-1600.757588386441
 30
0.0
 11
8913.680740794671
 21
-1483.138540767393
 31
0.0
  0
LINE
  5
55B2
330
4382
100
AcDbEntity
  8
DIMS
 62
     0
440
 16777216
370
    -2
100
AcDbLine
 10
8913.680740794671
 20
-1100.757588386441
 30
0.0
 11
8913.680740794671
 21
-1218.376636005489
 31
0.0
  0
SOLID
  5
55B3
330
4382
100
AcDbEntity
  8
DIMS
 62
     0
440
 16777216
100
AcDbTrace
 10
8905.34740746134
 20
-1600.757588386441
 30
0.0
 11
8922.014074128005
 21
-1600.757588386441
 31
0.0
 12
8913.680740794671
 22
-1650.757588386441
 32
0.0
 13
8913.680740794671
 23
-1650.757588386441
 33
0.0
  0
SOLID
  5
55B4
330
4382
100
AcDbEntity
  8
DIMS
 62
     0
440
 16777216
100
AcDbTrace
 10
8905.34740746134
 20
-1100.757588386441
 30
0.0
 11
8922.014074128005
 21
-1100.757588386441
 31
0.0
 12
8913.680740794671
 22
-1050.757588386441
 32
0.0
 13
8913.680740794671
 23
-1050.757588386441
 33
0.0
  0
MTEXT
  5
55B5
330
4382
100
AcDbEntity
  8
DIMS
 62
     0
440
 16777216
100
AcDbMText
 10
8913.680740794671
 20
-1350.75758838644
 30
0.0
 40
50.0
 41
0.0
 46
0.0
 71
     5
 72
     1
  1
\A1;DIM B
  7
fastrack
 11
0.0000000000000001
 21
1.0
 31
0.0
 73
     1
 44
1.0
  0
POINT
  5
55B6
330
4382
100
AcDbEntity
  8
Defpoints
 62
     0
440
 16777216
100
AcDbPoint
 10
8457.61096750601
 20
-1650.757588386441
 30
0.0
  0
POINT
  5
55B7
330
4382
100
AcDbEntity
  8
Defpoints
 62
     0
440
 16777216
100
AcDbPoint
 10
8457.61096750601
 20
-1050.757588386441
 30
0.0
  0
POINT
  5
55B8
330
4382
100
AcDbEntity
  8
Defpoints
 62
     0
440
 16777216
100
AcDbPoint
 10
8913.680740794671
 20
-1050.757588386441
 30
0.0
  0
ENDBLK
  5
438E
330
4382
100
AcDbEntity
  8
0
100
AcDbBlockEnd
  0
BLOCK
  5
444C
330
4441
100
AcDbEntity
  8
0
100
AcDbBlockBegin
  2
*D6
 70
     1
 10
0.0
 20
0.0
 30
0.0
  3
*D6
  1

  0
LINE
  5
55B9
330
4441
100
AcDbEntity
  8
DIMS
 62
     0
440
 16777216
370
    -2
100
AcDbLine
 10
5730.610967506039
 20
-2104.751663488881
 30
0.0
 11
5730.610967506039
 21
-2388.830842093797
 31
0.0
  0
LINE
  5
55BA
330
4441
100
AcDbEntity
  8
DIMS
 62
     0
440
 16777216
370
    -2
100
AcDbLine
 10
8432.610967506009
 20
-2104.751663488881
 30
0.0
 11
8432.610967506009
 21
-2388.830842093797
 31
0.0
  0
LINE
  5
55BB
330
4441
100
AcDbEntity
  8
DIMS
 62
     0
440
 16777216
370
    -2
100
AcDbLine
 10
5780.610967506039
 20
-2358.830842093798
 30
0.0
 11
6963.515729410786
 21
-2358.830842093798
 31
0.0
  0
LINE
  5
55BC
330
4441
100
AcDbEntity
  8
DIMS
 62
     0
440
 16777216
370
    -2
100
AcDbLine
 10
8382.610967506009
 20
-2358.830842093798
 30
0.0
 11
7199.706205601263
 21
-2358.830842093798
 31
0.0
  0
SOLID
  5
55BD
330
4441
100
AcDbEntity
  8
DIMS
 62
     0
440
 16777216
100
AcDbTrace
 10
5780.610967506039
 20
-2350.497508760464
 30
0.0
 11
5780.610967506039
 21
-2367.164175427131
 31
0.0
 12
5730.610967506039
 22
-2358.830842093798
 32
0.0
 13
5730.610967506039
 23
-2358.830842093798
 33
0.0
  0
SOLID
  5
55BE
330
4441
100
AcDbEntity
  8
DIMS
 62
     0
440
 16777216
100
AcDbTrace
 10
8382.610967506009
 20
-2350.497508760464
 30
0.0
 11
8382.610967506009
 21
-2367.164175427131
 31
0.0
 12
8432.610967506009
 22
-2358.830842093798
 32
0.0
 13
8432.610967506009
 23
-2358.830842093798
 33
0.0
  0
MTEXT
  5
55BF
330
4441
100
AcDbEntity
  8
DIMS
 62
     0
440
 16777216
100
AcDbMText
 10
7081.610967506023
 20
-2358.830842093798
 30
0.0
 40
50.0
 41
0.0
 46
0.0
 71
     5
 72
     1
  1
\A1;2750
  7
fastrack
 73
     1
 44
1.0
  0
POINT
  5
55C0
330
4441
100
AcDbEntity
  8
Defpoints
 62
     0
440
 16777216
100
AcDbPoint
 10
5730.610967506039
 20
-2074.751663488882
 30
0.0
  0
POINT
  5
55C1
330
4441
100
AcDbEntity
  8
Defpoints
 62
     0
440
 16777216
100
AcDbPoint
 10
8432.610967506009
 20
-2074.751663488882
 30
0.0
  0
POINT
  5
55C2
330
4441
100
AcDbEntity
  8
Defpoints
 62
     0
440
 16777216
100
AcDbPoint
 10
8432.610967506009
 20
-2358.830842093798
 30
0.0
  0
ENDBLK
  5
444D
330
4441
100
AcDbEntity
  8
0
100
AcDbBlockEnd
  0
ENDSEC
  0
SECTION
  2
ENTITIES
  0
LINE
  5
3D89
330
1F
100
AcDbEntity
  8
DETAIL
100
AcDbLine
 10
8407.610967506009
 20
-1050.757588386441
 30
0.0
 11
8407.610967506009
 21
149.2424116135589
 31
0.0
  0
LINE
  5
3D8A
330
1F
100
AcDbEntity
  8
DETAIL
100
AcDbLine
 10
8457.61096750601
 20
-1050.757588386441
 30
0.0
 11
8457.61096750601
 21
149.2424116135589
 31
0.0
  0
LINE
  5
3D8D
330
1F
100
AcDbEntity
  8
DETAIL
100
AcDbLine
 10
5755.610967506039
 20
-1050.75758838644
 30
0.0
 11
5755.610967506039
 21
149.2424116135594
 31
0.0
  0
LINE
  5
3D8E
330
1F
100
AcDbEntity
  8
DETAIL
100
AcDbLine
 10
5705.610967506039
 20
-1050.75758838644
 30
0.0
 11
5705.610967506039
 21
149.2424116135594
 31
0.0
  0
LINE
  5
3D90
330
1F
100
AcDbEntity
  8
APPLICATION
100
AcDbLine
 10
5681.61096750601
 20
-1050.757588386441
 30
0.0
 11
5731.610967506011
 21
-1050.757588386441
 31
0.0
  0
LINE
  5
3D91
102
{ACAD_REACTORS
330
40DB
102
}
330
1F
100
AcDbEntity
  8
APPLICATION
100
AcDbLine
 10
8431.610967506008
 20
-1050.757588386441
 30
0.0
 11
8481.610967506011
 21
-1050.757588386441
 31
0.0
  0
LINE
  5
3D92
330
1F
100
AcDbEntity
  8
DETAIL
100
AcDbLine
 10
5705.610967506039
 20
149.2424116135594
 30
0.0
 11
5755.610967506039
 21
149.2424116135594
 31
0.0
  0
LINE
  5
3D93
102
{ACAD_REACTORS
330
40DB
102
}
330
1F
100
AcDbEntity
  8
DETAIL
100
AcDbLine
 10
8407.610967506009
 20
149.2424116135589
 30
0.0
 11
8457.61096750601
 21
149.2424116135589
 31
0.0
  0
LINE
  5
3D94
330
1F
100
AcDbEntity
  8
DETAIL
100
AcDbLine
 10
5755.610967506039
 20
149.2424116135594
 30
0.0
 11
5755.610967506039
 21
-30.75758838644065
 31
0.0
  0
LINE
  5
3D95
330
1F
100
AcDbEntity
  8
DETAIL
100
AcDbLine
 10
5755.610967506039
 20
68.109129726723
 30
0.0
 11
8407.610967506009
 21
68.10912972672304
 31
0.0
  0
LINE
  5
3D9A
330
1F
100
AcDbEntity
  8
DETAIL
100
AcDbLine
 10
5755.61096750604
 20
-975.7575883864411
 30
0.0
 11
8407.610967506009
 21
-975.7575883864411
 31
0.0
  0
LINE
  5
3D9F
330
1F
100
AcDbEntity
  8
DETAIL
100
AcDbLine
 10
8407.610967506009
 20
-975.757588386441
 30
0.0
 11
8381.610967506011
 21
-975.757588386441
 31
0.0
  0
LINE
  5
3DA2
330
1F
100
AcDbEntity
  8
DETAIL
100
AcDbLine
 10
5755.610967506039
 20
-975.757588386441
 30
0.0
 11
5781.610967506011
 21
-975.757588386441
 31
0.0
  0
LINE
  5
3DE7
330
1F
100
AcDbEntity
  8
DETAIL
100
AcDbLine
 10
5855.61096750601
 20
-40.75758838644108
 30
0.0
 11
5855.61096750601
 21
-860.7575883864411
 31
0.0
  0
LINE
  5
3DE9
330
1F
100
AcDbEntity
  8
DETAIL
100
AcDbLine
 10
5871.610967506011
 20
-40.75758838644108
 30
0.0
 11
5871.610967506011
 21
-860.7575883864411
 31
0.0
  0
LINE
  5
3DEA
330
1F
100
AcDbEntity
  8
DETAIL
100
AcDbLine
 10
5971.610967506011
 20
-40.75758838644108
 30
0.0
 11
5971.610967506011
 21
-860.7575883864411
 31
0.0
  0
LINE
  5
3DED
330
1F
100
AcDbEntity
  8
DETAIL
100
AcDbLine
 10
5987.610967506011
 20
-40.75758838644108
 30
0.0
 11
5987.610967506011
 21
-860.7575883864411
 31
0.0
  0
LINE
  5
3DF4
330
1F
100
AcDbEntity
  8
DETAIL
100
AcDbLine
 10
5987.610967506011
 20
-40.75758838644108
 30
0.0
 11
5987.610967506011
 21
-860.7575883864411
 31
0.0
  0
LINE
  5
3DF5
330
1F
100
AcDbEntity
  8
DETAIL
100
AcDbLine
 10
5971.610967506011
 20
-40.75758838644108
 30
0.0
 11
5971.610967506011
 21
-860.7575883864411
 31
0.0
  0
LINE
  5
3DF6
330
1F
100
AcDbEntity
  8
DETAIL
100
AcDbLine
 10
5871.610967506011
 20
-40.75758838644108
 30
0.0
 11
5871.610967506011
 21
-860.7575883864411
 31
0.0
  0
LINE
  5
3DF7
330
1F
100
AcDbEntity
  8
DETAIL
100
AcDbLine
 10
5855.61096750601
 20
-40.75758838644108
 30
0.0
 11
5855.61096750601
 21
-860.7575883864411
 31
0.0
  0
LINE
  5
3DFE
330
1F
100
AcDbEntity
  8
DETAIL
100
AcDbLine
 10
5987.610967506011
 20
-40.75758838644108
 30
0.0
 11
5987.610967506011
 21
-940.757588386441
 31
0.0
  0
LINE
  5
3DFF
330
1F
100
AcDbEntity
  8
DETAIL
100
AcDbLine
 10
6087.610967506011
 20
-40.75758838644108
 30
0.0
 11
6087.610967506011
 21
-860.7575883864411
 31
0.0
  0
LINE
  5
3E00
330
1F
100
AcDbEntity
  8
DETAIL
100
AcDbLine
 10
5971.610967506011
 20
-40.75758838644108
 30
0.0
 11
5971.610967506012
 21
-940.757588386441
 31
0.0
  0
LINE
  5
3E01
330
1F
100
AcDbEntity
  8
DETAIL
100
AcDbLine
 10
6103.610967506011
 20
-40.75758838644108
 30
0.0
 11
6103.610967506011
 21
-860.7575883864411
 31
0.0
  0
LINE
  5
3E02
330
1F
100
AcDbEntity
  8
DETAIL
100
AcDbLine
 10
6203.610967506011
 20
-40.75758838644108
 30
0.0
 11
6203.610967506011
 21
-860.7575883864411
 31
0.0
  0
LINE
  5
3E03
330
1F
100
AcDbEntity
  8
DETAIL
100
AcDbLine
 10
5871.610967506011
 20
-40.75758838644108
 30
0.0
 11
5871.610967506011
 21
-940.757588386441
 31
0.0
  0
LINE
  5
3E04
330
1F
100
AcDbEntity
  8
DETAIL
100
AcDbLine
 10
5855.61096750601
 20
-40.75758838644108
 30
0.0
 11
5855.61096750601
 21
-940.757588386441
 31
0.0
  0
LINE
  5
3E05
330
1F
100
AcDbEntity
  8
DETAIL
100
AcDbLine
 10
6219.61096750601
 20
-40.75758838644108
 30
0.0
 11
6219.61096750601
 21
-860.7575883864411
 31
0.0
  0
LINE
  5
3E0C
330
1F
100
AcDbEntity
  8
DETAIL
100
AcDbLine
 10
6219.61096750601
 20
-40.75758838644108
 30
0.0
 11
6219.61096750601
 21
-860.7575883864411
 31
0.0
  0
LINE
  5
3E0D
330
1F
100
AcDbEntity
  8
DETAIL
100
AcDbLine
 10
6203.610967506011
 20
-40.75758838644108
 30
0.0
 11
6203.610967506011
 21
-860.7575883864411
 31
0.0
  0
LINE
  5
3E0E
330
1F
100
AcDbEntity
  8
DETAIL
100
AcDbLine
 10
6103.610967506011
 20
-40.75758838644108
 30
0.0
 11
6103.610967506011
 21
-860.7575883864411
 31
0.0
  0
LINE
  5
3E0F
330
1F
100
AcDbEntity
  8
DETAIL
100
AcDbLine
 10
6087.610967506011
 20
-40.75758838644108
 30
0.0
 11
6087.610967506011
 21
-860.7575883864411
 31
0.0
  0
LINE
  5
3E16
330
1F
100
AcDbEntity
  8
DETAIL
100
AcDbLine
 10
6219.61096750601
 20
-40.75758838644108
 30
0.0
 11
6219.61096750601
 21
-940.757588386441
 31
0.0
  0
LINE
  5
3E17
330
1F
100
AcDbEntity
  8
DETAIL
100
AcDbLine
 10
6319.610967506011
 20
-40.75758838644108
 30
0.0
 11
6319.610967506011
 21
-860.7575883864411
 31
0.0
  0
LINE
  5
3E18
330
1F
100
AcDbEntity
  8
DETAIL
100
AcDbLine
 10
6203.610967506011
 20
-40.75758838644108
 30
0.0
 11
6203.610967506012
 21
-940.757588386441
 31
0.0
  0
LINE
  5
3E19
330
1F
100
AcDbEntity
  8
DETAIL
100
AcDbLine
 10
6335.610967506011
 20
-40.75758838644108
 30
0.0
 11
6335.610967506011
 21
-860.7575883864411
 31
0.0
  0
LINE
  5
3E1A
330
1F
100
AcDbEntity
  8
DETAIL
100
AcDbLine
 10
6435.610967506011
 20
-40.75758838644108
 30
0.0
 11
6435.610967506011
 21
-860.7575883864411
 31
0.0
  0
LINE
  5
3E1B
330
1F
100
AcDbEntity
  8
DETAIL
100
AcDbLine
 10
6103.610967506011
 20
-40.75758838644108
 30
0.0
 11
6103.610967506011
 21
-940.757588386441
 31
0.0
  0
LINE
  5
3E1C
330
1F
100
AcDbEntity
  8
DETAIL
100
AcDbLine
 10
6087.610967506011
 20
-40.75758838644108
 30
0.0
 11
6087.610967506011
 21
-940.757588386441
 31
0.0
  0
LINE
  5
3E1D
330
1F
100
AcDbEntity
  8
DETAIL
100
AcDbLine
 10
6451.61096750601
 20
-40.75758838644108
 30
0.0
 11
6451.61096750601
 21
-860.7575883864411
 31
0.0
  0
LINE
  5
3E24
330
1F
100
AcDbEntity
  8
DETAIL
100
AcDbLine
 10
6451.61096750601
 20
-40.75758838644108
 30
0.0
 11
6451.61096750601
 21
-860.7575883864411
 31
0.0
  0
LINE
  5
3E25
330
1F
100
AcDbEntity
  8
DETAIL
100
AcDbLine
 10
6435.610967506011
 20
-40.75758838644108
 30
0.0
 11
6435.610967506011
 21
-860.7575883864411
 31
0.0
  0
LINE
  5
3E26
330
1F
100
AcDbEntity
  8
DETAIL
100
AcDbLine
 10
6335.610967506011
 20
-40.75758838644108
 30
0.0
 11
6335.610967506011
 21
-860.7575883864411
 31
0.0
  0
LINE
  5
3E27
330
1F
100
AcDbEntity
  8
DETAIL
100
AcDbLine
 10
6319.610967506011
 20
-40.75758838644108
 30
0.0
 11
6319.610967506011
 21
-860.7575883864411
 31
0.0
  0
LINE
  5
3E54
330
1F
100
AcDbEntity
  8
DETAIL
100
AcDbLine
 10
6319.610967506011
 20
-40.75758838644108
 30
0.0
 11
6319.610967506011
 21
-860.7575883864411
 31
0.0
  0
LINE
  5
3E55
330
1F
100
AcDbEntity
  8
DETAIL
100
AcDbLine
 10
6335.610967506011
 20
-40.75758838644108
 30
0.0
 11
6335.610967506011
 21
-860.7575883864411
 31
0.0
  0
LINE
  5
3E56
330
1F
100
AcDbEntity
  8
DETAIL
100
AcDbLine
 10
6435.610967506011
 20
-40.75758838644108
 30
0.0
 11
6435.610967506011
 21
-860.7575883864411
 31
0.0
  0
LINE
  5
3E57
330
1F
100
AcDbEntity
  8
DETAIL
100
AcDbLine
 10
6451.61096750601
 20
-40.75758838644108
 30
0.0
 11
6451.61096750601
 21
-860.7575883864411
 31
0.0
  0
LINE
  5
3E58
330
1F
100
AcDbEntity
  8
DETAIL
100
AcDbLine
 10
6451.61096750601
 20
-40.75758838644108
 30
0.0
 11
6451.61096750601
 21
-860.7575883864411
 31
0.0
  0
LINE
  5
3E59
330
1F
100
AcDbEntity
  8
DETAIL
100
AcDbLine
 10
6435.610967506011
 20
-40.75758838644108
 30
0.0
 11
6435.610967506011
 21
-860.7575883864411
 31
0.0
  0
LINE
  5
3E5A
330
1F
100
AcDbEntity
  8
DETAIL
100
AcDbLine
 10
6335.610967506011
 20
-40.75758838644108
 30
0.0
 11
6335.610967506011
 21
-860.7575883864411
 31
0.0
  0
LINE
  5
3E5B
330
1F
100
AcDbEntity
  8
DETAIL
100
AcDbLine
 10
6319.610967506011
 20
-40.75758838644108
 30
0.0
 11
6319.610967506011
 21
-860.7575883864411
 31
0.0
  0
LINE
  5
3E62
330
1F
100
AcDbEntity
  8
DETAIL
100
AcDbLine
 10
6451.61096750601
 20
-40.75758838644108
 30
0.0
 11
6451.610967506012
 21
-940.757588386441
 31
0.0
  0
LINE
  5
3E63
330
1F
100
AcDbEntity
  8
DETAIL
100
AcDbLine
 10
6551.610967506011
 20
-40.75758838644108
 30
0.0
 11
6551.610967506011
 21
-860.7575883864411
 31
0.0
  0
LINE
  5
3E64
330
1F
100
AcDbEntity
  8
DETAIL
100
AcDbLine
 10
6435.610967506011
 20
-40.75758838644108
 30
0.0
 11
6435.610967506011
 21
-940.757588386441
 31
0.0
  0
LINE
  5
3E65
330
1F
100
AcDbEntity
  8
DETAIL
100
AcDbLine
 10
6567.61096750601
 20
-40.75758838644108
 30
0.0
 11
6567.61096750601
 21
-860.7575883864411
 31
0.0
  0
LINE
  5
3E66
330
1F
100
AcDbEntity
  8
DETAIL
100
AcDbLine
 10
6667.610967506011
 20
-40.75758838644107
 30
0.0
 11
6667.610967506011
 21
-860.7575883864411
 31
0.0
  0
LINE
  5
3E67
330
1F
100
AcDbEntity
  8
DETAIL
100
AcDbLine
 10
6335.610967506011
 20
-40.75758838644108
 30
0.0
 11
6335.610967506012
 21
-940.757588386441
 31
0.0
  0
LINE
  5
3E68
330
1F
100
AcDbEntity
  8
DETAIL
100
AcDbLine
 10
6319.610967506011
 20
-40.75758838644108
 30
0.0
 11
6319.610967506012
 21
-940.757588386441
 31
0.0
  0
LINE
  5
3E69
330
1F
100
AcDbEntity
  8
DETAIL
100
AcDbLine
 10
6683.61096750601
 20
-40.75758838644107
 30
0.0
 11
6683.61096750601
 21
-860.7575883864411
 31
0.0
  0
LINE
  5
3E70
330
1F
100
AcDbEntity
  8
DETAIL
100
AcDbLine
 10
6683.61096750601
 20
-40.75758838644107
 30
0.0
 11
6683.61096750601
 21
-860.7575883864411
 31
0.0
  0
LINE
  5
3E71
330
1F
100
AcDbEntity
  8
DETAIL
100
AcDbLine
 10
6667.610967506011
 20
-40.75758838644107
 30
0.0
 11
6667.610967506011
 21
-860.7575883864411
 31
0.0
  0
LINE
  5
3E72
330
1F
100
AcDbEntity
  8
DETAIL
100
AcDbLine
 10
6567.61096750601
 20
-40.75758838644108
 30
0.0
 11
6567.61096750601
 21
-860.7575883864411
 31
0.0
  0
LINE
  5
3E73
330
1F
100
AcDbEntity
  8
DETAIL
100
AcDbLine
 10
6551.610967506011
 20
-40.75758838644108
 30
0.0
 11
6551.610967506011
 21
-860.7575883864411
 31
0.0
  0
LINE
  5
3E7A
330
1F
100
AcDbEntity
  8
DETAIL
100
AcDbLine
 10
6551.610967506011
 20
-40.75758838644108
 30
0.0
 11
6551.610967506011
 21
-860.7575883864411
 31
0.0
  0
LINE
  5
3E7B
330
1F
100
AcDbEntity
  8
DETAIL
100
AcDbLine
 10
6567.61096750601
 20
-40.75758838644108
 30
0.0
 11
6567.61096750601
 21
-860.7575883864411
 31
0.0
  0
LINE
  5
3E7C
330
1F
100
AcDbEntity
  8
DETAIL
100
AcDbLine
 10
6667.610967506011
 20
-40.75758838644107
 30
0.0
 11
6667.610967506011
 21
-860.7575883864411
 31
0.0
  0
LINE
  5
3E7D
330
1F
100
AcDbEntity
  8
DETAIL
100
AcDbLine
 10
6683.61096750601
 20
-40.75758838644107
 30
0.0
 11
6683.61096750601
 21
-860.7575883864411
 31
0.0
  0
LINE
  5
3E7E
330
1F
100
AcDbEntity
  8
DETAIL
100
AcDbLine
 10
6683.61096750601
 20
-40.75758838644107
 30
0.0
 11
6683.61096750601
 21
-860.7575883864411
 31
0.0
  0
LINE
  5
3E7F
330
1F
100
AcDbEntity
  8
DETAIL
100
AcDbLine
 10
6667.610967506011
 20
-40.75758838644107
 30
0.0
 11
6667.610967506011
 21
-860.7575883864411
 31
0.0
  0
LINE
  5
3E80
330
1F
100
AcDbEntity
  8
DETAIL
100
AcDbLine
 10
6567.61096750601
 20
-40.75758838644108
 30
0.0
 11
6567.61096750601
 21
-860.7575883864411
 31
0.0
  0
LINE
  5
3E81
330
1F
100
AcDbEntity
  8
DETAIL
100
AcDbLine
 10
6551.610967506011
 20
-40.75758838644108
 30
0.0
 11
6551.610967506011
 21
-860.7575883864411
 31
0.0
  0
LINE
  5
3E88
330
1F
100
AcDbEntity
  8
DETAIL
100
AcDbLine
 10
6683.61096750601
 20
-40.75758838644107
 30
0.0
 11
6683.610967506012
 21
-940.757588386441
 31
0.0
  0
LINE
  5
3E89
330
1F
100
AcDbEntity
  8
DETAIL
100
AcDbLine
 10
6783.61096750601
 20
-40.75758838644107
 30
0.0
 11
6783.61096750601
 21
-860.7575883864411
 31
0.0
  0
LINE
  5
3E8A
330
1F
100
AcDbEntity
  8
DETAIL
100
AcDbLine
 10
6667.610967506011
 20
-40.75758838644107
 30
0.0
 11
6667.610967506012
 21
-940.757588386441
 31
0.0
  0
LINE
  5
3E8B
330
1F
100
AcDbEntity
  8
DETAIL
100
AcDbLine
 10
6799.610967506011
 20
-40.75758838644107
 30
0.0
 11
6799.610967506011
 21
-860.7575883864411
 31
0.0
  0
LINE
  5
3E8C
330
1F
100
AcDbEntity
  8
DETAIL
100
AcDbLine
 10
6899.610967506011
 20
-40.75758838644107
 30
0.0
 11
6899.610967506011
 21
-860.7575883864411
 31
0.0
  0
LINE
  5
3E8D
330
1F
100
AcDbEntity
  8
DETAIL
100
AcDbLine
 10
6567.61096750601
 20
-40.75758838644108
 30
0.0
 11
6567.610967506012
 21
-940.757588386441
 31
0.0
  0
LINE
  5
3E8E
330
1F
100
AcDbEntity
  8
DETAIL
100
AcDbLine
 10
6551.610967506011
 20
-40.75758838644108
 30
0.0
 11
6551.610967506012
 21
-940.757588386441
 31
0.0
  0
LINE
  5
3E8F
330
1F
100
AcDbEntity
  8
DETAIL
100
AcDbLine
 10
6915.610967506011
 20
-40.75758838644107
 30
0.0
 11
6915.610967506011
 21
-860.7575883864411
 31
0.0
  0
LINE
  5
3E96
330
1F
100
AcDbEntity
  8
DETAIL
100
AcDbLine
 10
6915.610967506011
 20
-40.75758838644107
 30
0.0
 11
6915.610967506011
 21
-860.7575883864411
 31
0.0
  0
LINE
  5
3E97
330
1F
100
AcDbEntity
  8
DETAIL
100
AcDbLine
 10
6899.610967506011
 20
-40.75758838644107
 30
0.0
 11
6899.610967506011
 21
-860.7575883864411
 31
0.0
  0
LINE
  5
3E98
330
1F
100
AcDbEntity
  8
DETAIL
100
AcDbLine
 10
6799.610967506011
 20
-40.75758838644107
 30
0.0
 11
6799.610967506011
 21
-860.7575883864411
 31
0.0
  0
LINE
  5
3E99
330
1F
100
AcDbEntity
  8
DETAIL
100
AcDbLine
 10
6783.61096750601
 20
-40.75758838644107
 30
0.0
 11
6783.61096750601
 21
-860.7575883864411
 31
0.0
  0
LINE
  5
3EA0
330
1F
100
AcDbEntity
  8
DETAIL
100
AcDbLine
 10
6783.61096750601
 20
-40.75758838644107
 30
0.0
 11
6783.61096750601
 21
-860.7575883864411
 31
0.0
  0
LINE
  5
3EA1
330
1F
100
AcDbEntity
  8
DETAIL
100
AcDbLine
 10
6799.610967506011
 20
-40.75758838644107
 30
0.0
 11
6799.610967506011
 21
-860.7575883864411
 31
0.0
  0
LINE
  5
3EA2
330
1F
100
AcDbEntity
  8
DETAIL
100
AcDbLine
 10
6899.610967506011
 20
-40.75758838644107
 30
0.0
 11
6899.610967506011
 21
-860.7575883864411
 31
0.0
  0
LINE
  5
3EA3
330
1F
100
AcDbEntity
  8
DETAIL
100
AcDbLine
 10
6915.610967506011
 20
-40.75758838644107
 30
0.0
 11
6915.610967506011
 21
-860.7575883864411
 31
0.0
  0
LINE
  5
3EA4
330
1F
100
AcDbEntity
  8
DETAIL
100
AcDbLine
 10
6915.610967506011
 20
-40.75758838644107
 30
0.0
 11
6915.610967506011
 21
-860.7575883864411
 31
0.0
  0
LINE
  5
3EA5
330
1F
100
AcDbEntity
  8
DETAIL
100
AcDbLine
 10
6899.610967506011
 20
-40.75758838644107
 30
0.0
 11
6899.610967506011
 21
-860.7575883864411
 31
0.0
  0
LINE
  5
3EA6
330
1F
100
AcDbEntity
  8
DETAIL
100
AcDbLine
 10
6799.610967506011
 20
-40.75758838644107
 30
0.0
 11
6799.610967506011
 21
-860.7575883864411
 31
0.0
  0
LINE
  5
3EA7
330
1F
100
AcDbEntity
  8
DETAIL
100
AcDbLine
 10
6783.61096750601
 20
-40.75758838644107
 30
0.0
 11
6783.61096750601
 21
-860.7575883864411
 31
0.0
  0
LINE
  5
3EAE
330
1F
100
AcDbEntity
  8
DETAIL
100
AcDbLine
 10
6915.610967506011
 20
-40.75758838644107
 30
0.0
 11
6915.610967506012
 21
-940.757588386441
 31
0.0
  0
LINE
  5
3EAF
330
1F
100
AcDbEntity
  8
DETAIL
100
AcDbLine
 10
7015.61096750601
 20
-40.75758838644107
 30
0.0
 11
7015.61096750601
 21
-860.7575883864411
 31
0.0
  0
LINE
  5
3EB0
330
1F
100
AcDbEntity
  8
DETAIL
100
AcDbLine
 10
6899.610967506011
 20
-40.75758838644107
 30
0.0
 11
6899.610967506011
 21
-940.757588386441
 31
0.0
  0
LINE
  5
3EB1
330
1F
100
AcDbEntity
  8
DETAIL
100
AcDbLine
 10
7031.610967506011
 20
-40.75758838644107
 30
0.0
 11
7031.610967506011
 21
-860.7575883864411
 31
0.0
  0
LINE
  5
3EB2
330
1F
100
AcDbEntity
  8
DETAIL
100
AcDbLine
 10
7131.61096750601
 20
-40.75758838644107
 30
0.0
 11
7131.61096750601
 21
-860.7575883864411
 31
0.0
  0
LINE
  5
3EB3
330
1F
100
AcDbEntity
  8
DETAIL
100
AcDbLine
 10
6799.610967506011
 20
-40.75758838644107
 30
0.0
 11
6799.610967506011
 21
-940.757588386441
 31
0.0
  0
LINE
  5
3EB4
330
1F
100
AcDbEntity
  8
DETAIL
100
AcDbLine
 10
6783.61096750601
 20
-40.75758838644107
 30
0.0
 11
6783.61096750601
 21
-940.757588386441
 31
0.0
  0
LINE
  5
3EB5
330
1F
100
AcDbEntity
  8
DETAIL
100
AcDbLine
 10
7147.61096750601
 20
-40.75758838644107
 30
0.0
 11
7147.61096750601
 21
-860.7575883864411
 31
0.0
  0
LINE
  5
3EBC
330
1F
100
AcDbEntity
  8
DETAIL
100
AcDbLine
 10
7147.61096750601
 20
-40.75758838644107
 30
0.0
 11
7147.61096750601
 21
-860.7575883864411
 31
0.0
  0
LINE
  5
3EBD
330
1F
100
AcDbEntity
  8
DETAIL
100
AcDbLine
 10
7131.61096750601
 20
-40.75758838644107
 30
0.0
 11
7131.61096750601
 21
-860.7575883864411
 31
0.0
  0
LINE
  5
3EBE
330
1F
100
AcDbEntity
  8
DETAIL
100
AcDbLine
 10
7031.610967506011
 20
-40.75758838644107
 30
0.0
 11
7031.610967506011
 21
-860.7575883864411
 31
0.0
  0
LINE
  5
3EBF
330
1F
100
AcDbEntity
  8
DETAIL
100
AcDbLine
 10
7015.61096750601
 20
-40.75758838644107
 30
0.0
 11
7015.61096750601
 21
-860.7575883864411
 31
0.0
  0
LINE
  5
3EC6
330
1F
100
AcDbEntity
  8
DETAIL
100
AcDbLine
 10
7015.61096750601
 20
-40.75758838644107
 30
0.0
 11
7015.61096750601
 21
-860.7575883864411
 31
0.0
  0
LINE
  5
3EC7
330
1F
100
AcDbEntity
  8
DETAIL
100
AcDbLine
 10
7031.610967506011
 20
-40.75758838644107
 30
0.0
 11
7031.610967506011
 21
-860.7575883864411
 31
0.0
  0
LINE
  5
3EC8
330
1F
100
AcDbEntity
  8
DETAIL
100
AcDbLine
 10
7131.61096750601
 20
-40.75758838644107
 30
0.0
 11
7131.61096750601
 21
-860.7575883864411
 31
0.0
  0
LINE
  5
3EC9
330
1F
100
AcDbEntity
  8
DETAIL
100
AcDbLine
 10
7147.61096750601
 20
-40.75758838644107
 30
0.0
 11
7147.61096750601
 21
-860.7575883864411
 31
0.0
  0
LINE
  5
3ECA
330
1F
100
AcDbEntity
  8
DETAIL
100
AcDbLine
 10
7147.61096750601
 20
-40.75758838644107
 30
0.0
 11
7147.61096750601
 21
-860.7575883864411
 31
0.0
  0
LINE
  5
3ECB
330
1F
100
AcDbEntity
  8
DETAIL
100
AcDbLine
 10
7131.61096750601
 20
-40.75758838644107
 30
0.0
 11
7131.61096750601
 21
-860.7575883864411
 31
0.0
  0
LINE
  5
3ECC
330
1F
100
AcDbEntity
  8
DETAIL
100
AcDbLine
 10
7031.610967506011
 20
-40.75758838644107
 30
0.0
 11
7031.610967506011
 21
-860.7575883864411
 31
0.0
  0
LINE
  5
3ECD
330
1F
100
AcDbEntity
  8
DETAIL
100
AcDbLine
 10
7015.61096750601
 20
-40.75758838644107
 30
0.0
 11
7015.61096750601
 21
-860.7575883864411
 31
0.0
  0
LINE
  5
3ED4
330
1F
100
AcDbEntity
  8
DETAIL
100
AcDbLine
 10
7147.61096750601
 20
-40.75758838644107
 30
0.0
 11
7147.61096750601
 21
-940.757588386441
 31
0.0
  0
LINE
  5
3ED5
330
1F
100
AcDbEntity
  8
DETAIL
100
AcDbLine
 10
7247.61096750601
 20
-40.75758838644107
 30
0.0
 11
7247.61096750601
 21
-860.7575883864411
 31
0.0
  0
LINE
  5
3ED6
330
1F
100
AcDbEntity
  8
DETAIL
100
AcDbLine
 10
7131.61096750601
 20
-40.75758838644107
 30
0.0
 11
7131.610967506012
 21
-940.757588386441
 31
0.0
  0
LINE
  5
3ED7
330
1F
100
AcDbEntity
  8
DETAIL
100
AcDbLine
 10
7263.610967506011
 20
-40.75758838644107
 30
0.0
 11
7263.610967506011
 21
-860.7575883864411
 31
0.0
  0
LINE
  5
3ED8
330
1F
100
AcDbEntity
  8
DETAIL
100
AcDbLine
 10
7363.610967506011
 20
-40.75758838644106
 30
0.0
 11
7363.610967506011
 21
-860.7575883864411
 31
0.0
  0
LINE
  5
3ED9
330
1F
100
AcDbEntity
  8
DETAIL
100
AcDbLine
 10
7031.610967506011
 20
-40.75758838644107
 30
0.0
 11
7031.610967506011
 21
-940.757588386441
 31
0.0
  0
LINE
  5
3EDA
330
1F
100
AcDbEntity
  8
DETAIL
100
AcDbLine
 10
7015.61096750601
 20
-40.75758838644107
 30
0.0
 11
7015.610967506012
 21
-940.757588386441
 31
0.0
  0
LINE
  5
3EDB
330
1F
100
AcDbEntity
  8
DETAIL
100
AcDbLine
 10
7379.610967506009
 20
-40.75758838644106
 30
0.0
 11
7379.610967506009
 21
-860.7575883864411
 31
0.0
  0
LINE
  5
3EE2
330
1F
100
AcDbEntity
  8
DETAIL
100
AcDbLine
 10
7379.610967506009
 20
-40.75758838644106
 30
0.0
 11
7379.610967506009
 21
-860.7575883864411
 31
0.0
  0
LINE
  5
3EE3
330
1F
100
AcDbEntity
  8
DETAIL
100
AcDbLine
 10
7363.610967506011
 20
-40.75758838644106
 30
0.0
 11
7363.610967506011
 21
-860.7575883864411
 31
0.0
  0
LINE
  5
3EE4
330
1F
100
AcDbEntity
  8
DETAIL
100
AcDbLine
 10
7263.610967506011
 20
-40.75758838644107
 30
0.0
 11
7263.610967506011
 21
-860.7575883864411
 31
0.0
  0
LINE
  5
3EE5
330
1F
100
AcDbEntity
  8
DETAIL
100
AcDbLine
 10
7247.61096750601
 20
-40.75758838644107
 30
0.0
 11
7247.61096750601
 21
-860.7575883864411
 31
0.0
  0
LINE
  5
3EEC
330
1F
100
AcDbEntity
  8
DETAIL
100
AcDbLine
 10
7247.61096750601
 20
-40.75758838644107
 30
0.0
 11
7247.61096750601
 21
-860.7575883864411
 31
0.0
  0
LINE
  5
3EED
330
1F
100
AcDbEntity
  8
DETAIL
100
AcDbLine
 10
7263.610967506011
 20
-40.75758838644107
 30
0.0
 11
7263.610967506011
 21
-860.7575883864411
 31
0.0
  0
LINE
  5
3EEE
330
1F
100
AcDbEntity
  8
DETAIL
100
AcDbLine
 10
7363.610967506011
 20
-40.75758838644106
 30
0.0
 11
7363.610967506011
 21
-860.7575883864411
 31
0.0
  0
LINE
  5
3EEF
330
1F
100
AcDbEntity
  8
DETAIL
100
AcDbLine
 10
7379.610967506009
 20
-40.75758838644106
 30
0.0
 11
7379.610967506009
 21
-860.7575883864411
 31
0.0
  0
LINE
  5
3EF0
330
1F
100
AcDbEntity
  8
DETAIL
100
AcDbLine
 10
7379.610967506009
 20
-40.75758838644106
 30
0.0
 11
7379.610967506009
 21
-860.7575883864411
 31
0.0
  0
LINE
  5
3EF1
330
1F
100
AcDbEntity
  8
DETAIL
100
AcDbLine
 10
7363.610967506011
 20
-40.75758838644106
 30
0.0
 11
7363.610967506011
 21
-860.7575883864411
 31
0.0
  0
LINE
  5
3EF2
330
1F
100
AcDbEntity
  8
DETAIL
100
AcDbLine
 10
7263.610967506011
 20
-40.75758838644107
 30
0.0
 11
7263.610967506011
 21
-860.7575883864411
 31
0.0
  0
LINE
  5
3EF3
330
1F
100
AcDbEntity
  8
DETAIL
100
AcDbLine
 10
7247.61096750601
 20
-40.75758838644107
 30
0.0
 11
7247.61096750601
 21
-860.7575883864411
 31
0.0
  0
LINE
  5
3EFA
330
1F
100
AcDbEntity
  8
DETAIL
100
AcDbLine
 10
7379.610967506009
 20
-40.75758838644106
 30
0.0
 11
7379.610967506012
 21
-940.757588386441
 31
0.0
  0
LINE
  5
3EFB
330
1F
100
AcDbEntity
  8
DETAIL
100
AcDbLine
 10
7479.610967506011
 20
-40.75758838644106
 30
0.0
 11
7479.610967506011
 21
-860.7575883864411
 31
0.0
  0
LINE
  5
3EFC
330
1F
100
AcDbEntity
  8
DETAIL
100
AcDbLine
 10
7363.610967506011
 20
-40.75758838644106
 30
0.0
 11
7363.610967506011
 21
-940.757588386441
 31
0.0
  0
LINE
  5
3EFD
330
1F
100
AcDbEntity
  8
DETAIL
100
AcDbLine
 10
7495.61096750601
 20
-40.75758838644106
 30
0.0
 11
7495.61096750601
 21
-860.7575883864411
 31
0.0
  0
LINE
  5
3EFE
330
1F
100
AcDbEntity
  8
DETAIL
100
AcDbLine
 10
7595.610967506011
 20
-40.75758838644106
 30
0.0
 11
7595.610967506011
 21
-860.7575883864411
 31
0.0
  0
LINE
  5
3EFF
330
1F
100
AcDbEntity
  8
DETAIL
100
AcDbLine
 10
7263.610967506011
 20
-40.75758838644107
 30
0.0
 11
7263.610967506011
 21
-940.757588386441
 31
0.0
  0
LINE
  5
3F00
330
1F
100
AcDbEntity
  8
DETAIL
100
AcDbLine
 10
7247.61096750601
 20
-40.75758838644107
 30
0.0
 11
7247.610967506012
 21
-940.757588386441
 31
0.0
  0
LINE
  5
3F01
330
1F
100
AcDbEntity
  8
DETAIL
100
AcDbLine
 10
7611.61096750601
 20
-40.75758838644106
 30
0.0
 11
7611.61096750601
 21
-860.7575883864411
 31
0.0
  0
LINE
  5
3F08
330
1F
100
AcDbEntity
  8
DETAIL
100
AcDbLine
 10
7611.61096750601
 20
-40.75758838644106
 30
0.0
 11
7611.61096750601
 21
-860.7575883864411
 31
0.0
  0
LINE
  5
3F09
330
1F
100
AcDbEntity
  8
DETAIL
100
AcDbLine
 10
7595.610967506011
 20
-40.75758838644106
 30
0.0
 11
7595.610967506011
 21
-860.7575883864411
 31
0.0
  0
LINE
  5
3F0A
330
1F
100
AcDbEntity
  8
DETAIL
100
AcDbLine
 10
7495.61096750601
 20
-40.75758838644106
 30
0.0
 11
7495.61096750601
 21
-860.7575883864411
 31
0.0
  0
LINE
  5
3F0B
330
1F
100
AcDbEntity
  8
DETAIL
100
AcDbLine
 10
7479.610967506011
 20
-40.75758838644106
 30
0.0
 11
7479.610967506011
 21
-860.7575883864411
 31
0.0
  0
LINE
  5
3F12
330
1F
100
AcDbEntity
  8
DETAIL
100
AcDbLine
 10
7479.610967506011
 20
-40.75758838644106
 30
0.0
 11
7479.610967506011
 21
-860.7575883864411
 31
0.0
  0
LINE
  5
3F13
330
1F
100
AcDbEntity
  8
DETAIL
100
AcDbLine
 10
7495.61096750601
 20
-40.75758838644106
 30
0.0
 11
7495.61096750601
 21
-860.7575883864411
 31
0.0
  0
LINE
  5
3F14
330
1F
100
AcDbEntity
  8
DETAIL
100
AcDbLine
 10
7595.610967506011
 20
-40.75758838644106
 30
0.0
 11
7595.610967506011
 21
-860.7575883864411
 31
0.0
  0
LINE
  5
3F15
330
1F
100
AcDbEntity
  8
DETAIL
100
AcDbLine
 10
7611.61096750601
 20
-40.75758838644106
 30
0.0
 11
7611.61096750601
 21
-860.7575883864411
 31
0.0
  0
LINE
  5
3F16
330
1F
100
AcDbEntity
  8
DETAIL
100
AcDbLine
 10
7611.61096750601
 20
-40.75758838644106
 30
0.0
 11
7611.61096750601
 21
-860.7575883864411
 31
0.0
  0
LINE
  5
3F17
330
1F
100
AcDbEntity
  8
DETAIL
100
AcDbLine
 10
7595.610967506011
 20
-40.75758838644106
 30
0.0
 11
7595.610967506011
 21
-860.7575883864411
 31
0.0
  0
LINE
  5
3F18
330
1F
100
AcDbEntity
  8
DETAIL
100
AcDbLine
 10
7495.61096750601
 20
-40.75758838644106
 30
0.0
 11
7495.61096750601
 21
-860.7575883864411
 31
0.0
  0
LINE
  5
3F19
330
1F
100
AcDbEntity
  8
DETAIL
100
AcDbLine
 10
7479.610967506011
 20
-40.75758838644106
 30
0.0
 11
7479.610967506011
 21
-860.7575883864411
 31
0.0
  0
LINE
  5
3F20
330
1F
100
AcDbEntity
  8
DETAIL
100
AcDbLine
 10
7611.61096750601
 20
-40.75758838644106
 30
0.0
 11
7611.61096750601
 21
-940.757588386441
 31
0.0
  0
LINE
  5
3F21
330
1F
100
AcDbEntity
  8
DETAIL
100
AcDbLine
 10
7711.61096750601
 20
-40.75758838644106
 30
0.0
 11
7711.61096750601
 21
-860.7575883864411
 31
0.0
  0
LINE
  5
3F22
330
1F
100
AcDbEntity
  8
DETAIL
100
AcDbLine
 10
7595.610967506011
 20
-40.75758838644106
 30
0.0
 11
7595.610967506011
 21
-940.757588386441
 31
0.0
  0
LINE
  5
3F23
330
1F
100
AcDbEntity
  8
DETAIL
100
AcDbLine
 10
7727.610967506011
 20
-40.75758838644106
 30
0.0
 11
7727.610967506011
 21
-860.7575883864411
 31
0.0
  0
LINE
  5
3F24
330
1F
100
AcDbEntity
  8
DETAIL
100
AcDbLine
 10
7827.610967506011
 20
-40.75758838644106
 30
0.0
 11
7827.610967506011
 21
-860.7575883864411
 31
0.0
  0
LINE
  5
3F25
330
1F
100
AcDbEntity
  8
DETAIL
100
AcDbLine
 10
7495.61096750601
 20
-40.75758838644106
 30
0.0
 11
7495.610967506012
 21
-940.757588386441
 31
0.0
  0
LINE
  5
3F26
330
1F
100
AcDbEntity
  8
DETAIL
100
AcDbLine
 10
7479.610967506011
 20
-40.75758838644106
 30
0.0
 11
7479.610967506012
 21
-940.757588386441
 31
0.0
  0
LINE
  5
3F27
330
1F
100
AcDbEntity
  8
DETAIL
100
AcDbLine
 10
7843.610967506011
 20
-40.75758838644106
 30
0.0
 11
7843.610967506011
 21
-860.7575883864411
 31
0.0
  0
LINE
  5
3F2E
330
1F
100
AcDbEntity
  8
DETAIL
100
AcDbLine
 10
7843.610967506011
 20
-40.75758838644106
 30
0.0
 11
7843.610967506011
 21
-860.7575883864411
 31
0.0
  0
LINE
  5
3F2F
330
1F
100
AcDbEntity
  8
DETAIL
100
AcDbLine
 10
7827.610967506011
 20
-40.75758838644106
 30
0.0
 11
7827.610967506011
 21
-860.7575883864411
 31
0.0
  0
LINE
  5
3F30
330
1F
100
AcDbEntity
  8
DETAIL
100
AcDbLine
 10
7727.610967506011
 20
-40.75758838644106
 30
0.0
 11
7727.610967506011
 21
-860.7575883864411
 31
0.0
  0
LINE
  5
3F31
330
1F
100
AcDbEntity
  8
DETAIL
100
AcDbLine
 10
7711.61096750601
 20
-40.75758838644106
 30
0.0
 11
7711.61096750601
 21
-860.7575883864411
 31
0.0
  0
LINE
  5
3F38
330
1F
100
AcDbEntity
  8
DETAIL
100
AcDbLine
 10
7711.61096750601
 20
-40.75758838644106
 30
0.0
 11
7711.61096750601
 21
-860.7575883864411
 31
0.0
  0
LINE
  5
3F39
330
1F
100
AcDbEntity
  8
DETAIL
100
AcDbLine
 10
7727.610967506011
 20
-40.75758838644106
 30
0.0
 11
7727.610967506011
 21
-860.7575883864411
 31
0.0
  0
LINE
  5
3F3A
330
1F
100
AcDbEntity
  8
DETAIL
100
AcDbLine
 10
7827.610967506011
 20
-40.75758838644106
 30
0.0
 11
7827.610967506011
 21
-860.7575883864411
 31
0.0
  0
LINE
  5
3F3B
330
1F
100
AcDbEntity
  8
DETAIL
100
AcDbLine
 10
7843.610967506011
 20
-40.75758838644106
 30
0.0
 11
7843.610967506011
 21
-860.7575883864411
 31
0.0
  0
LINE
  5
3F3C
330
1F
100
AcDbEntity
  8
DETAIL
100
AcDbLine
 10
7843.610967506011
 20
-40.75758838644106
 30
0.0
 11
7843.610967506011
 21
-860.7575883864411
 31
0.0
  0
LINE
  5
3F3D
330
1F
100
AcDbEntity
  8
DETAIL
100
AcDbLine
 10
7827.610967506011
 20
-40.75758838644106
 30
0.0
 11
7827.610967506011
 21
-860.7575883864411
 31
0.0
  0
LINE
  5
3F3E
330
1F
100
AcDbEntity
  8
DETAIL
100
AcDbLine
 10
7727.610967506011
 20
-40.75758838644106
 30
0.0
 11
7727.610967506011
 21
-860.7575883864411
 31
0.0
  0
LINE
  5
3F3F
330
1F
100
AcDbEntity
  8
DETAIL
100
AcDbLine
 10
7711.61096750601
 20
-40.75758838644106
 30
0.0
 11
7711.61096750601
 21
-860.7575883864411
 31
0.0
  0
LINE
  5
3F46
330
1F
100
AcDbEntity
  8
DETAIL
100
AcDbLine
 10
7843.610967506011
 20
-40.75758838644106
 30
0.0
 11
7843.610967506009
 21
-940.757588386441
 31
0.0
  0
LINE
  5
3F47
330
1F
100
AcDbEntity
  8
DETAIL
100
AcDbLine
 10
7943.61096750601
 20
-40.75758838644104
 30
0.0
 11
7943.61096750601
 21
-860.7575883864411
 31
0.0
  0
LINE
  5
3F48
330
1F
100
AcDbEntity
  8
DETAIL
100
AcDbLine
 10
7827.610967506011
 20
-40.75758838644106
 30
0.0
 11
7827.610967506008
 21
-940.757588386441
 31
0.0
  0
LINE
  5
3F49
330
1F
100
AcDbEntity
  8
DETAIL
100
AcDbLine
 10
7959.61096750601
 20
-40.75758838644104
 30
0.0
 11
7959.61096750601
 21
-860.7575883864411
 31
0.0
  0
LINE
  5
3F4A
330
1F
100
AcDbEntity
  8
DETAIL
100
AcDbLine
 10
8059.61096750601
 20
-40.75758838644104
 30
0.0
 11
8059.61096750601
 21
-860.7575883864411
 31
0.0
  0
LINE
  5
3F4B
330
1F
100
AcDbEntity
  8
DETAIL
100
AcDbLine
 10
7727.610967506011
 20
-40.75758838644106
 30
0.0
 11
7727.610967506009
 21
-940.757588386441
 31
0.0
  0
LINE
  5
3F4C
330
1F
100
AcDbEntity
  8
DETAIL
100
AcDbLine
 10
7711.61096750601
 20
-40.75758838644106
 30
0.0
 11
7711.61096750601
 21
-940.757588386441
 31
0.0
  0
LINE
  5
3F4D
330
1F
100
AcDbEntity
  8
DETAIL
100
AcDbLine
 10
8075.61096750601
 20
-40.75758838644104
 30
0.0
 11
8075.61096750601
 21
-860.7575883864411
 31
0.0
  0
LINE
  5
3F54
330
1F
100
AcDbEntity
  8
DETAIL
100
AcDbLine
 10
8075.61096750601
 20
-40.75758838644104
 30
0.0
 11
8075.61096750601
 21
-860.7575883864411
 31
0.0
  0
LINE
  5
3F55
330
1F
100
AcDbEntity
  8
DETAIL
100
AcDbLine
 10
8059.61096750601
 20
-40.75758838644104
 30
0.0
 11
8059.61096750601
 21
-860.7575883864411
 31
0.0
  0
LINE
  5
3F56
330
1F
100
AcDbEntity
  8
DETAIL
100
AcDbLine
 10
7959.61096750601
 20
-40.75758838644104
 30
0.0
 11
7959.61096750601
 21
-860.7575883864411
 31
0.0
  0
LINE
  5
3F57
330
1F
100
AcDbEntity
  8
DETAIL
100
AcDbLine
 10
7943.61096750601
 20
-40.75758838644104
 30
0.0
 11
7943.61096750601
 21
-860.7575883864411
 31
0.0
  0
LINE
  5
3F5E
330
1F
100
AcDbEntity
  8
DETAIL
100
AcDbLine
 10
7943.61096750601
 20
-40.75758838644104
 30
0.0
 11
7943.61096750601
 21
-860.7575883864411
 31
0.0
  0
LINE
  5
3F5F
330
1F
100
AcDbEntity
  8
DETAIL
100
AcDbLine
 10
7959.61096750601
 20
-40.75758838644104
 30
0.0
 11
7959.61096750601
 21
-860.7575883864411
 31
0.0
  0
LINE
  5
3F60
330
1F
100
AcDbEntity
  8
DETAIL
100
AcDbLine
 10
8059.61096750601
 20
-40.75758838644104
 30
0.0
 11
8059.61096750601
 21
-860.7575883864411
 31
0.0
  0
LINE
  5
3F61
330
1F
100
AcDbEntity
  8
DETAIL
100
AcDbLine
 10
8075.61096750601
 20
-40.75758838644104
 30
0.0
 11
8075.61096750601
 21
-860.7575883864411
 31
0.0
  0
LINE
  5
3F62
330
1F
100
AcDbEntity
  8
DETAIL
100
AcDbLine
 10
8075.61096750601
 20
-40.75758838644104
 30
0.0
 11
8075.61096750601
 21
-860.7575883864411
 31
0.0
  0
LINE
  5
3F63
330
1F
100
AcDbEntity
  8
DETAIL
100
AcDbLine
 10
8059.61096750601
 20
-40.75758838644104
 30
0.0
 11
8059.61096750601
 21
-860.7575883864411
 31
0.0
  0
LINE
  5
3F64
330
1F
100
AcDbEntity
  8
DETAIL
100
AcDbLine
 10
7959.61096750601
 20
-40.75758838644104
 30
0.0
 11
7959.61096750601
 21
-860.7575883864411
 31
0.0
  0
LINE
  5
3F65
330
1F
100
AcDbEntity
  8
DETAIL
100
AcDbLine
 10
7943.61096750601
 20
-40.75758838644104
 30
0.0
 11
7943.61096750601
 21
-860.7575883864411
 31
0.0
  0
LINE
  5
3F6C
330
1F
100
AcDbEntity
  8
DETAIL
100
AcDbLine
 10
8075.61096750601
 20
-40.75758838644104
 30
0.0
 11
8075.610967506007
 21
-940.757588386441
 31
0.0
  0
LINE
  5
3F6D
330
1F
100
AcDbEntity
  8
DETAIL
100
AcDbLine
 10
8175.61096750601
 20
-40.75758838644104
 30
0.0
 11
8175.61096750601
 21
-860.7575883864411
 31
0.0
  0
LINE
  5
3F6E
330
1F
100
AcDbEntity
  8
DETAIL
100
AcDbLine
 10
8059.61096750601
 20
-40.75758838644104
 30
0.0
 11
8059.610967506008
 21
-940.757588386441
 31
0.0
  0
LINE
  5
3F6F
330
1F
100
AcDbEntity
  8
DETAIL
100
AcDbLine
 10
8191.610967506012
 20
-40.75758838644104
 30
0.0
 11
8191.610967506012
 21
-860.7575883864411
 31
0.0
  0
LINE
  5
3F70
330
1F
100
AcDbEntity
  8
DETAIL
100
AcDbLine
 10
8291.610967506011
 20
-40.75758838644104
 30
0.0
 11
8291.610967506011
 21
-860.7575883864411
 31
0.0
  0
LINE
  5
3F71
330
1F
100
AcDbEntity
  8
DETAIL
100
AcDbLine
 10
7959.61096750601
 20
-40.75758838644104
 30
0.0
 11
7959.61096750601
 21
-940.757588386441
 31
0.0
  0
LINE
  5
3F72
330
1F
100
AcDbEntity
  8
DETAIL
100
AcDbLine
 10
7943.61096750601
 20
-40.75758838644104
 30
0.0
 11
7943.61096750601
 21
-940.757588386441
 31
0.0
  0
LINE
  5
3F73
330
1F
100
AcDbEntity
  8
DETAIL
100
AcDbLine
 10
8307.610967506011
 20
-40.75758838644104
 30
0.0
 11
8307.610967506011
 21
-860.7575883864411
 31
0.0
  0
LINE
  5
3F7A
330
1F
100
AcDbEntity
  8
DETAIL
100
AcDbLine
 10
8307.610967506011
 20
-40.75758838644104
 30
0.0
 11
8307.610967506011
 21
-860.7575883864411
 31
0.0
  0
LINE
  5
3F7B
330
1F
100
AcDbEntity
  8
DETAIL
100
AcDbLine
 10
8291.610967506011
 20
-40.75758838644104
 30
0.0
 11
8291.610967506011
 21
-860.7575883864411
 31
0.0
  0
LINE
  5
3F7C
330
1F
100
AcDbEntity
  8
DETAIL
100
AcDbLine
 10
8191.610967506012
 20
-40.75758838644104
 30
0.0
 11
8191.610967506012
 21
-860.7575883864411
 31
0.0
  0
LINE
  5
3F7D
330
1F
100
AcDbEntity
  8
DETAIL
100
AcDbLine
 10
8175.61096750601
 20
-40.75758838644104
 30
0.0
 11
8175.61096750601
 21
-860.7575883864411
 31
0.0
  0
LINE
  5
3F84
330
1F
100
AcDbEntity
  8
DETAIL
100
AcDbLine
 10
8175.610967506008
 20
-40.75758838644104
 30
0.0
 11
8175.610967506008
 21
-860.7575883864411
 31
0.0
  0
LINE
  5
3F85
330
1F
100
AcDbEntity
  8
DETAIL
100
AcDbLine
 10
8191.610967506008
 20
-40.75758838644104
 30
0.0
 11
8191.610967506008
 21
-860.7575883864411
 31
0.0
  0
LINE
  5
3F86
330
1F
100
AcDbEntity
  8
DETAIL
100
AcDbLine
 10
8291.610967506008
 20
-40.75758838644104
 30
0.0
 11
8291.610967506008
 21
-860.7575883864411
 31
0.0
  0
LINE
  5
3F87
330
1F
100
AcDbEntity
  8
DETAIL
100
AcDbLine
 10
8307.610967506009
 20
-40.75758838644104
 30
0.0
 11
8307.610967506009
 21
-860.7575883864411
 31
0.0
  0
LINE
  5
3F88
330
1F
100
AcDbEntity
  8
DETAIL
100
AcDbLine
 10
8307.610967506009
 20
-40.75758838644104
 30
0.0
 11
8307.610967506009
 21
-860.7575883864411
 31
0.0
  0
LINE
  5
3F89
330
1F
100
AcDbEntity
  8
DETAIL
100
AcDbLine
 10
8291.610967506008
 20
-40.75758838644104
 30
0.0
 11
8291.610967506008
 21
-860.7575883864411
 31
0.0
  0
LINE
  5
3F8A
330
1F
100
AcDbEntity
  8
DETAIL
100
AcDbLine
 10
8191.610967506008
 20
-40.75758838644104
 30
0.0
 11
8191.610967506008
 21
-860.7575883864411
 31
0.0
  0
LINE
  5
3F8B
330
1F
100
AcDbEntity
  8
DETAIL
100
AcDbLine
 10
8175.610967506008
 20
-40.75758838644104
 30
0.0
 11
8175.610967506008
 21
-860.7575883864411
 31
0.0
  0
LINE
  5
3F92
330
1F
100
AcDbEntity
  8
DETAIL
100
AcDbLine
 10
8307.610967506009
 20
-40.75758838644104
 30
0.0
 11
8307.610967506009
 21
-940.757588386441
 31
0.0
  0
LINE
  5
3F94
330
1F
100
AcDbEntity
  8
DETAIL
100
AcDbLine
 10
8291.610967506008
 20
-40.75758838644104
 30
0.0
 11
8291.610967506008
 21
-940.757588386441
 31
0.0
  0
LINE
  5
3F97
330
1F
100
AcDbEntity
  8
DETAIL
100
AcDbLine
 10
8191.610967506008
 20
-40.75758838644104
 30
0.0
 11
8191.610967506008
 21
-940.757588386441
 31
0.0
  0
LINE
  5
3F98
330
1F
100
AcDbEntity
  8
DETAIL
100
AcDbLine
 10
8175.610967506008
 20
-40.75758838644104
 30
0.0
 11
8175.610967506008
 21
-940.757588386441
 31
0.0
  0
LINE
  5
3FD6
330
1F
100
AcDbEntity
  8
APPLICATION
100
AcDbLine
 10
5855.61096750601
 20
-1050.757588386441
 30
0.0
 11
5871.610967506011
 21
-1050.757588386441
 31
0.0
  0
LINE
  5
3FD7
330
1F
100
AcDbEntity
  8
APPLICATION
100
AcDbLine
 10
5971.610967506011
 20
-1050.757588386441
 30
0.0
 11
5987.610967506011
 21
-1050.757588386441
 31
0.0
  0
LINE
  5
3FD8
330
1F
100
AcDbEntity
  8
APPLICATION
100
AcDbLine
 10
6087.610967506011
 20
-1050.757588386441
 30
0.0
 11
6103.610967506011
 21
-1050.757588386441
 31
0.0
  0
LINE
  5
3FD9
330
1F
100
AcDbEntity
  8
APPLICATION
100
AcDbLine
 10
6203.610967506011
 20
-1050.757588386441
 30
0.0
 11
6219.61096750601
 21
-1050.757588386441
 31
0.0
  0
LINE
  5
3FDA
330
1F
100
AcDbEntity
  8
APPLICATION
100
AcDbLine
 10
6319.610967506011
 20
-1050.757588386441
 30
0.0
 11
6335.610967506011
 21
-1050.757588386441
 31
0.0
  0
LINE
  5
3FDB
330
1F
100
AcDbEntity
  8
APPLICATION
100
AcDbLine
 10
6435.610967506011
 20
-1050.757588386441
 30
0.0
 11
6451.61096750601
 21
-1050.757588386441
 31
0.0
  0
LINE
  5
3FDC
330
1F
100
AcDbEntity
  8
APPLICATION
100
AcDbLine
 10
6551.610967506011
 20
-1050.757588386441
 30
0.0
 11
6567.61096750601
 21
-1050.757588386441
 31
0.0
  0
LINE
  5
3FDD
330
1F
100
AcDbEntity
  8
APPLICATION
100
AcDbLine
 10
6667.610967506011
 20
-1050.757588386441
 30
0.0
 11
6683.610967506012
 21
-1050.757588386441
 31
0.0
  0
LINE
  5
3FDE
330
1F
100
AcDbEntity
  8
APPLICATION
100
AcDbLine
 10
6783.61096750601
 20
-1050.757588386441
 30
0.0
 11
6799.610967506011
 21
-1050.757588386441
 31
0.0
  0
LINE
  5
3FDF
330
1F
100
AcDbEntity
  8
APPLICATION
100
AcDbLine
 10
6899.610967506011
 20
-1050.757588386441
 30
0.0
 11
6915.610967506011
 21
-1050.757588386441
 31
0.0
  0
LINE
  5
3FE0
330
1F
100
AcDbEntity
  8
APPLICATION
100
AcDbLine
 10
7015.61096750601
 20
-1050.757588386441
 30
0.0
 11
7031.610967506011
 21
-1050.757588386441
 31
0.0
  0
LINE
  5
3FE1
330
1F
100
AcDbEntity
  8
APPLICATION
100
AcDbLine
 10
7131.61096750601
 20
-1050.757588386441
 30
0.0
 11
7147.61096750601
 21
-1050.757588386441
 31
0.0
  0
LINE
  5
3FE2
330
1F
100
AcDbEntity
  8
APPLICATION
100
AcDbLine
 10
7247.61096750601
 20
-1050.757588386441
 30
0.0
 11
7263.610967506011
 21
-1050.757588386441
 31
0.0
  0
LINE
  5
3FE3
330
1F
100
AcDbEntity
  8
APPLICATION
100
AcDbLine
 10
7363.610967506011
 20
-1050.757588386441
 30
0.0
 11
7379.610967506012
 21
-1050.757588386441
 31
0.0
  0
LINE
  5
3FE4
330
1F
100
AcDbEntity
  8
APPLICATION
100
AcDbLine
 10
7479.610967506012
 20
-1050.757588386441
 30
0.0
 11
7495.61096750601
 21
-1050.757588386441
 31
0.0
  0
LINE
  5
3FE5
330
1F
100
AcDbEntity
  8
APPLICATION
100
AcDbLine
 10
7595.610967506011
 20
-1050.757588386441
 30
0.0
 11
7611.61096750601
 21
-1050.757588386441
 31
0.0
  0
LINE
  5
3FE6
330
1F
100
AcDbEntity
  8
APPLICATION
100
AcDbLine
 10
7711.61096750601
 20
-1050.757588386441
 30
0.0
 11
7727.610967506009
 21
-1050.757588386441
 31
0.0
  0
LINE
  5
3FE7
330
1F
100
AcDbEntity
  8
APPLICATION
100
AcDbLine
 10
7827.61096750601
 20
-1050.757588386441
 30
0.0
 11
7843.610967506009
 21
-1050.757588386441
 31
0.0
  0
LINE
  5
3FE8
330
1F
100
AcDbEntity
  8
APPLICATION
100
AcDbLine
 10
7943.61096750601
 20
-1050.757588386441
 30
0.0
 11
7959.61096750601
 21
-1050.757588386441
 31
0.0
  0
LINE
  5
3FE9
330
1F
100
AcDbEntity
  8
APPLICATION
100
AcDbLine
 10
8059.61096750601
 20
-1050.757588386441
 30
0.0
 11
8075.610967506007
 21
-1050.757588386441
 31
0.0
  0
LINE
  5
3FEA
330
1F
100
AcDbEntity
  8
APPLICATION
100
AcDbLine
 10
8175.610967506008
 20
-1050.757588386441
 30
0.0
 11
8191.610967506008
 21
-1050.757588386441
 31
0.0
  0
LINE
  5
3FEB
330
1F
100
AcDbEntity
  8
APPLICATION
100
AcDbLine
 10
8291.610967506008
 20
-1050.757588386441
 30
0.0
 11
8307.610967506006
 21
-1050.757588386441
 31
0.0
  0
LINE
  5
3FEC
330
1F
100
AcDbEntity
  8
DETAIL
100
AcDbLine
 10
8307.610967506009
 20
-40.75758838644104
 30
0.0
 11
8307.610967506009
 21
-950.7575883864411
 31
0.0
  0
LINE
  5
3FED
330
1F
100
AcDbEntity
  8
DETAIL
100
AcDbLine
 10
8291.610967506008
 20
-870.7575883864411
 30
0.0
 11
8291.610967506008
 21
-950.757588386441
 31
0.0
  0
LINE
  5
3FEE
330
1F
100
AcDbEntity
  8
DETAIL
100
AcDbLine
 10
8191.610967506008
 20
-870.7575883864411
 30
0.0
 11
8191.610967506008
 21
-950.757588386441
 31
0.0
  0
LINE
  5
3FEF
330
1F
100
AcDbEntity
  8
DETAIL
100
AcDbLine
 10
8175.610967506008
 20
-870.7575883864411
 30
0.0
 11
8175.610967506008
 21
-950.757588386441
 31
0.0
  0
LINE
  5
3FF0
330
1F
100
AcDbEntity
  8
DETAIL
100
AcDbLine
 10
8075.61096750601
 20
-870.7575883864411
 30
0.0
 11
8075.610967506007
 21
-950.757588386441
 31
0.0
  0
LINE
  5
3FF1
330
1F
100
AcDbEntity
  8
DETAIL
100
AcDbLine
 10
8059.61096750601
 20
-870.7575883864411
 30
0.0
 11
8059.610967506008
 21
-950.757588386441
 31
0.0
  0
LINE
  5
3FF2
330
1F
100
AcDbEntity
  8
DETAIL
100
AcDbLine
 10
7959.61096750601
 20
-870.7575883864411
 30
0.0
 11
7959.61096750601
 21
-950.757588386441
 31
0.0
  0
LINE
  5
3FF3
330
1F
100
AcDbEntity
  8
DETAIL
100
AcDbLine
 10
7943.61096750601
 20
-870.7575883864411
 30
0.0
 11
7943.61096750601
 21
-950.757588386441
 31
0.0
  0
LINE
  5
3FF4
330
1F
100
AcDbEntity
  8
DETAIL
100
AcDbLine
 10
7843.610967506009
 20
-870.7575883864411
 30
0.0
 11
7843.610967506009
 21
-950.757588386441
 31
0.0
  0
LINE
  5
3FF5
330
1F
100
AcDbEntity
  8
DETAIL
100
AcDbLine
 10
7827.61096750601
 20
-870.7575883864411
 30
0.0
 11
7827.610967506008
 21
-950.757588386441
 31
0.0
  0
LINE
  5
3FF6
330
1F
100
AcDbEntity
  8
DETAIL
100
AcDbLine
 10
7727.610967506009
 20
-870.7575883864411
 30
0.0
 11
7727.610967506008
 21
-950.757588386441
 31
0.0
  0
LINE
  5
3FF7
330
1F
100
AcDbEntity
  8
DETAIL
100
AcDbLine
 10
7711.61096750601
 20
-870.7575883864411
 30
0.0
 11
7711.610967506008
 21
-950.757588386441
 31
0.0
  0
LINE
  5
3FF8
330
1F
100
AcDbEntity
  8
DETAIL
100
AcDbLine
 10
7611.61096750601
 20
-870.7575883864411
 30
0.0
 11
7611.61096750601
 21
-950.757588386441
 31
0.0
  0
LINE
  5
3FF9
330
1F
100
AcDbEntity
  8
DETAIL
100
AcDbLine
 10
7595.610967506011
 20
-870.7575883864411
 30
0.0
 11
7595.610967506011
 21
-950.757588386441
 31
0.0
  0
LINE
  5
3FFA
330
1F
100
AcDbEntity
  8
DETAIL
100
AcDbLine
 10
7495.610967506012
 20
-870.7575883864411
 30
0.0
 11
7495.61096750601
 21
-950.757588386441
 31
0.0
  0
LINE
  5
3FFB
330
1F
100
AcDbEntity
  8
DETAIL
100
AcDbLine
 10
7479.610967506012
 20
-870.7575883864411
 30
0.0
 11
7479.610967506012
 21
-950.757588386441
 31
0.0
  0
LINE
  5
3FFC
330
1F
100
AcDbEntity
  8
DETAIL
100
AcDbLine
 10
7379.610967506012
 20
-870.7575883864411
 30
0.0
 11
7379.610967506009
 21
-950.757588386441
 31
0.0
  0
LINE
  5
3FFD
330
1F
100
AcDbEntity
  8
DETAIL
100
AcDbLine
 10
7363.610967506011
 20
-870.7575883864411
 30
0.0
 11
7363.610967506011
 21
-950.757588386441
 31
0.0
  0
LINE
  5
3FFE
330
1F
100
AcDbEntity
  8
DETAIL
100
AcDbLine
 10
7263.610967506011
 20
-870.7575883864411
 30
0.0
 11
7263.610967506011
 21
-950.757588386441
 31
0.0
  0
LINE
  5
3FFF
330
1F
100
AcDbEntity
  8
DETAIL
100
AcDbLine
 10
7247.610967506012
 20
-870.7575883864411
 30
0.0
 11
7247.610967506012
 21
-950.757588386441
 31
0.0
  0
LINE
  5
4000
330
1F
100
AcDbEntity
  8
DETAIL
100
AcDbLine
 10
7147.61096750601
 20
-870.7575883864411
 30
0.0
 11
7147.61096750601
 21
-950.757588386441
 31
0.0
  0
LINE
  5
4001
330
1F
100
AcDbEntity
  8
DETAIL
100
AcDbLine
 10
7131.610967506012
 20
-870.7575883864411
 30
0.0
 11
7131.610967506012
 21
-950.757588386441
 31
0.0
  0
LINE
  5
4002
330
1F
100
AcDbEntity
  8
DETAIL
100
AcDbLine
 10
7031.610967506011
 20
-870.7575883864411
 30
0.0
 11
7031.610967506011
 21
-950.757588386441
 31
0.0
  0
LINE
  5
4003
330
1F
100
AcDbEntity
  8
DETAIL
100
AcDbLine
 10
7015.610967506012
 20
-870.7575883864411
 30
0.0
 11
7015.610967506012
 21
-950.757588386441
 31
0.0
  0
LINE
  5
4004
330
1F
100
AcDbEntity
  8
DETAIL
100
AcDbLine
 10
6915.610967506012
 20
-870.7575883864411
 30
0.0
 11
6915.610967506012
 21
-950.757588386441
 31
0.0
  0
LINE
  5
4005
330
1F
100
AcDbEntity
  8
DETAIL
100
AcDbLine
 10
6899.610967506011
 20
-870.7575883864411
 30
0.0
 11
6899.610967506011
 21
-950.757588386441
 31
0.0
  0
LINE
  5
4006
330
1F
100
AcDbEntity
  8
DETAIL
100
AcDbLine
 10
6799.610967506011
 20
-870.7575883864411
 30
0.0
 11
6799.610967506011
 21
-950.757588386441
 31
0.0
  0
LINE
  5
4007
330
1F
100
AcDbEntity
  8
DETAIL
100
AcDbLine
 10
6783.61096750601
 20
-870.7575883864411
 30
0.0
 11
6783.61096750601
 21
-950.757588386441
 31
0.0
  0
LINE
  5
4008
330
1F
100
AcDbEntity
  8
DETAIL
100
AcDbLine
 10
6683.610967506012
 20
-870.7575883864411
 30
0.0
 11
6683.610967506012
 21
-950.757588386441
 31
0.0
  0
LINE
  5
4009
330
1F
100
AcDbEntity
  8
DETAIL
100
AcDbLine
 10
6667.610967506012
 20
-870.7575883864411
 30
0.0
 11
6667.610967506012
 21
-950.757588386441
 31
0.0
  0
LINE
  5
400A
330
1F
100
AcDbEntity
  8
DETAIL
100
AcDbLine
 10
6567.610967506012
 20
-870.7575883864411
 30
0.0
 11
6567.610967506012
 21
-950.757588386441
 31
0.0
  0
LINE
  5
400B
330
1F
100
AcDbEntity
  8
DETAIL
100
AcDbLine
 10
6551.610967506012
 20
-870.7575883864411
 30
0.0
 11
6551.610967506012
 21
-950.757588386441
 31
0.0
  0
LINE
  5
400C
330
1F
100
AcDbEntity
  8
DETAIL
100
AcDbLine
 10
6451.610967506012
 20
-870.7575883864411
 30
0.0
 11
6451.610967506012
 21
-950.757588386441
 31
0.0
  0
LINE
  5
400D
330
1F
100
AcDbEntity
  8
DETAIL
100
AcDbLine
 10
6435.610967506011
 20
-870.7575883864411
 30
0.0
 11
6435.610967506011
 21
-950.757588386441
 31
0.0
  0
LINE
  5
400E
330
1F
100
AcDbEntity
  8
DETAIL
100
AcDbLine
 10
6335.610967506012
 20
-870.7575883864411
 30
0.0
 11
6335.610967506011
 21
-950.757588386441
 31
0.0
  0
LINE
  5
400F
330
1F
100
AcDbEntity
  8
DETAIL
100
AcDbLine
 10
6319.610967506012
 20
-870.7575883864411
 30
0.0
 11
6319.610967506011
 21
-950.757588386441
 31
0.0
  0
LINE
  5
4010
330
1F
100
AcDbEntity
  8
DETAIL
100
AcDbLine
 10
6219.61096750601
 20
-870.7575883864411
 30
0.0
 11
6219.61096750601
 21
-950.757588386441
 31
0.0
  0
LINE
  5
4011
330
1F
100
AcDbEntity
  8
DETAIL
100
AcDbLine
 10
6203.610967506012
 20
-870.7575883864411
 30
0.0
 11
6203.610967506011
 21
-950.757588386441
 31
0.0
  0
LINE
  5
4012
330
1F
100
AcDbEntity
  8
DETAIL
100
AcDbLine
 10
6103.610967506011
 20
-870.7575883864411
 30
0.0
 11
6103.610967506011
 21
-950.757588386441
 31
0.0
  0
LINE
  5
4013
330
1F
100
AcDbEntity
  8
DETAIL
100
AcDbLine
 10
6087.610967506011
 20
-870.7575883864411
 30
0.0
 11
6087.610967506011
 21
-950.757588386441
 31
0.0
  0
LINE
  5
4014
330
1F
100
AcDbEntity
  8
DETAIL
100
AcDbLine
 10
5987.610967506011
 20
-870.7575883864411
 30
0.0
 11
5987.610967506011
 21
-950.757588386441
 31
0.0
  0
LINE
  5
4015
330
1F
100
AcDbEntity
  8
DETAIL
100
AcDbLine
 10
5971.610967506012
 20
-870.7575883864411
 30
0.0
 11
5971.610967506011
 21
-950.757588386441
 31
0.0
  0
LINE
  5
4016
330
1F
100
AcDbEntity
  8
DETAIL
100
AcDbLine
 10
5871.610967506025
 20
-40.75758838644108
 30
0.0
 11
5871.610967506011
 21
-950.7575883864411
 31
0.0
  0
LINE
  5
4017
330
1F
100
AcDbEntity
  8
DETAIL
100
AcDbLine
 10
5855.610967506024
 20
-40.75758838644108
 30
0.0
 11
5855.61096750601
 21
-950.7575883864411
 31
0.0
  0
DIMENSION
  5
40C2
102
{ACAD_XDICTIONARY
360
40D0
102
}
102
{ACAD_REACTORS
330
40DB
102
}
330
1F
100
AcDbEntity
  8
DIMS
100
AcDbDimension
280
     0
  2
*D1
 10
8913.680740794671
 20
-1050.757588386441
 30
0.0
 11
8913.680740794671
 21
-450.7575883864396
 31
0.0
 70
    32
  1
DIM A
 71
     5
 42
1200.0
 73
     0
 74
     0
 75
     0
 53
90.0
  3
Standard
100
AcDbAlignedDimension
 13
8457.61096750601
 23
149.2424116135589
 33
0.0
 14
8481.610967506011
 24
-1050.757588386441
 34
0.0
 50
90.0
100
AcDbRotatedDimension
1001
ACAD
1000
DSTYLE
1002
{
1070
   340
1005
556B
1070
    74
1070
     0
1070
   147
1040
30.0
1070
   140
1040
50.0
1070
    42
1040
30.0
1070
    44
1040
30.0
1070
    41
1040
50.0
1002
}
  0
DIMENSION
  5
4140
330
1F
100
AcDbEntity
  8
DIMS
100
AcDbDimension
280
     0
  2
*D2
 10
8432.610967506009
 20
487.3108987394388
 30
0.0
 11
7081.610967506023
 21
487.3108987394388
 31
0.0
 70
    32
  1
2750
 71
     5
 42
2701.99999999997
 73
     0
 74
     0
 75
     0
  3
Standard
100
AcDbAlignedDimension
 13
5730.610967506039
 23
199.2424116135594
 33
0.0
 14
8432.610967506009
 24
199.2424116135589
 34
0.0
100
AcDbRotatedDimension
1001
ACAD
1000
DSTYLE
1002
{
1070
   340
1005
556B
1070
    41
1040
50.0
1070
    42
1040
30.0
1070
    44
1040
30.0
1070
    74
1070
     0
1070
   140
1040
50.0
1070
   147
1040
30.0
1002
}
  0
DIMENSION
  5
4232
330
1F
100
AcDbEntity
  8
DIMS
100
AcDbDimension
280
     0
  2
*D3
 10
6559.610967506005
 20
256.618821018772
 30
0.0
 11
6938.420491315529
 21
256.618821018772
 31
0.0
 70
    32
  1
126 CENTRES
 71
     5
 42
116.0
 73
     0
 74
     0
 75
     0
  3
Standard
100
AcDbAlignedDimension
 13
6443.610967506003
 23
174.2424116135589
 33
0.0
 14
6559.610967506005
 24
174.2424116135596
 34
0.0
100
AcDbRotatedDimension
1001
ACAD
1000
DSTYLE
1002
{
1070
   340
1005
556B
1070
    41
1040
50.0
1070
    42
1040
30.0
1070
    44
1040
30.0
1070
    74
1070
     0
1070
   140
1040
50.0
1070
   147
1040
30.0
1002
}
  0
DIMENSION
  5
42D1
330
1F
100
AcDbEntity
  8
DIMS
100
AcDbDimension
280
     0
  2
*D4
 10
5493.727419172134
 20
-975.757588386441
 30
0.0
 11
5493.727419172134
 21
-770.7575883864401
 31
0.0
 70
   160
  1
75
 71
     5
 42
74.9999999999999
 73
     0
 74
     0
 75
     0
  3
Standard
100
AcDbAlignedDimension
 13
5681.61096750601
 23
-1050.757588386441
 33
0.0
 14
5705.610967506039
 24
-975.757588386441
 34
0.0
 50
270.0
100
AcDbRotatedDimension
1001
ACAD
1000
DSTYLE
1002
{
1070
   340
1005
556B
1070
    41
1040
50.0
1070
    42
1040
30.0
1070
    44
1040
30.0
1070
    74
1070
     0
1070
   140
1040
50.0
1070
   147
1040
30.0
1002
}
  0
LINE
  5
431A
330
1F
100
AcDbEntity
  8
DETAIL
100
AcDbLine
 10
5755.61096750604
 20
-975.757588386441
 30
0.0
 11
5755.904954408858
 21
-975.757588386441
 31
0.0
  0
LINE
  5
435B
330
1F
100
AcDbEntity
  8
APPLICATION
100
AcDbLine
 10
5731.610967506011
 20
-1050.757588386441
 30
0.0
 11
8431.610967506008
 21
-1050.757588386441
 31
0.0
  0
LINE
  5
435C
330
1F
100
AcDbEntity
  8
APPLICATION
100
AcDbLine
 10
5681.61096750601
 20
-1050.757588386441
 30
0.0
 11
5289.96155620904
 21
-1050.757588386441
 31
0.0
  0
LINE
  5
435D
330
1F
100
AcDbEntity
  8
APPLICATION
100
AcDbLine
 10
8481.610967506011
 20
-1050.757588386441
 30
0.0
 11
8848.678127900432
 21
-1050.757588386441
 31
0.0
  0
LINE
  5
435E
330
1F
100
AcDbEntity
  8
DETAIL
100
AcDbLine
 10
5705.610967506039
 20
-1050.757588386441
 30
0.0
 11
5705.610967506039
 21
-1650.757588386441
 31
0.0
  0
LINE
  5
435F
330
1F
100
AcDbEntity
  8
DETAIL
100
AcDbLine
 10
5705.610967506039
 20
-1650.757588386441
 30
0.0
 11
5755.610967506039
 21
-1650.757588386441
 31
0.0
  0
LINE
  5
4360
330
1F
100
AcDbEntity
  8
DETAIL
100
AcDbLine
 10
5755.610967506039
 20
-1650.757588386441
 30
0.0
 11
5755.610967506039
 21
-1050.757588386441
 31
0.0
  0
LINE
  5
4361
330
1F
100
AcDbEntity
  8
DETAIL
100
AcDbLine
 10
8407.610967506009
 20
-1050.757588386441
 30
0.0
 11
8407.610967506009
 21
-1650.757588386441
 31
0.0
  0
LINE
  5
4362
330
1F
100
AcDbEntity
  8
DETAIL
100
AcDbLine
 10
8407.610967506009
 20
-1650.757588386441
 30
0.0
 11
8457.61096750601
 21
-1650.757588386441
 31
0.0
  0
LINE
  5
4363
102
{ACAD_REACTORS
330
439A
102
}
330
1F
100
AcDbEntity
  8
DETAIL
100
AcDbLine
 10
8457.61096750601
 20
-1650.757588386441
 30
0.0
 11
8457.61096750601
 21
-1050.757588386441
 31
0.0
  0
HATCH
  5
437F
330
1F
100
AcDbEntity
  8
APPLICATION
100
AcDbHatch
 10
0.0
 20
0.0
 30
0.0
210
0.0
220
0.0
230
1.0
  2
ANSI31
 70
     0
 71
     0
 91
        3
 92
        7
 72
     0
 73
     1
 93
        5
 10
5681.61096750601
 20
-1050.757588386441
 10
5289.96155620904
 20
-1050.757588386441
 10
5289.96155620904
 20
-1150.757588386441
 10
5289.96155620904
 20
-1250.757588386441
 10
5681.61096750601
 20
-1250.757588386441
 97
        0
 92
        7
 72
     0
 73
     1
 93
        4
 10
8431.610967506008
 20
-1050.757588386441
 10
5731.610967506011
 20
-1050.757588386441
 10
5731.610967506011
 20
-1250.757588386441
 10
8431.610967506008
 20
-1250.757588386441
 97
        0
 92
        7
 72
     0
 73
     1
 93
        4
 10
8848.678127900432
 20
-1050.757588386441
 10
8481.610967506011
 20
-1050.757588386441
 10
8481.610967506011
 20
-1250.757588386441
 10
8848.678127900432
 20
-1250.757588386441
 97
        0
 75
     0
 76
     1
 52
0.0
 41
800.0
 77
     0
 78
     1
 53
45.0
 43
0.0
 44
0.0
 45
-70.71067811865474
 46
70.71067811865474
 79
     0
 47
5.106650900506648
 98
        3
 10
5467.451445506649
 20
-1172.305500933977
 10
5942.962146776845
 20
-1192.73210505829
 10
8647.748863162041
 20
-1162.092198871818
  0
DIMENSION
  5
4381
102
{ACAD_XDICTIONARY
360
438F
102
}
102
{ACAD_REACTORS
330
439A
102
}
330
1F
100
AcDbEntity
  8
DIMS
100
AcDbDimension
280
     0
  2
*D5
 10
8913.680740794671
 20
-1050.757588386441
 30
0.0
 11
8913.680740794671
 21
-1350.75758838644
 31
0.0
 70
    32
  1
DIM B
 71
     5
 42
600.0
 73
     0
 74
     0
 75
     0
 53
90.0
  3
Standard
100
AcDbAlignedDimension
 13
8457.61096750601
 23
-1650.757588386441
 33
0.0
 14
8457.61096750601
 24
-1050.757588386441
 34
0.0
 50
90.0
100
AcDbRotatedDimension
1001
ACAD
1000
DSTYLE
1002
{
1070
   340
1005
556B
1070
    41
1040
50.0
1070
    42
1040
30.0
1070
    44
1040
30.0
1070
    74
1070
     0
1070
   140
1040
50.0
1070
   147
1040
30.0
1002
}
  0
LINE
  5
440B
330
1F
100
AcDbEntity
  8
DETAIL
100
AcDbLine
 10
5705.610967506039
 20
-2024.751663488882
 30
0.0
 11
5755.610967506039
 21
-2024.751663488882
 31
0.0
  0
LINE
  5
440C
330
1F
100
AcDbEntity
  8
DETAIL
100
AcDbLine
 10
5755.610967506039
 20
-2024.751663488882
 30
0.0
 11
5755.610967506039
 21
-2074.751663488882
 31
0.0
  0
LINE
  5
440D
330
1F
100
AcDbEntity
  8
DETAIL
100
AcDbLine
 10
5755.610967506039
 20
-2074.751663488882
 30
0.0
 11
5705.610967506039
 21
-2074.751663488882
 31
0.0
  0
LINE
  5
440E
330
1F
100
AcDbEntity
  8
DETAIL
100
AcDbLine
 10
5705.610967506039
 20
-2074.751663488882
 30
0.0
 11
5705.610967506039
 21
-2024.751663488882
 31
0.0
  0
LINE
  5
440F
330
1F
100
AcDbEntity
  8
DETAIL
100
AcDbLine
 10
8457.61096750601
 20
-2024.751663488882
 30
0.0
 11
8407.610967506009
 21
-2024.751663488882
 31
0.0
  0
LINE
  5
4410
330
1F
100
AcDbEntity
  8
DETAIL
100
AcDbLine
 10
8407.610967506009
 20
-2024.751663488882
 30
0.0
 11
8407.610967506009
 21
-2074.751663488882
 31
0.0
  0
LINE
  5
4411
330
1F
100
AcDbEntity
  8
DETAIL
100
AcDbLine
 10
8407.610967506009
 20
-2074.751663488882
 30
0.0
 11
8457.61096750601
 21
-2074.751663488882
 31
0.0
  0
LINE
  5
4412
330
1F
100
AcDbEntity
  8
DETAIL
100
AcDbLine
 10
8457.61096750601
 20
-2074.751663488882
 30
0.0
 11
8457.61096750601
 21
-2024.751663488881
 31
0.0
  0
LINE
  5
4413
330
1F
100
AcDbEntity
  8
DETAIL
100
AcDbLine
 10
5755.610967506039
 20
-2029.751663488882
 30
0.0
 11
8407.610967506007
 21
-2029.751663488882
 31
0.0
  0
LINE
  5
4414
330
1F
100
AcDbEntity
  8
DETAIL
100
AcDbLine
 10
5755.610967506039
 20
-2069.751663488882
 30
0.0
 11
8407.610967506007
 21
-2069.751663488881
 31
0.0
  0
DIMENSION
  5
4440
330
1F
100
AcDbEntity
  8
DIMS
100
AcDbDimension
280
     0
  2
*D6
 10
8432.610967506009
 20
-2358.830842093798
 30
0.0
 11
7081.610967506023
 21
-2358.830842093798
 31
0.0
 70
    32
  1
2750
 71
     5
 42
2701.99999999997
 73
     0
 74
     0
 75
     0
  3
Standard
100
AcDbAlignedDimension
 13
5730.610967506039
 23
-2074.751663488882
 33
0.0
 14
8432.610967506009
 24
-2074.751663488882
 34
0.0
100
AcDbRotatedDimension
1001
ACAD
1000
DSTYLE
1002
{
1070
   340
1005
556B
1070
    41
1040
50.0
1070
    42
1040
30.0
1070
    44
1040
30.0
1070
    74
1070
     0
1070
   140
1040
50.0
1070
   147
1040
30.0
1002
}
  0
MTEXT
  5
452E
330
1F
100
AcDbEntity
  8
TEXT
100
AcDbMText
 10
9594.713059240101
 20
-419.4683105717758
 30
0.0
 40
50.0
 41
724.3024
 46
0.0
 71
     1
 72
     5
  1
DIM B
  7
fastrack
 73
     1
 44
1.0
  0
LINE
  5
452F
330
1F
100
AcDbEntity
  8
TEXT
100
AcDbLine
 10
9550.359141422484
 20
-382.0056951730549
 30
0.0
 11
9869.323476217278
 21
-382.0056951730549
 31
0.0
  0
LINE
  5
4530
330
1F
100
AcDbEntity
  8
TEXT
100
AcDbLine
 10
9869.323476217278
 20
-382.0056951730549
 30
0.0
 11
9869.323476217278
 21
-496.7677964717368
 31
0.0
  0
LINE
  5
4531
330
1F
100
AcDbEntity
  8
TEXT
100
AcDbLine
 10
9869.323476217278
 20
-496.7677964717368
 30
0.0
 11
9550.359141422484
 21
-496.7677964717368
 31
0.0
  0
LINE
  5
4532
330
1F
100
AcDbEntity
  8
TEXT
100
AcDbLine
 10
9550.359141422484
 20
-382.0056951730549
 30
0.0
 11
9550.359141422484
 21
-496.7677964717368
 31
0.0
  0
MTEXT
  5
4533
330
1F
100
AcDbEntity
  8
TEXT
100
AcDbMText
 10
9903.727020078745
 20
-419.4683105717758
 30
0.0
 40
50.0
 41
724.3024
 46
0.0
 71
     1
 72
     5
  1
POSTS
  7
fastrack
 73
     1
 44
1.0
  0
LINE
  5
4534
330
1F
100
AcDbEntity
  8
TEXT
100
AcDbLine
 10
9869.323476217278
 20
-382.0056951730549
 30
0.0
 11
10188.28781101207
 21
-382.0056951730549
 31
0.0
  0
LINE
  5
4535
330
1F
100
AcDbEntity
  8
TEXT
100
AcDbLine
 10
10188.28781101207
 20
-382.0056951730549
 30
0.0
 11
10188.28781101207
 21
-496.7677964717368
 31
0.0
  0
LINE
  5
4536
330
1F
100
AcDbEntity
  8
TEXT
100
AcDbLine
 10
10188.28781101207
 20
-496.7677964717368
 30
0.0
 11
9869.323476217278
 21
-496.7677964717368
 31
0.0
  0
LINE
  5
4537
330
1F
100
AcDbEntity
  8
TEXT
100
AcDbLine
 10
9869.323476217278
 20
-382.0056951730549
 30
0.0
 11
9869.323476217278
 21
-496.7677964717368
 31
0.0
  0
MTEXT
  5
4538
330
1F
100
AcDbEntity
  8
TEXT
100
AcDbMText
 10
10233.27312171636
 20
-419.4683105717758
 30
0.0
 40
50.0
 41
724.3024
 46
0.0
 71
     1
 72
     5
  1
RAILS
  7
fastrack
 73
     1
 44
1.0
  0
LINE
  5
4539
330
1F
100
AcDbEntity
  8
TEXT
100
AcDbLine
 10
10188.28781101207
 20
-382.0056951730549
 30
0.0
 11
10507.25214580686
 21
-382.0056951730549
 31
0.0
  0
LINE
  5
453A
330
1F
100
AcDbEntity
  8
TEXT
100
AcDbLine
 10
10507.25214580686
 20
-382.0056951730549
 30
0.0
 11
10507.25214580686
 21
-496.7677964717368
 31
0.0
  0
LINE
  5
453B
330
1F
100
AcDbEntity
  8
TEXT
100
AcDbLine
 10
10507.25214580686
 20
-496.7677964717368
 30
0.0
 11
10188.28781101207
 21
-496.7677964717368
 31
0.0
  0
LINE
  5
453C
330
1F
100
AcDbEntity
  8
TEXT
100
AcDbLine
 10
10188.28781101207
 20
-382.0056951730549
 30
0.0
 11
10188.28781101207
 21
-496.7677964717368
 31
0.0
  0
MTEXT
  5
453D
330
1F
100
AcDbEntity
  8
TEXT
100
AcDbMText
 10
10573.33985036516
 20
-419.4683105717758
 30
0.0
 40
50.0
 41
724.3024
 46
0.0
 71
     1
 72
     5
  1
FLAT
  7
fastrack
 73
     1
 44
1.0
  0
LINE
  5
453E
330
1F
100
AcDbEntity
  8
TEXT
100
AcDbLine
 10
10507.25214580686
 20
-382.0056951730549
 30
0.0
 11
10826.21648060166
 21
-382.0056951730549
 31
0.0
  0
LINE
  5
453F
330
1F
100
AcDbEntity
  8
TEXT
100
AcDbLine
 10
10826.21648060166
 20
-382.0056951730549
 30
0.0
 11
10826.21648060166
 21
-496.7677964717368
 31
0.0
  0
LINE
  5
4540
330
1F
100
AcDbEntity
  8
TEXT
100
AcDbLine
 10
10826.21648060166
 20
-496.7677964717368
 30
0.0
 11
10507.25214580686
 21
-496.7677964717368
 31
0.0
  0
LINE
  5
4541
330
1F
100
AcDbEntity
  8
TEXT
100
AcDbLine
 10
10507.25214580686
 20
-382.0056951730549
 30
0.0
 11
10507.25214580686
 21
-496.7677964717368
 31
0.0
  0
LINE
  5
4542
330
1F
100
AcDbEntity
  8
TEXT
100
AcDbLine
 10
9869.323476217278
 20
-596.7677964717368
 30
0.0
 11
9550.359141422484
 21
-596.7677964717368
 31
0.0
  0
LINE
  5
4543
330
1F
100
AcDbEntity
  8
TEXT
100
AcDbLine
 10
10188.28781101207
 20
-596.7677964717368
 30
0.0
 11
9869.323476217278
 21
-596.7677964717368
 31
0.0
  0
LINE
  5
4544
330
1F
100
AcDbEntity
  8
TEXT
100
AcDbLine
 10
10507.25214580686
 20
-596.7677964717368
 30
0.0
 11
10188.28781101207
 21
-596.7677964717368
 31
0.0
  0
LINE
  5
4545
330
1F
100
AcDbEntity
  8
TEXT
100
AcDbLine
 10
10826.21648060166
 20
-596.7677964717368
 30
0.0
 11
10507.25214580686
 21
-596.7677964717368
 31
0.0
  0
LINE
  5
4546
330
1F
100
AcDbEntity
  8
TEXT
100
AcDbLine
 10
9869.323476217278
 20
-696.7677964717368
 30
0.0
 11
9550.359141422484
 21
-696.7677964717368
 31
0.0
  0
LINE
  5
4547
330
1F
100
AcDbEntity
  8
TEXT
100
AcDbLine
 10
9869.323476217278
 20
-796.7677964717368
 30
0.0
 11
9550.359141422484
 21
-796.7677964717368
 31
0.0
  0
LINE
  5
4548
330
1F
100
AcDbEntity
  8
TEXT
100
AcDbLine
 10
9869.323476217278
 20
-896.7677964717367
 30
0.0
 11
9550.359141422484
 21
-896.7677964717367
 31
0.0
  0
LINE
  5
4549
330
1F
100
AcDbEntity
  8
TEXT
100
AcDbLine
 10
9869.323476217278
 20
-996.7677964717367
 30
0.0
 11
9550.359141422484
 21
-996.7677964717367
 31
0.0
  0
LINE
  5
454A
330
1F
100
AcDbEntity
  8
TEXT
100
AcDbLine
 10
10188.28781101207
 20
-696.7677964717368
 30
0.0
 11
9869.323476217278
 21
-696.7677964717368
 31
0.0
  0
LINE
  5
454B
330
1F
100
AcDbEntity
  8
TEXT
100
AcDbLine
 10
10188.28781101207
 20
-796.7677964717368
 30
0.0
 11
9869.323476217278
 21
-796.7677964717368
 31
0.0
  0
LINE
  5
454C
330
1F
100
AcDbEntity
  8
TEXT
100
AcDbLine
 10
10188.28781101207
 20
-896.7677964717367
 30
0.0
 11
9869.323476217278
 21
-896.7677964717367
 31
0.0
  0
LINE
  5
454D
330
1F
100
AcDbEntity
  8
TEXT
100
AcDbLine
 10
10188.28781101207
 20
-996.7677964717367
 30
0.0
 11
9869.323476217278
 21
-996.7677964717367
 31
0.0
  0
LINE
  5
454E
330
1F
100
AcDbEntity
  8
TEXT
100
AcDbLine
 10
10507.25214580686
 20
-696.7677964717368
 30
0.0
 11
10188.28781101207
 21
-696.7677964717368
 31
0.0
  0
LINE
  5
454F
330
1F
100
AcDbEntity
  8
TEXT
100
AcDbLine
 10
10507.25214580686
 20
-796.7677964717368
 30
0.0
 11
10188.28781101207
 21
-796.7677964717368
 31
0.0
  0
LINE
  5
4550
330
1F
100
AcDbEntity
  8
TEXT
100
AcDbLine
 10
10507.25214580686
 20
-896.7677964717367
 30
0.0
 11
10188.28781101207
 21
-896.7677964717367
 31
0.0
  0
LINE
  5
4551
330
1F
100
AcDbEntity
  8
TEXT
100
AcDbLine
 10
10507.25214580686
 20
-996.7677964717367
 30
0.0
 11
10188.28781101207
 21
-996.7677964717367
 31
0.0
  0
LINE
  5
4552
330
1F
100
AcDbEntity
  8
TEXT
100
AcDbLine
 10
10826.21648060166
 20
-696.7677964717368
 30
0.0
 11
10507.25214580686
 21
-696.7677964717368
 31
0.0
  0
LINE
  5
4553
330
1F
100
AcDbEntity
  8
TEXT
100
AcDbLine
 10
10826.21648060166
 20
-796.7677964717368
 30
0.0
 11
10507.25214580686
 21
-796.7677964717368
 31
0.0
  0
LINE
  5
4554
330
1F
100
AcDbEntity
  8
TEXT
100
AcDbLine
 10
10826.21648060166
 20
-896.7677964717367
 30
0.0
 11
10507.25214580686
 21
-896.7677964717367
 31
0.0
  0
LINE
  5
4555
330
1F
100
AcDbEntity
  8
TEXT
100
AcDbLine
 10
10826.21648060166
 20
-996.7677964717367
 30
0.0
 11
10507.25214580686
 21
-996.7677964717367
 31
0.0
  0
LINE
  5
4556
330
1F
100
AcDbEntity
  8
TEXT
100
AcDbLine
 10
9550.359141422484
 20
-496.7677964717368
 30
0.0
 11
9550.359141422484
 21
-996.7677964717367
 31
0.0
  0
LINE
  5
4557
330
1F
100
AcDbEntity
  8
TEXT
100
AcDbLine
 10
9869.323476217278
 20
-496.7677964717368
 30
0.0
 11
9869.323476217278
 21
-996.767796471737
 31
0.0
  0
LINE
  5
4558
330
1F
100
AcDbEntity
  8
TEXT
100
AcDbLine
 10
10188.28781101207
 20
-496.7677964717368
 30
0.0
 11
10188.28781101207
 21
-996.7677964717367
 31
0.0
  0
LINE
  5
4559
330
1F
100
AcDbEntity
  8
TEXT
100
AcDbLine
 10
10507.25214580686
 20
-496.7677964717368
 30
0.0
 11
10507.25214580686
 21
-996.7677964717367
 31
0.0
  0
LINE
  5
455A
330
1F
100
AcDbEntity
  8
TEXT
100
AcDbLine
 10
10826.21648060166
 20
-496.7677964717368
 30
0.0
 11
10826.21648060166
 21
-996.767796471737
 31
0.0
  0
MTEXT
  5
455B
330
1F
100
AcDbEntity
  8
TEXT
100
AcDbMText
 10
9636.822101927116
 20
-521.4998765922099
 30
0.0
 40
50.0
 41
724.3024
 46
0.0
 71
     1
 72
     5
  1
600
  7
fastrack
 73
     1
 44
1.0
  0
MTEXT
  5
455C
330
1F
100
AcDbEntity
  8
TEXT
100
AcDbMText
 10
9636.822101927116
 20
-621.4998765922099
 30
0.0
 40
50.0
 41
724.3024
 46
0.0
 71
     1
 72
     5
  1
600
  7
fastrack
 73
     1
 44
1.0
  0
MTEXT
  5
455D
330
1F
100
AcDbEntity
  8
TEXT
100
AcDbMText
 10
9636.822101927116
 20
-721.4998765922099
 30
0.0
 40
50.0
 41
724.3024
 46
0.0
 71
     1
 72
     5
  1
600
  7
fastrack
 73
     1
 44
1.0
  0
MTEXT
  5
455E
330
1F
100
AcDbEntity
  8
TEXT
100
AcDbMText
 10
9636.822101927116
 20
-821.49987659221
 30
0.0
 40
50.0
 41
724.3024
 46
0.0
 71
     1
 72
     5
  1
600
  7
fastrack
 73
     1
 44
1.0
  0
MTEXT
  5
455F
330
1F
100
AcDbEntity
  8
TEXT
100
AcDbMText
 10
9636.822101927116
 20
-921.49987659221
 30
0.0
 40
50.0
 41
724.3024
 46
0.0
 71
     1
 72
     5
  1
750
  7
fastrack
 73
     1
 44
1.0
  0
LINE
  5
4560
330
1F
100
AcDbEntity
  8
TEXT
100
AcDbLine
 10
9869.323476217278
 20
-496.7677964717368
 30
0.0
 11
9869.323476217278
 21
-996.7677964717367
 31
0.0
  0
MTEXT
  5
4561
330
1F
100
AcDbEntity
  8
TEXT
100
AcDbMText
 10
9918.479573499325
 20
-521.4998765922099
 30
0.0
 40
50.0
 41
724.3024
 46
0.0
 71
     1
 72
     5
  1
50x50
  7
fastrack
 73
     1
 44
1.0
  0
MTEXT
  5
4562
330
1F
100
AcDbEntity
  8
TEXT
100
AcDbMText
 10
9918.479573499325
 20
-621.4998765922099
 30
0.0
 40
50.0
 41
724.3024
 46
0.0
 71
     1
 72
     5
  1
50x50
  7
fastrack
 73
     1
 44
1.0
  0
MTEXT
  5
4563
330
1F
100
AcDbEntity
  8
TEXT
100
AcDbMText
 10
9918.479573499325
 20
-721.4998765922099
 30
0.0
 40
50.0
 41
724.3024
 46
0.0
 71
     1
 72
     5
  1
50x50
  7
fastrack
 73
     1
 44
1.0
  0
MTEXT
  5
4564
330
1F
100
AcDbEntity
  8
TEXT
100
AcDbMText
 10
9918.479573499325
 20
-821.49987659221
 30
0.0
 40
50.0
 41
724.3024
 46
0.0
 71
     1
 72
     5
  1
60x60
  7
fastrack
 73
     1
 44
1.0
  0
MTEXT
  5
4565
330
1F
100
AcDbEntity
  8
TEXT
100
AcDbMText
 10
9918.479573499325
 20
-921.49987659221
 30
0.0
 40
50.0
 41
724.3024
 46
0.0
 71
     1
 72
     5
  1
60x60
  7
fastrack
 73
     1
 44
1.0
  0
LINE
  5
4566
330
1F
100
AcDbEntity
  8
TEXT
100
AcDbLine
 10
10188.28781101207
 20
-496.7677964717368
 30
0.0
 11
10188.28781101207
 21
-996.7677964717367
 31
0.0
  0
MTEXT
  5
4567
330
1F
100
AcDbEntity
  8
TEXT
100
AcDbMText
 10
10238.45940142201
 20
-521.4998765922099
 30
0.0
 40
50.0
 41
724.3024
 46
0.0
 71
     1
 72
     5
  1
50x25
  7
fastrack
 73
     1
 44
1.0
  0
MTEXT
  5
4568
330
1F
100
AcDbEntity
  8
TEXT
100
AcDbMText
 10
10235.13068439886
 20
-621.4998765922099
 30
0.0
 40
50.0
 41
724.3024
 46
0.0
 71
     1
 72
     5
  1
50x25
  7
fastrack
 73
     1
 44
1.0
  0
MTEXT
  5
4569
330
1F
100
AcDbEntity
  8
TEXT
100
AcDbMText
 10
10235.13068439886
 20
-721.4998765922099
 30
0.0
 40
50.0
 41
724.3024
 46
0.0
 71
     1
 72
     5
  1
50x25
  7
fastrack
 73
     1
 44
1.0
  0
MTEXT
  5
456A
330
1F
100
AcDbEntity
  8
TEXT
100
AcDbMText
 10
10228.47321754893
 20
-821.49987659221
 30
0.0
 40
50.0
 41
724.3024
 46
0.0
 71
     1
 72
     5
  1
50x25
  7
fastrack
 73
     1
 44
1.0
  0
MTEXT
  5
456B
330
1F
100
AcDbEntity
  8
TEXT
100
AcDbMText
 10
10228.47321754893
 20
-921.49987659221
 30
0.0
 40
50.0
 41
724.3024
 46
0.0
 71
     1
 72
     5
  1
50x25
  7
fastrack
 73
     1
 44
1.0
  0
LINE
  5
456C
330
1F
100
AcDbEntity
  8
TEXT
100
AcDbLine
 10
10507.25214580686
 20
-496.7677964717368
 30
0.0
 11
10507.25214580686
 21
-996.7677964717367
 31
0.0
  0
MTEXT
  5
456D
330
1F
100
AcDbEntity
  8
TEXT
100
AcDbMText
 10
10570.40225997693
 20
-521.4998765922099
 30
0.0
 40
50.0
 41
724.3024
 46
0.0
 71
     1
 72
     5
  1
50x10
  7
fastrack
 73
     1
 44
1.0
  0
MTEXT
  5
4572
330
1F
100
AcDbEntity
  8
TEXT
100
AcDbMText
 10
9275.748724445305
 20
-419.4683105717758
 30
0.0
 40
50.0
 41
724.3024
 46
0.0
 71
     1
 72
     5
  1
DIM A
  7
fastrack
 73
     1
 44
1.0
  0
LINE
  5
4573
330
1F
100
AcDbEntity
  8
TEXT
100
AcDbLine
 10
9231.394806627692
 20
-382.0056951730549
 30
0.0
 11
9550.359141422484
 21
-382.0056951730549
 31
0.0
  0
LINE
  5
4574
330
1F
100
AcDbEntity
  8
TEXT
100
AcDbLine
 10
9550.359141422484
 20
-496.7677964717368
 30
0.0
 11
9231.394806627692
 21
-496.7677964717368
 31
0.0
  0
LINE
  5
4575
330
1F
100
AcDbEntity
  8
TEXT
100
AcDbLine
 10
9231.394806627692
 20
-382.0056951730549
 30
0.0
 11
9231.394806627692
 21
-496.7677964717368
 31
0.0
  0
LINE
  5
4576
330
1F
100
AcDbEntity
  8
TEXT
100
AcDbLine
 10
9550.359141422484
 20
-596.7677964717368
 30
0.0
 11
9231.394806627692
 21
-596.7677964717368
 31
0.0
  0
LINE
  5
4577
330
1F
100
AcDbEntity
  8
TEXT
100
AcDbLine
 10
9550.359141422484
 20
-696.7677964717368
 30
0.0
 11
9231.394806627692
 21
-696.7677964717368
 31
0.0
  0
LINE
  5
4578
330
1F
100
AcDbEntity
  8
TEXT
100
AcDbLine
 10
9550.359141422484
 20
-796.7677964717368
 30
0.0
 11
9231.394806627692
 21
-796.7677964717368
 31
0.0
  0
LINE
  5
4579
330
1F
100
AcDbEntity
  8
TEXT
100
AcDbLine
 10
9550.359141422484
 20
-896.7677964717367
 30
0.0
 11
9231.394806627692
 21
-896.7677964717367
 31
0.0
  0
LINE
  5
457A
330
1F
100
AcDbEntity
  8
TEXT
100
AcDbLine
 10
9550.359141422484
 20
-996.7677964717367
 30
0.0
 11
9231.394806627692
 21
-996.7677964717367
 31
0.0
  0
LINE
  5
457B
330
1F
100
AcDbEntity
  8
TEXT
100
AcDbLine
 10
9231.394806627692
 20
-496.7677964717368
 30
0.0
 11
9231.394806627692
 21
-996.7677964717367
 31
0.0
  0
MTEXT
  5
457C
330
1F
100
AcDbEntity
  8
TEXT
100
AcDbMText
 10
9317.85776713232
 20
-521.4998765922099
 30
0.0
 40
50.0
 41
724.3024
 46
0.0
 71
     1
 72
     5
  1
900
  7
fastrack
 73
     1
 44
1.0
  0
MTEXT
  5
457D
330
1F
100
AcDbEntity
  8
TEXT
100
AcDbMText
 10
9317.85776713232
 20
-621.4998765922099
 30
0.0
 40
50.0
 41
724.3024
 46
0.0
 71
     1
 72
     5
  1
1200
  7
fastrack
 73
     1
 44
1.0
  0
MTEXT
  5
457E
330
1F
100
AcDbEntity
  8
TEXT
100
AcDbMText
 10
9317.85776713232
 20
-721.4998765922099
 30
0.0
 40
50.0
 41
724.3024
 46
0.0
 71
     1
 72
     5
  1
1500
  7
fastrack
 73
     1
 44
1.0
  0
MTEXT
  5
457F
330
1F
100
AcDbEntity
  8
TEXT
100
AcDbMText
 10
9317.85776713232
 20
-821.49987659221
 30
0.0
 40
50.0
 41
724.3024
 46
0.0
 71
     1
 72
     5
  1
1800
  7
fastrack
 73
     1
 44
1.0
  0
MTEXT
  5
4580
330
1F
100
AcDbEntity
  8
TEXT
100
AcDbMText
 10
9317.85776713232
 20
-921.49987659221
 30
0.0
 40
50.0
 41
724.3024
 46
0.0
 71
     1
 72
     5
  1
2400
  7
fastrack
 73
     1
 44
1.0
  0
LINE
  5
45B1
330
1F
100
AcDbEntity
  8
DETAIL
100
AcDbLine
 10
5755.61096750604
 20
-975.757588386441
 30
0.0
 11
5818.516204323039
 21
-975.757588386441
 31
0.0
  0
LINE
  5
45CC
330
1F
100
AcDbEntity
  8
DETAIL
100
AcDbLine
 10
5755.61096750604
 20
-950.7575883864411
 30
0.0
 11
8407.610967506009
 21
-950.7575883864411
 31
0.0
  0
CIRCLE
  5
45EB
330
1F
100
AcDbEntity
  8
DETAIL
100
AcDbCircle
 10
5730.610967506039
 20
174.2424116135594
 30
0.0
 40
25.0
  0
CIRCLE
  5
45EC
330
1F
100
AcDbEntity
  8
DETAIL
100
AcDbCircle
 10
8432.610967506009
 20
174.2424116135589
 30
0.0
 40
25.0
  0
LINE
  5
464D
330
1F
100
AcDbEntity
  8
DETAIL
100
AcDbLine
 10
5863.610967506018
 20
174.2424116135589
 30
0.0
 11
5837.851327133037
 21
129.6479740522554
 31
0.0
  0
LINE
  5
464E
330
1F
100
AcDbEntity
  8
DETAIL
100
AcDbLine
 10
5863.610967506018
 20
174.2424116135589
 30
0.0
 11
5889.370607878998
 21
129.6479740522554
 31
0.0
  0
LINE
  5
464F
330
1F
100
AcDbEntity
  8
DETAIL
100
AcDbLine
 10
5837.851327133037
 20
129.6479740522554
 30
0.0
 11
5856.327988079218
 21
134.8737859744724
 31
0.0
  0
LINE
  5
4650
330
1F
100
AcDbEntity
  8
DETAIL
100
AcDbLine
 10
5889.370607878998
 20
129.6479740522554
 30
0.0
 11
5870.893946932818
 21
134.8737859744723
 31
0.0
  0
LINE
  5
4651
330
1F
100
AcDbEntity
  8
DETAIL
100
AcDbLine
 10
5876.253367097444
 20
117.8320088495899
 30
0.0
 11
5895.371442686322
 21
98.49077403984372
 31
0.0
  0
LINE
  5
4652
330
1F
100
AcDbEntity
  8
DETAIL
100
AcDbLine
 10
5856.327988079218
 20
134.8737859744724
 30
0.0
 11
5856.327988079218
 21
129.3562771582295
 31
0.0
  0
LINE
  5
4653
330
1F
100
AcDbEntity
  8
DETAIL
100
AcDbLine
 10
5870.893946932818
 20
134.8737859744723
 30
0.0
 11
5870.89394693282
 21
129.3562771582293
 31
0.0
  0
LINE
  5
4654
330
1F
100
AcDbEntity
  8
DETAIL
100
AcDbLine
 10
5850.968567914592
 20
117.8320088495901
 30
0.0
 11
5831.850492325714
 21
98.49077403984372
 31
0.0
  0
LINE
  5
4655
330
1F
100
AcDbEntity
  8
DETAIL
100
AcDbLine
 10
5850.968567914592
 20
117.8320088495897
 30
0.0
 11
5863.610967506019
 21
112.3251667743086
 31
0.0
  0
LINE
  5
4656
330
1F
100
AcDbEntity
  8
DETAIL
100
AcDbLine
 10
5876.253367097444
 20
117.8320088495896
 30
0.0
 11
5863.610967506019
 21
112.3251667743086
 31
0.0
  0
LINE
  5
4657
330
1F
100
AcDbEntity
  8
DETAIL
100
AcDbLine
 10
5870.89394693282
 20
129.3562771582293
 30
0.0
 11
5870.89394693282
 21
121.5998141144752
 31
0.0
  0
LINE
  5
4658
330
1F
100
AcDbEntity
  8
DETAIL
100
AcDbLine
 10
5856.327988079218
 20
129.3562771582295
 30
0.0
 11
5856.327988079218
 21
121.5998141144737
 31
0.0
  0
LINE
  5
4659
330
1F
100
AcDbEntity
  8
DETAIL
100
AcDbLine
 10
5837.851327133037
 20
129.6479740522554
 30
0.0
 11
5856.327988079218
 21
121.5998141144737
 31
0.0
  0
LINE
  5
465A
330
1F
100
AcDbEntity
  8
DETAIL
100
AcDbLine
 10
5889.370607878998
 20
129.6479740522554
 30
0.0
 11
5870.89394693282
 21
121.5998141144752
 31
0.0
  0
LINE
  5
465B
330
1F
100
AcDbEntity
  8
DETAIL
100
AcDbLine
 10
5870.89394693282
 20
121.5998141144752
 30
0.0
 11
5870.89394693282
 21
115.4975247788858
 31
0.0
  0
LINE
  5
465C
330
1F
100
AcDbEntity
  8
DETAIL
100
AcDbLine
 10
5856.327988079218
 20
121.5998141144737
 30
0.0
 11
5856.327988079218
 21
115.4975247788843
 31
0.0
  0
LINE
  5
465D
330
1F
100
AcDbEntity
  8
DETAIL
100
AcDbLine
 10
5831.850492325714
 20
98.49077403984372
 30
0.0
 11
5895.371442686322
 21
98.49077403984372
 31
0.0
  0
LINE
  5
465E
330
1F
100
AcDbEntity
  8
DETAIL
100
AcDbLine
 10
5855.610967506024
 20
-40.75758838644108
 30
0.0
 11
5855.610967506025
 21
43.10912972672301
 31
0.0
  0
LINE
  5
465F
330
1F
100
AcDbEntity
  8
DETAIL
100
AcDbLine
 10
5871.610967506025
 20
-40.75758838644108
 30
0.0
 11
5871.610967506025
 21
43.10912972672301
 31
0.0
  0
LINE
  5
4678
330
1F
100
AcDbEntity
  8
DETAIL
100
AcDbLine
 10
5755.610967506039
 20
43.10912972672301
 30
0.0
 11
8407.610967506009
 21
43.10912972672304
 31
0.0
  0
LINE
  5
4679
330
1F
100
AcDbEntity
  8
DETAIL
100
AcDbLine
 10
5979.610967506005
 20
174.242411613559
 30
0.0
 11
5953.851327133024
 21
129.6479740522555
 31
0.0
  0
LINE
  5
467A
330
1F
100
AcDbEntity
  8
DETAIL
100
AcDbLine
 10
5979.610967506005
 20
174.242411613559
 30
0.0
 11
6005.370607878984
 21
129.6479740522555
 31
0.0
  0
LINE
  5
467B
330
1F
100
AcDbEntity
  8
DETAIL
100
AcDbLine
 10
5953.851327133024
 20
129.6479740522555
 30
0.0
 11
5972.327988079204
 21
134.8737859744725
 31
0.0
  0
LINE
  5
467C
330
1F
100
AcDbEntity
  8
DETAIL
100
AcDbLine
 10
6005.370607878984
 20
129.6479740522555
 30
0.0
 11
5986.893946932806
 21
134.8737859744724
 31
0.0
  0
LINE
  5
467D
330
1F
100
AcDbEntity
  8
DETAIL
100
AcDbLine
 10
5992.253367097429
 20
117.83200884959
 30
0.0
 11
6011.371442686309
 21
98.49077403984379
 31
0.0
  0
LINE
  5
467E
330
1F
100
AcDbEntity
  8
DETAIL
100
AcDbLine
 10
5972.327988079204
 20
134.8737859744725
 30
0.0
 11
5972.327988079205
 21
129.3562771582296
 31
0.0
  0
LINE
  5
467F
330
1F
100
AcDbEntity
  8
DETAIL
100
AcDbLine
 10
5986.893946932806
 20
134.8737859744724
 30
0.0
 11
5986.893946932806
 21
129.3562771582294
 31
0.0
  0
LINE
  5
4680
330
1F
100
AcDbEntity
  8
DETAIL
100
AcDbLine
 10
5966.968567914578
 20
117.8320088495902
 30
0.0
 11
5947.8504923257
 21
98.49077403984379
 31
0.0
  0
LINE
  5
4681
330
1F
100
AcDbEntity
  8
DETAIL
100
AcDbLine
 10
5966.968567914578
 20
117.8320088495899
 30
0.0
 11
5979.610967506005
 21
112.3251667743087
 31
0.0
  0
LINE
  5
4682
330
1F
100
AcDbEntity
  8
DETAIL
100
AcDbLine
 10
5992.253367097429
 20
117.8320088495897
 30
0.0
 11
5979.610967506005
 21
112.3251667743087
 31
0.0
  0
LINE
  5
4683
330
1F
100
AcDbEntity
  8
DETAIL
100
AcDbLine
 10
5986.893946932806
 20
129.3562771582294
 30
0.0
 11
5986.893946932806
 21
121.5998141144753
 31
0.0
  0
LINE
  5
4684
330
1F
100
AcDbEntity
  8
DETAIL
100
AcDbLine
 10
5972.327988079205
 20
129.3562771582296
 30
0.0
 11
5972.327988079205
 21
121.5998141144738
 31
0.0
  0
LINE
  5
4685
330
1F
100
AcDbEntity
  8
DETAIL
100
AcDbLine
 10
5953.851327133024
 20
129.6479740522555
 30
0.0
 11
5972.327988079205
 21
121.5998141144738
 31
0.0
  0
LINE
  5
4686
330
1F
100
AcDbEntity
  8
DETAIL
100
AcDbLine
 10
6005.370607878984
 20
129.6479740522555
 30
0.0
 11
5986.893946932806
 21
121.5998141144753
 31
0.0
  0
LINE
  5
4687
330
1F
100
AcDbEntity
  8
DETAIL
100
AcDbLine
 10
5986.893946932806
 20
121.5998141144753
 30
0.0
 11
5986.893946932806
 21
115.4975247788859
 31
0.0
  0
LINE
  5
4688
330
1F
100
AcDbEntity
  8
DETAIL
100
AcDbLine
 10
5972.327988079205
 20
121.5998141144738
 30
0.0
 11
5972.327988079205
 21
115.4975247788844
 31
0.0
  0
LINE
  5
4689
330
1F
100
AcDbEntity
  8
DETAIL
100
AcDbLine
 10
5947.8504923257
 20
98.49077403984379
 30
0.0
 11
6011.371442686309
 21
98.49077403984379
 31
0.0
  0
LINE
  5
468A
330
1F
100
AcDbEntity
  8
DETAIL
100
AcDbLine
 10
5971.610967506011
 20
-40.75758838644095
 30
0.0
 11
5971.610967506011
 21
43.10912972672302
 31
0.0
  0
LINE
  5
468B
330
1F
100
AcDbEntity
  8
DETAIL
100
AcDbLine
 10
5987.610967506011
 20
-40.75758838644095
 30
0.0
 11
5987.610967506011
 21
43.10912972672302
 31
0.0
  0
LINE
  5
468C
330
1F
100
AcDbEntity
  8
DETAIL
100
AcDbLine
 10
6095.610967506003
 20
174.2424116135592
 30
0.0
 11
6069.851327133024
 21
129.6479740522556
 31
0.0
  0
LINE
  5
468D
330
1F
100
AcDbEntity
  8
DETAIL
100
AcDbLine
 10
6095.610967506003
 20
174.2424116135592
 30
0.0
 11
6121.370607878986
 21
129.6479740522556
 31
0.0
  0
LINE
  5
468E
330
1F
100
AcDbEntity
  8
DETAIL
100
AcDbLine
 10
6069.851327133024
 20
129.6479740522556
 30
0.0
 11
6088.327988079204
 21
134.8737859744726
 31
0.0
  0
LINE
  5
468F
330
1F
100
AcDbEntity
  8
DETAIL
100
AcDbLine
 10
6121.370607878986
 20
129.6479740522556
 30
0.0
 11
6102.893946932805
 21
134.8737859744725
 31
0.0
  0
LINE
  5
4690
330
1F
100
AcDbEntity
  8
DETAIL
100
AcDbLine
 10
6108.253367097429
 20
117.8320088495901
 30
0.0
 11
6127.371442686309
 21
98.49077403984393
 31
0.0
  0
LINE
  5
4691
330
1F
100
AcDbEntity
  8
DETAIL
100
AcDbLine
 10
6088.327988079204
 20
134.8737859744726
 30
0.0
 11
6088.327988079205
 21
129.3562771582297
 31
0.0
  0
LINE
  5
4692
330
1F
100
AcDbEntity
  8
DETAIL
100
AcDbLine
 10
6102.893946932805
 20
134.8737859744725
 30
0.0
 11
6102.893946932806
 21
129.3562771582295
 31
0.0
  0
LINE
  5
4693
330
1F
100
AcDbEntity
  8
DETAIL
100
AcDbLine
 10
6082.968567914579
 20
117.8320088495903
 30
0.0
 11
6063.850492325701
 21
98.49077403984393
 31
0.0
  0
LINE
  5
4694
330
1F
100
AcDbEntity
  8
DETAIL
100
AcDbLine
 10
6082.968567914579
 20
117.83200884959
 30
0.0
 11
6095.610967506004
 21
112.3251667743088
 31
0.0
  0
LINE
  5
4695
330
1F
100
AcDbEntity
  8
DETAIL
100
AcDbLine
 10
6108.253367097429
 20
117.8320088495899
 30
0.0
 11
6095.610967506004
 21
112.3251667743088
 31
0.0
  0
LINE
  5
4696
330
1F
100
AcDbEntity
  8
DETAIL
100
AcDbLine
 10
6102.893946932806
 20
129.3562771582295
 30
0.0
 11
6102.893946932806
 21
121.5998141144754
 31
0.0
  0
LINE
  5
4697
330
1F
100
AcDbEntity
  8
DETAIL
100
AcDbLine
 10
6088.327988079205
 20
129.3562771582297
 30
0.0
 11
6088.327988079205
 21
121.5998141144739
 31
0.0
  0
LINE
  5
4698
330
1F
100
AcDbEntity
  8
DETAIL
100
AcDbLine
 10
6069.851327133024
 20
129.6479740522556
 30
0.0
 11
6088.327988079205
 21
121.5998141144739
 31
0.0
  0
LINE
  5
4699
330
1F
100
AcDbEntity
  8
DETAIL
100
AcDbLine
 10
6121.370607878986
 20
129.6479740522556
 30
0.0
 11
6102.893946932806
 21
121.5998141144754
 31
0.0
  0
LINE
  5
469A
330
1F
100
AcDbEntity
  8
DETAIL
100
AcDbLine
 10
6102.893946932806
 20
121.5998141144754
 30
0.0
 11
6102.893946932806
 21
115.4975247788861
 31
0.0
  0
LINE
  5
469B
330
1F
100
AcDbEntity
  8
DETAIL
100
AcDbLine
 10
6088.327988079205
 20
121.5998141144739
 30
0.0
 11
6088.327988079205
 21
115.4975247788845
 31
0.0
  0
LINE
  5
469C
330
1F
100
AcDbEntity
  8
DETAIL
100
AcDbLine
 10
6063.850492325701
 20
98.49077403984393
 30
0.0
 11
6127.371442686309
 21
98.49077403984393
 31
0.0
  0
LINE
  5
469D
330
1F
100
AcDbEntity
  8
DETAIL
100
AcDbLine
 10
6087.610967506011
 20
-40.75758838644084
 30
0.0
 11
6087.610967506011
 21
43.10912972672301
 31
0.0
  0
LINE
  5
469E
330
1F
100
AcDbEntity
  8
DETAIL
100
AcDbLine
 10
6103.610967506011
 20
-40.75758838644084
 30
0.0
 11
6103.610967506011
 21
43.10912972672301
 31
0.0
  0
LINE
  5
469F
330
1F
100
AcDbEntity
  8
DETAIL
100
AcDbLine
 10
6211.610967506004
 20
174.2424116135593
 30
0.0
 11
6185.851327133024
 21
129.6479740522558
 31
0.0
  0
LINE
  5
46A0
330
1F
100
AcDbEntity
  8
DETAIL
100
AcDbLine
 10
6211.610967506004
 20
174.2424116135593
 30
0.0
 11
6237.370607878984
 21
129.6479740522558
 31
0.0
  0
LINE
  5
46A1
330
1F
100
AcDbEntity
  8
DETAIL
100
AcDbLine
 10
6185.851327133024
 20
129.6479740522558
 30
0.0
 11
6204.327988079204
 21
134.8737859744727
 31
0.0
  0
LINE
  5
46A2
330
1F
100
AcDbEntity
  8
DETAIL
100
AcDbLine
 10
6237.370607878984
 20
129.6479740522558
 30
0.0
 11
6218.893946932805
 21
134.8737859744726
 31
0.0
  0
LINE
  5
46A3
330
1F
100
AcDbEntity
  8
DETAIL
100
AcDbLine
 10
6224.253367097428
 20
117.8320088495902
 30
0.0
 11
6243.371442686309
 21
98.49077403984402
 31
0.0
  0
LINE
  5
46A4
330
1F
100
AcDbEntity
  8
DETAIL
100
AcDbLine
 10
6204.327988079204
 20
134.8737859744727
 30
0.0
 11
6204.327988079207
 21
129.3562771582298
 31
0.0
  0
LINE
  5
46A5
330
1F
100
AcDbEntity
  8
DETAIL
100
AcDbLine
 10
6218.893946932805
 20
134.8737859744726
 30
0.0
 11
6218.893946932806
 21
129.3562771582296
 31
0.0
  0
LINE
  5
46A6
330
1F
100
AcDbEntity
  8
DETAIL
100
AcDbLine
 10
6198.968567914579
 20
117.8320088495904
 30
0.0
 11
6179.850492325701
 21
98.49077403984402
 31
0.0
  0
LINE
  5
46A7
330
1F
100
AcDbEntity
  8
DETAIL
100
AcDbLine
 10
6198.968567914579
 20
117.8320088495901
 30
0.0
 11
6211.610967506004
 21
112.3251667743089
 31
0.0
  0
LINE
  5
46A8
330
1F
100
AcDbEntity
  8
DETAIL
100
AcDbLine
 10
6224.253367097428
 20
117.83200884959
 30
0.0
 11
6211.610967506004
 21
112.3251667743089
 31
0.0
  0
LINE
  5
46A9
330
1F
100
AcDbEntity
  8
DETAIL
100
AcDbLine
 10
6218.893946932806
 20
129.3562771582296
 30
0.0
 11
6218.893946932806
 21
121.5998141144755
 31
0.0
  0
LINE
  5
46AA
330
1F
100
AcDbEntity
  8
DETAIL
100
AcDbLine
 10
6204.327988079207
 20
129.3562771582298
 30
0.0
 11
6204.327988079207
 21
121.599814114474
 31
0.0
  0
LINE
  5
46AB
330
1F
100
AcDbEntity
  8
DETAIL
100
AcDbLine
 10
6185.851327133024
 20
129.6479740522558
 30
0.0
 11
6204.327988079207
 21
121.599814114474
 31
0.0
  0
LINE
  5
46AC
330
1F
100
AcDbEntity
  8
DETAIL
100
AcDbLine
 10
6237.370607878984
 20
129.6479740522558
 30
0.0
 11
6218.893946932806
 21
121.5998141144755
 31
0.0
  0
LINE
  5
46AD
330
1F
100
AcDbEntity
  8
DETAIL
100
AcDbLine
 10
6218.893946932806
 20
121.5998141144755
 30
0.0
 11
6218.893946932806
 21
115.4975247788862
 31
0.0
  0
LINE
  5
46AE
330
1F
100
AcDbEntity
  8
DETAIL
100
AcDbLine
 10
6204.327988079207
 20
121.599814114474
 30
0.0
 11
6204.327988079207
 21
115.4975247788846
 31
0.0
  0
LINE
  5
46AF
330
1F
100
AcDbEntity
  8
DETAIL
100
AcDbLine
 10
6179.850492325701
 20
98.49077403984402
 30
0.0
 11
6243.371442686309
 21
98.49077403984402
 31
0.0
  0
LINE
  5
46B0
330
1F
100
AcDbEntity
  8
DETAIL
100
AcDbLine
 10
6203.610967506011
 20
-40.75758838644072
 30
0.0
 11
6203.610967506012
 21
43.10912972672301
 31
0.0
  0
LINE
  5
46B1
330
1F
100
AcDbEntity
  8
DETAIL
100
AcDbLine
 10
6219.61096750601
 20
-40.75758838644072
 30
0.0
 11
6219.61096750601
 21
43.10912972672301
 31
0.0
  0
LINE
  5
46B2
330
1F
100
AcDbEntity
  8
DETAIL
100
AcDbLine
 10
6327.610967506004
 20
174.2424116135594
 30
0.0
 11
6301.851327133024
 21
129.6479740522559
 31
0.0
  0
LINE
  5
46B3
330
1F
100
AcDbEntity
  8
DETAIL
100
AcDbLine
 10
6327.610967506004
 20
174.2424116135594
 30
0.0
 11
6353.370607878986
 21
129.6479740522559
 31
0.0
  0
LINE
  5
46B4
330
1F
100
AcDbEntity
  8
DETAIL
100
AcDbLine
 10
6301.851327133024
 20
129.6479740522559
 30
0.0
 11
6320.327988079204
 21
134.8737859744728
 31
0.0
  0
LINE
  5
46B5
330
1F
100
AcDbEntity
  8
DETAIL
100
AcDbLine
 10
6353.370607878986
 20
129.6479740522559
 30
0.0
 11
6334.893946932805
 21
134.8737859744727
 31
0.0
  0
LINE
  5
46B6
330
1F
100
AcDbEntity
  8
DETAIL
100
AcDbLine
 10
6340.253367097429
 20
117.8320088495903
 30
0.0
 11
6359.371442686309
 21
98.49077403984418
 31
0.0
  0
LINE
  5
46B7
330
1F
100
AcDbEntity
  8
DETAIL
100
AcDbLine
 10
6320.327988079204
 20
134.8737859744728
 30
0.0
 11
6320.327988079205
 21
129.3562771582299
 31
0.0
  0
LINE
  5
46B8
330
1F
100
AcDbEntity
  8
DETAIL
100
AcDbLine
 10
6334.893946932805
 20
134.8737859744727
 30
0.0
 11
6334.893946932806
 21
129.3562771582297
 31
0.0
  0
LINE
  5
46B9
330
1F
100
AcDbEntity
  8
DETAIL
100
AcDbLine
 10
6314.968567914579
 20
117.8320088495906
 30
0.0
 11
6295.850492325701
 21
98.49077403984418
 31
0.0
  0
LINE
  5
46BA
330
1F
100
AcDbEntity
  8
DETAIL
100
AcDbLine
 10
6314.968567914579
 20
117.8320088495902
 30
0.0
 11
6327.610967506004
 21
112.3251667743091
 31
0.0
  0
LINE
  5
46BB
330
1F
100
AcDbEntity
  8
DETAIL
100
AcDbLine
 10
6340.253367097429
 20
117.8320088495901
 30
0.0
 11
6327.610967506004
 21
112.3251667743091
 31
0.0
  0
LINE
  5
46BC
330
1F
100
AcDbEntity
  8
DETAIL
100
AcDbLine
 10
6334.893946932806
 20
129.3562771582297
 30
0.0
 11
6334.893946932806
 21
121.5998141144757
 31
0.0
  0
LINE
  5
46BD
330
1F
100
AcDbEntity
  8
DETAIL
100
AcDbLine
 10
6320.327988079205
 20
129.3562771582299
 30
0.0
 11
6320.327988079205
 21
121.5998141144742
 31
0.0
  0
LINE
  5
46BE
330
1F
100
AcDbEntity
  8
DETAIL
100
AcDbLine
 10
6301.851327133024
 20
129.6479740522559
 30
0.0
 11
6320.327988079205
 21
121.5998141144742
 31
0.0
  0
LINE
  5
46BF
330
1F
100
AcDbEntity
  8
DETAIL
100
AcDbLine
 10
6353.370607878986
 20
129.6479740522559
 30
0.0
 11
6334.893946932806
 21
121.5998141144757
 31
0.0
  0
LINE
  5
46C0
330
1F
100
AcDbEntity
  8
DETAIL
100
AcDbLine
 10
6334.893946932806
 20
121.5998141144757
 30
0.0
 11
6334.893946932806
 21
115.4975247788863
 31
0.0
  0
LINE
  5
46C1
330
1F
100
AcDbEntity
  8
DETAIL
100
AcDbLine
 10
6320.327988079205
 20
121.5998141144742
 30
0.0
 11
6320.327988079205
 21
115.4975247788848
 31
0.0
  0
LINE
  5
46C2
330
1F
100
AcDbEntity
  8
DETAIL
100
AcDbLine
 10
6295.850492325701
 20
98.49077403984418
 30
0.0
 11
6359.371442686309
 21
98.49077403984418
 31
0.0
  0
LINE
  5
46C3
330
1F
100
AcDbEntity
  8
DETAIL
100
AcDbLine
 10
6319.610967506011
 20
-40.75758838644061
 30
0.0
 11
6319.610967506011
 21
43.10912972672302
 31
0.0
  0
LINE
  5
46C4
330
1F
100
AcDbEntity
  8
DETAIL
100
AcDbLine
 10
6335.610967506011
 20
-40.75758838644061
 30
0.0
 11
6335.610967506011
 21
43.10912972672302
 31
0.0
  0
LINE
  5
46C5
330
1F
100
AcDbEntity
  8
DETAIL
100
AcDbLine
 10
6443.610967506003
 20
174.2424116135589
 30
0.0
 11
6417.851327133025
 21
129.6479740522554
 31
0.0
  0
LINE
  5
46C6
330
1F
100
AcDbEntity
  8
DETAIL
100
AcDbLine
 10
6443.610967506003
 20
174.2424116135589
 30
0.0
 11
6469.370607878984
 21
129.6479740522554
 31
0.0
  0
LINE
  5
46C7
330
1F
100
AcDbEntity
  8
DETAIL
100
AcDbLine
 10
6417.851327133025
 20
129.6479740522554
 30
0.0
 11
6436.327988079205
 21
134.8737859744724
 31
0.0
  0
LINE
  5
46C8
330
1F
100
AcDbEntity
  8
DETAIL
100
AcDbLine
 10
6469.370607878984
 20
129.6479740522554
 30
0.0
 11
6450.893946932805
 21
134.8737859744723
 31
0.0
  0
LINE
  5
46C9
330
1F
100
AcDbEntity
  8
DETAIL
100
AcDbLine
 10
6456.253367097429
 20
117.8320088495899
 30
0.0
 11
6475.371442686308
 21
98.49077403984372
 31
0.0
  0
LINE
  5
46CA
330
1F
100
AcDbEntity
  8
DETAIL
100
AcDbLine
 10
6436.327988079205
 20
134.8737859744724
 30
0.0
 11
6436.327988079205
 21
129.3562771582295
 31
0.0
  0
LINE
  5
46CB
330
1F
100
AcDbEntity
  8
DETAIL
100
AcDbLine
 10
6450.893946932805
 20
134.8737859744723
 30
0.0
 11
6450.893946932805
 21
129.3562771582293
 31
0.0
  0
LINE
  5
46CC
330
1F
100
AcDbEntity
  8
DETAIL
100
AcDbLine
 10
6430.968567914579
 20
117.8320088495901
 30
0.0
 11
6411.850492325701
 21
98.49077403984372
 31
0.0
  0
LINE
  5
46CD
330
1F
100
AcDbEntity
  8
DETAIL
100
AcDbLine
 10
6430.968567914579
 20
117.8320088495897
 30
0.0
 11
6443.610967506003
 21
112.3251667743086
 31
0.0
  0
LINE
  5
46CE
330
1F
100
AcDbEntity
  8
DETAIL
100
AcDbLine
 10
6456.253367097429
 20
117.8320088495896
 30
0.0
 11
6443.610967506003
 21
112.3251667743086
 31
0.0
  0
LINE
  5
46CF
330
1F
100
AcDbEntity
  8
DETAIL
100
AcDbLine
 10
6450.893946932805
 20
129.3562771582293
 30
0.0
 11
6450.893946932805
 21
121.5998141144752
 31
0.0
  0
LINE
  5
46D0
330
1F
100
AcDbEntity
  8
DETAIL
100
AcDbLine
 10
6436.327988079205
 20
129.3562771582295
 30
0.0
 11
6436.327988079205
 21
121.5998141144737
 31
0.0
  0
LINE
  5
46D1
330
1F
100
AcDbEntity
  8
DETAIL
100
AcDbLine
 10
6417.851327133025
 20
129.6479740522554
 30
0.0
 11
6436.327988079205
 21
121.5998141144737
 31
0.0
  0
LINE
  5
46D2
330
1F
100
AcDbEntity
  8
DETAIL
100
AcDbLine
 10
6469.370607878984
 20
129.6479740522554
 30
0.0
 11
6450.893946932805
 21
121.5998141144752
 31
0.0
  0
LINE
  5
46D3
330
1F
100
AcDbEntity
  8
DETAIL
100
AcDbLine
 10
6450.893946932805
 20
121.5998141144752
 30
0.0
 11
6450.893946932805
 21
115.4975247788858
 31
0.0
  0
LINE
  5
46D4
330
1F
100
AcDbEntity
  8
DETAIL
100
AcDbLine
 10
6436.327988079205
 20
121.5998141144737
 30
0.0
 11
6436.327988079205
 21
115.4975247788843
 31
0.0
  0
LINE
  5
46D5
330
1F
100
AcDbEntity
  8
DETAIL
100
AcDbLine
 10
6411.850492325701
 20
98.49077403984372
 30
0.0
 11
6475.371442686308
 21
98.49077403984372
 31
0.0
  0
LINE
  5
46D6
330
1F
100
AcDbEntity
  8
DETAIL
100
AcDbLine
 10
6435.610967506011
 20
-40.75758838644108
 30
0.0
 11
6435.610967506011
 21
43.10912972672302
 31
0.0
  0
LINE
  5
46D7
330
1F
100
AcDbEntity
  8
DETAIL
100
AcDbLine
 10
6451.61096750601
 20
-40.75758838644108
 30
0.0
 11
6451.61096750601
 21
43.10912972672302
 31
0.0
  0
LINE
  5
46D8
330
1F
100
AcDbEntity
  8
DETAIL
100
AcDbLine
 10
6559.610967506005
 20
174.2424116135596
 30
0.0
 11
6533.851327133024
 21
129.647974052256
 31
0.0
  0
LINE
  5
46D9
330
1F
100
AcDbEntity
  8
DETAIL
100
AcDbLine
 10
6559.610967506005
 20
174.2424116135596
 30
0.0
 11
6585.370607878984
 21
129.647974052256
 31
0.0
  0
LINE
  5
46DA
330
1F
100
AcDbEntity
  8
DETAIL
100
AcDbLine
 10
6533.851327133024
 20
129.647974052256
 30
0.0
 11
6552.327988079205
 21
134.8737859744731
 31
0.0
  0
LINE
  5
46DB
330
1F
100
AcDbEntity
  8
DETAIL
100
AcDbLine
 10
6585.370607878984
 20
129.647974052256
 30
0.0
 11
6566.893946932805
 21
134.873785974473
 31
0.0
  0
LINE
  5
46DC
330
1F
100
AcDbEntity
  8
DETAIL
100
AcDbLine
 10
6572.253367097428
 20
117.8320088495906
 30
0.0
 11
6591.371442686309
 21
98.49077403984439
 31
0.0
  0
LINE
  5
46DD
330
1F
100
AcDbEntity
  8
DETAIL
100
AcDbLine
 10
6552.327988079205
 20
134.8737859744731
 30
0.0
 11
6552.327988079205
 21
129.3562771582302
 31
0.0
  0
LINE
  5
46DE
330
1F
100
AcDbEntity
  8
DETAIL
100
AcDbLine
 10
6566.893946932805
 20
134.873785974473
 30
0.0
 11
6566.893946932807
 21
129.35627715823
 31
0.0
  0
LINE
  5
46DF
330
1F
100
AcDbEntity
  8
DETAIL
100
AcDbLine
 10
6546.968567914579
 20
117.8320088495908
 30
0.0
 11
6527.850492325701
 21
98.49077403984439
 31
0.0
  0
LINE
  5
46E0
330
1F
100
AcDbEntity
  8
DETAIL
100
AcDbLine
 10
6546.968567914579
 20
117.8320088495905
 30
0.0
 11
6559.610967506005
 21
112.3251667743093
 31
0.0
  0
LINE
  5
46E1
330
1F
100
AcDbEntity
  8
DETAIL
100
AcDbLine
 10
6572.253367097428
 20
117.8320088495903
 30
0.0
 11
6559.610967506005
 21
112.3251667743093
 31
0.0
  0
LINE
  5
46E2
330
1F
100
AcDbEntity
  8
DETAIL
100
AcDbLine
 10
6566.893946932807
 20
129.35627715823
 30
0.0
 11
6566.893946932807
 21
121.5998141144759
 31
0.0
  0
LINE
  5
46E3
330
1F
100
AcDbEntity
  8
DETAIL
100
AcDbLine
 10
6552.327988079205
 20
129.3562771582302
 30
0.0
 11
6552.327988079205
 21
121.5998141144744
 31
0.0
  0
LINE
  5
46E4
330
1F
100
AcDbEntity
  8
DETAIL
100
AcDbLine
 10
6533.851327133024
 20
129.647974052256
 30
0.0
 11
6552.327988079205
 21
121.5998141144744
 31
0.0
  0
LINE
  5
46E5
330
1F
100
AcDbEntity
  8
DETAIL
100
AcDbLine
 10
6585.370607878984
 20
129.647974052256
 30
0.0
 11
6566.893946932807
 21
121.5998141144759
 31
0.0
  0
LINE
  5
46E6
330
1F
100
AcDbEntity
  8
DETAIL
100
AcDbLine
 10
6566.893946932807
 20
121.5998141144759
 30
0.0
 11
6566.893946932807
 21
115.4975247788865
 31
0.0
  0
LINE
  5
46E7
330
1F
100
AcDbEntity
  8
DETAIL
100
AcDbLine
 10
6552.327988079205
 20
121.5998141144744
 30
0.0
 11
6552.327988079205
 21
115.497524778885
 31
0.0
  0
LINE
  5
46E8
330
1F
100
AcDbEntity
  8
DETAIL
100
AcDbLine
 10
6527.850492325701
 20
98.49077403984439
 30
0.0
 11
6591.371442686309
 21
98.49077403984439
 31
0.0
  0
LINE
  5
46E9
330
1F
100
AcDbEntity
  8
DETAIL
100
AcDbLine
 10
6551.610967506011
 20
-40.75758838644037
 30
0.0
 11
6551.610967506011
 21
43.10912972672302
 31
0.0
  0
LINE
  5
46EA
330
1F
100
AcDbEntity
  8
DETAIL
100
AcDbLine
 10
6567.61096750601
 20
-40.75758838644037
 30
0.0
 11
6567.610967506012
 21
43.10912972672302
 31
0.0
  0
LINE
  5
46EB
330
1F
100
AcDbEntity
  8
DETAIL
100
AcDbLine
 10
6675.610967506003
 20
174.2424116135597
 30
0.0
 11
6649.851327133024
 21
129.6479740522562
 31
0.0
  0
LINE
  5
46EC
330
1F
100
AcDbEntity
  8
DETAIL
100
AcDbLine
 10
6675.610967506003
 20
174.2424116135597
 30
0.0
 11
6701.370607878985
 21
129.6479740522562
 31
0.0
  0
LINE
  5
46ED
330
1F
100
AcDbEntity
  8
DETAIL
100
AcDbLine
 10
6649.851327133024
 20
129.6479740522562
 30
0.0
 11
6668.327988079204
 21
134.8737859744732
 31
0.0
  0
LINE
  5
46EE
330
1F
100
AcDbEntity
  8
DETAIL
100
AcDbLine
 10
6701.370607878985
 20
129.6479740522562
 30
0.0
 11
6682.893946932805
 21
134.8737859744731
 31
0.0
  0
LINE
  5
46EF
330
1F
100
AcDbEntity
  8
DETAIL
100
AcDbLine
 10
6688.25336709743
 20
117.8320088495907
 30
0.0
 11
6707.371442686309
 21
98.49077403984452
 31
0.0
  0
LINE
  5
46F0
330
1F
100
AcDbEntity
  8
DETAIL
100
AcDbLine
 10
6668.327988079204
 20
134.8737859744732
 30
0.0
 11
6668.327988079205
 21
129.3562771582303
 31
0.0
  0
LINE
  5
46F1
330
1F
100
AcDbEntity
  8
DETAIL
100
AcDbLine
 10
6682.893946932805
 20
134.8737859744731
 30
0.0
 11
6682.893946932806
 21
129.3562771582301
 31
0.0
  0
LINE
  5
46F2
330
1F
100
AcDbEntity
  8
DETAIL
100
AcDbLine
 10
6662.968567914579
 20
117.8320088495909
 30
0.0
 11
6643.8504923257
 21
98.49077403984452
 31
0.0
  0
LINE
  5
46F3
330
1F
100
AcDbEntity
  8
DETAIL
100
AcDbLine
 10
6662.968567914579
 20
117.8320088495906
 30
0.0
 11
6675.610967506006
 21
112.3251667743094
 31
0.0
  0
LINE
  5
46F4
330
1F
100
AcDbEntity
  8
DETAIL
100
AcDbLine
 10
6688.25336709743
 20
117.8320088495905
 30
0.0
 11
6675.610967506006
 21
112.3251667743094
 31
0.0
  0
LINE
  5
46F5
330
1F
100
AcDbEntity
  8
DETAIL
100
AcDbLine
 10
6682.893946932806
 20
129.3562771582301
 30
0.0
 11
6682.893946932806
 21
121.599814114476
 31
0.0
  0
LINE
  5
46F6
330
1F
100
AcDbEntity
  8
DETAIL
100
AcDbLine
 10
6668.327988079205
 20
129.3562771582303
 30
0.0
 11
6668.327988079205
 21
121.5998141144745
 31
0.0
  0
LINE
  5
46F7
330
1F
100
AcDbEntity
  8
DETAIL
100
AcDbLine
 10
6649.851327133024
 20
129.6479740522562
 30
0.0
 11
6668.327988079205
 21
121.5998141144745
 31
0.0
  0
LINE
  5
46F8
330
1F
100
AcDbEntity
  8
DETAIL
100
AcDbLine
 10
6701.370607878985
 20
129.6479740522562
 30
0.0
 11
6682.893946932806
 21
121.599814114476
 31
0.0
  0
LINE
  5
46F9
330
1F
100
AcDbEntity
  8
DETAIL
100
AcDbLine
 10
6682.893946932806
 20
121.599814114476
 30
0.0
 11
6682.893946932806
 21
115.4975247788867
 31
0.0
  0
LINE
  5
46FA
330
1F
100
AcDbEntity
  8
DETAIL
100
AcDbLine
 10
6668.327988079205
 20
121.5998141144745
 30
0.0
 11
6668.327988079205
 21
115.4975247788851
 31
0.0
  0
LINE
  5
46FB
330
1F
100
AcDbEntity
  8
DETAIL
100
AcDbLine
 10
6643.8504923257
 20
98.49077403984452
 30
0.0
 11
6707.371442686309
 21
98.49077403984452
 31
0.0
  0
LINE
  5
46FC
330
1F
100
AcDbEntity
  8
DETAIL
100
AcDbLine
 10
6667.610967506011
 20
-40.75758838644026
 30
0.0
 11
6667.610967506012
 21
43.10912972672302
 31
0.0
  0
LINE
  5
46FD
330
1F
100
AcDbEntity
  8
DETAIL
100
AcDbLine
 10
6683.61096750601
 20
-40.75758838644026
 30
0.0
 11
6683.61096750601
 21
43.10912972672302
 31
0.0
  0
LINE
  5
46FE
330
1F
100
AcDbEntity
  8
DETAIL
100
AcDbLine
 10
6791.610967506002
 20
174.2424116135599
 30
0.0
 11
6765.851327133024
 21
129.6479740522564
 31
0.0
  0
LINE
  5
46FF
330
1F
100
AcDbEntity
  8
DETAIL
100
AcDbLine
 10
6791.610967506002
 20
174.2424116135599
 30
0.0
 11
6817.370607878984
 21
129.6479740522564
 31
0.0
  0
LINE
  5
4700
330
1F
100
AcDbEntity
  8
DETAIL
100
AcDbLine
 10
6765.851327133024
 20
129.6479740522564
 30
0.0
 11
6784.327988079204
 21
134.8737859744733
 31
0.0
  0
LINE
  5
4701
330
1F
100
AcDbEntity
  8
DETAIL
100
AcDbLine
 10
6817.370607878984
 20
129.6479740522564
 30
0.0
 11
6798.893946932806
 21
134.8737859744732
 31
0.0
  0
LINE
  5
4702
330
1F
100
AcDbEntity
  8
DETAIL
100
AcDbLine
 10
6804.253367097429
 20
117.8320088495908
 30
0.0
 11
6823.371442686308
 21
98.49077403984466
 31
0.0
  0
LINE
  5
4703
330
1F
100
AcDbEntity
  8
DETAIL
100
AcDbLine
 10
6784.327988079204
 20
134.8737859744733
 30
0.0
 11
6784.327988079205
 21
129.3562771582304
 31
0.0
  0
LINE
  5
4704
330
1F
100
AcDbEntity
  8
DETAIL
100
AcDbLine
 10
6798.893946932806
 20
134.8737859744732
 30
0.0
 11
6798.893946932806
 21
129.3562771582302
 31
0.0
  0
LINE
  5
4705
330
1F
100
AcDbEntity
  8
DETAIL
100
AcDbLine
 10
6778.968567914579
 20
117.832008849591
 30
0.0
 11
6759.850492325701
 21
98.49077403984466
 31
0.0
  0
LINE
  5
4706
330
1F
100
AcDbEntity
  8
DETAIL
100
AcDbLine
 10
6778.968567914579
 20
117.8320088495907
 30
0.0
 11
6791.610967506006
 21
112.3251667743095
 31
0.0
  0
LINE
  5
4707
330
1F
100
AcDbEntity
  8
DETAIL
100
AcDbLine
 10
6804.253367097429
 20
117.8320088495906
 30
0.0
 11
6791.610967506006
 21
112.3251667743095
 31
0.0
  0
LINE
  5
4708
330
1F
100
AcDbEntity
  8
DETAIL
100
AcDbLine
 10
6798.893946932806
 20
129.3562771582302
 30
0.0
 11
6798.893946932806
 21
121.5998141144762
 31
0.0
  0
LINE
  5
4709
330
1F
100
AcDbEntity
  8
DETAIL
100
AcDbLine
 10
6784.327988079205
 20
129.3562771582304
 30
0.0
 11
6784.327988079205
 21
121.5998141144746
 31
0.0
  0
LINE
  5
470A
330
1F
100
AcDbEntity
  8
DETAIL
100
AcDbLine
 10
6765.851327133024
 20
129.6479740522564
 30
0.0
 11
6784.327988079205
 21
121.5998141144746
 31
0.0
  0
LINE
  5
470B
330
1F
100
AcDbEntity
  8
DETAIL
100
AcDbLine
 10
6817.370607878984
 20
129.6479740522564
 30
0.0
 11
6798.893946932806
 21
121.5998141144762
 31
0.0
  0
LINE
  5
470C
330
1F
100
AcDbEntity
  8
DETAIL
100
AcDbLine
 10
6798.893946932806
 20
121.5998141144762
 30
0.0
 11
6798.893946932806
 21
115.4975247788868
 31
0.0
  0
LINE
  5
470D
330
1F
100
AcDbEntity
  8
DETAIL
100
AcDbLine
 10
6784.327988079205
 20
121.5998141144746
 30
0.0
 11
6784.327988079205
 21
115.4975247788852
 31
0.0
  0
LINE
  5
470E
330
1F
100
AcDbEntity
  8
DETAIL
100
AcDbLine
 10
6759.850492325701
 20
98.49077403984466
 30
0.0
 11
6823.371442686308
 21
98.49077403984466
 31
0.0
  0
LINE
  5
470F
330
1F
100
AcDbEntity
  8
DETAIL
100
AcDbLine
 10
6783.61096750601
 20
-40.75758838644014
 30
0.0
 11
6783.61096750601
 21
43.10912972672302
 31
0.0
  0
LINE
  5
4710
330
1F
100
AcDbEntity
  8
DETAIL
100
AcDbLine
 10
6799.610967506011
 20
-40.75758838644014
 30
0.0
 11
6799.610967506011
 21
43.10912972672302
 31
0.0
  0
LINE
  5
4711
330
1F
100
AcDbEntity
  8
DETAIL
100
AcDbLine
 10
6907.610967506004
 20
174.2424116135589
 30
0.0
 11
6881.851327133024
 21
129.6479740522554
 31
0.0
  0
LINE
  5
4712
330
1F
100
AcDbEntity
  8
DETAIL
100
AcDbLine
 10
6907.610967506004
 20
174.2424116135589
 30
0.0
 11
6933.370607878984
 21
129.6479740522554
 31
0.0
  0
LINE
  5
4713
330
1F
100
AcDbEntity
  8
DETAIL
100
AcDbLine
 10
6881.851327133024
 20
129.6479740522554
 30
0.0
 11
6900.327988079204
 21
134.8737859744724
 31
0.0
  0
LINE
  5
4714
330
1F
100
AcDbEntity
  8
DETAIL
100
AcDbLine
 10
6933.370607878984
 20
129.6479740522554
 30
0.0
 11
6914.893946932806
 21
134.8737859744723
 31
0.0
  0
LINE
  5
4715
330
1F
100
AcDbEntity
  8
DETAIL
100
AcDbLine
 10
6920.253367097429
 20
117.8320088495899
 30
0.0
 11
6939.371442686308
 21
98.49077403984372
 31
0.0
  0
LINE
  5
4716
330
1F
100
AcDbEntity
  8
DETAIL
100
AcDbLine
 10
6900.327988079204
 20
134.8737859744724
 30
0.0
 11
6900.327988079204
 21
129.3562771582295
 31
0.0
  0
LINE
  5
4717
330
1F
100
AcDbEntity
  8
DETAIL
100
AcDbLine
 10
6914.893946932806
 20
134.8737859744723
 30
0.0
 11
6914.893946932806
 21
129.3562771582293
 31
0.0
  0
LINE
  5
4718
330
1F
100
AcDbEntity
  8
DETAIL
100
AcDbLine
 10
6894.968567914578
 20
117.8320088495901
 30
0.0
 11
6875.8504923257
 21
98.49077403984372
 31
0.0
  0
LINE
  5
4719
330
1F
100
AcDbEntity
  8
DETAIL
100
AcDbLine
 10
6894.968567914578
 20
117.8320088495897
 30
0.0
 11
6907.610967506006
 21
112.3251667743086
 31
0.0
  0
LINE
  5
471A
330
1F
100
AcDbEntity
  8
DETAIL
100
AcDbLine
 10
6920.253367097429
 20
117.8320088495896
 30
0.0
 11
6907.610967506006
 21
112.3251667743086
 31
0.0
  0
LINE
  5
471B
330
1F
100
AcDbEntity
  8
DETAIL
100
AcDbLine
 10
6914.893946932806
 20
129.3562771582293
 30
0.0
 11
6914.893946932806
 21
121.5998141144752
 31
0.0
  0
LINE
  5
471C
330
1F
100
AcDbEntity
  8
DETAIL
100
AcDbLine
 10
6900.327988079204
 20
129.3562771582295
 30
0.0
 11
6900.327988079204
 21
121.5998141144737
 31
0.0
  0
LINE
  5
471D
330
1F
100
AcDbEntity
  8
DETAIL
100
AcDbLine
 10
6881.851327133024
 20
129.6479740522554
 30
0.0
 11
6900.327988079204
 21
121.5998141144737
 31
0.0
  0
LINE
  5
471E
330
1F
100
AcDbEntity
  8
DETAIL
100
AcDbLine
 10
6933.370607878984
 20
129.6479740522554
 30
0.0
 11
6914.893946932806
 21
121.5998141144752
 31
0.0
  0
LINE
  5
471F
330
1F
100
AcDbEntity
  8
DETAIL
100
AcDbLine
 10
6914.893946932806
 20
121.5998141144752
 30
0.0
 11
6914.893946932806
 21
115.4975247788858
 31
0.0
  0
LINE
  5
4720
330
1F
100
AcDbEntity
  8
DETAIL
100
AcDbLine
 10
6900.327988079204
 20
121.5998141144737
 30
0.0
 11
6900.327988079204
 21
115.4975247788843
 31
0.0
  0
LINE
  5
4721
330
1F
100
AcDbEntity
  8
DETAIL
100
AcDbLine
 10
6875.8504923257
 20
98.49077403984372
 30
0.0
 11
6939.371442686308
 21
98.49077403984372
 31
0.0
  0
LINE
  5
4722
330
1F
100
AcDbEntity
  8
DETAIL
100
AcDbLine
 10
6899.610967506011
 20
-40.75758838644108
 30
0.0
 11
6899.610967506011
 21
43.10912972672303
 31
0.0
  0
LINE
  5
4723
330
1F
100
AcDbEntity
  8
DETAIL
100
AcDbLine
 10
6915.610967506011
 20
-40.75758838644108
 30
0.0
 11
6915.610967506012
 21
43.10912972672303
 31
0.0
  0
LINE
  5
4724
330
1F
100
AcDbEntity
  8
DETAIL
100
AcDbLine
 10
7023.610967506005
 20
174.2424116135589
 30
0.0
 11
6997.851327133024
 21
129.6479740522554
 31
0.0
  0
LINE
  5
4725
330
1F
100
AcDbEntity
  8
DETAIL
100
AcDbLine
 10
7023.610967506005
 20
174.2424116135589
 30
0.0
 11
7049.370607878984
 21
129.6479740522554
 31
0.0
  0
LINE
  5
4726
330
1F
100
AcDbEntity
  8
DETAIL
100
AcDbLine
 10
6997.851327133024
 20
129.6479740522554
 30
0.0
 11
7016.327988079204
 21
134.8737859744724
 31
0.0
  0
LINE
  5
4727
330
1F
100
AcDbEntity
  8
DETAIL
100
AcDbLine
 10
7049.370607878984
 20
129.6479740522554
 30
0.0
 11
7030.893946932805
 21
134.8737859744723
 31
0.0
  0
LINE
  5
4728
330
1F
100
AcDbEntity
  8
DETAIL
100
AcDbLine
 10
7036.253367097429
 20
117.8320088495899
 30
0.0
 11
7055.371442686309
 21
98.49077403984372
 31
0.0
  0
LINE
  5
4729
330
1F
100
AcDbEntity
  8
DETAIL
100
AcDbLine
 10
7016.327988079204
 20
134.8737859744724
 30
0.0
 11
7016.327988079204
 21
129.3562771582295
 31
0.0
  0
LINE
  5
472A
330
1F
100
AcDbEntity
  8
DETAIL
100
AcDbLine
 10
7030.893946932805
 20
134.8737859744723
 30
0.0
 11
7030.893946932806
 21
129.3562771582293
 31
0.0
  0
LINE
  5
472B
330
1F
100
AcDbEntity
  8
DETAIL
100
AcDbLine
 10
7010.968567914578
 20
117.8320088495901
 30
0.0
 11
6991.8504923257
 21
98.49077403984372
 31
0.0
  0
LINE
  5
472C
330
1F
100
AcDbEntity
  8
DETAIL
100
AcDbLine
 10
7010.968567914578
 20
117.8320088495897
 30
0.0
 11
7023.610967506005
 21
112.3251667743086
 31
0.0
  0
LINE
  5
472D
330
1F
100
AcDbEntity
  8
DETAIL
100
AcDbLine
 10
7036.253367097429
 20
117.8320088495896
 30
0.0
 11
7023.610967506005
 21
112.3251667743086
 31
0.0
  0
LINE
  5
472E
330
1F
100
AcDbEntity
  8
DETAIL
100
AcDbLine
 10
7030.893946932806
 20
129.3562771582293
 30
0.0
 11
7030.893946932806
 21
121.5998141144752
 31
0.0
  0
LINE
  5
472F
330
1F
100
AcDbEntity
  8
DETAIL
100
AcDbLine
 10
7016.327988079204
 20
129.3562771582295
 30
0.0
 11
7016.327988079204
 21
121.5998141144737
 31
0.0
  0
LINE
  5
4730
330
1F
100
AcDbEntity
  8
DETAIL
100
AcDbLine
 10
6997.851327133024
 20
129.6479740522554
 30
0.0
 11
7016.327988079204
 21
121.5998141144737
 31
0.0
  0
LINE
  5
4731
330
1F
100
AcDbEntity
  8
DETAIL
100
AcDbLine
 10
7049.370607878984
 20
129.6479740522554
 30
0.0
 11
7030.893946932806
 21
121.5998141144752
 31
0.0
  0
LINE
  5
4732
330
1F
100
AcDbEntity
  8
DETAIL
100
AcDbLine
 10
7030.893946932806
 20
121.5998141144752
 30
0.0
 11
7030.893946932806
 21
115.4975247788858
 31
0.0
  0
LINE
  5
4733
330
1F
100
AcDbEntity
  8
DETAIL
100
AcDbLine
 10
7016.327988079204
 20
121.5998141144737
 30
0.0
 11
7016.327988079204
 21
115.4975247788843
 31
0.0
  0
LINE
  5
4734
330
1F
100
AcDbEntity
  8
DETAIL
100
AcDbLine
 10
6991.8504923257
 20
98.49077403984372
 30
0.0
 11
7055.371442686309
 21
98.49077403984372
 31
0.0
  0
LINE
  5
4735
330
1F
100
AcDbEntity
  8
DETAIL
100
AcDbLine
 10
7015.61096750601
 20
-40.75758838644108
 30
0.0
 11
7015.610967506012
 21
43.10912972672303
 31
0.0
  0
LINE
  5
4736
330
1F
100
AcDbEntity
  8
DETAIL
100
AcDbLine
 10
7031.610967506011
 20
-40.75758838644108
 30
0.0
 11
7031.610967506011
 21
43.10912972672303
 31
0.0
  0
LINE
  5
4737
330
1F
100
AcDbEntity
  8
DETAIL
100
AcDbLine
 10
7139.610967506005
 20
174.2424116135589
 30
0.0
 11
7113.851327133024
 21
129.6479740522554
 31
0.0
  0
LINE
  5
4738
330
1F
100
AcDbEntity
  8
DETAIL
100
AcDbLine
 10
7139.610967506005
 20
174.2424116135589
 30
0.0
 11
7165.370607878985
 21
129.6479740522554
 31
0.0
  0
LINE
  5
4739
330
1F
100
AcDbEntity
  8
DETAIL
100
AcDbLine
 10
7113.851327133024
 20
129.6479740522554
 30
0.0
 11
7132.327988079204
 21
134.8737859744724
 31
0.0
  0
LINE
  5
473A
330
1F
100
AcDbEntity
  8
DETAIL
100
AcDbLine
 10
7165.370607878985
 20
129.6479740522554
 30
0.0
 11
7146.893946932805
 21
134.8737859744723
 31
0.0
  0
LINE
  5
473B
330
1F
100
AcDbEntity
  8
DETAIL
100
AcDbLine
 10
7152.253367097429
 20
117.8320088495899
 30
0.0
 11
7171.371442686307
 21
98.49077403984372
 31
0.0
  0
LINE
  5
473C
330
1F
100
AcDbEntity
  8
DETAIL
100
AcDbLine
 10
7132.327988079204
 20
134.8737859744724
 30
0.0
 11
7132.327988079207
 21
129.3562771582295
 31
0.0
  0
LINE
  5
473D
330
1F
100
AcDbEntity
  8
DETAIL
100
AcDbLine
 10
7146.893946932805
 20
134.8737859744723
 30
0.0
 11
7146.893946932808
 21
129.3562771582293
 31
0.0
  0
LINE
  5
473E
330
1F
100
AcDbEntity
  8
DETAIL
100
AcDbLine
 10
7126.968567914579
 20
117.8320088495901
 30
0.0
 11
7107.8504923257
 21
98.49077403984372
 31
0.0
  0
LINE
  5
473F
330
1F
100
AcDbEntity
  8
DETAIL
100
AcDbLine
 10
7126.968567914579
 20
117.8320088495897
 30
0.0
 11
7139.610967506006
 21
112.3251667743086
 31
0.0
  0
LINE
  5
4740
330
1F
100
AcDbEntity
  8
DETAIL
100
AcDbLine
 10
7152.253367097429
 20
117.8320088495896
 30
0.0
 11
7139.610967506006
 21
112.3251667743086
 31
0.0
  0
LINE
  5
4741
330
1F
100
AcDbEntity
  8
DETAIL
100
AcDbLine
 10
7146.893946932808
 20
129.3562771582293
 30
0.0
 11
7146.893946932808
 21
121.5998141144752
 31
0.0
  0
LINE
  5
4742
330
1F
100
AcDbEntity
  8
DETAIL
100
AcDbLine
 10
7132.327988079207
 20
129.3562771582295
 30
0.0
 11
7132.327988079207
 21
121.5998141144737
 31
0.0
  0
LINE
  5
4743
330
1F
100
AcDbEntity
  8
DETAIL
100
AcDbLine
 10
7113.851327133024
 20
129.6479740522554
 30
0.0
 11
7132.327988079207
 21
121.5998141144737
 31
0.0
  0
LINE
  5
4744
330
1F
100
AcDbEntity
  8
DETAIL
100
AcDbLine
 10
7165.370607878985
 20
129.6479740522554
 30
0.0
 11
7146.893946932808
 21
121.5998141144752
 31
0.0
  0
LINE
  5
4745
330
1F
100
AcDbEntity
  8
DETAIL
100
AcDbLine
 10
7146.893946932808
 20
121.5998141144752
 30
0.0
 11
7146.893946932808
 21
115.4975247788858
 31
0.0
  0
LINE
  5
4746
330
1F
100
AcDbEntity
  8
DETAIL
100
AcDbLine
 10
7132.327988079207
 20
121.5998141144737
 30
0.0
 11
7132.327988079207
 21
115.4975247788843
 31
0.0
  0
LINE
  5
4747
330
1F
100
AcDbEntity
  8
DETAIL
100
AcDbLine
 10
7107.8504923257
 20
98.49077403984372
 30
0.0
 11
7171.371442686307
 21
98.49077403984372
 31
0.0
  0
LINE
  5
4748
330
1F
100
AcDbEntity
  8
DETAIL
100
AcDbLine
 10
7131.61096750601
 20
-40.75758838644108
 30
0.0
 11
7131.61096750601
 21
43.10912972672303
 31
0.0
  0
LINE
  5
4749
330
1F
100
AcDbEntity
  8
DETAIL
100
AcDbLine
 10
7147.61096750601
 20
-40.75758838644108
 30
0.0
 11
7147.61096750601
 21
43.10912972672303
 31
0.0
  0
LINE
  5
474A
330
1F
100
AcDbEntity
  8
DETAIL
100
AcDbLine
 10
7255.610967506003
 20
174.2424116135589
 30
0.0
 11
7229.851327133022
 21
129.6479740522554
 31
0.0
  0
LINE
  5
474B
330
1F
100
AcDbEntity
  8
DETAIL
100
AcDbLine
 10
7255.610967506003
 20
174.2424116135589
 30
0.0
 11
7281.370607878987
 21
129.6479740522554
 31
0.0
  0
LINE
  5
474C
330
1F
100
AcDbEntity
  8
DETAIL
100
AcDbLine
 10
7229.851327133022
 20
129.6479740522554
 30
0.0
 11
7248.327988079203
 21
134.8737859744724
 31
0.0
  0
LINE
  5
474D
330
1F
100
AcDbEntity
  8
DETAIL
100
AcDbLine
 10
7281.370607878987
 20
129.6479740522554
 30
0.0
 11
7262.893946932805
 21
134.8737859744723
 31
0.0
  0
LINE
  5
474E
330
1F
100
AcDbEntity
  8
DETAIL
100
AcDbLine
 10
7268.253367097429
 20
117.8320088495899
 30
0.0
 11
7287.371442686309
 21
98.49077403984372
 31
0.0
  0
LINE
  5
474F
330
1F
100
AcDbEntity
  8
DETAIL
100
AcDbLine
 10
7248.327988079203
 20
134.8737859744724
 30
0.0
 11
7248.327988079205
 21
129.3562771582295
 31
0.0
  0
LINE
  5
4750
330
1F
100
AcDbEntity
  8
DETAIL
100
AcDbLine
 10
7262.893946932805
 20
134.8737859744723
 30
0.0
 11
7262.893946932805
 21
129.3562771582293
 31
0.0
  0
LINE
  5
4751
330
1F
100
AcDbEntity
  8
DETAIL
100
AcDbLine
 10
7242.968567914579
 20
117.8320088495901
 30
0.0
 11
7223.850492325701
 21
98.49077403984372
 31
0.0
  0
LINE
  5
4752
330
1F
100
AcDbEntity
  8
DETAIL
100
AcDbLine
 10
7242.968567914579
 20
117.8320088495897
 30
0.0
 11
7255.610967506004
 21
112.3251667743086
 31
0.0
  0
LINE
  5
4753
330
1F
100
AcDbEntity
  8
DETAIL
100
AcDbLine
 10
7268.253367097429
 20
117.8320088495896
 30
0.0
 11
7255.610967506004
 21
112.3251667743086
 31
0.0
  0
LINE
  5
4754
330
1F
100
AcDbEntity
  8
DETAIL
100
AcDbLine
 10
7262.893946932805
 20
129.3562771582293
 30
0.0
 11
7262.893946932805
 21
121.5998141144752
 31
0.0
  0
LINE
  5
4755
330
1F
100
AcDbEntity
  8
DETAIL
100
AcDbLine
 10
7248.327988079205
 20
129.3562771582295
 30
0.0
 11
7248.327988079205
 21
121.5998141144737
 31
0.0
  0
LINE
  5
4756
330
1F
100
AcDbEntity
  8
DETAIL
100
AcDbLine
 10
7229.851327133022
 20
129.6479740522554
 30
0.0
 11
7248.327988079205
 21
121.5998141144737
 31
0.0
  0
LINE
  5
4757
330
1F
100
AcDbEntity
  8
DETAIL
100
AcDbLine
 10
7281.370607878987
 20
129.6479740522554
 30
0.0
 11
7262.893946932805
 21
121.5998141144752
 31
0.0
  0
LINE
  5
4758
330
1F
100
AcDbEntity
  8
DETAIL
100
AcDbLine
 10
7262.893946932805
 20
121.5998141144752
 30
0.0
 11
7262.893946932805
 21
115.4975247788858
 31
0.0
  0
LINE
  5
4759
330
1F
100
AcDbEntity
  8
DETAIL
100
AcDbLine
 10
7248.327988079205
 20
121.5998141144737
 30
0.0
 11
7248.327988079205
 21
115.4975247788843
 31
0.0
  0
LINE
  5
475A
330
1F
100
AcDbEntity
  8
DETAIL
100
AcDbLine
 10
7223.850492325701
 20
98.49077403984372
 30
0.0
 11
7287.371442686309
 21
98.49077403984372
 31
0.0
  0
LINE
  5
475B
330
1F
100
AcDbEntity
  8
DETAIL
100
AcDbLine
 10
7247.61096750601
 20
-40.75758838644108
 30
0.0
 11
7247.610967506012
 21
43.10912972672303
 31
0.0
  0
LINE
  5
475C
330
1F
100
AcDbEntity
  8
DETAIL
100
AcDbLine
 10
7263.610967506011
 20
-40.75758838644108
 30
0.0
 11
7263.610967506011
 21
43.10912972672303
 31
0.0
  0
LINE
  5
475D
330
1F
100
AcDbEntity
  8
DETAIL
100
AcDbLine
 10
7371.610967506004
 20
174.2424116135605
 30
0.0
 11
7345.851327133025
 21
129.647974052257
 31
0.0
  0
LINE
  5
475E
330
1F
100
AcDbEntity
  8
DETAIL
100
AcDbLine
 10
7371.610967506004
 20
174.2424116135605
 30
0.0
 11
7397.370607878984
 21
129.647974052257
 31
0.0
  0
LINE
  5
475F
330
1F
100
AcDbEntity
  8
DETAIL
100
AcDbLine
 10
7345.851327133025
 20
129.647974052257
 30
0.0
 11
7364.327988079205
 21
134.8737859744739
 31
0.0
  0
LINE
  5
4760
330
1F
100
AcDbEntity
  8
DETAIL
100
AcDbLine
 10
7397.370607878984
 20
129.647974052257
 30
0.0
 11
7378.893946932805
 21
134.8737859744738
 31
0.0
  0
LINE
  5
4761
330
1F
100
AcDbEntity
  8
DETAIL
100
AcDbLine
 10
7384.253367097429
 20
117.8320088495914
 30
0.0
 11
7403.371442686308
 21
98.49077403984523
 31
0.0
  0
LINE
  5
4762
330
1F
100
AcDbEntity
  8
DETAIL
100
AcDbLine
 10
7364.327988079205
 20
134.8737859744739
 30
0.0
 11
7364.327988079205
 21
129.356277158231
 31
0.0
  0
LINE
  5
4763
330
1F
100
AcDbEntity
  8
DETAIL
100
AcDbLine
 10
7378.893946932805
 20
134.8737859744738
 30
0.0
 11
7378.893946932805
 21
129.3562771582308
 31
0.0
  0
LINE
  5
4764
330
1F
100
AcDbEntity
  8
DETAIL
100
AcDbLine
 10
7358.968567914579
 20
117.8320088495916
 30
0.0
 11
7339.850492325701
 21
98.49077403984523
 31
0.0
  0
LINE
  5
4765
330
1F
100
AcDbEntity
  8
DETAIL
100
AcDbLine
 10
7358.968567914579
 20
117.8320088495913
 30
0.0
 11
7371.610967506004
 21
112.3251667743101
 31
0.0
  0
LINE
  5
4766
330
1F
100
AcDbEntity
  8
DETAIL
100
AcDbLine
 10
7384.253367097429
 20
117.8320088495912
 30
0.0
 11
7371.610967506004
 21
112.3251667743101
 31
0.0
  0
LINE
  5
4767
330
1F
100
AcDbEntity
  8
DETAIL
100
AcDbLine
 10
7378.893946932805
 20
129.3562771582308
 30
0.0
 11
7378.893946932805
 21
121.5998141144768
 31
0.0
  0
LINE
  5
4768
330
1F
100
AcDbEntity
  8
DETAIL
100
AcDbLine
 10
7364.327988079205
 20
129.356277158231
 30
0.0
 11
7364.327988079205
 21
121.5998141144752
 31
0.0
  0
LINE
  5
4769
330
1F
100
AcDbEntity
  8
DETAIL
100
AcDbLine
 10
7345.851327133025
 20
129.647974052257
 30
0.0
 11
7364.327988079205
 21
121.5998141144752
 31
0.0
  0
LINE
  5
476A
330
1F
100
AcDbEntity
  8
DETAIL
100
AcDbLine
 10
7397.370607878984
 20
129.647974052257
 30
0.0
 11
7378.893946932805
 21
121.5998141144768
 31
0.0
  0
LINE
  5
476B
330
1F
100
AcDbEntity
  8
DETAIL
100
AcDbLine
 10
7378.893946932805
 20
121.5998141144768
 30
0.0
 11
7378.893946932805
 21
115.4975247788874
 31
0.0
  0
LINE
  5
476C
330
1F
100
AcDbEntity
  8
DETAIL
100
AcDbLine
 10
7364.327988079205
 20
121.5998141144752
 30
0.0
 11
7364.327988079205
 21
115.4975247788858
 31
0.0
  0
LINE
  5
476D
330
1F
100
AcDbEntity
  8
DETAIL
100
AcDbLine
 10
7339.850492325701
 20
98.49077403984523
 30
0.0
 11
7403.371442686308
 21
98.49077403984523
 31
0.0
  0
LINE
  5
476E
330
1F
100
AcDbEntity
  8
DETAIL
100
AcDbLine
 10
7363.610967506011
 20
-40.75758838643955
 30
0.0
 11
7363.610967506011
 21
43.10912972672304
 31
0.0
  0
LINE
  5
476F
330
1F
100
AcDbEntity
  8
DETAIL
100
AcDbLine
 10
7379.610967506009
 20
-40.75758838643955
 30
0.0
 11
7379.610967506012
 21
43.10912972672304
 31
0.0
  0
LINE
  5
4770
330
1F
100
AcDbEntity
  8
DETAIL
100
AcDbLine
 10
7487.610967506005
 20
174.2424116135606
 30
0.0
 11
7461.851327133024
 21
129.6479740522571
 31
0.0
  0
LINE
  5
4771
330
1F
100
AcDbEntity
  8
DETAIL
100
AcDbLine
 10
7487.610967506005
 20
174.2424116135606
 30
0.0
 11
7513.370607878984
 21
129.6479740522571
 31
0.0
  0
LINE
  5
4772
330
1F
100
AcDbEntity
  8
DETAIL
100
AcDbLine
 10
7461.851327133024
 20
129.6479740522571
 30
0.0
 11
7480.327988079205
 21
134.873785974474
 31
0.0
  0
LINE
  5
4773
330
1F
100
AcDbEntity
  8
DETAIL
100
AcDbLine
 10
7513.370607878984
 20
129.6479740522571
 30
0.0
 11
7494.893946932805
 21
134.8737859744739
 31
0.0
  0
LINE
  5
4774
330
1F
100
AcDbEntity
  8
DETAIL
100
AcDbLine
 10
7500.253367097428
 20
117.8320088495915
 30
0.0
 11
7519.37144268631
 21
98.49077403984535
 31
0.0
  0
LINE
  5
4775
330
1F
100
AcDbEntity
  8
DETAIL
100
AcDbLine
 10
7480.327988079205
 20
134.873785974474
 30
0.0
 11
7480.327988079205
 21
129.3562771582311
 31
0.0
  0
LINE
  5
4776
330
1F
100
AcDbEntity
  8
DETAIL
100
AcDbLine
 10
7494.893946932805
 20
134.8737859744739
 30
0.0
 11
7494.893946932807
 21
129.3562771582309
 31
0.0
  0
LINE
  5
4777
330
1F
100
AcDbEntity
  8
DETAIL
100
AcDbLine
 10
7474.968567914578
 20
117.8320088495917
 30
0.0
 11
7455.8504923257
 21
98.49077403984535
 31
0.0
  0
LINE
  5
4778
330
1F
100
AcDbEntity
  8
DETAIL
100
AcDbLine
 10
7474.968567914578
 20
117.8320088495914
 30
0.0
 11
7487.610967506005
 21
112.3251667743103
 31
0.0
  0
LINE
  5
4779
330
1F
100
AcDbEntity
  8
DETAIL
100
AcDbLine
 10
7500.253367097428
 20
117.8320088495913
 30
0.0
 11
7487.610967506005
 21
112.3251667743103
 31
0.0
  0
LINE
  5
477A
330
1F
100
AcDbEntity
  8
DETAIL
100
AcDbLine
 10
7494.893946932807
 20
129.3562771582309
 30
0.0
 11
7494.893946932807
 21
121.5998141144769
 31
0.0
  0
LINE
  5
477B
330
1F
100
AcDbEntity
  8
DETAIL
100
AcDbLine
 10
7480.327988079205
 20
129.3562771582311
 30
0.0
 11
7480.327988079205
 21
121.5998141144753
 31
0.0
  0
LINE
  5
477C
330
1F
100
AcDbEntity
  8
DETAIL
100
AcDbLine
 10
7461.851327133024
 20
129.6479740522571
 30
0.0
 11
7480.327988079205
 21
121.5998141144753
 31
0.0
  0
LINE
  5
477D
330
1F
100
AcDbEntity
  8
DETAIL
100
AcDbLine
 10
7513.370607878984
 20
129.6479740522571
 30
0.0
 11
7494.893946932807
 21
121.5998141144769
 31
0.0
  0
LINE
  5
477E
330
1F
100
AcDbEntity
  8
DETAIL
100
AcDbLine
 10
7494.893946932807
 20
121.5998141144769
 30
0.0
 11
7494.893946932807
 21
115.4975247788875
 31
0.0
  0
LINE
  5
477F
330
1F
100
AcDbEntity
  8
DETAIL
100
AcDbLine
 10
7480.327988079205
 20
121.5998141144753
 30
0.0
 11
7480.327988079205
 21
115.4975247788859
 31
0.0
  0
LINE
  5
4780
330
1F
100
AcDbEntity
  8
DETAIL
100
AcDbLine
 10
7455.8504923257
 20
98.49077403984535
 30
0.0
 11
7519.37144268631
 21
98.49077403984535
 31
0.0
  0
LINE
  5
4781
330
1F
100
AcDbEntity
  8
DETAIL
100
AcDbLine
 10
7479.610967506011
 20
-40.75758838643944
 30
0.0
 11
7479.610967506012
 21
43.10912972672304
 31
0.0
  0
LINE
  5
4782
330
1F
100
AcDbEntity
  8
DETAIL
100
AcDbLine
 10
7495.61096750601
 20
-40.75758838643944
 30
0.0
 11
7495.61096750601
 21
43.10912972672304
 31
0.0
  0
LINE
  5
4783
330
1F
100
AcDbEntity
  8
DETAIL
100
AcDbLine
 10
7603.610967506003
 20
174.2424116135607
 30
0.0
 11
7577.851327133024
 21
129.6479740522572
 31
0.0
  0
LINE
  5
4784
330
1F
100
AcDbEntity
  8
DETAIL
100
AcDbLine
 10
7603.610967506003
 20
174.2424116135607
 30
0.0
 11
7629.370607878986
 21
129.6479740522572
 31
0.0
  0
LINE
  5
4785
330
1F
100
AcDbEntity
  8
DETAIL
100
AcDbLine
 10
7577.851327133024
 20
129.6479740522572
 30
0.0
 11
7596.327988079204
 21
134.8737859744741
 31
0.0
  0
LINE
  5
4786
330
1F
100
AcDbEntity
  8
DETAIL
100
AcDbLine
 10
7629.370607878986
 20
129.6479740522572
 30
0.0
 11
7610.893946932804
 21
134.873785974474
 31
0.0
  0
LINE
  5
4787
330
1F
100
AcDbEntity
  8
DETAIL
100
AcDbLine
 10
7616.25336709743
 20
117.8320088495916
 30
0.0
 11
7635.371442686309
 21
98.49077403984544
 31
0.0
  0
LINE
  5
4788
330
1F
100
AcDbEntity
  8
DETAIL
100
AcDbLine
 10
7596.327988079204
 20
134.8737859744741
 30
0.0
 11
7596.327988079207
 21
129.3562771582312
 31
0.0
  0
LINE
  5
4789
330
1F
100
AcDbEntity
  8
DETAIL
100
AcDbLine
 10
7610.893946932804
 20
134.873785974474
 30
0.0
 11
7610.893946932808
 21
129.3562771582311
 31
0.0
  0
LINE
  5
478A
330
1F
100
AcDbEntity
  8
DETAIL
100
AcDbLine
 10
7590.968567914579
 20
117.8320088495919
 30
0.0
 11
7571.8504923257
 21
98.49077403984544
 31
0.0
  0
LINE
  5
478B
330
1F
100
AcDbEntity
  8
DETAIL
100
AcDbLine
 10
7590.968567914579
 20
117.8320088495915
 30
0.0
 11
7603.610967506003
 21
112.3251667743104
 31
0.0
  0
LINE
  5
478C
330
1F
100
AcDbEntity
  8
DETAIL
100
AcDbLine
 10
7616.25336709743
 20
117.8320088495914
 30
0.0
 11
7603.610967506003
 21
112.3251667743104
 31
0.0
  0
LINE
  5
478D
330
1F
100
AcDbEntity
  8
DETAIL
100
AcDbLine
 10
7610.893946932808
 20
129.3562771582311
 30
0.0
 11
7610.893946932808
 21
121.599814114477
 31
0.0
  0
LINE
  5
478E
330
1F
100
AcDbEntity
  8
DETAIL
100
AcDbLine
 10
7596.327988079207
 20
129.3562771582312
 30
0.0
 11
7596.327988079207
 21
121.5998141144754
 31
0.0
  0
LINE
  5
478F
330
1F
100
AcDbEntity
  8
DETAIL
100
AcDbLine
 10
7577.851327133024
 20
129.6479740522572
 30
0.0
 11
7596.327988079207
 21
121.5998141144754
 31
0.0
  0
LINE
  5
4790
330
1F
100
AcDbEntity
  8
DETAIL
100
AcDbLine
 10
7629.370607878986
 20
129.6479740522572
 30
0.0
 11
7610.893946932808
 21
121.599814114477
 31
0.0
  0
LINE
  5
4791
330
1F
100
AcDbEntity
  8
DETAIL
100
AcDbLine
 10
7610.893946932808
 20
121.599814114477
 30
0.0
 11
7610.893946932808
 21
115.4975247788876
 31
0.0
  0
LINE
  5
4792
330
1F
100
AcDbEntity
  8
DETAIL
100
AcDbLine
 10
7596.327988079207
 20
121.5998141144754
 30
0.0
 11
7596.327988079207
 21
115.4975247788861
 31
0.0
  0
LINE
  5
4793
330
1F
100
AcDbEntity
  8
DETAIL
100
AcDbLine
 10
7571.8504923257
 20
98.49077403984544
 30
0.0
 11
7635.371442686309
 21
98.49077403984544
 31
0.0
  0
LINE
  5
4794
330
1F
100
AcDbEntity
  8
DETAIL
100
AcDbLine
 10
7595.610967506011
 20
-40.75758838643931
 30
0.0
 11
7595.610967506011
 21
43.10912972672304
 31
0.0
  0
LINE
  5
4795
330
1F
100
AcDbEntity
  8
DETAIL
100
AcDbLine
 10
7611.61096750601
 20
-40.75758838643931
 30
0.0
 11
7611.61096750601
 21
43.10912972672304
 31
0.0
  0
LINE
  5
4796
330
1F
100
AcDbEntity
  8
DETAIL
100
AcDbLine
 10
7719.610967506003
 20
174.2424116135589
 30
0.0
 11
7693.851327133024
 21
129.6479740522554
 31
0.0
  0
LINE
  5
4797
330
1F
100
AcDbEntity
  8
DETAIL
100
AcDbLine
 10
7719.610967506003
 20
174.2424116135589
 30
0.0
 11
7745.370607878986
 21
129.6479740522554
 31
0.0
  0
LINE
  5
4798
330
1F
100
AcDbEntity
  8
DETAIL
100
AcDbLine
 10
7693.851327133024
 20
129.6479740522554
 30
0.0
 11
7712.327988079204
 21
134.8737859744724
 31
0.0
  0
LINE
  5
4799
330
1F
100
AcDbEntity
  8
DETAIL
100
AcDbLine
 10
7745.370607878986
 20
129.6479740522554
 30
0.0
 11
7726.893946932806
 21
134.8737859744723
 31
0.0
  0
LINE
  5
479A
330
1F
100
AcDbEntity
  8
DETAIL
100
AcDbLine
 10
7732.253367097429
 20
117.8320088495899
 30
0.0
 11
7751.371442686307
 21
98.49077403984374
 31
0.0
  0
LINE
  5
479B
330
1F
100
AcDbEntity
  8
DETAIL
100
AcDbLine
 10
7712.327988079204
 20
134.8737859744724
 30
0.0
 11
7712.327988079207
 21
129.3562771582295
 31
0.0
  0
LINE
  5
479C
330
1F
100
AcDbEntity
  8
DETAIL
100
AcDbLine
 10
7726.893946932806
 20
134.8737859744723
 30
0.0
 11
7726.893946932808
 21
129.3562771582293
 31
0.0
  0
LINE
  5
479D
330
1F
100
AcDbEntity
  8
DETAIL
100
AcDbLine
 10
7706.968567914579
 20
117.8320088495901
 30
0.0
 11
7687.850492325701
 21
98.49077403984374
 31
0.0
  0
LINE
  5
479E
330
1F
100
AcDbEntity
  8
DETAIL
100
AcDbLine
 10
7706.968567914579
 20
117.8320088495898
 30
0.0
 11
7719.610967506006
 21
112.3251667743086
 31
0.0
  0
LINE
  5
479F
330
1F
100
AcDbEntity
  8
DETAIL
100
AcDbLine
 10
7732.253367097429
 20
117.8320088495897
 30
0.0
 11
7719.610967506006
 21
112.3251667743086
 31
0.0
  0
LINE
  5
47A0
330
1F
100
AcDbEntity
  8
DETAIL
100
AcDbLine
 10
7726.893946932808
 20
129.3562771582293
 30
0.0
 11
7726.893946932808
 21
121.5998141144752
 31
0.0
  0
LINE
  5
47A1
330
1F
100
AcDbEntity
  8
DETAIL
100
AcDbLine
 10
7712.327988079207
 20
129.3562771582295
 30
0.0
 11
7712.327988079207
 21
121.5998141144737
 31
0.0
  0
LINE
  5
47A2
330
1F
100
AcDbEntity
  8
DETAIL
100
AcDbLine
 10
7693.851327133024
 20
129.6479740522554
 30
0.0
 11
7712.327988079207
 21
121.5998141144737
 31
0.0
  0
LINE
  5
47A3
330
1F
100
AcDbEntity
  8
DETAIL
100
AcDbLine
 10
7745.370607878986
 20
129.6479740522554
 30
0.0
 11
7726.893946932808
 21
121.5998141144752
 31
0.0
  0
LINE
  5
47A4
330
1F
100
AcDbEntity
  8
DETAIL
100
AcDbLine
 10
7726.893946932808
 20
121.5998141144752
 30
0.0
 11
7726.893946932808
 21
115.4975247788859
 31
0.0
  0
LINE
  5
47A5
330
1F
100
AcDbEntity
  8
DETAIL
100
AcDbLine
 10
7712.327988079207
 20
121.5998141144737
 30
0.0
 11
7712.327988079207
 21
115.4975247788843
 31
0.0
  0
LINE
  5
47A6
330
1F
100
AcDbEntity
  8
DETAIL
100
AcDbLine
 10
7687.850492325701
 20
98.49077403984374
 30
0.0
 11
7751.371442686307
 21
98.49077403984374
 31
0.0
  0
LINE
  5
47A7
330
1F
100
AcDbEntity
  8
DETAIL
100
AcDbLine
 10
7711.61096750601
 20
-40.75758838644106
 30
0.0
 11
7711.61096750601
 21
43.10912972672304
 31
0.0
  0
LINE
  5
47A8
330
1F
100
AcDbEntity
  8
DETAIL
100
AcDbLine
 10
7727.610967506011
 20
-40.75758838644106
 30
0.0
 11
7727.610967506011
 21
43.10912972672304
 31
0.0
  0
LINE
  5
47A9
330
1F
100
AcDbEntity
  8
DETAIL
100
AcDbLine
 10
7835.610967506004
 20
174.2424116135589
 30
0.0
 11
7809.851327133024
 21
129.6479740522554
 31
0.0
  0
LINE
  5
47AA
330
1F
100
AcDbEntity
  8
DETAIL
100
AcDbLine
 10
7835.610967506004
 20
174.2424116135589
 30
0.0
 11
7861.370607878986
 21
129.6479740522554
 31
0.0
  0
LINE
  5
47AB
330
1F
100
AcDbEntity
  8
DETAIL
100
AcDbLine
 10
7809.851327133024
 20
129.6479740522554
 30
0.0
 11
7828.327988079205
 21
134.8737859744724
 31
0.0
  0
LINE
  5
47AC
330
1F
100
AcDbEntity
  8
DETAIL
100
AcDbLine
 10
7861.370607878986
 20
129.6479740522554
 30
0.0
 11
7842.893946932806
 21
134.8737859744723
 31
0.0
  0
LINE
  5
47AD
330
1F
100
AcDbEntity
  8
DETAIL
100
AcDbLine
 10
7848.253367097431
 20
117.8320088495899
 30
0.0
 11
7867.371442686309
 21
98.49077403984374
 31
0.0
  0
LINE
  5
47AE
330
1F
100
AcDbEntity
  8
DETAIL
100
AcDbLine
 10
7828.327988079205
 20
134.8737859744724
 30
0.0
 11
7828.327988079205
 21
129.3562771582295
 31
0.0
  0
LINE
  5
47AF
330
1F
100
AcDbEntity
  8
DETAIL
100
AcDbLine
 10
7842.893946932806
 20
134.8737859744723
 30
0.0
 11
7842.893946932806
 21
129.3562771582293
 31
0.0
  0
LINE
  5
47B0
330
1F
100
AcDbEntity
  8
DETAIL
100
AcDbLine
 10
7822.968567914577
 20
117.8320088495901
 30
0.0
 11
7803.850492325699
 21
98.49077403984374
 31
0.0
  0
LINE
  5
47B1
330
1F
100
AcDbEntity
  8
DETAIL
100
AcDbLine
 10
7822.968567914577
 20
117.8320088495898
 30
0.0
 11
7835.610967506004
 21
112.3251667743086
 31
0.0
  0
LINE
  5
47B2
330
1F
100
AcDbEntity
  8
DETAIL
100
AcDbLine
 10
7848.253367097431
 20
117.8320088495897
 30
0.0
 11
7835.610967506004
 21
112.3251667743086
 31
0.0
  0
LINE
  5
47B3
330
1F
100
AcDbEntity
  8
DETAIL
100
AcDbLine
 10
7842.893946932806
 20
129.3562771582293
 30
0.0
 11
7842.893946932806
 21
121.5998141144752
 31
0.0
  0
LINE
  5
47B4
330
1F
100
AcDbEntity
  8
DETAIL
100
AcDbLine
 10
7828.327988079205
 20
129.3562771582295
 30
0.0
 11
7828.327988079205
 21
121.5998141144737
 31
0.0
  0
LINE
  5
47B5
330
1F
100
AcDbEntity
  8
DETAIL
100
AcDbLine
 10
7809.851327133024
 20
129.6479740522554
 30
0.0
 11
7828.327988079205
 21
121.5998141144737
 31
0.0
  0
LINE
  5
47B6
330
1F
100
AcDbEntity
  8
DETAIL
100
AcDbLine
 10
7861.370607878986
 20
129.6479740522554
 30
0.0
 11
7842.893946932806
 21
121.5998141144752
 31
0.0
  0
LINE
  5
47B7
330
1F
100
AcDbEntity
  8
DETAIL
100
AcDbLine
 10
7842.893946932806
 20
121.5998141144752
 30
0.0
 11
7842.893946932806
 21
115.4975247788859
 31
0.0
  0
LINE
  5
47B8
330
1F
100
AcDbEntity
  8
DETAIL
100
AcDbLine
 10
7828.327988079205
 20
121.5998141144737
 30
0.0
 11
7828.327988079205
 21
115.4975247788843
 31
0.0
  0
LINE
  5
47B9
330
1F
100
AcDbEntity
  8
DETAIL
100
AcDbLine
 10
7803.850492325699
 20
98.49077403984374
 30
0.0
 11
7867.371442686309
 21
98.49077403984374
 31
0.0
  0
LINE
  5
47BA
330
1F
100
AcDbEntity
  8
DETAIL
100
AcDbLine
 10
7827.610967506011
 20
-40.75758838644106
 30
0.0
 11
7827.610967506011
 21
43.10912972672304
 31
0.0
  0
LINE
  5
47BB
330
1F
100
AcDbEntity
  8
DETAIL
100
AcDbLine
 10
7843.610967506011
 20
-40.75758838644106
 30
0.0
 11
7843.610967506011
 21
43.10912972672304
 31
0.0
  0
LINE
  5
47BC
330
1F
100
AcDbEntity
  8
DETAIL
100
AcDbLine
 10
7951.610967506005
 20
174.2424116135547
 30
0.0
 11
7925.851327133024
 21
129.6479740522512
 31
0.0
  0
LINE
  5
47BD
330
1F
100
AcDbEntity
  8
DETAIL
100
AcDbLine
 10
7951.610967506005
 20
174.2424116135547
 30
0.0
 11
7977.370607878984
 21
129.6479740522512
 31
0.0
  0
LINE
  5
47BE
330
1F
100
AcDbEntity
  8
DETAIL
100
AcDbLine
 10
7925.851327133024
 20
129.6479740522512
 30
0.0
 11
7944.327988079205
 21
134.8737859744682
 31
0.0
  0
LINE
  5
47BF
330
1F
100
AcDbEntity
  8
DETAIL
100
AcDbLine
 10
7977.370607878984
 20
129.6479740522512
 30
0.0
 11
7958.893946932805
 21
134.8737859744681
 31
0.0
  0
LINE
  5
47C0
330
1F
100
AcDbEntity
  8
DETAIL
100
AcDbLine
 10
7964.253367097429
 20
117.8320088495857
 30
0.0
 11
7983.371442686309
 21
98.49077403983947
 31
0.0
  0
LINE
  5
47C1
330
1F
100
AcDbEntity
  8
DETAIL
100
AcDbLine
 10
7944.327988079205
 20
134.8737859744682
 30
0.0
 11
7944.327988079205
 21
129.3562771582253
 31
0.0
  0
LINE
  5
47C2
330
1F
100
AcDbEntity
  8
DETAIL
100
AcDbLine
 10
7958.893946932805
 20
134.8737859744681
 30
0.0
 11
7958.893946932807
 21
129.3562771582251
 31
0.0
  0
LINE
  5
47C3
330
1F
100
AcDbEntity
  8
DETAIL
100
AcDbLine
 10
7938.968567914578
 20
117.8320088495859
 30
0.0
 11
7919.8504923257
 21
98.49077403983947
 31
0.0
  0
LINE
  5
47C4
330
1F
100
AcDbEntity
  8
DETAIL
100
AcDbLine
 10
7938.968567914578
 20
117.8320088495856
 30
0.0
 11
7951.610967506005
 21
112.3251667743044
 31
0.0
  0
LINE
  5
47C5
330
1F
100
AcDbEntity
  8
DETAIL
100
AcDbLine
 10
7964.253367097429
 20
117.8320088495854
 30
0.0
 11
7951.610967506005
 21
112.3251667743044
 31
0.0
  0
LINE
  5
47C6
330
1F
100
AcDbEntity
  8
DETAIL
100
AcDbLine
 10
7958.893946932807
 20
129.3562771582251
 30
0.0
 11
7958.893946932807
 21
121.599814114471
 31
0.0
  0
LINE
  5
47C7
330
1F
100
AcDbEntity
  8
DETAIL
100
AcDbLine
 10
7944.327988079205
 20
129.3562771582253
 30
0.0
 11
7944.327988079205
 21
121.5998141144695
 31
0.0
  0
LINE
  5
47C8
330
1F
100
AcDbEntity
  8
DETAIL
100
AcDbLine
 10
7925.851327133024
 20
129.6479740522512
 30
0.0
 11
7944.327988079205
 21
121.5998141144695
 31
0.0
  0
LINE
  5
47C9
330
1F
100
AcDbEntity
  8
DETAIL
100
AcDbLine
 10
7977.370607878984
 20
129.6479740522512
 30
0.0
 11
7958.893946932807
 21
121.599814114471
 31
0.0
  0
LINE
  5
47CA
330
1F
100
AcDbEntity
  8
DETAIL
100
AcDbLine
 10
7958.893946932807
 20
121.599814114471
 30
0.0
 11
7958.893946932807
 21
115.4975247788815
 31
0.0
  0
LINE
  5
47CB
330
1F
100
AcDbEntity
  8
DETAIL
100
AcDbLine
 10
7944.327988079205
 20
121.5998141144695
 30
0.0
 11
7944.327988079205
 21
115.4975247788801
 31
0.0
  0
LINE
  5
47CC
330
1F
100
AcDbEntity
  8
DETAIL
100
AcDbLine
 10
7919.8504923257
 20
98.49077403983947
 30
0.0
 11
7983.371442686309
 21
98.49077403983947
 31
0.0
  0
LINE
  5
47CD
330
1F
100
AcDbEntity
  8
DETAIL
100
AcDbLine
 10
7943.61096750601
 20
-40.7575883864453
 30
0.0
 11
7943.61096750601
 21
43.10912972672304
 31
0.0
  0
LINE
  5
47CE
330
1F
100
AcDbEntity
  8
DETAIL
100
AcDbLine
 10
7959.61096750601
 20
-40.7575883864453
 30
0.0
 11
7959.61096750601
 21
43.10912972672304
 31
0.0
  0
LINE
  5
47CF
330
1F
100
AcDbEntity
  8
DETAIL
100
AcDbLine
 10
8067.610967506004
 20
174.2424116135589
 30
0.0
 11
8041.851327133024
 21
129.6479740522554
 31
0.0
  0
LINE
  5
47D0
330
1F
100
AcDbEntity
  8
DETAIL
100
AcDbLine
 10
8067.610967506004
 20
174.2424116135589
 30
0.0
 11
8093.370607878986
 21
129.6479740522554
 31
0.0
  0
LINE
  5
47D1
330
1F
100
AcDbEntity
  8
DETAIL
100
AcDbLine
 10
8041.851327133024
 20
129.6479740522554
 30
0.0
 11
8060.327988079206
 21
134.8737859744724
 31
0.0
  0
LINE
  5
47D2
330
1F
100
AcDbEntity
  8
DETAIL
100
AcDbLine
 10
8093.370607878986
 20
129.6479740522554
 30
0.0
 11
8074.893946932805
 21
134.8737859744723
 31
0.0
  0
LINE
  5
47D3
330
1F
100
AcDbEntity
  8
DETAIL
100
AcDbLine
 10
8080.253367097428
 20
117.8320088495899
 30
0.0
 11
8099.37144268631
 21
98.49077403984374
 31
0.0
  0
LINE
  5
47D4
330
1F
100
AcDbEntity
  8
DETAIL
100
AcDbLine
 10
8060.327988079206
 20
134.8737859744724
 30
0.0
 11
8060.327988079206
 21
129.3562771582295
 31
0.0
  0
LINE
  5
47D5
330
1F
100
AcDbEntity
  8
DETAIL
100
AcDbLine
 10
8074.893946932805
 20
134.8737859744723
 30
0.0
 11
8074.893946932808
 21
129.3562771582293
 31
0.0
  0
LINE
  5
47D6
330
1F
100
AcDbEntity
  8
DETAIL
100
AcDbLine
 10
8054.968567914578
 20
117.8320088495901
 30
0.0
 11
8035.8504923257
 21
98.49077403984374
 31
0.0
  0
LINE
  5
47D7
330
1F
100
AcDbEntity
  8
DETAIL
100
AcDbLine
 10
8054.968567914578
 20
117.8320088495898
 30
0.0
 11
8067.610967506004
 21
112.3251667743086
 31
0.0
  0
LINE
  5
47D8
330
1F
100
AcDbEntity
  8
DETAIL
100
AcDbLine
 10
8080.253367097428
 20
117.8320088495897
 30
0.0
 11
8067.610967506004
 21
112.3251667743086
 31
0.0
  0
LINE
  5
47D9
330
1F
100
AcDbEntity
  8
DETAIL
100
AcDbLine
 10
8074.893946932808
 20
129.3562771582293
 30
0.0
 11
8074.893946932808
 21
121.5998141144752
 31
0.0
  0
LINE
  5
47DA
330
1F
100
AcDbEntity
  8
DETAIL
100
AcDbLine
 10
8060.327988079206
 20
129.3562771582295
 30
0.0
 11
8060.327988079206
 21
121.5998141144737
 31
0.0
  0
LINE
  5
47DB
330
1F
100
AcDbEntity
  8
DETAIL
100
AcDbLine
 10
8041.851327133024
 20
129.6479740522554
 30
0.0
 11
8060.327988079206
 21
121.5998141144737
 31
0.0
  0
LINE
  5
47DC
330
1F
100
AcDbEntity
  8
DETAIL
100
AcDbLine
 10
8093.370607878986
 20
129.6479740522554
 30
0.0
 11
8074.893946932808
 21
121.5998141144752
 31
0.0
  0
LINE
  5
47DD
330
1F
100
AcDbEntity
  8
DETAIL
100
AcDbLine
 10
8074.893946932808
 20
121.5998141144752
 30
0.0
 11
8074.893946932808
 21
115.4975247788859
 31
0.0
  0
LINE
  5
47DE
330
1F
100
AcDbEntity
  8
DETAIL
100
AcDbLine
 10
8060.327988079206
 20
121.5998141144737
 30
0.0
 11
8060.327988079206
 21
115.4975247788843
 31
0.0
  0
LINE
  5
47DF
330
1F
100
AcDbEntity
  8
DETAIL
100
AcDbLine
 10
8035.8504923257
 20
98.49077403984374
 30
0.0
 11
8099.37144268631
 21
98.49077403984374
 31
0.0
  0
LINE
  5
47E0
330
1F
100
AcDbEntity
  8
DETAIL
100
AcDbLine
 10
8059.61096750601
 20
-40.75758838644104
 30
0.0
 11
8059.610967506012
 21
43.10912972672304
 31
0.0
  0
LINE
  5
47E1
330
1F
100
AcDbEntity
  8
DETAIL
100
AcDbLine
 10
8075.61096750601
 20
-40.75758838644104
 30
0.0
 11
8075.610967506012
 21
43.10912972672304
 31
0.0
  0
LINE
  5
47E2
330
1F
100
AcDbEntity
  8
DETAIL
100
AcDbLine
 10
8183.610967506004
 20
174.2424116135589
 30
0.0
 11
8157.851327133021
 21
129.6479740522554
 31
0.0
  0
LINE
  5
47E3
330
1F
100
AcDbEntity
  8
DETAIL
100
AcDbLine
 10
8183.610967506004
 20
174.2424116135589
 30
0.0
 11
8209.370607878984
 21
129.6479740522554
 31
0.0
  0
LINE
  5
47E4
330
1F
100
AcDbEntity
  8
DETAIL
100
AcDbLine
 10
8157.851327133021
 20
129.6479740522554
 30
0.0
 11
8176.327988079204
 21
134.8737859744724
 31
0.0
  0
LINE
  5
47E5
330
1F
100
AcDbEntity
  8
DETAIL
100
AcDbLine
 10
8209.370607878984
 20
129.6479740522554
 30
0.0
 11
8190.893946932805
 21
134.8737859744723
 31
0.0
  0
LINE
  5
47E6
330
1F
100
AcDbEntity
  8
DETAIL
100
AcDbLine
 10
8196.25336709743
 20
117.8320088495899
 30
0.0
 11
8215.371442686308
 21
98.49077403984374
 31
0.0
  0
LINE
  5
47E7
330
1F
100
AcDbEntity
  8
DETAIL
100
AcDbLine
 10
8176.327988079204
 20
134.8737859744724
 30
0.0
 11
8176.327988079206
 21
129.3562771582295
 31
0.0
  0
LINE
  5
47E8
330
1F
100
AcDbEntity
  8
DETAIL
100
AcDbLine
 10
8190.893946932805
 20
134.8737859744723
 30
0.0
 11
8190.893946932808
 21
129.3562771582293
 31
0.0
  0
LINE
  5
47E9
330
1F
100
AcDbEntity
  8
DETAIL
100
AcDbLine
 10
8170.968567914579
 20
117.8320088495901
 30
0.0
 11
8151.850492325701
 21
98.49077403984374
 31
0.0
  0
LINE
  5
47EA
330
1F
100
AcDbEntity
  8
DETAIL
100
AcDbLine
 10
8170.968567914579
 20
117.8320088495898
 30
0.0
 11
8183.610967506004
 21
112.3251667743086
 31
0.0
  0
LINE
  5
47EB
330
1F
100
AcDbEntity
  8
DETAIL
100
AcDbLine
 10
8196.25336709743
 20
117.8320088495897
 30
0.0
 11
8183.610967506004
 21
112.3251667743086
 31
0.0
  0
LINE
  5
47EC
330
1F
100
AcDbEntity
  8
DETAIL
100
AcDbLine
 10
8190.893946932808
 20
129.3562771582293
 30
0.0
 11
8190.893946932808
 21
121.5998141144752
 31
0.0
  0
LINE
  5
47ED
330
1F
100
AcDbEntity
  8
DETAIL
100
AcDbLine
 10
8176.327988079206
 20
129.3562771582295
 30
0.0
 11
8176.327988079206
 21
121.5998141144737
 31
0.0
  0
LINE
  5
47EE
330
1F
100
AcDbEntity
  8
DETAIL
100
AcDbLine
 10
8157.851327133021
 20
129.6479740522554
 30
0.0
 11
8176.327988079206
 21
121.5998141144737
 31
0.0
  0
LINE
  5
47EF
330
1F
100
AcDbEntity
  8
DETAIL
100
AcDbLine
 10
8209.370607878984
 20
129.6479740522554
 30
0.0
 11
8190.893946932808
 21
121.5998141144752
 31
0.0
  0
LINE
  5
47F0
330
1F
100
AcDbEntity
  8
DETAIL
100
AcDbLine
 10
8190.893946932808
 20
121.5998141144752
 30
0.0
 11
8190.893946932808
 21
115.4975247788859
 31
0.0
  0
LINE
  5
47F1
330
1F
100
AcDbEntity
  8
DETAIL
100
AcDbLine
 10
8176.327988079206
 20
121.5998141144737
 30
0.0
 11
8176.327988079206
 21
115.4975247788843
 31
0.0
  0
LINE
  5
47F2
330
1F
100
AcDbEntity
  8
DETAIL
100
AcDbLine
 10
8151.850492325701
 20
98.49077403984374
 30
0.0
 11
8215.371442686308
 21
98.49077403984374
 31
0.0
  0
LINE
  5
47F3
330
1F
100
AcDbEntity
  8
DETAIL
100
AcDbLine
 10
8175.61096750601
 20
-40.75758838644104
 30
0.0
 11
8175.610967506012
 21
43.10912972672304
 31
0.0
  0
LINE
  5
47F4
330
1F
100
AcDbEntity
  8
DETAIL
100
AcDbLine
 10
8191.610967506012
 20
-40.75758838644104
 30
0.0
 11
8191.610967506012
 21
43.10912972672304
 31
0.0
  0
LINE
  5
47F5
330
1F
100
AcDbEntity
  8
DETAIL
100
AcDbLine
 10
8299.610967506003
 20
174.2424116135589
 30
0.0
 11
8273.851327133023
 21
129.6479740522554
 31
0.0
  0
LINE
  5
47F6
330
1F
100
AcDbEntity
  8
DETAIL
100
AcDbLine
 10
8299.610967506003
 20
174.2424116135589
 30
0.0
 11
8325.370607878983
 21
129.6479740522554
 31
0.0
  0
LINE
  5
47F7
330
1F
100
AcDbEntity
  8
DETAIL
100
AcDbLine
 10
8273.851327133023
 20
129.6479740522554
 30
0.0
 11
8292.327988079204
 21
134.8737859744724
 31
0.0
  0
LINE
  5
47F8
330
1F
100
AcDbEntity
  8
DETAIL
100
AcDbLine
 10
8325.370607878983
 20
129.6479740522554
 30
0.0
 11
8306.893946932801
 21
134.8737859744723
 31
0.0
  0
LINE
  5
47F9
330
1F
100
AcDbEntity
  8
DETAIL
100
AcDbLine
 10
8312.253367097428
 20
117.8320088495899
 30
0.0
 11
8331.371442686306
 21
98.49077403984374
 31
0.0
  0
LINE
  5
47FA
330
1F
100
AcDbEntity
  8
DETAIL
100
AcDbLine
 10
8292.327988079204
 20
134.8737859744724
 30
0.0
 11
8292.327988079204
 21
129.3562771582295
 31
0.0
  0
LINE
  5
47FB
330
1F
100
AcDbEntity
  8
DETAIL
100
AcDbLine
 10
8306.893946932801
 20
134.8737859744723
 30
0.0
 11
8306.893946932808
 21
129.3562771582293
 31
0.0
  0
LINE
  5
47FC
330
1F
100
AcDbEntity
  8
DETAIL
100
AcDbLine
 10
8286.968567914577
 20
117.8320088495901
 30
0.0
 11
8267.850492325699
 21
98.49077403984374
 31
0.0
  0
LINE
  5
47FD
330
1F
100
AcDbEntity
  8
DETAIL
100
AcDbLine
 10
8286.968567914577
 20
117.8320088495898
 30
0.0
 11
8299.610967506003
 21
112.3251667743086
 31
0.0
  0
LINE
  5
47FE
330
1F
100
AcDbEntity
  8
DETAIL
100
AcDbLine
 10
8312.253367097428
 20
117.8320088495897
 30
0.0
 11
8299.610967506003
 21
112.3251667743086
 31
0.0
  0
LINE
  5
47FF
330
1F
100
AcDbEntity
  8
DETAIL
100
AcDbLine
 10
8306.893946932808
 20
129.3562771582293
 30
0.0
 11
8306.893946932808
 21
121.5998141144752
 31
0.0
  0
LINE
  5
4800
330
1F
100
AcDbEntity
  8
DETAIL
100
AcDbLine
 10
8292.327988079204
 20
129.3562771582295
 30
0.0
 11
8292.327988079204
 21
121.5998141144737
 31
0.0
  0
LINE
  5
4801
330
1F
100
AcDbEntity
  8
DETAIL
100
AcDbLine
 10
8273.851327133023
 20
129.6479740522554
 30
0.0
 11
8292.327988079204
 21
121.5998141144737
 31
0.0
  0
LINE
  5
4802
330
1F
100
AcDbEntity
  8
DETAIL
100
AcDbLine
 10
8325.370607878983
 20
129.6479740522554
 30
0.0
 11
8306.893946932808
 21
121.5998141144752
 31
0.0
  0
LINE
  5
4803
330
1F
100
AcDbEntity
  8
DETAIL
100
AcDbLine
 10
8306.893946932808
 20
121.5998141144752
 30
0.0
 11
8306.893946932808
 21
115.4975247788859
 31
0.0
  0
LINE
  5
4804
330
1F
100
AcDbEntity
  8
DETAIL
100
AcDbLine
 10
8292.327988079204
 20
121.5998141144737
 30
0.0
 11
8292.327988079204
 21
115.4975247788843
 31
0.0
  0
LINE
  5
4805
330
1F
100
AcDbEntity
  8
DETAIL
100
AcDbLine
 10
8267.850492325699
 20
98.49077403984374
 30
0.0
 11
8331.371442686306
 21
98.49077403984374
 31
0.0
  0
LINE
  5
4806
330
1F
100
AcDbEntity
  8
DETAIL
100
AcDbLine
 10
8291.610967506008
 20
-40.75758838644104
 30
0.0
 11
8291.610967506011
 21
43.10912972672304
 31
0.0
  0
LINE
  5
4807
330
1F
100
AcDbEntity
  8
DETAIL
100
AcDbLine
 10
8307.610967506009
 20
-40.75758838644104
 30
0.0
 11
8307.610967506009
 21
43.10912972672304
 31
0.0
  0
LINE
  5
4835
330
1F
100
AcDbEntity
  8
DETAIL
100
AcDbLine
 10
5987.610967506011
 20
43.10912972672301
 30
0.0
 11
6087.610967506011
 21
43.10912972672302
 31
0.0
  0
CIRCLE
  5
4836
330
1F
100
AcDbEntity
  8
DETAIL
100
AcDbCircle
 10
6037.610967506011
 20
-6.890870273276973
 30
0.0
 40
50.0
  0
LINE
  5
4837
330
1F
100
AcDbEntity
  8
DETAIL
100
AcDbLine
 10
5855.610967506025
 20
68.109129726723
 30
0.0
 11
5855.610967506024
 21
98.49077403984372
 31
0.0
  0
LINE
  5
4838
330
1F
100
AcDbEntity
  8
DETAIL
100
AcDbLine
 10
5871.610967506025
 20
68.109129726723
 30
0.0
 11
5871.610967506025
 21
98.49077403984372
 31
0.0
  0
LINE
  5
4839
330
1F
100
AcDbEntity
  8
DETAIL
100
AcDbLine
 10
5971.610967506011
 20
68.109129726723
 30
0.0
 11
5971.610967506011
 21
98.49077403984379
 31
0.0
  0
LINE
  5
483A
330
1F
100
AcDbEntity
  8
DETAIL
100
AcDbLine
 10
5987.610967506011
 20
68.109129726723
 30
0.0
 11
5987.610967506011
 21
98.49077403984379
 31
0.0
  0
LINE
  5
483B
330
1F
100
AcDbEntity
  8
DETAIL
100
AcDbLine
 10
6087.610967506011
 20
68.109129726723
 30
0.0
 11
6087.610967506011
 21
98.49077403984393
 31
0.0
  0
LINE
  5
483C
330
1F
100
AcDbEntity
  8
DETAIL
100
AcDbLine
 10
6103.610967506011
 20
68.109129726723
 30
0.0
 11
6103.610967506011
 21
98.49077403984393
 31
0.0
  0
LINE
  5
483D
330
1F
100
AcDbEntity
  8
DETAIL
100
AcDbLine
 10
6203.610967506012
 20
68.10912972672302
 30
0.0
 11
6203.610967506011
 21
98.49077403984402
 31
0.0
  0
LINE
  5
483E
330
1F
100
AcDbEntity
  8
DETAIL
100
AcDbLine
 10
6219.61096750601
 20
68.10912972672302
 30
0.0
 11
6219.61096750601
 21
98.49077403984402
 31
0.0
  0
LINE
  5
483F
330
1F
100
AcDbEntity
  8
DETAIL
100
AcDbLine
 10
6319.610967506011
 20
68.109129726723
 30
0.0
 11
6319.610967506011
 21
98.49077403984418
 31
0.0
  0
LINE
  5
4840
330
1F
100
AcDbEntity
  8
DETAIL
100
AcDbLine
 10
6335.610967506011
 20
68.109129726723
 30
0.0
 11
6335.610967506011
 21
98.49077403984418
 31
0.0
  0
LINE
  5
4841
330
1F
100
AcDbEntity
  8
DETAIL
100
AcDbLine
 10
6435.610967506011
 20
68.109129726723
 30
0.0
 11
6435.610967506011
 21
98.49077403984372
 31
0.0
  0
LINE
  5
4842
330
1F
100
AcDbEntity
  8
DETAIL
100
AcDbLine
 10
6451.61096750601
 20
68.109129726723
 30
0.0
 11
6451.61096750601
 21
98.49077403984372
 31
0.0
  0
LINE
  5
4843
330
1F
100
AcDbEntity
  8
DETAIL
100
AcDbLine
 10
6551.610967506011
 20
68.109129726723
 30
0.0
 11
6551.610967506011
 21
98.49077403984439
 31
0.0
  0
LINE
  5
4844
330
1F
100
AcDbEntity
  8
DETAIL
100
AcDbLine
 10
6567.610967506012
 20
68.109129726723
 30
0.0
 11
6567.61096750601
 21
98.49077403984439
 31
0.0
  0
LINE
  5
4845
330
1F
100
AcDbEntity
  8
DETAIL
100
AcDbLine
 10
6667.610967506012
 20
68.109129726723
 30
0.0
 11
6667.610967506011
 21
98.49077403984452
 31
0.0
  0
LINE
  5
4846
330
1F
100
AcDbEntity
  8
DETAIL
100
AcDbLine
 10
6683.61096750601
 20
68.109129726723
 30
0.0
 11
6683.61096750601
 21
98.49077403984452
 31
0.0
  0
LINE
  5
4847
330
1F
100
AcDbEntity
  8
DETAIL
100
AcDbLine
 10
6783.61096750601
 20
68.109129726723
 30
0.0
 11
6783.61096750601
 21
98.49077403984466
 31
0.0
  0
LINE
  5
4848
330
1F
100
AcDbEntity
  8
DETAIL
100
AcDbLine
 10
6799.610967506011
 20
68.109129726723
 30
0.0
 11
6799.610967506011
 21
98.49077403984466
 31
0.0
  0
LINE
  5
4849
330
1F
100
AcDbEntity
  8
DETAIL
100
AcDbLine
 10
6915.610967506012
 20
68.109129726723
 30
0.0
 11
6915.610967506011
 21
98.49077403984372
 31
0.0
  0
LINE
  5
484A
330
1F
100
AcDbEntity
  8
DETAIL
100
AcDbLine
 10
6899.610967506011
 20
68.109129726723
 30
0.0
 11
6899.610967506011
 21
98.49077403984372
 31
0.0
  0
LINE
  5
484B
330
1F
100
AcDbEntity
  8
DETAIL
100
AcDbLine
 10
7015.610967506012
 20
68.109129726723
 30
0.0
 11
7015.61096750601
 21
98.49077403984372
 31
0.0
  0
LINE
  5
484C
330
1F
100
AcDbEntity
  8
DETAIL
100
AcDbLine
 10
7031.610967506011
 20
68.109129726723
 30
0.0
 11
7031.610967506011
 21
98.49077403984372
 31
0.0
  0
LINE
  5
484D
330
1F
100
AcDbEntity
  8
DETAIL
100
AcDbLine
 10
7131.61096750601
 20
68.10912972672302
 30
0.0
 11
7131.61096750601
 21
98.49077403984372
 31
0.0
  0
LINE
  5
484E
330
1F
100
AcDbEntity
  8
DETAIL
100
AcDbLine
 10
7147.61096750601
 20
68.10912972672302
 30
0.0
 11
7147.61096750601
 21
98.49077403984372
 31
0.0
  0
LINE
  5
484F
330
1F
100
AcDbEntity
  8
DETAIL
100
AcDbLine
 10
7247.610967506012
 20
68.10912972672302
 30
0.0
 11
7247.61096750601
 21
98.49077403984372
 31
0.0
  0
LINE
  5
4850
330
1F
100
AcDbEntity
  8
DETAIL
100
AcDbLine
 10
7263.610967506011
 20
68.10912972672302
 30
0.0
 11
7263.610967506011
 21
98.49077403984372
 31
0.0
  0
LINE
  5
4851
330
1F
100
AcDbEntity
  8
DETAIL
100
AcDbLine
 10
7363.610967506011
 20
68.10912972672302
 30
0.0
 11
7363.610967506011
 21
98.49077403984523
 31
0.0
  0
LINE
  5
4852
330
1F
100
AcDbEntity
  8
DETAIL
100
AcDbLine
 10
7379.610967506012
 20
68.10912972672302
 30
0.0
 11
7379.610967506009
 21
98.49077403984523
 31
0.0
  0
LINE
  5
4853
330
1F
100
AcDbEntity
  8
DETAIL
100
AcDbLine
 10
7479.610967506012
 20
68.10912972672302
 30
0.0
 11
7479.610967506011
 21
98.49077403984535
 31
0.0
  0
LINE
  5
4854
330
1F
100
AcDbEntity
  8
DETAIL
100
AcDbLine
 10
7495.61096750601
 20
68.10912972672302
 30
0.0
 11
7495.61096750601
 21
98.49077403984535
 31
0.0
  0
LINE
  5
4855
330
1F
100
AcDbEntity
  8
DETAIL
100
AcDbLine
 10
7595.610967506011
 20
68.10912972672302
 30
0.0
 11
7595.610967506011
 21
98.49077403984544
 31
0.0
  0
LINE
  5
4856
330
1F
100
AcDbEntity
  8
DETAIL
100
AcDbLine
 10
7611.61096750601
 20
68.10912972672302
 30
0.0
 11
7611.61096750601
 21
98.49077403984544
 31
0.0
  0
LINE
  5
4857
330
1F
100
AcDbEntity
  8
DETAIL
100
AcDbLine
 10
7711.61096750601
 20
68.10912972672302
 30
0.0
 11
7711.61096750601
 21
98.49077403984374
 31
0.0
  0
LINE
  5
4858
330
1F
100
AcDbEntity
  8
DETAIL
100
AcDbLine
 10
7727.610967506011
 20
68.10912972672302
 30
0.0
 11
7727.610967506011
 21
98.49077403984374
 31
0.0
  0
LINE
  5
4859
330
1F
100
AcDbEntity
  8
DETAIL
100
AcDbLine
 10
7827.610967506011
 20
68.10912972672302
 30
0.0
 11
7827.610967506011
 21
98.49077403984374
 31
0.0
  0
LINE
  5
485A
330
1F
100
AcDbEntity
  8
DETAIL
100
AcDbLine
 10
7843.610967506011
 20
68.10912972672302
 30
0.0
 11
7843.610967506011
 21
98.49077403984374
 31
0.0
  0
LINE
  5
485B
330
1F
100
AcDbEntity
  8
DETAIL
100
AcDbLine
 10
7943.61096750601
 20
68.10912972672302
 30
0.0
 11
7943.61096750601
 21
98.49077403983947
 31
0.0
  0
LINE
  5
485C
330
1F
100
AcDbEntity
  8
DETAIL
100
AcDbLine
 10
7959.61096750601
 20
68.10912972672302
 30
0.0
 11
7959.61096750601
 21
98.49077403983947
 31
0.0
  0
LINE
  5
485D
330
1F
100
AcDbEntity
  8
DETAIL
100
AcDbLine
 10
8059.610967506012
 20
68.10912972672304
 30
0.0
 11
8059.61096750601
 21
98.49077403984374
 31
0.0
  0
LINE
  5
485E
330
1F
100
AcDbEntity
  8
DETAIL
100
AcDbLine
 10
8075.610967506012
 20
68.10912972672304
 30
0.0
 11
8075.61096750601
 21
98.49077403984374
 31
0.0
  0
LINE
  5
485F
330
1F
100
AcDbEntity
  8
DETAIL
100
AcDbLine
 10
8175.610967506012
 20
68.10912972672304
 30
0.0
 11
8175.61096750601
 21
98.49077403984374
 31
0.0
  0
LINE
  5
4860
330
1F
100
AcDbEntity
  8
DETAIL
100
AcDbLine
 10
8191.610967506012
 20
68.10912972672304
 30
0.0
 11
8191.610967506012
 21
98.49077403984374
 31
0.0
  0
LINE
  5
4861
330
1F
100
AcDbEntity
  8
DETAIL
100
AcDbLine
 10
8291.610967506011
 20
68.10912972672304
 30
0.0
 11
8291.610967506008
 21
98.49077403984374
 31
0.0
  0
LINE
  5
4862
330
1F
100
AcDbEntity
  8
DETAIL
100
AcDbLine
 10
8307.610967506009
 20
68.10912972672304
 30
0.0
 11
8307.610967506009
 21
98.49077403984374
 31
0.0
  0
LINE
  5
4863
330
1F
100
AcDbEntity
  8
DETAIL
100
AcDbLine
 10
6103.610967506011
 20
-40.75758838644097
 30
0.0
 11
6103.610967506011
 21
43.10912972672301
 31
0.0
  0
CIRCLE
  5
4864
330
1F
100
AcDbEntity
  8
DETAIL
100
AcDbCircle
 10
6153.610967506009
 20
-6.890870273276981
 30
0.0
 40
50.0
  0
LINE
  5
4865
330
1F
100
AcDbEntity
  8
DETAIL
100
AcDbLine
 10
6219.61096750601
 20
-40.75758838644095
 30
0.0
 11
6219.61096750601
 21
43.10912972672303
 31
0.0
  0
CIRCLE
  5
4866
330
1F
100
AcDbEntity
  8
DETAIL
100
AcDbCircle
 10
6269.610967506011
 20
-6.890870273276965
 30
0.0
 40
50.0
  0
LINE
  5
4867
330
1F
100
AcDbEntity
  8
DETAIL
100
AcDbLine
 10
6335.610967506011
 20
-40.75758838644095
 30
0.0
 11
6335.610967506011
 21
43.10912972672303
 31
0.0
  0
CIRCLE
  5
4868
330
1F
100
AcDbEntity
  8
DETAIL
100
AcDbCircle
 10
6385.610967506011
 20
-6.890870273276965
 30
0.0
 40
50.0
  0
LINE
  5
4869
330
1F
100
AcDbEntity
  8
DETAIL
100
AcDbLine
 10
6451.61096750601
 20
-40.75758838644095
 30
0.0
 11
6451.61096750601
 21
43.10912972672304
 31
0.0
  0
CIRCLE
  5
486A
330
1F
100
AcDbEntity
  8
DETAIL
100
AcDbCircle
 10
6501.61096750601
 20
-6.890870273276958
 30
0.0
 40
50.0
  0
LINE
  5
486B
330
1F
100
AcDbEntity
  8
DETAIL
100
AcDbLine
 10
5871.610967506025
 20
-40.75758838644097
 30
0.0
 11
5871.610967506025
 21
43.10912972672301
 31
0.0
  0
CIRCLE
  5
486C
330
1F
100
AcDbEntity
  8
DETAIL
100
AcDbCircle
 10
5921.610967506025
 20
-6.890870273276981
 30
0.0
 40
50.0
  0
LINE
  5
486D
330
1F
100
AcDbEntity
  8
DETAIL
100
AcDbLine
 10
6567.610967506013
 20
-40.75758838644724
 30
0.0
 11
6567.610967506013
 21
43.10912972671673
 31
0.0
  0
CIRCLE
  5
486E
330
1F
100
AcDbEntity
  8
DETAIL
100
AcDbCircle
 10
6617.610967506013
 20
-6.890870273283262
 30
0.0
 40
50.0
  0
LINE
  5
486F
330
1F
100
AcDbEntity
  8
DETAIL
100
AcDbLine
 10
6683.61096750601
 20
-40.75758838644095
 30
0.0
 11
6683.61096750601
 21
43.10912972672302
 31
0.0
  0
CIRCLE
  5
4870
330
1F
100
AcDbEntity
  8
DETAIL
100
AcDbCircle
 10
6733.61096750601
 20
-6.890870273276973
 30
0.0
 40
50.0
  0
LINE
  5
4871
330
1F
100
AcDbEntity
  8
DETAIL
100
AcDbLine
 10
6799.610967506011
 20
-40.75758838644095
 30
0.0
 11
6799.610967506011
 21
43.10912972672302
 31
0.0
  0
CIRCLE
  5
4872
330
1F
100
AcDbEntity
  8
DETAIL
100
AcDbCircle
 10
6849.610967506011
 20
-6.890870273276973
 30
0.0
 40
50.0
  0
LINE
  5
4873
330
1F
100
AcDbEntity
  8
DETAIL
100
AcDbLine
 10
6915.610967506012
 20
-40.75758838645103
 30
0.0
 11
6915.610967506012
 21
43.10912972671296
 31
0.0
  0
CIRCLE
  5
4874
330
1F
100
AcDbEntity
  8
DETAIL
100
AcDbCircle
 10
6965.610967506012
 20
-6.890870273287035
 30
0.0
 40
50.0
  0
LINE
  5
4875
330
1F
100
AcDbEntity
  8
DETAIL
100
AcDbLine
 10
7031.610967506013
 20
-40.75758838645227
 30
0.0
 11
7031.610967506013
 21
43.10912972671171
 31
0.0
  0
CIRCLE
  5
4876
330
1F
100
AcDbEntity
  8
DETAIL
100
AcDbCircle
 10
7081.610967506013
 20
-6.890870273288292
 30
0.0
 40
50.0
  0
LINE
  5
4877
330
1F
100
AcDbEntity
  8
DETAIL
100
AcDbLine
 10
7147.61096750601
 20
-40.75758838644095
 30
0.0
 11
7147.61096750601
 21
43.10912972672302
 31
0.0
  0
CIRCLE
  5
4878
330
1F
100
AcDbEntity
  8
DETAIL
100
AcDbCircle
 10
7197.61096750601
 20
-6.890870273276973
 30
0.0
 40
50.0
  0
LINE
  5
4879
330
1F
100
AcDbEntity
  8
DETAIL
100
AcDbLine
 10
7263.610967506011
 20
-40.75758838644095
 30
0.0
 11
7263.610967506011
 21
43.10912972672302
 31
0.0
  0
CIRCLE
  5
487A
330
1F
100
AcDbEntity
  8
DETAIL
100
AcDbCircle
 10
7313.610967506011
 20
-6.890870273276973
 30
0.0
 40
50.0
  0
LINE
  5
487B
330
1F
100
AcDbEntity
  8
DETAIL
100
AcDbLine
 10
7379.610967506012
 20
-40.75758838645604
 30
0.0
 11
7379.610967506012
 21
43.10912972670792
 31
0.0
  0
CIRCLE
  5
487C
330
1F
100
AcDbEntity
  8
DETAIL
100
AcDbCircle
 10
7429.610967506012
 20
-6.890870273292065
 30
0.0
 40
50.0
  0
LINE
  5
487D
330
1F
100
AcDbEntity
  8
DETAIL
100
AcDbLine
 10
7495.61096750601
 20
-40.75758838644097
 30
0.0
 11
7495.61096750601
 21
43.10912972672301
 31
0.0
  0
CIRCLE
  5
487E
330
1F
100
AcDbEntity
  8
DETAIL
100
AcDbCircle
 10
7545.610967506011
 20
-6.890870273276981
 30
0.0
 40
50.0
  0
LINE
  5
487F
330
1F
100
AcDbEntity
  8
DETAIL
100
AcDbLine
 10
7611.61096750601
 20
-40.75758838644095
 30
0.0
 11
7611.61096750601
 21
43.10912972672303
 31
0.0
  0
CIRCLE
  5
4880
330
1F
100
AcDbEntity
  8
DETAIL
100
AcDbCircle
 10
7661.61096750601
 20
-6.890870273276965
 30
0.0
 40
50.0
  0
LINE
  5
4881
330
1F
100
AcDbEntity
  8
DETAIL
100
AcDbLine
 10
7727.610967506014
 20
-40.75758838645984
 30
0.0
 11
7727.610967506014
 21
43.10912972670414
 31
0.0
  0
CIRCLE
  5
4882
330
1F
100
AcDbEntity
  8
DETAIL
100
AcDbCircle
 10
7777.610967506014
 20
-6.890870273295846
 30
0.0
 40
50.0
  0
LINE
  5
4883
330
1F
100
AcDbEntity
  8
DETAIL
100
AcDbLine
 10
7843.610967506011
 20
-40.75758838644095
 30
0.0
 11
7843.610967506011
 21
43.10912972672302
 31
0.0
  0
CIRCLE
  5
4884
330
1F
100
AcDbEntity
  8
DETAIL
100
AcDbCircle
 10
7893.610967506011
 20
-6.890870273276973
 30
0.0
 40
50.0
  0
LINE
  5
4885
330
1F
100
AcDbEntity
  8
DETAIL
100
AcDbLine
 10
7959.61096750601
 20
-40.75758838644095
 30
0.0
 11
7959.61096750601
 21
43.10912972672302
 31
0.0
  0
CIRCLE
  5
4886
330
1F
100
AcDbEntity
  8
DETAIL
100
AcDbCircle
 10
8009.610967506011
 20
-6.890870273276973
 30
0.0
 40
50.0
  0
LINE
  5
4887
330
1F
100
AcDbEntity
  8
DETAIL
100
AcDbLine
 10
8075.610967506012
 20
-40.7575883864636
 30
0.0
 11
8075.610967506012
 21
43.10912972670036
 31
0.0
  0
CIRCLE
  5
4888
330
1F
100
AcDbEntity
  8
DETAIL
100
AcDbCircle
 10
8125.610967506011
 20
-6.890870273299618
 30
0.0
 40
50.0
  0
LINE
  5
4889
330
1F
100
AcDbEntity
  8
DETAIL
100
AcDbLine
 10
8191.610967506012
 20
-40.75758838646486
 30
0.0
 11
8191.610967506012
 21
43.10912972669911
 31
0.0
  0
CIRCLE
  5
488A
330
1F
100
AcDbEntity
  8
DETAIL
100
AcDbCircle
 10
8241.610967506009
 20
-6.890870273300875
 30
0.0
 40
50.0
  0
LINE
  5
488B
330
1F
100
AcDbEntity
  8
DETAIL
100
AcDbLine
 10
8307.610967506009
 20
-40.75758838644097
 30
0.0
 11
8307.610967506009
 21
43.10912972672301
 31
0.0
  0
CIRCLE
  5
488C
330
1F
100
AcDbEntity
  8
DETAIL
100
AcDbCircle
 10
8357.61096750601
 20
-6.890870273276981
 30
0.0
 40
50.0
  0
LINE
  5
488D
330
1F
100
AcDbEntity
  8
DETAIL
100
AcDbLine
 10
5855.610967506025
 20
-40.75758838644097
 30
0.0
 11
5855.610967506025
 21
43.10912972672301
 31
0.0
  0
CIRCLE
  5
488E
330
1F
100
AcDbEntity
  8
DETAIL
100
AcDbCircle
 10
5805.61096750604
 20
-6.890870273276995
 30
0.0
 40
50.0
  0
LINE
  5
4890
330
1F
100
AcDbEntity
  8
DETAIL
100
AcDbLine
 10
5805.61096750604
 20
-56.89087027327699
 30
0.0
 11
5755.610967506039
 21
-56.89087027327696
 31
0.0
  0
LINE
  5
4891
330
1F
100
AcDbEntity
  8
DETAIL
100
AcDbLine
 10
5755.610967506039
 20
-56.89087027327696
 30
0.0
 11
8407.610967506009
 21
-56.89087027327696
 31
0.0
  0
LINE
  5
4894
330
1F
100
AcDbEntity
  8
DETAIL
100
AcDbLine
 10
8407.610967506009
 20
-66.89087027327696
 30
0.0
 11
5755.610967506039
 21
-66.89087027327696
 31
0.0
  0
LINE
  5
4897
330
1F
100
AcDbEntity
  8
DETAIL
100
AcDbLine
 10
5755.61096750604
 20
-6.890870273276988
 30
0.0
 11
5755.610967506039
 21
43.10912972672301
 31
0.0
  0
LINE
  5
489D
330
1F
100
AcDbEntity
  8
DETAIL
100
AcDbLine
 10
8407.610967506009
 20
-6.890870273276981
 30
0.0
 11
8407.610967506009
 21
43.10912972672304
 31
0.0
  0
LINE
  5
48EA
330
1F
100
AcDbEntity
  8
DETAIL
100
AcDbLine
 10
5855.61096750601
 20
-2049.751663488882
 30
0.0
 11
5871.610967506011
 21
-2049.751663488882
 31
0.0
  0
LINE
  5
48EB
330
1F
100
AcDbEntity
  8
DETAIL
100
AcDbLine
 10
5971.610967506011
 20
-2049.751663488882
 30
0.0
 11
5987.610967506011
 21
-2049.751663488882
 31
0.0
  0
LINE
  5
48F2
330
1F
100
AcDbEntity
  8
DETAIL
100
AcDbLine
 10
5863.610967506012
 20
-2041.751663488882
 30
0.0
 11
5863.610967506012
 21
-2057.751663488882
 31
0.0
  0
LINE
  5
48F9
330
1F
100
AcDbEntity
  8
DETAIL
100
AcDbLine
 10
5979.610967506011
 20
-2041.751663488882
 30
0.0
 11
5979.610967506011
 21
-2057.751663488882
 31
0.0
  0
LINE
  5
48FA
330
1F
100
AcDbEntity
  8
DETAIL
100
AcDbLine
 10
5855.61096750601
 20
-2049.751663488882
 30
0.0
 11
5863.610967506012
 21
-2041.751663488882
 31
0.0
  0
LINE
  5
48FB
330
1F
100
AcDbEntity
  8
DETAIL
100
AcDbLine
 10
5863.610967506012
 20
-2041.751663488882
 30
0.0
 11
5871.610967506011
 21
-2049.751663488882
 31
0.0
  0
LINE
  5
48FC
330
1F
100
AcDbEntity
  8
DETAIL
100
AcDbLine
 10
5871.610967506011
 20
-2049.751663488882
 30
0.0
 11
5863.610967506012
 21
-2057.751663488882
 31
0.0
  0
LINE
  5
48FD
330
1F
100
AcDbEntity
  8
DETAIL
100
AcDbLine
 10
5863.610967506012
 20
-2057.751663488882
 30
0.0
 11
5855.61096750601
 21
-2049.751663488882
 31
0.0
  0
LINE
  5
48FE
330
1F
100
AcDbEntity
  8
DETAIL
100
AcDbLine
 10
5971.610967506011
 20
-2049.751663488882
 30
0.0
 11
5979.610967506011
 21
-2041.751663488882
 31
0.0
  0
LINE
  5
48FF
330
1F
100
AcDbEntity
  8
DETAIL
100
AcDbLine
 10
5979.610967506011
 20
-2041.751663488882
 30
0.0
 11
5987.610967506011
 21
-2049.751663488882
 31
0.0
  0
LINE
  5
4900
330
1F
100
AcDbEntity
  8
DETAIL
100
AcDbLine
 10
5987.610967506011
 20
-2049.751663488882
 30
0.0
 11
5979.610967506011
 21
-2057.751663488882
 31
0.0
  0
LINE
  5
4901
330
1F
100
AcDbEntity
  8
DETAIL
100
AcDbLine
 10
5979.610967506011
 20
-2057.751663488882
 30
0.0
 11
5971.610967506011
 21
-2049.751663488882
 31
0.0
  0
LINE
  5
4906
330
1F
100
AcDbEntity
  8
DETAIL
100
AcDbLine
 10
5971.610967506011
 20
-2049.751663488882
 30
0.0
 11
5987.610967506011
 21
-2049.751663488882
 31
0.0
  0
LINE
  5
4907
330
1F
100
AcDbEntity
  8
DETAIL
100
AcDbLine
 10
6087.610967506011
 20
-2049.751663488882
 30
0.0
 11
6103.610967506011
 21
-2049.751663488882
 31
0.0
  0
LINE
  5
4908
330
1F
100
AcDbEntity
  8
DETAIL
100
AcDbLine
 10
5979.610967506011
 20
-2041.751663488882
 30
0.0
 11
5979.610967506011
 21
-2057.751663488882
 31
0.0
  0
LINE
  5
4909
330
1F
100
AcDbEntity
  8
DETAIL
100
AcDbLine
 10
6095.610967506011
 20
-2041.751663488882
 30
0.0
 11
6095.610967506011
 21
-2057.751663488882
 31
0.0
  0
LINE
  5
490A
330
1F
100
AcDbEntity
  8
DETAIL
100
AcDbLine
 10
5971.610967506011
 20
-2049.751663488882
 30
0.0
 11
5979.610967506011
 21
-2041.751663488882
 31
0.0
  0
LINE
  5
490B
330
1F
100
AcDbEntity
  8
DETAIL
100
AcDbLine
 10
5979.610967506011
 20
-2041.751663488882
 30
0.0
 11
5987.610967506011
 21
-2049.751663488882
 31
0.0
  0
LINE
  5
490C
330
1F
100
AcDbEntity
  8
DETAIL
100
AcDbLine
 10
5987.610967506011
 20
-2049.751663488882
 30
0.0
 11
5979.610967506011
 21
-2057.751663488882
 31
0.0
  0
LINE
  5
490D
330
1F
100
AcDbEntity
  8
DETAIL
100
AcDbLine
 10
5979.610967506011
 20
-2057.751663488882
 30
0.0
 11
5971.610967506011
 21
-2049.751663488882
 31
0.0
  0
LINE
  5
490E
330
1F
100
AcDbEntity
  8
DETAIL
100
AcDbLine
 10
6087.610967506011
 20
-2049.751663488882
 30
0.0
 11
6095.610967506011
 21
-2041.751663488882
 31
0.0
  0
LINE
  5
490F
330
1F
100
AcDbEntity
  8
DETAIL
100
AcDbLine
 10
6095.610967506011
 20
-2041.751663488882
 30
0.0
 11
6103.610967506011
 21
-2049.751663488882
 31
0.0
  0
LINE
  5
4910
330
1F
100
AcDbEntity
  8
DETAIL
100
AcDbLine
 10
6103.610967506011
 20
-2049.751663488882
 30
0.0
 11
6095.610967506011
 21
-2057.751663488882
 31
0.0
  0
LINE
  5
4911
330
1F
100
AcDbEntity
  8
DETAIL
100
AcDbLine
 10
6095.610967506011
 20
-2057.751663488882
 30
0.0
 11
6087.610967506011
 21
-2049.751663488882
 31
0.0
  0
LINE
  5
4916
330
1F
100
AcDbEntity
  8
DETAIL
100
AcDbLine
 10
6087.610967506011
 20
-2049.751663488882
 30
0.0
 11
6103.610967506011
 21
-2049.751663488882
 31
0.0
  0
LINE
  5
4917
330
1F
100
AcDbEntity
  8
DETAIL
100
AcDbLine
 10
6203.610967506008
 20
-2049.751663488882
 30
0.0
 11
6219.61096750601
 21
-2049.751663488882
 31
0.0
  0
LINE
  5
4918
330
1F
100
AcDbEntity
  8
DETAIL
100
AcDbLine
 10
6095.610967506011
 20
-2041.751663488882
 30
0.0
 11
6095.610967506011
 21
-2057.751663488882
 31
0.0
  0
LINE
  5
4919
330
1F
100
AcDbEntity
  8
DETAIL
100
AcDbLine
 10
6211.610967506008
 20
-2041.751663488882
 30
0.0
 11
6211.610967506008
 21
-2057.751663488882
 31
0.0
  0
LINE
  5
491A
330
1F
100
AcDbEntity
  8
DETAIL
100
AcDbLine
 10
6087.610967506011
 20
-2049.751663488882
 30
0.0
 11
6095.610967506011
 21
-2041.751663488882
 31
0.0
  0
LINE
  5
491B
330
1F
100
AcDbEntity
  8
DETAIL
100
AcDbLine
 10
6095.610967506011
 20
-2041.751663488882
 30
0.0
 11
6103.610967506011
 21
-2049.751663488882
 31
0.0
  0
LINE
  5
491C
330
1F
100
AcDbEntity
  8
DETAIL
100
AcDbLine
 10
6103.610967506011
 20
-2049.751663488882
 30
0.0
 11
6095.610967506011
 21
-2057.751663488882
 31
0.0
  0
LINE
  5
491D
330
1F
100
AcDbEntity
  8
DETAIL
100
AcDbLine
 10
6095.610967506011
 20
-2057.751663488882
 30
0.0
 11
6087.610967506011
 21
-2049.751663488882
 31
0.0
  0
LINE
  5
491E
330
1F
100
AcDbEntity
  8
DETAIL
100
AcDbLine
 10
6203.610967506008
 20
-2049.751663488882
 30
0.0
 11
6211.610967506008
 21
-2041.751663488882
 31
0.0
  0
LINE
  5
491F
330
1F
100
AcDbEntity
  8
DETAIL
100
AcDbLine
 10
6211.610967506008
 20
-2041.751663488882
 30
0.0
 11
6219.61096750601
 21
-2049.751663488882
 31
0.0
  0
LINE
  5
4920
330
1F
100
AcDbEntity
  8
DETAIL
100
AcDbLine
 10
6219.61096750601
 20
-2049.751663488882
 30
0.0
 11
6211.610967506008
 21
-2057.751663488882
 31
0.0
  0
LINE
  5
4921
330
1F
100
AcDbEntity
  8
DETAIL
100
AcDbLine
 10
6211.610967506008
 20
-2057.751663488882
 30
0.0
 11
6203.610967506008
 21
-2049.751663488882
 31
0.0
  0
LINE
  5
4926
330
1F
100
AcDbEntity
  8
DETAIL
100
AcDbLine
 10
6203.610967506008
 20
-2049.751663488882
 30
0.0
 11
6219.61096750601
 21
-2049.751663488882
 31
0.0
  0
LINE
  5
4927
330
1F
100
AcDbEntity
  8
DETAIL
100
AcDbLine
 10
6319.610967506008
 20
-2049.751663488882
 30
0.0
 11
6335.610967506008
 21
-2049.751663488882
 31
0.0
  0
LINE
  5
4928
330
1F
100
AcDbEntity
  8
DETAIL
100
AcDbLine
 10
6211.610967506008
 20
-2041.751663488882
 30
0.0
 11
6211.610967506008
 21
-2057.751663488882
 31
0.0
  0
LINE
  5
4929
330
1F
100
AcDbEntity
  8
DETAIL
100
AcDbLine
 10
6327.610967506007
 20
-2041.751663488882
 30
0.0
 11
6327.610967506007
 21
-2057.751663488882
 31
0.0
  0
LINE
  5
492A
330
1F
100
AcDbEntity
  8
DETAIL
100
AcDbLine
 10
6203.610967506008
 20
-2049.751663488882
 30
0.0
 11
6211.610967506008
 21
-2041.751663488882
 31
0.0
  0
LINE
  5
492B
330
1F
100
AcDbEntity
  8
DETAIL
100
AcDbLine
 10
6211.610967506008
 20
-2041.751663488882
 30
0.0
 11
6219.61096750601
 21
-2049.751663488882
 31
0.0
  0
LINE
  5
492C
330
1F
100
AcDbEntity
  8
DETAIL
100
AcDbLine
 10
6219.61096750601
 20
-2049.751663488882
 30
0.0
 11
6211.610967506008
 21
-2057.751663488882
 31
0.0
  0
LINE
  5
492D
330
1F
100
AcDbEntity
  8
DETAIL
100
AcDbLine
 10
6211.610967506008
 20
-2057.751663488882
 30
0.0
 11
6203.610967506008
 21
-2049.751663488882
 31
0.0
  0
LINE
  5
492E
330
1F
100
AcDbEntity
  8
DETAIL
100
AcDbLine
 10
6319.610967506008
 20
-2049.751663488882
 30
0.0
 11
6327.610967506007
 21
-2041.751663488882
 31
0.0
  0
LINE
  5
492F
330
1F
100
AcDbEntity
  8
DETAIL
100
AcDbLine
 10
6327.610967506007
 20
-2041.751663488882
 30
0.0
 11
6335.610967506008
 21
-2049.751663488882
 31
0.0
  0
LINE
  5
4930
330
1F
100
AcDbEntity
  8
DETAIL
100
AcDbLine
 10
6335.610967506008
 20
-2049.751663488882
 30
0.0
 11
6327.610967506007
 21
-2057.751663488882
 31
0.0
  0
LINE
  5
4931
330
1F
100
AcDbEntity
  8
DETAIL
100
AcDbLine
 10
6327.610967506007
 20
-2057.751663488882
 30
0.0
 11
6319.610967506008
 21
-2049.751663488882
 31
0.0
  0
LINE
  5
4936
330
1F
100
AcDbEntity
  8
DETAIL
100
AcDbLine
 10
6319.610967506008
 20
-2049.751663488882
 30
0.0
 11
6335.610967506008
 21
-2049.751663488882
 31
0.0
  0
LINE
  5
4937
330
1F
100
AcDbEntity
  8
DETAIL
100
AcDbLine
 10
6435.610967506007
 20
-2049.751663488882
 30
0.0
 11
6451.610967506006
 21
-2049.751663488882
 31
0.0
  0
LINE
  5
4938
330
1F
100
AcDbEntity
  8
DETAIL
100
AcDbLine
 10
6327.610967506007
 20
-2041.751663488882
 30
0.0
 11
6327.610967506007
 21
-2057.751663488882
 31
0.0
  0
LINE
  5
4939
330
1F
100
AcDbEntity
  8
DETAIL
100
AcDbLine
 10
6443.610967506007
 20
-2041.751663488882
 30
0.0
 11
6443.610967506007
 21
-2057.751663488882
 31
0.0
  0
LINE
  5
493A
330
1F
100
AcDbEntity
  8
DETAIL
100
AcDbLine
 10
6319.610967506008
 20
-2049.751663488882
 30
0.0
 11
6327.610967506007
 21
-2041.751663488882
 31
0.0
  0
LINE
  5
493B
330
1F
100
AcDbEntity
  8
DETAIL
100
AcDbLine
 10
6327.610967506007
 20
-2041.751663488882
 30
0.0
 11
6335.610967506008
 21
-2049.751663488882
 31
0.0
  0
LINE
  5
493C
330
1F
100
AcDbEntity
  8
DETAIL
100
AcDbLine
 10
6335.610967506008
 20
-2049.751663488882
 30
0.0
 11
6327.610967506007
 21
-2057.751663488882
 31
0.0
  0
LINE
  5
493D
330
1F
100
AcDbEntity
  8
DETAIL
100
AcDbLine
 10
6327.610967506007
 20
-2057.751663488882
 30
0.0
 11
6319.610967506008
 21
-2049.751663488882
 31
0.0
  0
LINE
  5
493E
330
1F
100
AcDbEntity
  8
DETAIL
100
AcDbLine
 10
6435.610967506007
 20
-2049.751663488882
 30
0.0
 11
6443.610967506007
 21
-2041.751663488882
 31
0.0
  0
LINE
  5
493F
330
1F
100
AcDbEntity
  8
DETAIL
100
AcDbLine
 10
6443.610967506007
 20
-2041.751663488882
 30
0.0
 11
6451.610967506006
 21
-2049.751663488882
 31
0.0
  0
LINE
  5
4940
330
1F
100
AcDbEntity
  8
DETAIL
100
AcDbLine
 10
6451.610967506006
 20
-2049.751663488882
 30
0.0
 11
6443.610967506007
 21
-2057.751663488882
 31
0.0
  0
LINE
  5
4941
330
1F
100
AcDbEntity
  8
DETAIL
100
AcDbLine
 10
6443.610967506007
 20
-2057.751663488882
 30
0.0
 11
6435.610967506007
 21
-2049.751663488882
 31
0.0
  0
LINE
  5
4946
330
1F
100
AcDbEntity
  8
DETAIL
100
AcDbLine
 10
6435.610967506007
 20
-2049.751663488882
 30
0.0
 11
6451.610967506006
 21
-2049.751663488882
 31
0.0
  0
LINE
  5
4947
330
1F
100
AcDbEntity
  8
DETAIL
100
AcDbLine
 10
6551.610967506007
 20
-2049.751663488882
 30
0.0
 11
6567.610967506006
 21
-2049.751663488882
 31
0.0
  0
LINE
  5
4948
330
1F
100
AcDbEntity
  8
DETAIL
100
AcDbLine
 10
6443.610967506007
 20
-2041.751663488882
 30
0.0
 11
6443.610967506007
 21
-2057.751663488882
 31
0.0
  0
LINE
  5
4949
330
1F
100
AcDbEntity
  8
DETAIL
100
AcDbLine
 10
6559.610967506007
 20
-2041.751663488882
 30
0.0
 11
6559.610967506007
 21
-2057.751663488882
 31
0.0
  0
LINE
  5
494A
330
1F
100
AcDbEntity
  8
DETAIL
100
AcDbLine
 10
6435.610967506007
 20
-2049.751663488882
 30
0.0
 11
6443.610967506007
 21
-2041.751663488882
 31
0.0
  0
LINE
  5
494B
330
1F
100
AcDbEntity
  8
DETAIL
100
AcDbLine
 10
6443.610967506007
 20
-2041.751663488882
 30
0.0
 11
6451.610967506006
 21
-2049.751663488882
 31
0.0
  0
LINE
  5
494C
330
1F
100
AcDbEntity
  8
DETAIL
100
AcDbLine
 10
6451.610967506006
 20
-2049.751663488882
 30
0.0
 11
6443.610967506007
 21
-2057.751663488882
 31
0.0
  0
LINE
  5
494D
330
1F
100
AcDbEntity
  8
DETAIL
100
AcDbLine
 10
6443.610967506007
 20
-2057.751663488882
 30
0.0
 11
6435.610967506007
 21
-2049.751663488882
 31
0.0
  0
LINE
  5
494E
330
1F
100
AcDbEntity
  8
DETAIL
100
AcDbLine
 10
6551.610967506007
 20
-2049.751663488882
 30
0.0
 11
6559.610967506007
 21
-2041.751663488882
 31
0.0
  0
LINE
  5
494F
330
1F
100
AcDbEntity
  8
DETAIL
100
AcDbLine
 10
6559.610967506007
 20
-2041.751663488882
 30
0.0
 11
6567.610967506006
 21
-2049.751663488882
 31
0.0
  0
LINE
  5
4950
330
1F
100
AcDbEntity
  8
DETAIL
100
AcDbLine
 10
6567.610967506006
 20
-2049.751663488882
 30
0.0
 11
6559.610967506007
 21
-2057.751663488882
 31
0.0
  0
LINE
  5
4951
330
1F
100
AcDbEntity
  8
DETAIL
100
AcDbLine
 10
6559.610967506007
 20
-2057.751663488882
 30
0.0
 11
6551.610967506007
 21
-2049.751663488882
 31
0.0
  0
LINE
  5
4956
330
1F
100
AcDbEntity
  8
DETAIL
100
AcDbLine
 10
6551.610967506007
 20
-2049.751663488882
 30
0.0
 11
6567.610967506006
 21
-2049.751663488882
 31
0.0
  0
LINE
  5
4957
330
1F
100
AcDbEntity
  8
DETAIL
100
AcDbLine
 10
6667.610967506004
 20
-2049.751663488882
 30
0.0
 11
6683.610967506004
 21
-2049.751663488882
 31
0.0
  0
LINE
  5
4958
330
1F
100
AcDbEntity
  8
DETAIL
100
AcDbLine
 10
6559.610967506007
 20
-2041.751663488882
 30
0.0
 11
6559.610967506007
 21
-2057.751663488882
 31
0.0
  0
LINE
  5
4959
330
1F
100
AcDbEntity
  8
DETAIL
100
AcDbLine
 10
6675.610967506006
 20
-2041.751663488882
 30
0.0
 11
6675.610967506006
 21
-2057.751663488882
 31
0.0
  0
LINE
  5
495A
330
1F
100
AcDbEntity
  8
DETAIL
100
AcDbLine
 10
6551.610967506007
 20
-2049.751663488882
 30
0.0
 11
6559.610967506007
 21
-2041.751663488882
 31
0.0
  0
LINE
  5
495B
330
1F
100
AcDbEntity
  8
DETAIL
100
AcDbLine
 10
6559.610967506007
 20
-2041.751663488882
 30
0.0
 11
6567.610967506006
 21
-2049.751663488882
 31
0.0
  0
LINE
  5
495C
330
1F
100
AcDbEntity
  8
DETAIL
100
AcDbLine
 10
6567.610967506006
 20
-2049.751663488882
 30
0.0
 11
6559.610967506007
 21
-2057.751663488882
 31
0.0
  0
LINE
  5
495D
330
1F
100
AcDbEntity
  8
DETAIL
100
AcDbLine
 10
6559.610967506007
 20
-2057.751663488882
 30
0.0
 11
6551.610967506007
 21
-2049.751663488882
 31
0.0
  0
LINE
  5
495E
330
1F
100
AcDbEntity
  8
DETAIL
100
AcDbLine
 10
6667.610967506004
 20
-2049.751663488882
 30
0.0
 11
6675.610967506006
 21
-2041.751663488882
 31
0.0
  0
LINE
  5
495F
330
1F
100
AcDbEntity
  8
DETAIL
100
AcDbLine
 10
6675.610967506006
 20
-2041.751663488882
 30
0.0
 11
6683.610967506004
 21
-2049.751663488882
 31
0.0
  0
LINE
  5
4960
330
1F
100
AcDbEntity
  8
DETAIL
100
AcDbLine
 10
6683.610967506004
 20
-2049.751663488882
 30
0.0
 11
6675.610967506006
 21
-2057.751663488882
 31
0.0
  0
LINE
  5
4961
330
1F
100
AcDbEntity
  8
DETAIL
100
AcDbLine
 10
6675.610967506006
 20
-2057.751663488882
 30
0.0
 11
6667.610967506004
 21
-2049.751663488882
 31
0.0
  0
LINE
  5
4966
330
1F
100
AcDbEntity
  8
DETAIL
100
AcDbLine
 10
6667.610967506004
 20
-2049.751663488882
 30
0.0
 11
6683.610967506004
 21
-2049.751663488882
 31
0.0
  0
LINE
  5
4967
330
1F
100
AcDbEntity
  8
DETAIL
100
AcDbLine
 10
6783.610967506003
 20
-2049.751663488882
 30
0.0
 11
6799.610967506004
 21
-2049.751663488882
 31
0.0
  0
LINE
  5
4968
330
1F
100
AcDbEntity
  8
DETAIL
100
AcDbLine
 10
6675.610967506006
 20
-2041.751663488882
 30
0.0
 11
6675.610967506006
 21
-2057.751663488882
 31
0.0
  0
LINE
  5
4969
330
1F
100
AcDbEntity
  8
DETAIL
100
AcDbLine
 10
6791.610967506002
 20
-2041.751663488882
 30
0.0
 11
6791.610967506002
 21
-2057.751663488882
 31
0.0
  0
LINE
  5
496A
330
1F
100
AcDbEntity
  8
DETAIL
100
AcDbLine
 10
6667.610967506004
 20
-2049.751663488882
 30
0.0
 11
6675.610967506006
 21
-2041.751663488882
 31
0.0
  0
LINE
  5
496B
330
1F
100
AcDbEntity
  8
DETAIL
100
AcDbLine
 10
6675.610967506006
 20
-2041.751663488882
 30
0.0
 11
6683.610967506004
 21
-2049.751663488882
 31
0.0
  0
LINE
  5
496C
330
1F
100
AcDbEntity
  8
DETAIL
100
AcDbLine
 10
6683.610967506004
 20
-2049.751663488882
 30
0.0
 11
6675.610967506006
 21
-2057.751663488882
 31
0.0
  0
LINE
  5
496D
330
1F
100
AcDbEntity
  8
DETAIL
100
AcDbLine
 10
6675.610967506006
 20
-2057.751663488882
 30
0.0
 11
6667.610967506004
 21
-2049.751663488882
 31
0.0
  0
LINE
  5
496E
330
1F
100
AcDbEntity
  8
DETAIL
100
AcDbLine
 10
6783.610967506003
 20
-2049.751663488882
 30
0.0
 11
6791.610967506002
 21
-2041.751663488882
 31
0.0
  0
LINE
  5
496F
330
1F
100
AcDbEntity
  8
DETAIL
100
AcDbLine
 10
6791.610967506002
 20
-2041.751663488882
 30
0.0
 11
6799.610967506004
 21
-2049.751663488882
 31
0.0
  0
LINE
  5
4970
330
1F
100
AcDbEntity
  8
DETAIL
100
AcDbLine
 10
6799.610967506004
 20
-2049.751663488882
 30
0.0
 11
6791.610967506002
 21
-2057.751663488882
 31
0.0
  0
LINE
  5
4971
330
1F
100
AcDbEntity
  8
DETAIL
100
AcDbLine
 10
6791.610967506002
 20
-2057.751663488882
 30
0.0
 11
6783.610967506003
 21
-2049.751663488882
 31
0.0
  0
LINE
  5
4976
330
1F
100
AcDbEntity
  8
DETAIL
100
AcDbLine
 10
6783.610967506003
 20
-2049.751663488882
 30
0.0
 11
6799.610967506004
 21
-2049.751663488882
 31
0.0
  0
LINE
  5
4977
330
1F
100
AcDbEntity
  8
DETAIL
100
AcDbLine
 10
6899.610967506004
 20
-2049.751663488882
 30
0.0
 11
6915.610967506002
 21
-2049.751663488882
 31
0.0
  0
LINE
  5
4978
330
1F
100
AcDbEntity
  8
DETAIL
100
AcDbLine
 10
6791.610967506002
 20
-2041.751663488882
 30
0.0
 11
6791.610967506002
 21
-2057.751663488882
 31
0.0
  0
LINE
  5
4979
330
1F
100
AcDbEntity
  8
DETAIL
100
AcDbLine
 10
6907.610967506002
 20
-2041.751663488882
 30
0.0
 11
6907.610967506002
 21
-2057.751663488882
 31
0.0
  0
LINE
  5
497A
330
1F
100
AcDbEntity
  8
DETAIL
100
AcDbLine
 10
6783.610967506003
 20
-2049.751663488882
 30
0.0
 11
6791.610967506002
 21
-2041.751663488882
 31
0.0
  0
LINE
  5
497B
330
1F
100
AcDbEntity
  8
DETAIL
100
AcDbLine
 10
6791.610967506002
 20
-2041.751663488882
 30
0.0
 11
6799.610967506004
 21
-2049.751663488882
 31
0.0
  0
LINE
  5
497C
330
1F
100
AcDbEntity
  8
DETAIL
100
AcDbLine
 10
6799.610967506004
 20
-2049.751663488882
 30
0.0
 11
6791.610967506002
 21
-2057.751663488882
 31
0.0
  0
LINE
  5
497D
330
1F
100
AcDbEntity
  8
DETAIL
100
AcDbLine
 10
6791.610967506002
 20
-2057.751663488882
 30
0.0
 11
6783.610967506003
 21
-2049.751663488882
 31
0.0
  0
LINE
  5
497E
330
1F
100
AcDbEntity
  8
DETAIL
100
AcDbLine
 10
6899.610967506004
 20
-2049.751663488882
 30
0.0
 11
6907.610967506002
 21
-2041.751663488882
 31
0.0
  0
LINE
  5
497F
330
1F
100
AcDbEntity
  8
DETAIL
100
AcDbLine
 10
6907.610967506002
 20
-2041.751663488882
 30
0.0
 11
6915.610967506002
 21
-2049.751663488882
 31
0.0
  0
LINE
  5
4980
330
1F
100
AcDbEntity
  8
DETAIL
100
AcDbLine
 10
6915.610967506002
 20
-2049.751663488882
 30
0.0
 11
6907.610967506002
 21
-2057.751663488882
 31
0.0
  0
LINE
  5
4981
330
1F
100
AcDbEntity
  8
DETAIL
100
AcDbLine
 10
6907.610967506002
 20
-2057.751663488882
 30
0.0
 11
6899.610967506004
 21
-2049.751663488882
 31
0.0
  0
LINE
  5
4986
330
1F
100
AcDbEntity
  8
DETAIL
100
AcDbLine
 10
6899.610967506004
 20
-2049.751663488882
 30
0.0
 11
6915.610967506002
 21
-2049.751663488882
 31
0.0
  0
LINE
  5
4987
330
1F
100
AcDbEntity
  8
DETAIL
100
AcDbLine
 10
7015.610967506002
 20
-2049.751663488882
 30
0.0
 11
7031.610967506002
 21
-2049.751663488882
 31
0.0
  0
LINE
  5
4988
330
1F
100
AcDbEntity
  8
DETAIL
100
AcDbLine
 10
6907.610967506002
 20
-2041.751663488882
 30
0.0
 11
6907.610967506002
 21
-2057.751663488882
 31
0.0
  0
LINE
  5
4989
330
1F
100
AcDbEntity
  8
DETAIL
100
AcDbLine
 10
7023.610967506002
 20
-2041.751663488882
 30
0.0
 11
7023.610967506002
 21
-2057.751663488882
 31
0.0
  0
LINE
  5
498A
330
1F
100
AcDbEntity
  8
DETAIL
100
AcDbLine
 10
6899.610967506004
 20
-2049.751663488882
 30
0.0
 11
6907.610967506002
 21
-2041.751663488882
 31
0.0
  0
LINE
  5
498B
330
1F
100
AcDbEntity
  8
DETAIL
100
AcDbLine
 10
6907.610967506002
 20
-2041.751663488882
 30
0.0
 11
6915.610967506002
 21
-2049.751663488882
 31
0.0
  0
LINE
  5
498C
330
1F
100
AcDbEntity
  8
DETAIL
100
AcDbLine
 10
6915.610967506002
 20
-2049.751663488882
 30
0.0
 11
6907.610967506002
 21
-2057.751663488882
 31
0.0
  0
LINE
  5
498D
330
1F
100
AcDbEntity
  8
DETAIL
100
AcDbLine
 10
6907.610967506002
 20
-2057.751663488882
 30
0.0
 11
6899.610967506004
 21
-2049.751663488882
 31
0.0
  0
LINE
  5
498E
330
1F
100
AcDbEntity
  8
DETAIL
100
AcDbLine
 10
7015.610967506002
 20
-2049.751663488882
 30
0.0
 11
7023.610967506002
 21
-2041.751663488882
 31
0.0
  0
LINE
  5
498F
330
1F
100
AcDbEntity
  8
DETAIL
100
AcDbLine
 10
7023.610967506002
 20
-2041.751663488882
 30
0.0
 11
7031.610967506002
 21
-2049.751663488882
 31
0.0
  0
LINE
  5
4990
330
1F
100
AcDbEntity
  8
DETAIL
100
AcDbLine
 10
7031.610967506002
 20
-2049.751663488882
 30
0.0
 11
7023.610967506002
 21
-2057.751663488882
 31
0.0
  0
LINE
  5
4991
330
1F
100
AcDbEntity
  8
DETAIL
100
AcDbLine
 10
7023.610967506002
 20
-2057.751663488882
 30
0.0
 11
7015.610967506002
 21
-2049.751663488882
 31
0.0
  0
LINE
  5
4996
330
1F
100
AcDbEntity
  8
DETAIL
100
AcDbLine
 10
7015.610967506002
 20
-2049.751663488882
 30
0.0
 11
7031.610967506002
 21
-2049.751663488882
 31
0.0
  0
LINE
  5
4997
330
1F
100
AcDbEntity
  8
DETAIL
100
AcDbLine
 10
7131.610967506
 20
-2049.751663488882
 30
0.0
 11
7147.610967506
 21
-2049.751663488882
 31
0.0
  0
LINE
  5
4998
330
1F
100
AcDbEntity
  8
DETAIL
100
AcDbLine
 10
7023.610967506002
 20
-2041.751663488882
 30
0.0
 11
7023.610967506002
 21
-2057.751663488882
 31
0.0
  0
LINE
  5
4999
330
1F
100
AcDbEntity
  8
DETAIL
100
AcDbLine
 10
7139.610967506
 20
-2041.751663488882
 30
0.0
 11
7139.610967506
 21
-2057.751663488882
 31
0.0
  0
LINE
  5
499A
330
1F
100
AcDbEntity
  8
DETAIL
100
AcDbLine
 10
7015.610967506002
 20
-2049.751663488882
 30
0.0
 11
7023.610967506002
 21
-2041.751663488882
 31
0.0
  0
LINE
  5
499B
330
1F
100
AcDbEntity
  8
DETAIL
100
AcDbLine
 10
7023.610967506002
 20
-2041.751663488882
 30
0.0
 11
7031.610967506002
 21
-2049.751663488882
 31
0.0
  0
LINE
  5
499C
330
1F
100
AcDbEntity
  8
DETAIL
100
AcDbLine
 10
7031.610967506002
 20
-2049.751663488882
 30
0.0
 11
7023.610967506002
 21
-2057.751663488882
 31
0.0
  0
LINE
  5
499D
330
1F
100
AcDbEntity
  8
DETAIL
100
AcDbLine
 10
7023.610967506002
 20
-2057.751663488882
 30
0.0
 11
7015.610967506002
 21
-2049.751663488882
 31
0.0
  0
LINE
  5
499E
330
1F
100
AcDbEntity
  8
DETAIL
100
AcDbLine
 10
7131.610967506
 20
-2049.751663488882
 30
0.0
 11
7139.610967506
 21
-2041.751663488882
 31
0.0
  0
LINE
  5
499F
330
1F
100
AcDbEntity
  8
DETAIL
100
AcDbLine
 10
7139.610967506
 20
-2041.751663488882
 30
0.0
 11
7147.610967506
 21
-2049.751663488882
 31
0.0
  0
LINE
  5
49A0
330
1F
100
AcDbEntity
  8
DETAIL
100
AcDbLine
 10
7147.610967506
 20
-2049.751663488882
 30
0.0
 11
7139.610967506
 21
-2057.751663488882
 31
0.0
  0
LINE
  5
49A1
330
1F
100
AcDbEntity
  8
DETAIL
100
AcDbLine
 10
7139.610967506
 20
-2057.751663488882
 30
0.0
 11
7131.610967506
 21
-2049.751663488882
 31
0.0
  0
LINE
  5
49A6
330
1F
100
AcDbEntity
  8
DETAIL
100
AcDbLine
 10
7131.610967506
 20
-2049.751663488881
 30
0.0
 11
7147.610967506
 21
-2049.751663488881
 31
0.0
  0
LINE
  5
49A7
330
1F
100
AcDbEntity
  8
DETAIL
100
AcDbLine
 10
7247.610967506
 20
-2049.751663488881
 30
0.0
 11
7263.610967506
 21
-2049.751663488881
 31
0.0
  0
LINE
  5
49A8
330
1F
100
AcDbEntity
  8
DETAIL
100
AcDbLine
 10
7139.610967506
 20
-2041.751663488881
 30
0.0
 11
7139.610967506
 21
-2057.751663488881
 31
0.0
  0
LINE
  5
49A9
330
1F
100
AcDbEntity
  8
DETAIL
100
AcDbLine
 10
7255.610967506
 20
-2041.751663488881
 30
0.0
 11
7255.610967506
 21
-2057.751663488881
 31
0.0
  0
LINE
  5
49AA
330
1F
100
AcDbEntity
  8
DETAIL
100
AcDbLine
 10
7131.610967506
 20
-2049.751663488881
 30
0.0
 11
7139.610967506
 21
-2041.751663488881
 31
0.0
  0
LINE
  5
49AB
330
1F
100
AcDbEntity
  8
DETAIL
100
AcDbLine
 10
7139.610967506
 20
-2041.751663488881
 30
0.0
 11
7147.610967506
 21
-2049.751663488881
 31
0.0
  0
LINE
  5
49AC
330
1F
100
AcDbEntity
  8
DETAIL
100
AcDbLine
 10
7147.610967506
 20
-2049.751663488881
 30
0.0
 11
7139.610967506
 21
-2057.751663488881
 31
0.0
  0
LINE
  5
49AD
330
1F
100
AcDbEntity
  8
DETAIL
100
AcDbLine
 10
7139.610967506
 20
-2057.751663488881
 30
0.0
 11
7131.610967506
 21
-2049.751663488881
 31
0.0
  0
LINE
  5
49AE
330
1F
100
AcDbEntity
  8
DETAIL
100
AcDbLine
 10
7247.610967506
 20
-2049.751663488881
 30
0.0
 11
7255.610967506
 21
-2041.751663488881
 31
0.0
  0
LINE
  5
49AF
330
1F
100
AcDbEntity
  8
DETAIL
100
AcDbLine
 10
7255.610967506
 20
-2041.751663488881
 30
0.0
 11
7263.610967506
 21
-2049.751663488881
 31
0.0
  0
LINE
  5
49B0
330
1F
100
AcDbEntity
  8
DETAIL
100
AcDbLine
 10
7263.610967506
 20
-2049.751663488881
 30
0.0
 11
7255.610967506
 21
-2057.751663488881
 31
0.0
  0
LINE
  5
49B1
330
1F
100
AcDbEntity
  8
DETAIL
100
AcDbLine
 10
7255.610967506
 20
-2057.751663488881
 30
0.0
 11
7247.610967506
 21
-2049.751663488881
 31
0.0
  0
LINE
  5
49B6
330
1F
100
AcDbEntity
  8
DETAIL
100
AcDbLine
 10
7247.610967506
 20
-2049.751663488882
 30
0.0
 11
7263.610967506001
 21
-2049.751663488882
 31
0.0
  0
LINE
  5
49B7
330
1F
100
AcDbEntity
  8
DETAIL
100
AcDbLine
 10
7363.610967506
 20
-2049.751663488882
 30
0.0
 11
7379.610967506
 21
-2049.751663488882
 31
0.0
  0
LINE
  5
49B8
330
1F
100
AcDbEntity
  8
DETAIL
100
AcDbLine
 10
7255.610967506001
 20
-2041.751663488882
 30
0.0
 11
7255.610967506001
 21
-2057.751663488882
 31
0.0
  0
LINE
  5
49B9
330
1F
100
AcDbEntity
  8
DETAIL
100
AcDbLine
 10
7371.610967506
 20
-2041.751663488882
 30
0.0
 11
7371.610967506
 21
-2057.751663488882
 31
0.0
  0
LINE
  5
49BA
330
1F
100
AcDbEntity
  8
DETAIL
100
AcDbLine
 10
7247.610967506
 20
-2049.751663488882
 30
0.0
 11
7255.610967506001
 21
-2041.751663488882
 31
0.0
  0
LINE
  5
49BB
330
1F
100
AcDbEntity
  8
DETAIL
100
AcDbLine
 10
7255.610967506001
 20
-2041.751663488882
 30
0.0
 11
7263.610967506001
 21
-2049.751663488882
 31
0.0
  0
LINE
  5
49BC
330
1F
100
AcDbEntity
  8
DETAIL
100
AcDbLine
 10
7263.610967506001
 20
-2049.751663488882
 30
0.0
 11
7255.610967506001
 21
-2057.751663488882
 31
0.0
  0
LINE
  5
49BD
330
1F
100
AcDbEntity
  8
DETAIL
100
AcDbLine
 10
7255.610967506001
 20
-2057.751663488882
 30
0.0
 11
7247.610967506
 21
-2049.751663488882
 31
0.0
  0
LINE
  5
49BE
330
1F
100
AcDbEntity
  8
DETAIL
100
AcDbLine
 10
7363.610967506
 20
-2049.751663488882
 30
0.0
 11
7371.610967506
 21
-2041.751663488882
 31
0.0
  0
LINE
  5
49BF
330
1F
100
AcDbEntity
  8
DETAIL
100
AcDbLine
 10
7371.610967506
 20
-2041.751663488882
 30
0.0
 11
7379.610967506
 21
-2049.751663488882
 31
0.0
  0
LINE
  5
49C0
330
1F
100
AcDbEntity
  8
DETAIL
100
AcDbLine
 10
7379.610967506
 20
-2049.751663488882
 30
0.0
 11
7371.610967506
 21
-2057.751663488882
 31
0.0
  0
LINE
  5
49C1
330
1F
100
AcDbEntity
  8
DETAIL
100
AcDbLine
 10
7371.610967506
 20
-2057.751663488882
 30
0.0
 11
7363.610967506
 21
-2049.751663488882
 31
0.0
  0
LINE
  5
49C6
330
1F
100
AcDbEntity
  8
DETAIL
100
AcDbLine
 10
7363.610967506001
 20
-2049.751663488882
 30
0.0
 11
7379.610967506001
 21
-2049.751663488882
 31
0.0
  0
LINE
  5
49C7
330
1F
100
AcDbEntity
  8
DETAIL
100
AcDbLine
 10
7479.610967505999
 20
-2049.751663488882
 30
0.0
 11
7495.610967506
 21
-2049.751663488882
 31
0.0
  0
LINE
  5
49C8
330
1F
100
AcDbEntity
  8
DETAIL
100
AcDbLine
 10
7371.610967506001
 20
-2041.751663488882
 30
0.0
 11
7371.610967506001
 21
-2057.751663488882
 31
0.0
  0
LINE
  5
49C9
330
1F
100
AcDbEntity
  8
DETAIL
100
AcDbLine
 10
7487.610967505999
 20
-2041.751663488882
 30
0.0
 11
7487.610967505999
 21
-2057.751663488882
 31
0.0
  0
LINE
  5
49CA
330
1F
100
AcDbEntity
  8
DETAIL
100
AcDbLine
 10
7363.610967506001
 20
-2049.751663488882
 30
0.0
 11
7371.610967506001
 21
-2041.751663488882
 31
0.0
  0
LINE
  5
49CB
330
1F
100
AcDbEntity
  8
DETAIL
100
AcDbLine
 10
7371.610967506001
 20
-2041.751663488882
 30
0.0
 11
7379.610967506001
 21
-2049.751663488882
 31
0.0
  0
LINE
  5
49CC
330
1F
100
AcDbEntity
  8
DETAIL
100
AcDbLine
 10
7379.610967506001
 20
-2049.751663488882
 30
0.0
 11
7371.610967506001
 21
-2057.751663488882
 31
0.0
  0
LINE
  5
49CD
330
1F
100
AcDbEntity
  8
DETAIL
100
AcDbLine
 10
7371.610967506001
 20
-2057.751663488882
 30
0.0
 11
7363.610967506001
 21
-2049.751663488882
 31
0.0
  0
LINE
  5
49CE
330
1F
100
AcDbEntity
  8
DETAIL
100
AcDbLine
 10
7479.610967505999
 20
-2049.751663488882
 30
0.0
 11
7487.610967505999
 21
-2041.751663488882
 31
0.0
  0
LINE
  5
49CF
330
1F
100
AcDbEntity
  8
DETAIL
100
AcDbLine
 10
7487.610967505999
 20
-2041.751663488882
 30
0.0
 11
7495.610967506
 21
-2049.751663488882
 31
0.0
  0
LINE
  5
49D0
330
1F
100
AcDbEntity
  8
DETAIL
100
AcDbLine
 10
7495.610967506
 20
-2049.751663488882
 30
0.0
 11
7487.610967505999
 21
-2057.751663488882
 31
0.0
  0
LINE
  5
49D1
330
1F
100
AcDbEntity
  8
DETAIL
100
AcDbLine
 10
7487.610967505999
 20
-2057.751663488882
 30
0.0
 11
7479.610967505999
 21
-2049.751663488882
 31
0.0
  0
LINE
  5
49D6
330
1F
100
AcDbEntity
  8
DETAIL
100
AcDbLine
 10
7479.610967506001
 20
-2049.751663488882
 30
0.0
 11
7495.610967506
 21
-2049.751663488882
 31
0.0
  0
LINE
  5
49D7
330
1F
100
AcDbEntity
  8
DETAIL
100
AcDbLine
 10
7595.610967506001
 20
-2049.751663488882
 30
0.0
 11
7611.610967506
 21
-2049.751663488882
 31
0.0
  0
LINE
  5
49D8
330
1F
100
AcDbEntity
  8
DETAIL
100
AcDbLine
 10
7487.610967505999
 20
-2041.751663488882
 30
0.0
 11
7487.610967505999
 21
-2057.751663488882
 31
0.0
  0
LINE
  5
49D9
330
1F
100
AcDbEntity
  8
DETAIL
100
AcDbLine
 10
7603.610967506
 20
-2041.751663488882
 30
0.0
 11
7603.610967506
 21
-2057.751663488882
 31
0.0
  0
LINE
  5
49DA
330
1F
100
AcDbEntity
  8
DETAIL
100
AcDbLine
 10
7479.610967506001
 20
-2049.751663488882
 30
0.0
 11
7487.610967505999
 21
-2041.751663488882
 31
0.0
  0
LINE
  5
49DB
330
1F
100
AcDbEntity
  8
DETAIL
100
AcDbLine
 10
7487.610967505999
 20
-2041.751663488882
 30
0.0
 11
7495.610967506
 21
-2049.751663488882
 31
0.0
  0
LINE
  5
49DC
330
1F
100
AcDbEntity
  8
DETAIL
100
AcDbLine
 10
7495.610967506
 20
-2049.751663488882
 30
0.0
 11
7487.610967505999
 21
-2057.751663488882
 31
0.0
  0
LINE
  5
49DD
330
1F
100
AcDbEntity
  8
DETAIL
100
AcDbLine
 10
7487.610967505999
 20
-2057.751663488882
 30
0.0
 11
7479.610967506001
 21
-2049.751663488882
 31
0.0
  0
LINE
  5
49DE
330
1F
100
AcDbEntity
  8
DETAIL
100
AcDbLine
 10
7595.610967506001
 20
-2049.751663488882
 30
0.0
 11
7603.610967506
 21
-2041.751663488882
 31
0.0
  0
LINE
  5
49DF
330
1F
100
AcDbEntity
  8
DETAIL
100
AcDbLine
 10
7603.610967506
 20
-2041.751663488882
 30
0.0
 11
7611.610967506
 21
-2049.751663488882
 31
0.0
  0
LINE
  5
49E0
330
1F
100
AcDbEntity
  8
DETAIL
100
AcDbLine
 10
7611.610967506
 20
-2049.751663488882
 30
0.0
 11
7603.610967506
 21
-2057.751663488882
 31
0.0
  0
LINE
  5
49E1
330
1F
100
AcDbEntity
  8
DETAIL
100
AcDbLine
 10
7603.610967506
 20
-2057.751663488882
 30
0.0
 11
7595.610967506001
 21
-2049.751663488882
 31
0.0
  0
LINE
  5
49E6
330
1F
100
AcDbEntity
  8
DETAIL
100
AcDbLine
 10
7595.610967506001
 20
-2049.751663488882
 30
0.0
 11
7611.610967506
 21
-2049.751663488882
 31
0.0
  0
LINE
  5
49E7
330
1F
100
AcDbEntity
  8
DETAIL
100
AcDbLine
 10
7711.610967506
 20
-2049.751663488882
 30
0.0
 11
7727.610967506
 21
-2049.751663488882
 31
0.0
  0
LINE
  5
49E8
330
1F
100
AcDbEntity
  8
DETAIL
100
AcDbLine
 10
7603.610967506
 20
-2041.751663488882
 30
0.0
 11
7603.610967506
 21
-2057.751663488882
 31
0.0
  0
LINE
  5
49E9
330
1F
100
AcDbEntity
  8
DETAIL
100
AcDbLine
 10
7719.610967506
 20
-2041.751663488882
 30
0.0
 11
7719.610967506
 21
-2057.751663488882
 31
0.0
  0
LINE
  5
49EA
330
1F
100
AcDbEntity
  8
DETAIL
100
AcDbLine
 10
7595.610967506001
 20
-2049.751663488882
 30
0.0
 11
7603.610967506
 21
-2041.751663488882
 31
0.0
  0
LINE
  5
49EB
330
1F
100
AcDbEntity
  8
DETAIL
100
AcDbLine
 10
7603.610967506
 20
-2041.751663488882
 30
0.0
 11
7611.610967506
 21
-2049.751663488882
 31
0.0
  0
LINE
  5
49EC
330
1F
100
AcDbEntity
  8
DETAIL
100
AcDbLine
 10
7611.610967506
 20
-2049.751663488882
 30
0.0
 11
7603.610967506
 21
-2057.751663488882
 31
0.0
  0
LINE
  5
49ED
330
1F
100
AcDbEntity
  8
DETAIL
100
AcDbLine
 10
7603.610967506
 20
-2057.751663488882
 30
0.0
 11
7595.610967506001
 21
-2049.751663488882
 31
0.0
  0
LINE
  5
49EE
330
1F
100
AcDbEntity
  8
DETAIL
100
AcDbLine
 10
7711.610967506
 20
-2049.751663488882
 30
0.0
 11
7719.610967506
 21
-2041.751663488882
 31
0.0
  0
LINE
  5
49EF
330
1F
100
AcDbEntity
  8
DETAIL
100
AcDbLine
 10
7719.610967506
 20
-2041.751663488882
 30
0.0
 11
7727.610967506
 21
-2049.751663488882
 31
0.0
  0
LINE
  5
49F0
330
1F
100
AcDbEntity
  8
DETAIL
100
AcDbLine
 10
7727.610967506
 20
-2049.751663488882
 30
0.0
 11
7719.610967506
 21
-2057.751663488882
 31
0.0
  0
LINE
  5
49F1
330
1F
100
AcDbEntity
  8
DETAIL
100
AcDbLine
 10
7719.610967506
 20
-2057.751663488882
 30
0.0
 11
7711.610967506
 21
-2049.751663488882
 31
0.0
  0
LINE
  5
49F6
330
1F
100
AcDbEntity
  8
DETAIL
100
AcDbLine
 10
7711.610967506
 20
-2049.751663488882
 30
0.0
 11
7727.610967506001
 21
-2049.751663488882
 31
0.0
  0
LINE
  5
49F7
330
1F
100
AcDbEntity
  8
DETAIL
100
AcDbLine
 10
7827.610967506
 20
-2049.751663488882
 30
0.0
 11
7843.610967505999
 21
-2049.751663488882
 31
0.0
  0
LINE
  5
49F8
330
1F
100
AcDbEntity
  8
DETAIL
100
AcDbLine
 10
7719.610967506001
 20
-2041.751663488882
 30
0.0
 11
7719.610967506001
 21
-2057.751663488882
 31
0.0
  0
LINE
  5
49F9
330
1F
100
AcDbEntity
  8
DETAIL
100
AcDbLine
 10
7835.610967505998
 20
-2041.751663488882
 30
0.0
 11
7835.610967505998
 21
-2057.751663488882
 31
0.0
  0
LINE
  5
49FA
330
1F
100
AcDbEntity
  8
DETAIL
100
AcDbLine
 10
7711.610967506
 20
-2049.751663488882
 30
0.0
 11
7719.610967506001
 21
-2041.751663488882
 31
0.0
  0
LINE
  5
49FB
330
1F
100
AcDbEntity
  8
DETAIL
100
AcDbLine
 10
7719.610967506001
 20
-2041.751663488882
 30
0.0
 11
7727.610967506001
 21
-2049.751663488882
 31
0.0
  0
LINE
  5
49FC
330
1F
100
AcDbEntity
  8
DETAIL
100
AcDbLine
 10
7727.610967506001
 20
-2049.751663488882
 30
0.0
 11
7719.610967506001
 21
-2057.751663488882
 31
0.0
  0
LINE
  5
49FD
330
1F
100
AcDbEntity
  8
DETAIL
100
AcDbLine
 10
7719.610967506001
 20
-2057.751663488882
 30
0.0
 11
7711.610967506
 21
-2049.751663488882
 31
0.0
  0
LINE
  5
49FE
330
1F
100
AcDbEntity
  8
DETAIL
100
AcDbLine
 10
7827.610967506
 20
-2049.751663488882
 30
0.0
 11
7835.610967505998
 21
-2041.751663488882
 31
0.0
  0
LINE
  5
49FF
330
1F
100
AcDbEntity
  8
DETAIL
100
AcDbLine
 10
7835.610967505998
 20
-2041.751663488882
 30
0.0
 11
7843.610967505999
 21
-2049.751663488882
 31
0.0
  0
LINE
  5
4A00
330
1F
100
AcDbEntity
  8
DETAIL
100
AcDbLine
 10
7843.610967505999
 20
-2049.751663488882
 30
0.0
 11
7835.610967505998
 21
-2057.751663488882
 31
0.0
  0
LINE
  5
4A01
330
1F
100
AcDbEntity
  8
DETAIL
100
AcDbLine
 10
7835.610967505998
 20
-2057.751663488882
 30
0.0
 11
7827.610967506
 21
-2049.751663488882
 31
0.0
  0
LINE
  5
4A06
330
1F
100
AcDbEntity
  8
DETAIL
100
AcDbLine
 10
7827.610967506001
 20
-2049.751663488882
 30
0.0
 11
7843.610967506001
 21
-2049.751663488882
 31
0.0
  0
LINE
  5
4A07
330
1F
100
AcDbEntity
  8
DETAIL
100
AcDbLine
 10
7943.610967506
 20
-2049.751663488882
 30
0.0
 11
7959.610967505999
 21
-2049.751663488882
 31
0.0
  0
LINE
  5
4A08
330
1F
100
AcDbEntity
  8
DETAIL
100
AcDbLine
 10
7835.610967506001
 20
-2041.751663488882
 30
0.0
 11
7835.610967506001
 21
-2057.751663488882
 31
0.0
  0
LINE
  5
4A09
330
1F
100
AcDbEntity
  8
DETAIL
100
AcDbLine
 10
7951.610967505999
 20
-2041.751663488882
 30
0.0
 11
7951.610967505999
 21
-2057.751663488882
 31
0.0
  0
LINE
  5
4A0A
330
1F
100
AcDbEntity
  8
DETAIL
100
AcDbLine
 10
7827.610967506001
 20
-2049.751663488882
 30
0.0
 11
7835.610967506001
 21
-2041.751663488882
 31
0.0
  0
LINE
  5
4A0B
330
1F
100
AcDbEntity
  8
DETAIL
100
AcDbLine
 10
7835.610967506001
 20
-2041.751663488882
 30
0.0
 11
7843.610967506001
 21
-2049.751663488882
 31
0.0
  0
LINE
  5
4A0C
330
1F
100
AcDbEntity
  8
DETAIL
100
AcDbLine
 10
7843.610967506001
 20
-2049.751663488882
 30
0.0
 11
7835.610967506001
 21
-2057.751663488882
 31
0.0
  0
LINE
  5
4A0D
330
1F
100
AcDbEntity
  8
DETAIL
100
AcDbLine
 10
7835.610967506001
 20
-2057.751663488882
 30
0.0
 11
7827.610967506001
 21
-2049.751663488882
 31
0.0
  0
LINE
  5
4A0E
330
1F
100
AcDbEntity
  8
DETAIL
100
AcDbLine
 10
7943.610967506
 20
-2049.751663488882
 30
0.0
 11
7951.610967505999
 21
-2041.751663488882
 31
0.0
  0
LINE
  5
4A0F
330
1F
100
AcDbEntity
  8
DETAIL
100
AcDbLine
 10
7951.610967505999
 20
-2041.751663488882
 30
0.0
 11
7959.610967505999
 21
-2049.751663488882
 31
0.0
  0
LINE
  5
4A10
330
1F
100
AcDbEntity
  8
DETAIL
100
AcDbLine
 10
7959.610967505999
 20
-2049.751663488882
 30
0.0
 11
7951.610967505999
 21
-2057.751663488882
 31
0.0
  0
LINE
  5
4A11
330
1F
100
AcDbEntity
  8
DETAIL
100
AcDbLine
 10
7951.610967505999
 20
-2057.751663488882
 30
0.0
 11
7943.610967506
 21
-2049.751663488882
 31
0.0
  0
LINE
  5
4A16
330
1F
100
AcDbEntity
  8
DETAIL
100
AcDbLine
 10
7943.610967506
 20
-2049.751663488882
 30
0.0
 11
7959.610967505999
 21
-2049.751663488882
 31
0.0
  0
LINE
  5
4A17
330
1F
100
AcDbEntity
  8
DETAIL
100
AcDbLine
 10
8059.610967505999
 20
-2049.751663488882
 30
0.0
 11
8075.610967505999
 21
-2049.751663488882
 31
0.0
  0
LINE
  5
4A18
330
1F
100
AcDbEntity
  8
DETAIL
100
AcDbLine
 10
7951.610967505999
 20
-2041.751663488882
 30
0.0
 11
7951.610967505999
 21
-2057.751663488882
 31
0.0
  0
LINE
  5
4A19
330
1F
100
AcDbEntity
  8
DETAIL
100
AcDbLine
 10
8067.610967505999
 20
-2041.751663488882
 30
0.0
 11
8067.610967505999
 21
-2057.751663488882
 31
0.0
  0
LINE
  5
4A1A
330
1F
100
AcDbEntity
  8
DETAIL
100
AcDbLine
 10
7943.610967506
 20
-2049.751663488882
 30
0.0
 11
7951.610967505999
 21
-2041.751663488882
 31
0.0
  0
LINE
  5
4A1B
330
1F
100
AcDbEntity
  8
DETAIL
100
AcDbLine
 10
7951.610967505999
 20
-2041.751663488882
 30
0.0
 11
7959.610967505999
 21
-2049.751663488882
 31
0.0
  0
LINE
  5
4A1C
330
1F
100
AcDbEntity
  8
DETAIL
100
AcDbLine
 10
7959.610967505999
 20
-2049.751663488882
 30
0.0
 11
7951.610967505999
 21
-2057.751663488882
 31
0.0
  0
LINE
  5
4A1D
330
1F
100
AcDbEntity
  8
DETAIL
100
AcDbLine
 10
7951.610967505999
 20
-2057.751663488882
 30
0.0
 11
7943.610967506
 21
-2049.751663488882
 31
0.0
  0
LINE
  5
4A1E
330
1F
100
AcDbEntity
  8
DETAIL
100
AcDbLine
 10
8059.610967505999
 20
-2049.751663488882
 30
0.0
 11
8067.610967505999
 21
-2041.751663488882
 31
0.0
  0
LINE
  5
4A1F
330
1F
100
AcDbEntity
  8
DETAIL
100
AcDbLine
 10
8067.610967505999
 20
-2041.751663488882
 30
0.0
 11
8075.610967505999
 21
-2049.751663488882
 31
0.0
  0
LINE
  5
4A20
330
1F
100
AcDbEntity
  8
DETAIL
100
AcDbLine
 10
8075.610967505999
 20
-2049.751663488882
 30
0.0
 11
8067.610967505999
 21
-2057.751663488882
 31
0.0
  0
LINE
  5
4A21
330
1F
100
AcDbEntity
  8
DETAIL
100
AcDbLine
 10
8067.610967505999
 20
-2057.751663488882
 30
0.0
 11
8059.610967505999
 21
-2049.751663488882
 31
0.0
  0
LINE
  5
4A26
330
1F
100
AcDbEntity
  8
DETAIL
100
AcDbLine
 10
8059.610967505999
 20
-2049.751663488882
 30
0.0
 11
8075.610967505999
 21
-2049.751663488882
 31
0.0
  0
LINE
  5
4A27
330
1F
100
AcDbEntity
  8
DETAIL
100
AcDbLine
 10
8175.610967505997
 20
-2049.751663488882
 30
0.0
 11
8191.610967505999
 21
-2049.751663488882
 31
0.0
  0
LINE
  5
4A28
330
1F
100
AcDbEntity
  8
DETAIL
100
AcDbLine
 10
8067.610967505999
 20
-2041.751663488882
 30
0.0
 11
8067.610967505999
 21
-2057.751663488882
 31
0.0
  0
LINE
  5
4A29
330
1F
100
AcDbEntity
  8
DETAIL
100
AcDbLine
 10
8183.610967505998
 20
-2041.751663488882
 30
0.0
 11
8183.610967505998
 21
-2057.751663488882
 31
0.0
  0
LINE
  5
4A2A
330
1F
100
AcDbEntity
  8
DETAIL
100
AcDbLine
 10
8059.610967505999
 20
-2049.751663488882
 30
0.0
 11
8067.610967505999
 21
-2041.751663488882
 31
0.0
  0
LINE
  5
4A2B
330
1F
100
AcDbEntity
  8
DETAIL
100
AcDbLine
 10
8067.610967505999
 20
-2041.751663488882
 30
0.0
 11
8075.610967505999
 21
-2049.751663488882
 31
0.0
  0
LINE
  5
4A2C
330
1F
100
AcDbEntity
  8
DETAIL
100
AcDbLine
 10
8075.610967505999
 20
-2049.751663488882
 30
0.0
 11
8067.610967505999
 21
-2057.751663488882
 31
0.0
  0
LINE
  5
4A2D
330
1F
100
AcDbEntity
  8
DETAIL
100
AcDbLine
 10
8067.610967505999
 20
-2057.751663488882
 30
0.0
 11
8059.610967505999
 21
-2049.751663488882
 31
0.0
  0
LINE
  5
4A2E
330
1F
100
AcDbEntity
  8
DETAIL
100
AcDbLine
 10
8175.610967505997
 20
-2049.751663488882
 30
0.0
 11
8183.610967505998
 21
-2041.751663488882
 31
0.0
  0
LINE
  5
4A2F
330
1F
100
AcDbEntity
  8
DETAIL
100
AcDbLine
 10
8183.610967505998
 20
-2041.751663488882
 30
0.0
 11
8191.610967505999
 21
-2049.751663488882
 31
0.0
  0
LINE
  5
4A30
330
1F
100
AcDbEntity
  8
DETAIL
100
AcDbLine
 10
8191.610967505999
 20
-2049.751663488882
 30
0.0
 11
8183.610967505998
 21
-2057.751663488882
 31
0.0
  0
LINE
  5
4A31
330
1F
100
AcDbEntity
  8
DETAIL
100
AcDbLine
 10
8183.610967505998
 20
-2057.751663488882
 30
0.0
 11
8175.610967505997
 21
-2049.751663488882
 31
0.0
  0
LINE
  5
4A36
330
1F
100
AcDbEntity
  8
DETAIL
100
AcDbLine
 10
8175.610967505997
 20
-2049.751663488882
 30
0.0
 11
8191.610967505999
 21
-2049.751663488882
 31
0.0
  0
LINE
  5
4A37
330
1F
100
AcDbEntity
  8
DETAIL
100
AcDbLine
 10
8291.610967505993
 20
-2049.751663488882
 30
0.0
 11
8307.610967505999
 21
-2049.751663488882
 31
0.0
  0
LINE
  5
4A38
330
1F
100
AcDbEntity
  8
DETAIL
100
AcDbLine
 10
8183.610967505998
 20
-2041.751663488882
 30
0.0
 11
8183.610967505998
 21
-2057.751663488882
 31
0.0
  0
LINE
  5
4A39
330
1F
100
AcDbEntity
  8
DETAIL
100
AcDbLine
 10
8299.610967505996
 20
-2041.751663488882
 30
0.0
 11
8299.610967505996
 21
-2057.751663488882
 31
0.0
  0
LINE
  5
4A3A
330
1F
100
AcDbEntity
  8
DETAIL
100
AcDbLine
 10
8175.610967505997
 20
-2049.751663488882
 30
0.0
 11
8183.610967505998
 21
-2041.751663488882
 31
0.0
  0
LINE
  5
4A3B
330
1F
100
AcDbEntity
  8
DETAIL
100
AcDbLine
 10
8183.610967505998
 20
-2041.751663488882
 30
0.0
 11
8191.610967505999
 21
-2049.751663488882
 31
0.0
  0
LINE
  5
4A3C
330
1F
100
AcDbEntity
  8
DETAIL
100
AcDbLine
 10
8191.610967505999
 20
-2049.751663488882
 30
0.0
 11
8183.610967505998
 21
-2057.751663488882
 31
0.0
  0
LINE
  5
4A3D
330
1F
100
AcDbEntity
  8
DETAIL
100
AcDbLine
 10
8183.610967505998
 20
-2057.751663488882
 30
0.0
 11
8175.610967505997
 21
-2049.751663488882
 31
0.0
  0
LINE
  5
4A3E
330
1F
100
AcDbEntity
  8
DETAIL
100
AcDbLine
 10
8291.610967505993
 20
-2049.751663488882
 30
0.0
 11
8299.610967505996
 21
-2041.751663488882
 31
0.0
  0
LINE
  5
4A3F
330
1F
100
AcDbEntity
  8
DETAIL
100
AcDbLine
 10
8299.610967505996
 20
-2041.751663488882
 30
0.0
 11
8307.610967505999
 21
-2049.751663488882
 31
0.0
  0
LINE
  5
4A40
330
1F
100
AcDbEntity
  8
DETAIL
100
AcDbLine
 10
8307.610967505999
 20
-2049.751663488882
 30
0.0
 11
8299.610967505996
 21
-2057.751663488882
 31
0.0
  0
LINE
  5
4A41
330
1F
100
AcDbEntity
  8
DETAIL
100
AcDbLine
 10
8299.610967505996
 20
-2057.751663488882
 30
0.0
 11
8291.610967505993
 21
-2049.751663488882
 31
0.0
  0
LINE
  5
4A62
330
1F
100
AcDbEntity
  8
TEXT
100
AcDbLine
 10
10826.21648060166
 20
-696.7677964717368
 30
0.0
 11
10507.25214580686
 21
-696.7677964717368
 31
0.0
  0
LINE
  5
4A64
330
1F
100
AcDbEntity
  8
TEXT
100
AcDbLine
 10
10826.21648060166
 20
-796.7677964717368
 30
0.0
 11
10507.25214580686
 21
-796.7677964717368
 31
0.0
  0
LINE
  5
4A66
330
1F
100
AcDbEntity
  8
TEXT
100
AcDbLine
 10
10826.21648060166
 20
-896.7677964717367
 30
0.0
 11
10507.25214580686
 21
-896.7677964717367
 31
0.0
  0
LINE
  5
4A68
330
1F
100
AcDbEntity
  8
TEXT
100
AcDbLine
 10
10826.21648060166
 20
-996.7677964717367
 30
0.0
 11
10507.25214580686
 21
-996.7677964717367
 31
0.0
  0
MTEXT
  5
4A89
330
1F
100
AcDbEntity
  8
TEXT
100
AcDbMText
 10
10892.30418362753
 20
-419.4683113295633
 30
0.0
 40
50.0
 41
724.3024
 46
0.0
 71
     1
 72
     5
  1
BARS
  7
fastrack
 73
     1
 44
1.0
  0
LINE
  5
4A8A
330
1F
100
AcDbEntity
  8
TEXT
100
AcDbLine
 10
10826.21647906923
 20
-382.0056959308424
 30
0.0
 11
11145.18081386403
 21
-382.0056959308424
 31
0.0
  0
LINE
  5
4A8B
330
1F
100
AcDbEntity
  8
TEXT
100
AcDbLine
 10
11145.18081386403
 20
-382.0056959308424
 30
0.0
 11
11145.18081386403
 21
-496.7677972295243
 31
0.0
  0
LINE
  5
4A8C
330
1F
100
AcDbEntity
  8
TEXT
100
AcDbLine
 10
11145.18081386403
 20
-496.7677972295243
 30
0.0
 11
10826.21647906923
 21
-496.7677972295243
 31
0.0
  0
LINE
  5
4A8D
330
1F
100
AcDbEntity
  8
TEXT
100
AcDbLine
 10
11145.18081386403
 20
-596.7677972295242
 30
0.0
 11
10826.21647906923
 21
-596.7677972295242
 31
0.0
  0
LINE
  5
4A8E
330
1F
100
AcDbEntity
  8
TEXT
100
AcDbLine
 10
11145.18081386403
 20
-696.7677972295242
 30
0.0
 11
10826.21647906923
 21
-696.7677972295242
 31
0.0
  0
LINE
  5
4A8F
330
1F
100
AcDbEntity
  8
TEXT
100
AcDbLine
 10
11145.18081386403
 20
-796.7677972295242
 30
0.0
 11
10826.21647906923
 21
-796.7677972295242
 31
0.0
  0
LINE
  5
4A90
330
1F
100
AcDbEntity
  8
TEXT
100
AcDbLine
 10
11145.18081386403
 20
-896.7677972295243
 30
0.0
 11
10826.21647906923
 21
-896.7677972295243
 31
0.0
  0
LINE
  5
4A91
330
1F
100
AcDbEntity
  8
TEXT
100
AcDbLine
 10
11145.18081386403
 20
-996.7677972295243
 30
0.0
 11
10826.21647906923
 21
-996.7677972295243
 31
0.0
  0
LINE
  5
4A92
330
1F
100
AcDbEntity
  8
TEXT
100
AcDbLine
 10
11145.18081386403
 20
-496.7677972295243
 30
0.0
 11
11145.18081386403
 21
-996.7677972295247
 31
0.0
  0
MTEXT
  5
4A93
102
{ACAD_XDICTIONARY
360
56A0
102
}
330
1F
100
AcDbEntity
  8
TEXT
100
AcDbMText
 10
10889.3665932393
 20
-521.4998773499976
 30
0.0
 40
50.0
 41
724.3024
 46
0.0
 71
     1
 72
     5
  1
26.1{\fArial|b0|i0|c0|p32;\H0.8125x;Ø}
  7
fastrack
 73
     1
 44
1.0
  0
LINE
  5
4A94
330
1F
100
AcDbEntity
  8
TEXT
100
AcDbLine
 10
11145.18081386403
 20
-696.7677972295242
 30
0.0
 11
10826.21647906923
 21
-696.7677972295242
 31
0.0
  0
MTEXT
  5
4A95
102
{ACAD_XDICTIONARY
360
56A2
102
}
330
1F
100
AcDbEntity
  8
TEXT
100
AcDbMText
 10
10889.3665932393
 20
-621.4998773499975
 30
0.0
 40
50.0
 41
724.3024
 46
0.0
 71
     1
 72
     5
  1
26.1{\fArial|b0|i0|c0|p32;\H0.8125x;Ø}
  7
fastrack
 73
     1
 44
1.0
  0
LINE
  5
4A96
330
1F
100
AcDbEntity
  8
TEXT
100
AcDbLine
 10
11145.18081386403
 20
-796.7677972295242
 30
0.0
 11
10826.21647906923
 21
-796.7677972295242
 31
0.0
  0
MTEXT
  5
4A97
102
{ACAD_XDICTIONARY
360
56A4
102
}
330
1F
100
AcDbEntity
  8
TEXT
100
AcDbMText
 10
10889.3665932393
 20
-721.4998773499975
 30
0.0
 40
50.0
 41
724.3024
 46
0.0
 71
     1
 72
     5
  1
26.1{\fArial|b0|i0|c0|p32;\H0.8125x;Ø}
  7
fastrack
 73
     1
 44
1.0
  0
LINE
  5
4A98
330
1F
100
AcDbEntity
  8
TEXT
100
AcDbLine
 10
11145.18081386403
 20
-896.7677972295243
 30
0.0
 11
10826.21647906923
 21
-896.7677972295243
 31
0.0
  0
MTEXT
  5
4A99
102
{ACAD_XDICTIONARY
360
56A6
102
}
330
1F
100
AcDbEntity
  8
TEXT
100
AcDbMText
 10
10889.3665932393
 20
-821.4998773499974
 30
0.0
 40
50.0
 41
724.3024
 46
0.0
 71
     1
 72
     5
  1
26.1{\fArial|b0|i0|c0|p32;\H0.8125x;Ø}
  7
fastrack
 73
     1
 44
1.0
  0
LINE
  5
4A9A
330
1F
100
AcDbEntity
  8
TEXT
100
AcDbLine
 10
11145.18081386403
 20
-996.7677972295243
 30
0.0
 11
10826.21647906923
 21
-996.7677972295243
 31
0.0
  0
MTEXT
  5
4A9B
102
{ACAD_XDICTIONARY
360
56A8
102
}
330
1F
100
AcDbEntity
  8
TEXT
100
AcDbMText
 10
10889.3665932393
 20
-921.4998773499974
 30
0.0
 40
50.0
 41
724.3024
 46
0.0
 71
     1
 72
     5
  1
26.1{\fArial|b0|i0|c0|p32;\H0.8125x;Ø}
  7
fastrack
 73
     1
 44
1.0
  0
LINE
  5
4A9E
330
1F
100
AcDbEntity
  8
TEXT
100
AcDbLine
 10
10826.21648060166
 20
-696.7677964717368
 30
0.0
 11
10507.25214580686
 21
-696.7677964717368
 31
0.0
  0
MTEXT
  5
4A9F
330
1F
100
AcDbEntity
  8
TEXT
100
AcDbMText
 10
10570.40225997693
 20
-621.4998765922098
 30
0.0
 40
50.0
 41
724.3024
 46
0.0
 71
     1
 72
     5
  1
50x10
  7
fastrack
 73
     1
 44
1.0
  0
LINE
  5
4AA0
330
1F
100
AcDbEntity
  8
TEXT
100
AcDbLine
 10
10826.21648060166
 20
-796.7677964717368
 30
0.0
 11
10507.25214580686
 21
-796.7677964717368
 31
0.0
  0
MTEXT
  5
4AA1
330
1F
100
AcDbEntity
  8
TEXT
100
AcDbMText
 10
10570.40225997693
 20
-721.4998765922099
 30
0.0
 40
50.0
 41
724.3024
 46
0.0
 71
     1
 72
     5
  1
50x10
  7
fastrack
 73
     1
 44
1.0
  0
LINE
  5
4AA2
330
1F
100
AcDbEntity
  8
TEXT
100
AcDbLine
 10
10826.21648060166
 20
-896.7677964717367
 30
0.0
 11
10507.25214580686
 21
-896.7677964717367
 31
0.0
  0
MTEXT
  5
4AA3
330
1F
100
AcDbEntity
  8
TEXT
100
AcDbMText
 10
10570.40225997693
 20
-821.49987659221
 30
0.0
 40
50.0
 41
724.3024
 46
0.0
 71
     1
 72
     5
  1
50x10
  7
fastrack
 73
     1
 44
1.0
  0
LINE
  5
4AA4
330
1F
100
AcDbEntity
  8
TEXT
100
AcDbLine
 10
10826.21648060166
 20
-996.7677964717367
 30
0.0
 11
10507.25214580686
 21
-996.7677964717367
 31
0.0
  0
MTEXT
  5
4AA5
330
1F
100
AcDbEntity
  8
TEXT
100
AcDbMText
 10
10570.40225997693
 20
-921.49987659221
 30
0.0
 40
50.0
 41
724.3024
 46
0.0
 71
     1
 72
     5
  1
50x10
  7
fastrack
 73
     1
 44
1.0
  0
MTEXT
  5
5572
102
{ACAD_XDICTIONARY
360
5690
102
}
330
1F
100
AcDbEntity
  8
TEXT
100
AcDbMText
 10
7992.879364887667
 20
-3043.923592913166
 30
0.0
 40
100.0
 41
3177.87997086287
 46
0.0
 71
     2
 72
     5
  1
PROCTER FENCING SYSTEMS\PRONDO RAILING
  7
fastrack
 73
     1
 44
1.0
  0
VIEWPORT
  5
5555
330
58
100
AcDbEntity
 67
     1
  8
0
348
9F
100
AcDbViewport
 10
139.4863548298759
 20
100.6998358227809
 30
0.0
 40
459.9525303516498
 41
200.61504320184
 68
     1
 69
     1
 12
139.4863548298759
 22
100.6998358227809
 13
0.0
 23
0.0
 14
10.0
 24
10.0
 15
10.0
 25
10.0
 16
0.0
 26
0.0
 36
1.0
 17
0.0
 27
0.0
 37
0.0
 42
50.0
 43
0.0
 44
0.0
 45
200.61504320184
 50
0.0
 51
0.0
 72
  1000
 90
    32800
  1

281
     0
 71
     1
 74
     0
110
0.0
120
0.0
130
0.0
111
1.0
121
0.0
131
0.0
112
0.0
122
1.0
132
0.0
 79
     0
146
0.0
170
     0
 61
     5
348
9F
292
     1
282
     1
141
0.0
142
0.0
 63
   250
421
  3355443
  0
VIEWPORT
  5
5557
330
58
100
AcDbEntity
 67
     1
  8
0
348
9F
100
AcDbViewport
 10
139.4865931974433
 20
100.6985624067352
 30
0.0
 40
278.7111744580227
 41
199.1677476971464
 68
     2
 69
     2
 12
8228.083118557028
 22
-720.0868586821222
 13
0.0
 23
0.0
 14
0.5
 24
0.5
 15
0.5
 25
0.5
 16
0.0
 26
0.0
 36
1.0
 17
0.0
 27
0.0
 37
0.0
 42
50.0
 43
0.0
 44
0.0
 45
5298.566014347565
 50
0.0
 51
0.0
 72
  1000
 90
    32864
  1

281
     0
 71
     1
 74
     0
110
0.0
120
0.0
130
0.0
111
1.0
121
0.0
131
0.0
112
0.0
122
1.0
132
0.0
 79
     0
146
0.0
170
     0
 61
     5
292
     1
282
     1
141
0.0
142
0.0
 63
   250
421
  3355443
  0
ENDSEC
  0
SECTION
  2
OBJECTS
  0
DICTIONARY
  5
C
330
0
100
AcDbDictionary
281
     1
  3
ACAD_CIP_PREVIOUS_PRODUCT_INFO
350
56C0
  3
ACAD_COLOR
350
73
  3
ACAD_DETAILVIEWSTYLE
350
56BB
  3
ACAD_GROUP
350
D
  3
ACAD_LAYOUT
350
1A
  3
ACAD_MATERIAL
350
72
  3
ACAD_MLEADERSTYLE
350
3BD1
  3
ACAD_MLINESTYLE
350
17
  3
ACAD_PLOTSETTINGS
350
19
  3
ACAD_PLOTSTYLENAME
350
E
  3
ACAD_SCALELIST
350
3BAF
  3
ACAD_SECTIONVIEWSTYLE
350
56B9
  3
ACAD_TABLESTYLE
350
86
  3
ACAD_VISUALSTYLE
350
99
  3
ACDB_RECOMPOSE_DATA
350
56DB
  3
AcDbVariableDictionary
350
66
  3
AcDsDecomposeData
350
56E1
  3
AEC_PROPERTY_SET_DEFS
350
5570
  0
DICTIONARY
  5
3B5A
330
8
100
AcDbDictionary
280
     1
281
     1
  0
DICTIONARY
  5
158
330
2
100
AcDbDictionary
280
     1
281
     1
  3
ACAD_LAYERFILTERS
360
55EE
  3
ACAD_LAYERSTATES
360
159
  3
ACLYDICTIONARY
360
55ED
  0
DICTIONARY
  5
3BDA
330
10
100
AcDbDictionary
280
     1
281
     1
  3
ADSK_XREC_LAYER_RECONCILED
360
3BDB
  0
DICTIONARY
  5
3BDC
330
151
100
AcDbDictionary
280
     1
281
     1
  3
ADSK_XREC_LAYER_RECONCILED
360
3BDD
  0
DICTIONARY
  5
3BE0
330
1067
100
AcDbDictionary
280
     1
281
     1
  3
ADSK_XREC_LAYER_RECONCILED
360
3BE1
  0
DICTIONARY
  5
5547
330
5546
100
AcDbDictionary
280
     1
281
     1
  3
ADSK_XREC_LAYER_RECONCILED
360
5549
  0
DICTIONARY
  5
556A
330
5569
100
AcDbDictionary
280
     1
281
     1
  0
DICTIONARY
  5
350
330
1F
100
AcDbDictionary
280
     1
281
     1
  3
ACAD_SORTENTS
360
351
  0
DICTIONARY
  5
40D0
330
40C2
100
AcDbDictionary
280
     1
281
     1
  3
ACAD_DIMASSOC
360
40DB
  0
DICTIONARY
  5
438F
330
4381
100
AcDbDictionary
280
     1
281
     1
  3
ACAD_DIMASSOC
360
439A
  0
DICTIONARY
  5
56A0
330
4A93
100
AcDbDictionary
280
     1
281
     1
  0
DICTIONARY
  5
56A2
330
4A95
100
AcDbDictionary
280
     1
281
     1
  0
DICTIONARY
  5
56A4
330
4A97
100
AcDbDictionary
280
     1
281
     1
  0
DICTIONARY
  5
56A6
330
4A99
100
AcDbDictionary
280
     1
281
     1
  0
DICTIONARY
  5
56A8
330
4A9B
100
AcDbDictionary
280
     1
281
     1
  0
DICTIONARY
  5
5690
330
5572
100
AcDbDictionary
280
     1
281
     1
  3
ACAD_MTEXT_2008_RT
360
56DA
  0
XRECORD
  5
56C0
102
{ACAD_REACTORS
330
C
102
}
330
C
100
AcDbXrecord
280
     1
300
ACDLT
300
2020
300
ACDLT_F_S
  0
DICTIONARY
  5
73
102
{ACAD_REACTORS
330
C
102
}
330
C
100
AcDbDictionary
281
     1
  0
DICTIONARY
  5
56BB
102
{ACAD_REACTORS
330
C
102
}
330
C
100
AcDbDictionary
281
     1
  3
Imperial24
350
56BC
  0
DICTIONARY
  5
D
102
{ACAD_REACTORS
330
C
102
}
330
C
100
AcDbDictionary
281
     1
  0
DICTIONARY
  5
1A
102
{ACAD_REACTORS
330
C
102
}
330
C
100
AcDbDictionary
281
     1
  3
Layout1
350
59
  3
Layout2
350
5E
  3
Model
350
22
  0
DICTIONARY
  5
72
102
{ACAD_REACTORS
330
C
102
}
330
C
100
AcDbDictionary
281
     1
  3
ByBlock
350
97
  3
ByLayer
350
96
  3
Global
350
98
  0
DICTIONARY
  5
3BD1
102
{ACAD_REACTORS
330
C
102
}
330
C
100
AcDbDictionary
281
     1
  3
Standard
350
3BD2
  0
DICTIONARY
  5
17
102
{ACAD_REACTORS
330
C
102
}
330
C
100
AcDbDictionary
281
     1
  3
Standard
350
18
  0
DICTIONARY
  5
19
102
{ACAD_REACTORS
330
C
102
}
330
C
100
AcDbDictionary
281
     1
  0
ACDBDICTIONARYWDFLT
  5
E
102
{ACAD_REACTORS
330
C
102
}
330
C
100
AcDbDictionary
281
     1
  3
Normal
350
F
100
AcDbDictionaryWithDefault
340
F
  0
DICTIONARY
  5
3BAF
102
{ACAD_REACTORS
330
C
102
}
330
C
100
AcDbDictionary
281
     1
  3
A0
350
3BB0
  3
A1
350
3BB1
  3
A2
350
3BB2
  3
A3
350
3BB3
  3
A4
350
3BB4
  3
A5
350
3BB5
  3
A6
350
3BB6
  3
A7
350
3BB7
  3
A8
350
3BB8
  3
A9
350
3BB9
  3
B0
350
3BBA
  3
B1
350
3BBB
  3
B2
350
3BBC
  3
B3
350
3BBD
  3
B4
350
3BBE
  3
B5
350
3BBF
  3
B6
350
3BC0
  3
B7
350
3BC1
  3
B8
350
3BC2
  3
B9
350
3BC3
  3
C0
350
3BC4
  3
C1
350
3BC5
  3
C2
350
3BC6
  3
C3
350
3BC7
  3
C4
350
3BC8
  3
C5
350
3BC9
  3
C6
350
3BCA
  3
C7
350
3BCB
  3
C8
350
3BCC
  3
C9
350
3BCD
  3
D0
350
3BCE
  3
D1
350
3BCF
  3
D2
350
3BD0
  0
DICTIONARY
  5
56B9
102
{ACAD_REACTORS
330
C
102
}
330
C
100
AcDbDictionary
281
     1
  3
Imperial24
350
56BA
  0
DICTIONARY
  5
86
102
{ACAD_REACTORS
330
C
102
}
330
C
100
AcDbDictionary
281
     1
  3
Standard
350
87
  0
DICTIONARY
  5
99
102
{ACAD_REACTORS
330
C
102
}
330
C
100
AcDbDictionary
281
     1
  3
2dWireframe
350
9F
  3
3D Hidden
350
A1
  3
3dWireframe
350
A0
  3
Basic
350
9E
  3
Brighten
350
A5
  3
ColorChange
350
A9
  3
Conceptual
350
A2
  3
Dim
350
A4
  3
EdgeColorOff
350
56B8
  3
Facepattern
350
A8
  3
Flat
350
9A
  3
FlatWithEdges
350
9B
  3
Gouraud
350
9C
  3
GouraudWithEdges
350
9D
  3
Hidden
350
56B0
  3
JitterOff
350
56B6
  3
Linepattern
350
A7
  3
OverhangOff
350
56B7
  3
Realistic
350
A3
  3
Shaded
350
56B5
  3
Shaded with edges
350
56B4
  3
Shades of Gray
350
56B1
  3
Sketchy
350
56B2
  3
Thicken
350
A6
  3
Wireframe
350
56AF
  3
X-Ray
350
56B3
  0
XRECORD
  5
56DB
102
{ACAD_REACTORS
330
C
102
}
330
C
100
AcDbXrecord
280
     1
 90
        1
330
87
330
5572
  0
DICTIONARY
  5
66
102
{ACAD_REACTORS
330
C
102
}
330
C
100
AcDbDictionary
281
     1
  3
CANNOSCALE
350
3C12
  3
CMLEADERSTYLE
350
3C11
  3
CTABLESTYLE
350
89
  3
CVIEWDETAILSTYLE
350
56C1
  3
CVIEWSECTIONSTYLE
350
56C2
  3
DIMASSOC
350
67
  3
HIDETEXT
350
6B
  3
INDEXCTL
350
3B88
  3
LAYEREVAL
350
56C5
  3
LAYERNOTIFY
350
56C6
  3
LIGHTINGUNITS
350
56C4
  3
MSLTSCALE
350
56C3
  3
SORTENTS
350
3B87
  0
DICTIONARY
  5
56E1
102
{ACAD_REACTORS
330
C
102
}
330
C
100
AcDbDictionary
281
     1
  3
AcDsRecords
350
56E3
  3
AcDsSchemas
350
56E2
1001
ACAD
1070
     2
  0
DICTIONARY
  5
5570
102
{ACAD_REACTORS
330
C
102
}
330
C
100
AcDbDictionary
281
     1
  0
DICTIONARY
  5
55EE
102
{ACAD_REACTORS
330
158
102
}
330
158
100
AcDbDictionary
281
     1
  0
DICTIONARY
  5
159
102
{ACAD_REACTORS
330
158
102
}
330
158
100
AcDbDictionary
281
     1
  0
DICTIONARY
  5
55ED
102
{ACAD_REACTORS
330
158
102
}
330
158
100
AcDbDictionary
281
     1
1001
ACAD
1000
<All
  0
XRECORD
  5
3BDB
102
{ACAD_REACTORS
330
3BDA
102
}
330
3BDA
100
AcDbXrecord
280
     1
290
     1
  0
XRECORD
  5
3BDD
102
{ACAD_REACTORS
330
3BDC
102
}
330
3BDC
100
AcDbXrecord
280
     1
290
     1
  0
XRECORD
  5
3BE1
102
{ACAD_REACTORS
330
3BE0
102
}
330
3BE0
100
AcDbXrecord
280
     1
290
     1
  0
XRECORD
  5
5549
102
{ACAD_REACTORS
330
5547
102
}
330
5547
100
AcDbXrecord
280
     1
290
     1
  0
SORTENTSTABLE
  5
351
102
{ACAD_REACTORS
330
350
102
}
330
350
100
AcDbSortentsTable
330
1F
  0
DIMASSOC
  5
40DB
102
{ACAD_REACTORS
330
40D0
102
}
330
40D0
100
AcDbDimAssoc
330
40C2
 90
        3
 70
     0
 71
     0
  1
AcDbOsnapPointRef
 72
     1
331
3D93
 73
     2
 91
        0
 40
1.0
 10
8457.61096750601
 20
149.2424116135589
 30
0.0
 75
     0
  1
AcDbOsnapPointRef
 72
     1
331
3D91
 73
     2
 91
        0
 40
1.0
 10
8481.610967506011
 20
-1050.757588386441
 30
0.0
 75
     0
  0
DIMASSOC
  5
439A
102
{ACAD_REACTORS
330
438F
102
}
330
438F
100
AcDbDimAssoc
330
4381
 90
        3
 70
     0
 71
     0
  1
AcDbOsnapPointRef
 72
    13
331
4363
 73
     2
 91
        0
 40
0.0
 10
8457.61096750601
 20
-1650.757588386441
 30
0.0
 75
     0
  1
AcDbOsnapPointRef
 72
     1
331
4363
 73
     2
 91
        0
 40
1.0
 10
8457.61096750601
 20
-1050.757588386441
 30
0.0
 75
     0
  0
XRECORD
  5
56DA
102
{ACAD_REACTORS
330
5690
102
}
330
5690
100
AcDbXrecord
280
     1
 40
54449.0
  1
\pxqc;PROCTER FENCING SYSTEMS\PRONDO RAILING
  0
ACDBDETAILVIEWSTYLE
  5
56BC
102
{ACAD_XDICTIONARY
360
571A
102
}
102
{ACAD_REACTORS
330
56BB
102
}
330
56BB
100
AcDbModelDocViewStyle
 70
     0
  3
Imperial24
290
     0
100
AcDbDetailViewStyle
 70
     0
 71
     0
 90
        3
 71
     1
340
11
 62
   256
 40
0.24
340
0
 62
   256
 40
0.24
300

 40
0.36
280
     3
 71
     2
340
16
 90
       25
 62
   256
 71
     3
340
11
 62
   256
 40
0.24
 90
        1
 40
0.75
 90
        1
300
%<\AcVar ViewType \f "%tc1">% %<\AcVar ViewDetailId>%\PSCALE %<\AcVar ViewScale \f "%sn">%
 71
     4
340
16
 90
       25
 62
   256
340
16
 90
       25
 62
   256
280
     0
  0
LAYOUT
  5
59
102
{ACAD_XDICTIONARY
360
5566
102
}
102
{ACAD_REACTORS
330
1A
102
}
330
1A
100
AcDbPlotSettings
  1

  2
HP Deskjet 5900 Series
  4
A4
  6

 40
4.222749710083006
 41
15.61041450500488
 42
4.138076782226561
 43
3.17498779296875
 44
209.9733276367186
 45
296.9683227539062
 46
0.0
 47
0.0
 48
0.0
 49
0.0
140
0.0
141
0.0
142
1.0
143
1.0
 70
   688
 72
     1
 73
     1
 74
     5
  7

 75
    16
147
1.0
 76
     0
 77
     2
 78
   300
148
0.0
149
0.0
100
AcDbLayout
  1
Layout1
 70
     1
 71
     1
 10
-3.17498779296875
 20
-4.222749710083006
 11
293.7933349609375
 21
205.7505779266358
 12
0.0
 22
0.0
 32
0.0
 14
0.1238553547713082
 24
1.105400868312983
 34
-0.0015258207003583
 15
278.8488543049806
 25
200.2942707772489
 35
0.0000000349246037
146
0.0
 13
0.0
 23
0.0
 33
0.0
 16
1.0
 26
0.0
 36
0.0
 17
0.0
 27
1.0
 37
0.0
 76
     0
330
58
331
5555
  0
LAYOUT
  5
5E
102
{ACAD_REACTORS
330
1A
102
}
330
1A
100
AcDbPlotSettings
  1

  2
None
  4

  6

 40
0.0
 41
0.0
 42
0.0
 43
0.0
 44
0.0
 45
0.0
 46
0.0
 47
0.0
 48
0.0
 49
0.0
140
0.0
141
0.0
142
1.0
143
1.0
 70
   688
 72
     0
 73
     0
 74
     5
  7

 75
    16
147
1.0
 76
     0
 77
     2
 78
   300
148
0.0
149
0.0
100
AcDbLayout
  1
Layout2
 70
     1
 71
     2
 10
0.0
 20
0.0
 11
12.0
 21
9.0
 12
0.0
 22
0.0
 32
0.0
 14
0.0
 24
0.0
 34
0.0
 15
0.0
 25
0.0
 35
0.0
146
0.0
 13
0.0
 23
0.0
 33
0.0
 16
1.0
 26
0.0
 36
0.0
 17
0.0
 27
1.0
 37
0.0
 76
     0
330
5D
  0
LAYOUT
  5
22
102
{ACAD_REACTORS
330
1A
102
}
330
1A
100
AcDbPlotSettings
  1

  2
CutePDF Writer
  4
A4
  6

 40
3.174999952316283
 41
3.174999952316283
 42
3.175003051757812
 43
3.17498779296875
 44
209.8886566162109
 45
297.0530090332031
 46
0.0
 47
8.789999999999999
 48
0.0
 49
0.0
140
0.0
141
0.0
142
1.0
143
20.30508755360061
 70
 11956
 72
     1
 73
     0
 74
     1
  7

 75
     0
147
0.0492487411029496
 76
     0
 77
     2
 78
   300
148
-2094.038254151303
149
2299.50229960754
100
AcDbLayout
  1
Model
 70
     1
 71
     0
 10
0.0
 20
0.0
 11
12.0
 21
9.0
 12
0.0
 22
0.0
 32
0.0
 14
0.0
 24
0.0
 34
0.0
 15
0.0
 25
0.0
 35
0.0
146
0.0
 13
0.0
 23
0.0
 33
0.0
 16
1.0
 26
0.0
 36
0.0
 17
0.0
 27
1.0
 37
0.0
 76
     0
330
1F
331
5552
1001
ACAD_PSEXT
1000
HP Deskjet D2300 series.pc3
1000
HP Deskjet D2300 series
1000
USB001
1000

1070
     0
  0
MATERIAL
  5
97
102
{ACAD_REACTORS
330
72
102
}
330
72
100
AcDbMaterial
  1
ByBlock
 73
     1
 78
     1
172
     1
176
     1
270
     1
274
     1
 94
       63
  0
MATERIAL
  5
96
102
{ACAD_REACTORS
330
72
102
}
330
72
100
AcDbMaterial
  1
ByLayer
 73
     1
 78
     1
172
     1
176
     1
270
     1
274
     1
 94
       63
  0
MATERIAL
  5
98
102
{ACAD_REACTORS
330
72
102
}
330
72
100
AcDbMaterial
  1
Global
 73
     1
 78
     1
172
     1
176
     1
270
     1
274
     1
 94
       63
  0
MLEADERSTYLE
  5
3BD2
102
{ACAD_REACTORS
330
3BD1
102
}
330
3BD1
100
AcDbMLeaderStyle
179
     2
170
     2
171
     1
172
     0
 90
        2
 40
0.0
 41
0.0
173
     1
 91
-1056964608
340
14
 92
       -2
290
     1
 42
0.09
291
     1
 43
0.36
  3
Standard
 44
0.18
300

342
11
174
     1
178
     6
175
     1
176
     0
 93
-1056964608
 45
0.18
292
     0
297
     0
 46
0.18
 94
-1056964608
 47
1.0
 49
1.0
140
1.0
293
     1
141
0.0
294
     1
177
     0
142
1.0
295
     0
296
     0
143
0.125
271
     0
272
     9
273
     9
  0
MLINESTYLE
  5
18
102
{ACAD_REACTORS
330
17
102
}
330
17
100
AcDbMlineStyle
  2
STANDARD
 70
     0
  3

 62
   256
 51
90.0
 52
90.0
 71
     2
 49
0.5
 62
   256
  6
BYLAYER
 49
-0.5
 62
   256
  6
BYLAYER
  0
ACDBPLACEHOLDER
  5
F
102
{ACAD_REACTORS
330
E
102
}
330
E
  0
SCALE
  5
3BB0
102
{ACAD_REACTORS
330
3BAF
102
}
330
3BAF
100
AcDbScale
 70
     0
300
1:1
140
1.0
141
1.0
290
     1
  0
SCALE
  5
3BB1
102
{ACAD_REACTORS
330
3BAF
102
}
330
3BAF
100
AcDbScale
 70
     0
300
1:2
140
1.0
141
2.0
290
     0
  0
SCALE
  5
3BB2
102
{ACAD_REACTORS
330
3BAF
102
}
330
3BAF
100
AcDbScale
 70
     0
300
1:4
140
1.0
141
4.0
290
     0
  0
SCALE
  5
3BB3
102
{ACAD_REACTORS
330
3BAF
102
}
330
3BAF
100
AcDbScale
 70
     0
300
1:5
140
1.0
141
5.0
290
     0
  0
SCALE
  5
3BB4
102
{ACAD_REACTORS
330
3BAF
102
}
330
3BAF
100
AcDbScale
 70
     0
300
1:8
140
1.0
141
8.0
290
     0
  0
SCALE
  5
3BB5
102
{ACAD_REACTORS
330
3BAF
102
}
330
3BAF
100
AcDbScale
 70
     0
300
1:10
140
1.0
141
10.0
290
     0
  0
SCALE
  5
3BB6
102
{ACAD_REACTORS
330
3BAF
102
}
330
3BAF
100
AcDbScale
 70
     0
300
1:16
140
1.0
141
16.0
290
     0
  0
SCALE
  5
3BB7
102
{ACAD_REACTORS
330
3BAF
102
}
330
3BAF
100
AcDbScale
 70
     0
300
1:20
140
1.0
141
20.0
290
     0
  0
SCALE
  5
3BB8
102
{ACAD_REACTORS
330
3BAF
102
}
330
3BAF
100
AcDbScale
 70
     0
300
1:30
140
1.0
141
30.0
290
     0
  0
SCALE
  5
3BB9
102
{ACAD_REACTORS
330
3BAF
102
}
330
3BAF
100
AcDbScale
 70
     0
300
1:40
140
1.0
141
40.0
290
     0
  0
SCALE
  5
3BBA
102
{ACAD_REACTORS
330
3BAF
102
}
330
3BAF
100
AcDbScale
 70
     0
300
1:50
140
1.0
141
50.0
290
     0
  0
SCALE
  5
3BBB
102
{ACAD_REACTORS
330
3BAF
102
}
330
3BAF
100
AcDbScale
 70
     0
300
1:100
140
1.0
141
100.0
290
     0
  0
SCALE
  5
3BBC
102
{ACAD_REACTORS
330
3BAF
102
}
330
3BAF
100
AcDbScale
 70
     0
300
2:1
140
2.0
141
1.0
290
     0
  0
SCALE
  5
3BBD
102
{ACAD_REACTORS
330
3BAF
102
}
330
3BAF
100
AcDbScale
 70
     0
300
4:1
140
4.0
141
1.0
290
     0
  0
SCALE
  5
3BBE
102
{ACAD_REACTORS
330
3BAF
102
}
330
3BAF
100
AcDbScale
 70
     0
300
8:1
140
8.0
141
1.0
290
     0
  0
SCALE
  5
3BBF
102
{ACAD_REACTORS
330
3BAF
102
}
330
3BAF
100
AcDbScale
 70
     0
300
10:1
140
10.0
141
1.0
290
     0
  0
SCALE
  5
3BC0
102
{ACAD_REACTORS
330
3BAF
102
}
330
3BAF
100
AcDbScale
 70
     0
300
100:1
140
100.0
141
1.0
290
     0
  0
SCALE
  5
3BC1
102
{ACAD_REACTORS
330
3BAF
102
}
330
3BAF
100
AcDbScale
 70
     0
300
1/128" = 1'-0"
140
0.0078125
141
12.0
290
     0
  0
SCALE
  5
3BC2
102
{ACAD_REACTORS
330
3BAF
102
}
330
3BAF
100
AcDbScale
 70
     0
300
1/64" = 1'-0"
140
0.015625
141
12.0
290
     0
  0
SCALE
  5
3BC3
102
{ACAD_REACTORS
330
3BAF
102
}
330
3BAF
100
AcDbScale
 70
     0
300
1/32" = 1'-0"
140
0.03125
141
12.0
290
     0
  0
SCALE
  5
3BC4
102
{ACAD_REACTORS
330
3BAF
102
}
330
3BAF
100
AcDbScale
 70
     0
300
1/16" = 1'-0"
140
0.0625
141
12.0
290
     0
  0
SCALE
  5
3BC5
102
{ACAD_REACTORS
330
3BAF
102
}
330
3BAF
100
AcDbScale
 70
     0
300
3/32" = 1'-0"
140
0.09375
141
12.0
290
     0
  0
SCALE
  5
3BC6
102
{ACAD_REACTORS
330
3BAF
102
}
330
3BAF
100
AcDbScale
 70
     0
300
1/8" = 1'-0"
140
0.125
141
12.0
290
     0
  0
SCALE
  5
3BC7
102
{ACAD_REACTORS
330
3BAF
102
}
330
3BAF
100
AcDbScale
 70
     0
300
3/16" = 1'-0"
140
0.1875
141
12.0
290
     0
  0
SCALE
  5
3BC8
102
{ACAD_REACTORS
330
3BAF
102
}
330
3BAF
100
AcDbScale
 70
     0
300
1/4" = 1'-0"
140
0.25
141
12.0
290
     0
  0
SCALE
  5
3BC9
102
{ACAD_REACTORS
330
3BAF
102
}
330
3BAF
100
AcDbScale
 70
     0
300
3/8" = 1'-0"
140
0.375
141
12.0
290
     0
  0
SCALE
  5
3BCA
102
{ACAD_REACTORS
330
3BAF
102
}
330
3BAF
100
AcDbScale
 70
     0
300
1/2" = 1'-0"
140
0.5
141
12.0
290
     0
  0
SCALE
  5
3BCB
102
{ACAD_REACTORS
330
3BAF
102
}
330
3BAF
100
AcDbScale
 70
     0
300
3/4" = 1'-0"
140
0.75
141
12.0
290
     0
  0
SCALE
  5
3BCC
102
{ACAD_REACTORS
330
3BAF
102
}
330
3BAF
100
AcDbScale
 70
     0
300
1" = 1'-0"
140
1.0
141
12.0
290
     0
  0
SCALE
  5
3BCD
102
{ACAD_REACTORS
330
3BAF
102
}
330
3BAF
100
AcDbScale
 70
     0
300
1-1/2" = 1'-0"
140
1.5
141
12.0
290
     0
  0
SCALE
  5
3BCE
102
{ACAD_REACTORS
330
3BAF
102
}
330
3BAF
100
AcDbScale
 70
     0
300
3" = 1'-0"
140
3.0
141
12.0
290
     0
  0
SCALE
  5
3BCF
102
{ACAD_REACTORS
330
3BAF
102
}
330
3BAF
100
AcDbScale
 70
     0
300
6" = 1'-0"
140
6.0
141
12.0
290
     0
  0
SCALE
  5
3BD0
102
{ACAD_REACTORS
330
3BAF
102
}
330
3BAF
100
AcDbScale
 70
     0
300
1'-0" = 1'-0"
140
12.0
141
12.0
290
     0
  0
ACDBSECTIONVIEWSTYLE
  5
56BA
102
{ACAD_XDICTIONARY
360
5718
102
}
102
{ACAD_REACTORS
330
56B9
102
}
330
56B9
100
AcDbModelDocViewStyle
 70
     0
  3
Imperial24
290
     0
100
AcDbSectionViewStyle
 70
     0
 71
     0
 90
       78
 71
     1
340
11
 62
   256
 40
0.24
340
0
340
0
 62
   256
 40
0.24
300
I, O, Q, S, X, Z
 40
0.48
 90
        3
 40
0.18
 90
        1
 71
     2
340
16
 90
       25
 62
   256
340
16
 90
       50
 62
   256
 40
0.24
 40
0.0
 40
0.24
 71
     3
340
11
 62
   256
 40
0.24
 90
        1
 40
0.75
 90
        1
300
%<\AcVar ViewType \f "%tc1">% %<\AcVar ViewSectionStartId>%-%<\AcVar ViewSectionEndId>%\PSCALE %<\AcVar ViewScale \f "%sn">%
 71
     4
 62
   256
 62
   257
300
ANSI31
 40
1.0
 90
        0
290
     0
290
     0
 90
        6
 40
0.0
 40
1.570796326794896
 40
0.2617993877991494
 40
1.308996938995747
 40
-0.2617993877991494
 40
1.832595714594045
  0
TABLESTYLE
  5
87
102
{ACAD_XDICTIONARY
360
3BE4
102
}
102
{ACAD_REACTORS
330
86
102
}
330
86
100
AcDbTableStyle
280
     0
  3
Standard
 70
     0
 71
     0
 40
0.06
 41
0.06
280
     0
281
     0
  7
Standard
140
0.18
170
     2
 62
     0
 63
     7
283
     0
 90
      512
 91
        0
  1

274
    -2
284
     1
 64
     0
275
    -2
285
     1
 65
     0
276
    -2
286
     1
 66
     0
277
    -2
287
     1
 67
     0
278
    -2
288
     1
 68
     0
279
    -2
289
     1
 69
     0
  7
Standard
140
0.25
170
     5
 62
     0
 63
     7
283
     0
 90
      512
 91
        0
  1

274
    -2
284
     1
 64
     0
275
    -2
285
     1
 65
     0
276
    -2
286
     1
 66
     0
277
    -2
287
     1
 67
     0
278
    -2
288
     1
 68
     0
279
    -2
289
     1
 69
     0
  7
Standard
140
0.18
170
     5
 62
     0
 63
     7
283
     0
 90
      512
 91
        0
  1

274
    -2
284
     1
 64
     0
275
    -2
285
     1
 65
     0
276
    -2
286
     1
 66
     0
277
    -2
287
     1
 67
     0
278
    -2
288
     1
 68
     0
279
    -2
289
     1
 69
     0
  0
VISUALSTYLE
  5
9F
102
{ACAD_XDICTIONARY
360
56EE
102
}
102
{ACAD_REACTORS
330
99
102
}
330
99
100
AcDbVisualStyle
  2
2dWireframe
 70
     4
177
     2
291
     0
 71
     0
176
     1
 72
     2
176
     1
 73
     1
176
     1
 90
        0
176
     1
 40
0.6
176
     1
 41
30.0
176
     1
 63
     7
176
     1
 74
     1
176
     1
 91
        4
176
     1
 64
     7
176
     1
 65
   257
176
     1
 75
     1
176
     1
175
     1
176
     1
 42
1.0
176
     1
 92
        0
176
     1
 66
   257
176
     1
 43
1.0
176
     1
 76
     1
176
     1
 77
     6
176
     1
 78
     2
176
     1
 67
     7
176
     1
 79
     5
176
     1
170
     0
176
     1
171
     0
176
     1
290
     0
176
     1
 93
        1
176
     1
 44
0.0
176
     1
173
     0
176
     1
1001
ACAD
1000
AcDbSavedByObjectVersion
1070
     0
  0
VISUALSTYLE
  5
A1
102
{ACAD_XDICTIONARY
360
56F2
102
}
102
{ACAD_REACTORS
330
99
102
}
330
99
100
AcDbVisualStyle
  2
3D Hidden
 70
     6
177
     2
291
     0
 71
     1
176
     1
 72
     2
176
     1
 73
     2
176
     1
 90
        0
176
     1
 40
0.6
176
     1
 41
30.0
176
     1
 63
     7
176
     1
 74
     2
176
     1
 91
        2
176
     1
 64
     7
176
     1
 65
   257
176
     1
 75
     2
176
     1
175
     1
176
     1
 42
40.0
176
     1
 92
        0
176
     1
 66
   257
176
     1
 43
1.0
176
     1
 76
     1
176
     1
 77
     6
176
     1
 78
     2
176
     1
 67
     7
176
     1
 79
     3
176
     1
170
     0
176
     1
171
     0
176
     1
290
     0
176
     1
 93
        1
176
     1
 44
0.0
176
     1
173
     0
176
     1
1001
ACAD
1000
AcDbSavedByObjectVersion
1070
     0
  0
VISUALSTYLE
  5
A0
102
{ACAD_XDICTIONARY
360
56F0
102
}
102
{ACAD_REACTORS
330
99
102
}
330
99
100
AcDbVisualStyle
  2
3dWireframe
 70
     5
177
     2
291
     0
 71
     0
176
     1
 72
     2
176
     1
 73
     1
176
     1
 90
        0
176
     1
 40
0.6
176
     1
 41
30.0
176
     1
 63
     7
176
     1
 74
     1
176
     1
 91
        4
176
     1
 64
     7
176
     1
 65
   257
176
     1
 75
     1
176
     1
175
     1
176
     1
 42
1.0
176
     1
 92
        0
176
     1
 66
   257
176
     1
 43
1.0
176
     1
 76
     1
176
     1
 77
     6
176
     1
 78
     2
176
     1
 67
     7
176
     1
 79
     5
176
     1
170
     0
176
     1
171
     0
176
     1
290
     0
176
     1
 93
        1
176
     1
 44
0.0
176
     1
173
     0
176
     1
1001
ACAD
1000
AcDbSavedByObjectVersion
1070
     0
  0
VISUALSTYLE
  5
9E
102
{ACAD_XDICTIONARY
360
56EC
102
}
102
{ACAD_REACTORS
330
99
102
}
330
99
100
AcDbVisualStyle
  2
Basic
 70
     7
177
     2
291
     1
 71
     1
176
     1
 72
     0
176
     1
 73
     1
176
     1
 90
        0
176
     1
 40
0.6
176
     1
 41
30.0
176
     1
 63
     7
176
     1
 74
     0
176
     1
 91
        4
176
     1
 64
     7
176
     1
 65
   257
176
     1
 75
     1
176
     1
175
     1
176
     1
 42
1.0
176
     1
 92
        8
176
     1
 66
     7
176
     1
 43
1.0
176
     1
 76
     1
176
     1
 77
     6
176
     1
 78
     2
176
     1
 67
     7
176
     1
 79
     5
176
     1
170
     0
176
     1
171
     0
176
     1
290
     0
176
     1
 93
        1
176
     1
 44
0.0
176
     1
173
     0
176
     1
1001
ACAD
1000
AcDbSavedByObjectVersion
1070
     0
  0
VISUALSTYLE
  5
A5
102
{ACAD_XDICTIONARY
360
56FA
102
}
102
{ACAD_REACTORS
330
99
102
}
330
99
100
AcDbVisualStyle
  2
Brighten
 70
    12
177
     2
291
     1
 71
     2
176
     1
 72
     2
176
     1
 73
     1
176
     1
 90
        0
176
     1
 40
0.6
176
     1
 41
30.0
176
     1
 63
     7
176
     1
 74
     1
176
     1
 91
        4
176
     1
 64
     7
176
     1
 65
   257
176
     1
 75
     1
176
     1
175
     1
176
     1
 42
1.0
176
     1
 92
        8
176
     1
 66
     7
176
     1
 43
1.0
176
     1
 76
     1
176
     1
 77
     6
176
     1
 78
     2
176
     1
 67
     7
176
     1
 79
     5
176
     1
170
     0
176
     1
171
     0
176
     1
290
     0
176
     1
 93
        1
176
     1
 44
50.0
176
     1
173
     0
176
     1
1001
ACAD
1000
AcDbSavedByObjectVersion
1070
     0
  0
VISUALSTYLE
  5
A9
102
{ACAD_XDICTIONARY
360
5702
102
}
102
{ACAD_REACTORS
330
99
102
}
330
99
100
AcDbVisualStyle
  2
ColorChange
 70
    16
177
     2
291
     1
 71
     2
176
     1
 72
     2
176
     1
 73
     3
176
     1
 90
        0
176
     1
 40
0.6
176
     1
 41
30.0
176
     1
 63
     8
176
     1
 74
     1
176
     1
 91
        4
176
     1
 64
     7
176
     1
 65
   257
176
     1
 75
     1
176
     1
175
     1
176
     1
 42
1.0
176
     1
 92
        8
176
     1
 66
     8
176
     1
 43
1.0
176
     1
 76
     1
176
     1
 77
     6
176
     1
 78
     2
176
     1
 67
     7
176
     1
 79
     5
176
     1
170
     0
176
     1
171
     0
176
     1
290
     0
176
     1
 93
        1
176
     1
 44
0.0
176
     1
173
     0
176
     1
1001
ACAD
1000
AcDbSavedByObjectVersion
1070
     0
  0
VISUALSTYLE
  5
A2
102
{ACAD_XDICTIONARY
360
56F4
102
}
102
{ACAD_REACTORS
330
99
102
}
330
99
100
AcDbVisualStyle
  2
Conceptual
 70
     9
177
     2
291
     0
 71
     3
176
     1
 72
     2
176
     1
 73
     1
176
     1
 90
        0
176
     1
 40
0.6
176
     1
 41
30.0
176
     1
 63
     7
176
     1
 74
     2
176
     1
 91
        2
176
     1
 64
     7
176
     1
 65
   257
176
     1
 75
     1
176
     1
175
     1
176
     1
 42
40.0
176
     1
 92
        8
176
     1
 66
     7
176
     1
 43
1.0
176
     1
 76
     1
176
     1
 77
     6
176
     1
 78
     2
176
     1
 67
     7
176
     1
 79
     3
176
     1
170
     0
176
     1
171
     0
176
     1
290
     0
176
     1
 93
        1
176
     1
 44
0.0
176
     1
173
     0
176
     1
1001
ACAD
1000
AcDbSavedByObjectVersion
1070
     0
  0
VISUALSTYLE
  5
A4
102
{ACAD_XDICTIONARY
360
56F8
102
}
102
{ACAD_REACTORS
330
99
102
}
330
99
100
AcDbVisualStyle
  2
Dim
 70
    11
177
     2
291
     1
 71
     2
176
     1
 72
     2
176
     1
 73
     1
176
     1
 90
        0
176
     1
 40
0.6
176
     1
 41
30.0
176
     1
 63
     7
176
     1
 74
     1
176
     1
 91
        4
176
     1
 64
     7
176
     1
 65
   257
176
     1
 75
     1
176
     1
175
     1
176
     1
 42
1.0
176
     1
 92
        8
176
     1
 66
     7
176
     1
 43
1.0
176
     1
 76
     1
176
     1
 77
     6
176
     1
 78
     2
176
     1
 67
     7
176
     1
 79
     5
176
     1
170
     0
176
     1
171
     0
176
     1
290
     0
176
     1
 93
        1
176
     1
 44
-50.0
176
     1
173
     0
176
     1
1001
ACAD
1000
AcDbSavedByObjectVersion
1070
     0
  0
VISUALSTYLE
  5
56B8
102
{ACAD_XDICTIONARY
360
5716
102
}
102
{ACAD_REACTORS
330
99
102
}
330
99
100
AcDbVisualStyle
  2
EdgeColorOff
 70
    22
177
     2
291
     1
 71
     2
176
     0
 72
     2
176
     0
 73
     0
176
     0
 90
        0
176
     0
 40
0.6
176
     0
 41
30.0
176
     0
 63
     7
421
 16777215
176
     0
 74
     1
176
     0
 91
        4
176
     0
 64
     7
176
     0
 65
   257
176
     0
 75
     1
176
     0
175
     1
176
     0
 42
1.0
176
     0
 92
        8
176
     2
 66
     7
176
     0
 43
1.0
176
     0
 76
     1
176
     0
 77
     6
176
     0
 78
     2
176
     0
 67
     7
176
     0
 79
     5
176
     0
170
     0
176
     0
171
     0
176
     0
290
     0
176
     0
 93
        1
176
     0
 44
0.0
176
     0
173
     0
176
     0
1001
ACAD
1000
AcDbSavedByObjectVersion
1070
     0
  0
VISUALSTYLE
  5
A8
102
{ACAD_XDICTIONARY
360
5700
102
}
102
{ACAD_REACTORS
330
99
102
}
330
99
100
AcDbVisualStyle
  2
Facepattern
 70
    15
177
     2
291
     1
 71
     2
176
     1
 72
     2
176
     1
 73
     1
176
     1
 90
        0
176
     1
 40
0.6
176
     1
 41
30.0
176
     1
 63
     7
176
     1
 74
     1
176
     1
 91
        4
176
     1
 64
     7
176
     1
 65
   257
176
     1
 75
     1
176
     1
175
     1
176
     1
 42
1.0
176
     1
 92
        8
176
     1
 66
     7
176
     1
 43
1.0
176
     1
 76
     1
176
     1
 77
     6
176
     1
 78
     2
176
     1
 67
     7
176
     1
 79
     5
176
     1
170
     0
176
     1
171
     0
176
     1
290
     0
176
     1
 93
        1
176
     1
 44
0.0
176
     1
173
     0
176
     1
1001
ACAD
1000
AcDbSavedByObjectVersion
1070
     0
  0
VISUALSTYLE
  5
9A
102
{ACAD_XDICTIONARY
360
56E4
102
}
102
{ACAD_REACTORS
330
99
102
}
330
99
100
AcDbVisualStyle
  2
Flat
 70
     0
177
     2
291
     1
 71
     2
176
     1
 72
     1
176
     1
 73
     1
176
     1
 90
        2
176
     1
 40
0.6
176
     1
 41
30.0
176
     1
 63
     7
176
     1
 74
     0
176
     1
 91
        4
176
     1
 64
     7
176
     1
 65
   257
176
     1
 75
     1
176
     1
175
     1
176
     1
 42
1.0
176
     1
 92
        8
176
     1
 66
     7
176
     1
 43
1.0
176
     1
 76
     1
176
     1
 77
     6
176
     1
 78
     2
176
     1
 67
     7
176
     1
 79
     5
176
     1
170
     0
176
     1
171
     0
176
     1
290
     0
176
     1
 93
        1
176
     1
 44
0.0
176
     1
173
     0
176
     1
1001
ACAD
1000
AcDbSavedByObjectVersion
1070
     0
  0
VISUALSTYLE
  5
9B
102
{ACAD_XDICTIONARY
360
56E6
102
}
102
{ACAD_REACTORS
330
99
102
}
330
99
100
AcDbVisualStyle
  2
FlatWithEdges
 70
     1
177
     2
291
     1
 71
     2
176
     1
 72
     1
176
     1
 73
     1
176
     1
 90
        2
176
     1
 40
0.6
176
     1
 41
30.0
176
     1
 63
     7
176
     1
 74
     1
176
     1
 91
        4
176
     1
 64
     7
176
     1
 65
   257
176
     1
 75
     1
176
     1
175
     1
176
     1
 42
1.0
176
     1
 92
        0
176
     1
 66
   257
176
     1
 43
1.0
176
     1
 76
     1
176
     1
 77
     6
176
     1
 78
     2
176
     1
 67
     7
176
     1
 79
     5
176
     1
170
     0
176
     1
171
     0
176
     1
290
     0
176
     1
 93
        1
176
     1
 44
0.0
176
     1
173
     0
176
     1
1001
ACAD
1000
AcDbSavedByObjectVersion
1070
     0
  0
VISUALSTYLE
  5
9C
102
{ACAD_XDICTIONARY
360
56E8
102
}
102
{ACAD_REACTORS
330
99
102
}
330
99
100
AcDbVisualStyle
  2
Gouraud
 70
     2
177
     2
291
     1
 71
     2
176
     1
 72
     2
176
     1
 73
     1
176
     1
 90
        2
176
     1
 40
0.6
176
     1
 41
30.0
176
     1
 63
     7
176
     1
 74
     0
176
     1
 91
        4
176
     1
 64
     7
176
     1
 65
   257
176
     1
 75
     1
176
     1
175
     1
176
     1
 42
1.0
176
     1
 92
        0
176
     1
 66
     7
176
     1
 43
1.0
176
     1
 76
     1
176
     1
 77
     6
176
     1
 78
     2
176
     1
 67
     7
176
     1
 79
     5
176
     1
170
     0
176
     1
171
     0
176
     1
290
     0
176
     1
 93
        1
176
     1
 44
0.0
176
     1
173
     0
176
     1
1001
ACAD
1000
AcDbSavedByObjectVersion
1070
     0
  0
VISUALSTYLE
  5
9D
102
{ACAD_XDICTIONARY
360
56EA
102
}
102
{ACAD_REACTORS
330
99
102
}
330
99
100
AcDbVisualStyle
  2
GouraudWithEdges
 70
     3
177
     2
291
     1
 71
     2
176
     1
 72
     2
176
     1
 73
     1
176
     1
 90
        2
176
     1
 40
0.6
176
     1
 41
30.0
176
     1
 63
     7
176
     1
 74
     1
176
     1
 91
        4
176
     1
 64
     7
176
     1
 65
   257
176
     1
 75
     1
176
     1
175
     1
176
     1
 42
1.0
176
     1
 92
        0
176
     1
 66
   257
176
     1
 43
1.0
176
     1
 76
     1
176
     1
 77
     6
176
     1
 78
     2
176
     1
 67
     7
176
     1
 79
     5
176
     1
170
     0
176
     1
171
     0
176
     1
290
     0
176
     1
 93
        1
176
     1
 44
0.0
176
     1
173
     0
176
     1
1001
ACAD
1000
AcDbSavedByObjectVersion
1070
     0
  0
VISUALSTYLE
  5
56B0
102
{ACAD_XDICTIONARY
360
5706
102
}
102
{ACAD_REACTORS
330
99
102
}
330
99
100
AcDbVisualStyle
  2
Hidden
 70
     6
177
     2
291
     0
 71
     1
176
     1
 72
     2
176
     1
 73
     2
176
     1
 90
        0
176
     1
 40
0.6
176
     1
 41
30.0
176
     1
 63
     7
421
 16777215
176
     1
 74
     2
176
     1
 91
        2
176
     1
 64
     7
176
     1
 65
   257
176
     1
 75
     2
176
     1
175
     1
176
     1
 42
40.0
176
     1
 92
        0
176
     1
 66
   257
176
     1
 43
1.0
176
     1
 76
     1
176
     1
 77
     6
176
     1
 78
     2
176
     1
 67
     7
176
     1
 79
     3
176
     1
170
     0
176
     1
171
     0
176
     1
290
     0
176
     1
 93
        1
176
     1
 44
0.0
176
     1
173
     0
176
     1
1001
ACAD
1000
AcDbSavedByObjectVersion
1070
     0
  0
VISUALSTYLE
  5
56B6
102
{ACAD_XDICTIONARY
360
5712
102
}
102
{ACAD_REACTORS
330
99
102
}
330
99
100
AcDbVisualStyle
  2
JitterOff
 70
    20
177
     2
291
     1
 71
     2
176
     0
 72
     2
176
     0
 73
     0
176
     0
 90
        0
176
     0
 40
0.6
176
     0
 41
30.0
176
     0
 63
     7
421
 16777215
176
     0
 74
     1
176
     0
 91
        4
176
     0
 64
     7
176
     0
 65
   257
176
     0
 75
     1
176
     0
175
     1
176
     0
 42
1.0
176
     0
 92
       10
176
     2
 66
     7
176
     0
 43
1.0
176
     0
 76
     1
176
     0
 77
     6
176
     0
 78
     2
176
     0
 67
     7
176
     0
 79
     5
176
     0
170
     0
176
     0
171
     0
176
     0
290
     0
176
     0
 93
        1
176
     0
 44
0.0
176
     0
173
     0
176
     0
1001
ACAD
1000
AcDbSavedByObjectVersion
1070
     0
  0
VISUALSTYLE
  5
A7
102
{ACAD_XDICTIONARY
360
56FE
102
}
102
{ACAD_REACTORS
330
99
102
}
330
99
100
AcDbVisualStyle
  2
Linepattern
 70
    14
177
     2
291
     1
 71
     2
176
     1
 72
     2
176
     1
 73
     1
176
     1
 90
        0
176
     1
 40
0.6
176
     1
 41
30.0
176
     1
 63
     7
176
     1
 74
     1
176
     1
 91
        4
176
     1
 64
     7
176
     1
 65
   257
176
     1
 75
     7
176
     1
175
     7
176
     1
 42
1.0
176
     1
 92
        8
176
     1
 66
     7
176
     1
 43
1.0
176
     1
 76
     1
176
     1
 77
     6
176
     1
 78
     2
176
     1
 67
     7
176
     1
 79
     5
176
     1
170
     0
176
     1
171
     0
176
     1
290
     0
176
     1
 93
        1
176
     1
 44
0.0
176
     1
173
     0
176
     1
1001
ACAD
1000
AcDbSavedByObjectVersion
1070
     0
  0
VISUALSTYLE
  5
56B7
102
{ACAD_XDICTIONARY
360
5714
102
}
102
{ACAD_REACTORS
330
99
102
}
330
99
100
AcDbVisualStyle
  2
OverhangOff
 70
    21
177
     2
291
     1
 71
     2
176
     0
 72
     2
176
     0
 73
     0
176
     0
 90
        0
176
     0
 40
0.6
176
     0
 41
30.0
176
     0
 63
     7
421
 16777215
176
     0
 74
     1
176
     0
 91
        4
176
     0
 64
     7
176
     0
 65
   257
176
     0
 75
     1
176
     0
175
     1
176
     0
 42
1.0
176
     0
 92
        9
176
     2
 66
     7
176
     0
 43
1.0
176
     0
 76
     1
176
     0
 77
     6
176
     0
 78
     2
176
     0
 67
     7
176
     0
 79
     5
176
     0
170
     0
176
     0
171
     0
176
     0
290
     0
176
     0
 93
        1
176
     0
 44
0.0
176
     0
173
     0
176
     0
1001
ACAD
1000
AcDbSavedByObjectVersion
1070
     0
  0
VISUALSTYLE
  5
A3
102
{ACAD_XDICTIONARY
360
56F6
102
}
102
{ACAD_REACTORS
330
99
102
}
330
99
100
AcDbVisualStyle
  2
Realistic
 70
     8
177
     2
291
     0
 71
     2
176
     1
 72
     2
176
     1
 73
     1
176
     1
 90
        0
176
     1
 40
0.6
176
     1
 41
30.0
176
     1
 63
     7
176
     1
 74
     1
176
     1
 91
        0
176
     1
 64
     7
176
     1
 65
   257
176
     1
 75
     1
176
     1
175
     1
176
     1
 42
1.0
176
     1
 92
        8
176
     1
 66
     8
176
     1
 43
1.0
176
     1
 76
     1
176
     1
 77
     6
176
     1
 78
     2
176
     1
 67
     7
176
     1
 79
     5
176
     1
170
     0
176
     1
171
     0
176
     1
290
     0
176
     1
 93
       13
176
     1
 44
0.0
176
     1
173
     0
176
     1
1001
ACAD
1000
AcDbSavedByObjectVersion
1070
     0
  0
VISUALSTYLE
  5
56B5
102
{ACAD_XDICTIONARY
360
5710
102
}
102
{ACAD_REACTORS
330
99
102
}
330
99
100
AcDbVisualStyle
  2
Shaded
 70
    27
177
     2
291
     0
 71
     2
176
     1
 72
     2
176
     1
 73
     1
176
     1
 90
        2
176
     1
 40
0.6
176
     1
 41
30.0
176
     1
 63
     7
421
 16777215
176
     1
 74
     0
176
     1
 91
        4
176
     1
 64
     7
176
     1
 65
   257
176
     1
 75
     1
176
     1
175
     1
176
     1
 42
1.0
176
     1
 92
        8
176
     1
 66
   257
176
     1
 43
1.0
176
     1
 76
     1
176
     1
 77
     6
176
     1
 78
     2
176
     1
 67
     8
425
  7895160
176
     1
 79
     3
176
     1
170
     0
176
     1
171
     0
176
     1
290
     0
176
     1
 93
        5
176
     1
 44
0.0
176
     1
173
     0
176
     1
1001
ACAD
1000
AcDbSavedByObjectVersion
1070
     0
  0
VISUALSTYLE
  5
56B4
102
{ACAD_XDICTIONARY
360
570E
102
}
102
{ACAD_REACTORS
330
99
102
}
330
99
100
AcDbVisualStyle
  2
Shaded with edges
 70
    26
177
     2
291
     0
 71
     2
176
     1
 72
     2
176
     1
 73
     1
176
     1
 90
        2
176
     1
 40
0.6
176
     1
 41
30.0
176
     1
 63
     7
421
 16777215
176
     1
 74
     1
176
     1
 91
        2
176
     1
 64
     7
176
     1
 65
   257
176
     1
 75
     2
176
     1
175
     1
176
     1
 42
1.0
176
     1
 92
        8
176
     1
 66
   257
176
     1
 43
1.0
176
     1
 76
     1
176
     1
 77
     6
176
     1
 78
     2
176
     1
 67
     7
176
     1
 79
     3
176
     1
170
     0
176
     1
171
     0
176
     1
290
     0
176
     1
 93
        5
176
     1
 44
0.0
176
     1
173
     0
176
     1
1001
ACAD
1000
AcDbSavedByObjectVersion
1070
     0
  0
VISUALSTYLE
  5
56B1
102
{ACAD_XDICTIONARY
360
5708
102
}
102
{ACAD_REACTORS
330
99
102
}
330
99
100
AcDbVisualStyle
  2
Shades of Gray
 70
    23
177
     2
291
     0
 71
     2
176
     1
 72
     2
176
     1
 73
     3
176
     1
 90
        0
176
     1
 40
0.6
176
     1
 41
30.0
176
     1
 63
     7
421
 16777215
176
     1
 74
     2
176
     1
 91
        2
176
     1
 64
     7
176
     1
 65
     7
176
     1
 75
     1
176
     1
175
     1
176
     1
 42
40.0
176
     1
 92
        8
176
     1
 66
     7
176
     1
 43
1.0
176
     1
 76
     1
176
     1
 77
     6
176
     1
 78
     2
176
     1
 67
     7
176
     1
 79
     3
176
     1
170
     0
176
     1
171
     0
176
     1
290
     0
176
     1
 93
        1
176
     1
 44
0.0
176
     1
173
     0
176
     1
1001
ACAD
1000
AcDbSavedByObjectVersion
1070
     0
  0
VISUALSTYLE
  5
56B2
102
{ACAD_XDICTIONARY
360
570A
102
}
102
{ACAD_REACTORS
330
99
102
}
330
99
100
AcDbVisualStyle
  2
Sketchy
 70
    24
177
     2
291
     0
 71
     1
176
     1
 72
     2
176
     1
 73
     2
176
     1
 90
        0
176
     1
 40
0.6
176
     1
 41
30.0
176
     1
 63
     7
421
 16777215
176
     1
 74
     2
176
     1
 91
        2
176
     1
 64
     7
176
     1
 65
     7
176
     1
 75
     1
176
     1
175
     1
176
     1
 42
40.0
176
     1
 92
       11
176
     1
 66
     7
176
     1
 43
1.0
176
     1
 76
     1
176
     1
 77
     6
176
     1
 78
     2
176
     1
 67
     7
176
     1
 79
     6
176
     1
170
     0
176
     1
171
     0
176
     1
290
     0
176
     1
 93
        1
176
     1
 44
0.0
176
     1
173
     0
176
     1
1001
ACAD
1000
AcDbSavedByObjectVersion
1070
     0
  0
VISUALSTYLE
  5
A6
102
{ACAD_XDICTIONARY
360
56FC
102
}
102
{ACAD_REACTORS
330
99
102
}
330
99
100
AcDbVisualStyle
  2
Thicken
 70
    13
177
     2
291
     1
 71
     2
176
     1
 72
     2
176
     1
 73
     1
176
     1
 90
        0
176
     1
 40
0.6
176
     1
 41
30.0
176
     1
 63
     7
176
     1
 74
     1
176
     1
 91
        4
176
     1
 64
     7
176
     1
 65
   257
176
     1
 75
     1
176
     1
175
     1
176
     1
 42
1.0
176
     1
 92
       12
176
     1
 66
     7
176
     1
 43
1.0
176
     1
 76
     1
176
     1
 77
     6
176
     1
 78
     2
176
     1
 67
     7
176
     1
 79
     5
176
     1
170
     0
176
     1
171
     0
176
     1
290
     0
176
     1
 93
        1
176
     1
 44
0.0
176
     1
173
     0
176
     1
1001
ACAD
1000
AcDbSavedByObjectVersion
1070
     0
  0
VISUALSTYLE
  5
56AF
102
{ACAD_XDICTIONARY
360
5704
102
}
102
{ACAD_REACTORS
330
99
102
}
330
99
100
AcDbVisualStyle
  2
Wireframe
 70
     5
177
     2
291
     0
 71
     0
176
     1
 72
     2
176
     1
 73
     0
176
     1
 90
        0
176
     1
 40
0.6
176
     1
 41
30.0
176
     1
 63
     7
421
 16777215
176
     1
 74
     1
176
     1
 91
        4
176
     1
 64
     7
176
     1
 65
   257
176
     1
 75
     1
176
     1
175
     1
176
     1
 42
1.0
176
     1
 92
        0
176
     1
 66
   257
176
     1
 43
1.0
176
     1
 76
     1
176
     1
 77
     6
176
     1
 78
     2
176
     1
 67
     7
176
     1
 79
     3
176
     1
170
     0
176
     1
171
     0
176
     1
290
     0
176
     1
 93
        1
176
     1
 44
0.0
176
     1
173
     0
176
     1
1001
ACAD
1000
AcDbSavedByObjectVersion
1070
     0
  0
VISUALSTYLE
  5
56B3
102
{ACAD_XDICTIONARY
360
570C
102
}
102
{ACAD_REACTORS
330
99
102
}
330
99
100
AcDbVisualStyle
  2
X-Ray
 70
    25
177
     2
291
     0
 71
     2
176
     1
 72
     2
176
     1
 73
     1
176
     1
 90
        1
176
     1
 40
0.5
176
     1
 41
30.0
176
     1
 63
     7
421
 16777215
176
     1
 74
     1
176
     1
 91
        0
176
     1
 64
     7
176
     1
 65
   257
176
     1
 75
     1
176
     1
175
     1
176
     1
 42
1.0
176
     1
 92
        8
176
     1
 66
     7
176
     1
 43
1.0
176
     1
 76
     1
176
     1
 77
     6
176
     1
 78
     2
176
     1
 67
     7
176
     1
 79
     3
176
     1
170
     0
176
     1
171
     0
176
     1
290
     0
176
     1
 93
       13
176
     1
 44
0.0
176
     1
173
     0
176
     1
1001
ACAD
1000
AcDbSavedByObjectVersion
1070
     0
  0
DICTIONARYVAR
  5
3C12
102
{ACAD_REACTORS
330
66
102
}
330
66
100
DictionaryVariables
280
     0
  1
1:1
  0
DICTIONARYVAR
  5
3C11
102
{ACAD_REACTORS
330
66
102
}
330
66
100
DictionaryVariables
280
     0
  1
STANDARD
  0
DICTIONARYVAR
  5
89
102
{ACAD_REACTORS
330
66
102
}
330
66
100
DictionaryVariables
280
     0
  1
STANDARD
  0
DICTIONARYVAR
  5
56C1
102
{ACAD_REACTORS
330
66
102
}
330
66
100
DictionaryVariables
280
     0
  1
Imperial24
  0
DICTIONARYVAR
  5
56C2
102
{ACAD_REACTORS
330
66
102
}
330
66
100
DictionaryVariables
280
     0
  1
Imperial24
  0
DICTIONARYVAR
  5
67
102
{ACAD_REACTORS
330
66
102
}
330
66
100
DictionaryVariables
280
     0
  1
2
  0
DICTIONARYVAR
  5
6B
102
{ACAD_REACTORS
330
66
102
}
330
66
100
DictionaryVariables
280
     0
  1
1
  0
DICTIONARYVAR
  5
3B88
102
{ACAD_REACTORS
330
66
102
}
330
66
100
DictionaryVariables
280
     0
  1
0
  0
DICTIONARYVAR
  5
56C5
102
{ACAD_REACTORS
330
66
102
}
330
66
100
DictionaryVariables
280
     0
  1
1
  0
DICTIONARYVAR
  5
56C6
102
{ACAD_REACTORS
330
66
102
}
330
66
100
DictionaryVariables
280
     0
  1
15
  0
DICTIONARYVAR
  5
56C4
102
{ACAD_REACTORS
330
66
102
}
330
66
100
DictionaryVariables
280
     0
  1
0
  0
DICTIONARYVAR
  5
56C3
102
{ACAD_REACTORS
330
66
102
}
330
66
100
DictionaryVariables
280
     0
  1
0
  0
DICTIONARYVAR
  5
3B87
102
{ACAD_REACTORS
330
66
102
}
330
66
100
DictionaryVariables
280
     0
  1
127
  0
DICTIONARY
  5
56E3
102
{ACAD_REACTORS
330
56E1
102
}
330
56E1
100
AcDbDictionary
281
     1
  0
DICTIONARY
  5
56E2
102
{ACAD_REACTORS
330
56E1
102
}
330
56E1
100
AcDbDictionary
281
     1
  3
2785692514880
350
56DC
  3
2785692514896
350
56DD
  3
2785692514912
350
56DE
  3
2785692514928
350
56DF
  3
2785692514944
350
56E0
  0
DICTIONARY
  5
571A
330
56BC
100
AcDbDictionary
280
     1
281
     1
  3
ACAD_XREC_ROUNDTRIP
360
571B
  0
DICTIONARY
  5
5566
330
59
100
AcDbDictionary
280
     1
281
     1
  0
DICTIONARY
  5
5718
330
56BA
100
AcDbDictionary
280
     1
281
     1
  3
ACAD_XREC_ROUNDTRIP
360
5719
  0
DICTIONARY
  5
3BE4
330
87
100
AcDbDictionary
280
     1
281
     1
  3
ACAD_ROUNDTRIP_2008_TABLESTYLE_CELLSTYLEMAP
360
56D9
  0
DICTIONARY
  5
56EE
330
9F
100
AcDbDictionary
280
     1
281
     1
  3
ACAD_XREC_ROUNDTRIP
360
56EF
  0
DICTIONARY
  5
56F2
330
A1
100
AcDbDictionary
280
     1
281
     1
  3
ACAD_XREC_ROUNDTRIP
360
56F3
  0
DICTIONARY
  5
56F0
330
A0
100
AcDbDictionary
280
     1
281
     1
  3
ACAD_XREC_ROUNDTRIP
360
56F1
  0
DICTIONARY
  5
56EC
330
9E
100
AcDbDictionary
280
     1
281
     1
  3
ACAD_XREC_ROUNDTRIP
360
56ED
  0
DICTIONARY
  5
56FA
330
A5
100
AcDbDictionary
280
     1
281
     1
  3
ACAD_XREC_ROUNDTRIP
360
56FB
  0
DICTIONARY
  5
5702
330
A9
100
AcDbDictionary
280
     1
281
     1
  3
ACAD_XREC_ROUNDTRIP
360
5703
  0
DICTIONARY
  5
56F4
330
A2
100
AcDbDictionary
280
     1
281
     1
  3
ACAD_XREC_ROUNDTRIP
360
56F5
  0
DICTIONARY
  5
56F8
330
A4
100
AcDbDictionary
280
     1
281
     1
  3
ACAD_XREC_ROUNDTRIP
360
56F9
  0
DICTIONARY
  5
5716
330
56B8
100
AcDbDictionary
280
     1
281
     1
  3
ACAD_XREC_ROUNDTRIP
360
5717
  0
DICTIONARY
  5
5700
330
A8
100
AcDbDictionary
280
     1
281
     1
  3
ACAD_XREC_ROUNDTRIP
360
5701
  0
DICTIONARY
  5
56E4
330
9A
100
AcDbDictionary
280
     1
281
     1
  3
ACAD_XREC_ROUNDTRIP
360
56E5
  0
DICTIONARY
  5
56E6
330
9B
100
AcDbDictionary
280
     1
281
     1
  3
ACAD_XREC_ROUNDTRIP
360
56E7
  0
DICTIONARY
  5
56E8
330
9C
100
AcDbDictionary
280
     1
281
     1
  3
ACAD_XREC_ROUNDTRIP
360
56E9
  0
DICTIONARY
  5
56EA
330
9D
100
AcDbDictionary
280
     1
281
     1
  3
ACAD_XREC_ROUNDTRIP
360
56EB
  0
DICTIONARY
  5
5706
330
56B0
100
AcDbDictionary
280
     1
281
     1
  3
ACAD_XREC_ROUNDTRIP
360
5707
  0
DICTIONARY
  5
5712
330
56B6
100
AcDbDictionary
280
     1
281
     1
  3
ACAD_XREC_ROUNDTRIP
360
5713
  0
DICTIONARY
  5
56FE
330
A7
100
AcDbDictionary
280
     1
281
     1
  3
ACAD_XREC_ROUNDTRIP
360
56FF
  0
DICTIONARY
  5
5714
330
56B7
100
AcDbDictionary
280
     1
281
     1
  3
ACAD_XREC_ROUNDTRIP
360
5715
  0
DICTIONARY
  5
56F6
330
A3
100
AcDbDictionary
280
     1
281
     1
  3
ACAD_XREC_ROUNDTRIP
360
56F7
  0
DICTIONARY
  5
5710
330
56B5
100
AcDbDictionary
280
     1
281
     1
  3
ACAD_XREC_ROUNDTRIP
360
5711
  0
DICTIONARY
  5
570E
330
56B4
100
AcDbDictionary
280
     1
281
     1
  3
ACAD_XREC_ROUNDTRIP
360
570F
  0
DICTIONARY
  5
5708
330
56B1
100
AcDbDictionary
280
     1
281
     1
  3
ACAD_XREC_ROUNDTRIP
360
5709
  0
DICTIONARY
  5
570A
330
56B2
100
AcDbDictionary
280
     1
281
     1
  3
ACAD_XREC_ROUNDTRIP
360
570B
  0
DICTIONARY
  5
56FC
330
A6
100
AcDbDictionary
280
     1
281
     1
  3
ACAD_XREC_ROUNDTRIP
360
56FD
  0
DICTIONARY
  5
5704
330
56AF
100
AcDbDictionary
280
     1
281
     1
  3
ACAD_XREC_ROUNDTRIP
360
5705
  0
DICTIONARY
  5
570C
330
56B3
100
AcDbDictionary
280
     1
281
     1
  3
ACAD_XREC_ROUNDTRIP
360
570D
  0
XRECORD
  5
56DC
102
{ACAD_REACTORS
330
56E2
102
}
330
56E2
100
AcDbXrecord
280
     1
  1
AcDb_Thumbnail_Schema
102
{ATTRRECORD
341
56DD
  2
AcDbDs::TreatedAsObjectData
280
     1
291
     1
102
ATTRRECORD}
102
{ATTRRECORD
341
56DE
  2
AcDbDs::Legacy
280
     1
291
     1
102
ATTRRECORD}
  2
AcDbDs::ID
280
    10
 91
        8
102
{ATTRRECORD
341
56DF
  2
AcDs:Indexable
280
     1
291
     1
102
ATTRRECORD}
102
{ATTRRECORD
341
56E0
  2
AcDbDs::HandleAttribute
280
     7
282
     1
102
ATTRRECORD}
  2
Thumbnail_Data
280
    15
 91
        0
  0
XRECORD
  5
56DD
102
{ACAD_REACTORS
330
56E2
102
}
330
56E2
100
AcDbXrecord
280
     1
  1
AcDbDs::TreatedAsObjectDataSchema
  2
AcDbDs::TreatedAsObjectData
280
     1
 91
        0
  0
XRECORD
  5
56DE
102
{ACAD_REACTORS
330
56E2
102
}
330
56E2
100
AcDbXrecord
280
     1
  1
AcDbDs::LegacySchema
  2
AcDbDs::Legacy
280
     1
 91
        0
  0
XRECORD
  5
56DF
102
{ACAD_REACTORS
330
56E2
102
}
330
56E2
100
AcDbXrecord
280
     1
  1
AcDbDs::IndexedPropertySchema
  2
AcDs:Indexable
280
     1
 91
        0
  0
XRECORD
  5
56E0
102
{ACAD_REACTORS
330
56E2
102
}
330
56E2
100
AcDbXrecord
280
     1
  1
AcDbDs::HandleAttributeSchema
  2
AcDbDs::HandleAttribute
280
     7
 91
        1
284
     1
  0
XRECORD
  5
571B
102
{ACAD_REACTORS
330
571A
102
}
330
571A
100
AcDbXrecord
280
     1
102
DISPLAYNAME
  1
Imperial24
102
FLAGS
 90
        0
  0
XRECORD
  5
5719
102
{ACAD_REACTORS
330
5718
102
}
330
5718
100
AcDbXrecord
280
     1
102
DISPLAYNAME
  1
Imperial24
102
FLAGS
 90
        0
  0
CELLSTYLEMAP
  5
56D9
102
{ACAD_REACTORS
330
3BE4
102
}
330
3BE4
100
AcDbCellStyleMap
 90
        3
300
CELLSTYLE
  1
TABLEFORMAT_BEGIN
 90
        5
170
     1
 91
        0
 92
    32768
 62
   257
 93
        1
300
CONTENTFORMAT
  1
CONTENTFORMAT_BEGIN
 90
        0
 91
        0
 92
      512
 93
        0
300

 40
0.0
140
1.0
 94
        5
 62
     0
340
11
144
0.25
309
CONTENTFORMAT_END
171
     1
301
MARGIN
  1
CELLMARGIN_BEGIN
 40
0.06
 40
0.06
 40
0.06
 40
0.06
 40
0.18
 40
0.18
309
CELLMARGIN_END
 94
        6
 95
        1
302
GRIDFORMAT
  1
GRIDFORMAT_BEGIN
 90
        0
 91
        1
 62
     0
 92
       -2
340
0
 93
        0
 40
0.045
309
GRIDFORMAT_END
 95
        2
302
GRIDFORMAT
  1
GRIDFORMAT_BEGIN
 90
        0
 91
        1
 62
     0
 92
       -2
340
0
 93
        0
 40
0.045
309
GRIDFORMAT_END
 95
        4
302
GRIDFORMAT
  1
GRIDFORMAT_BEGIN
 90
        0
 91
        1
 62
     0
 92
       -2
340
0
 93
        0
 40
0.045
309
GRIDFORMAT_END
 95
        8
302
GRIDFORMAT
  1
GRIDFORMAT_BEGIN
 90
        0
 91
        1
 62
     0
 92
       -2
340
0
 93
        0
 40
0.045
309
GRIDFORMAT_END
 95
       16
302
GRIDFORMAT
  1
GRIDFORMAT_BEGIN
 90
        0
 91
        1
 62
     0
 92
       -2
340
0
 93
        0
 40
0.045
309
GRIDFORMAT_END
 95
       32
302
GRIDFORMAT
  1
GRIDFORMAT_BEGIN
 90
        0
 91
        1
 62
     0
 92
       -2
340
0
 93
        0
 40
0.045
309
GRIDFORMAT_END
309
TABLEFORMAT_END
  1
CELLSTYLE_BEGIN
 90
        1
 91
        1
300
_TITLE
309
CELLSTYLE_END
300
CELLSTYLE
  1
TABLEFORMAT_BEGIN
 90
        5
170
     1
 91
        0
 92
        0
 62
   257
 93
        1
300
CONTENTFORMAT
  1
CONTENTFORMAT_BEGIN
 90
        0
 91
        0
 92
      512
 93
        0
300

 40
0.0
140
1.0
 94
        5
 62
     0
340
11
144
0.18
309
CONTENTFORMAT_END
171
     1
301
MARGIN
  1
CELLMARGIN_BEGIN
 40
0.06
 40
0.06
 40
0.06
 40
0.06
 40
0.18
 40
0.18
309
CELLMARGIN_END
 94
        6
 95
        1
302
GRIDFORMAT
  1
GRIDFORMAT_BEGIN
 90
        0
 91
        1
 62
     0
 92
       -2
340
0
 93
        0
 40
0.045
309
GRIDFORMAT_END
 95
        2
302
GRIDFORMAT
  1
GRIDFORMAT_BEGIN
 90
        0
 91
        1
 62
     0
 92
       -2
340
0
 93
        0
 40
0.045
309
GRIDFORMAT_END
 95
        4
302
GRIDFORMAT
  1
GRIDFORMAT_BEGIN
 90
        0
 91
        1
 62
     0
 92
       -2
340
0
 93
        0
 40
0.045
309
GRIDFORMAT_END
 95
        8
302
GRIDFORMAT
  1
GRIDFORMAT_BEGIN
 90
        0
 91
        1
 62
     0
 92
       -2
340
0
 93
        0
 40
0.045
309
GRIDFORMAT_END
 95
       16
302
GRIDFORMAT
  1
GRIDFORMAT_BEGIN
 90
        0
 91
        1
 62
     0
 92
       -2
340
0
 93
        0
 40
0.045
309
GRIDFORMAT_END
 95
       32
302
GRIDFORMAT
  1
GRIDFORMAT_BEGIN
 90
        0
 91
        1
 62
     0
 92
       -2
340
0
 93
        0
 40
0.045
309
GRIDFORMAT_END
309
TABLEFORMAT_END
  1
CELLSTYLE_BEGIN
 90
        2
 91
        1
300
_HEADER
309
CELLSTYLE_END
300
CELLSTYLE
  1
TABLEFORMAT_BEGIN
 90
        5
170
     1
 91
        0
 92
        0
 62
   257
 93
        1
300
CONTENTFORMAT
  1
CONTENTFORMAT_BEGIN
 90
        0
 91
        0
 92
      512
 93
        0
300

 40
0.0
140
1.0
 94
        2
 62
     0
340
11
144
0.18
309
CONTENTFORMAT_END
171
     1
301
MARGIN
  1
CELLMARGIN_BEGIN
 40
0.06
 40
0.06
 40
0.06
 40
0.06
 40
0.18
 40
0.18
309
CELLMARGIN_END
 94
        6
 95
        1
302
GRIDFORMAT
  1
GRIDFORMAT_BEGIN
 90
        0
 91
        1
 62
     0
 92
       -2
340
0
 93
        0
 40
0.045
309
GRIDFORMAT_END
 95
        2
302
GRIDFORMAT
  1
GRIDFORMAT_BEGIN
 90
        0
 91
        1
 62
     0
 92
       -2
340
0
 93
        0
 40
0.045
309
GRIDFORMAT_END
 95
        4
302
GRIDFORMAT
  1
GRIDFORMAT_BEGIN
 90
        0
 91
        1
 62
     0
 92
       -2
340
0
 93
        0
 40
0.045
309
GRIDFORMAT_END
 95
        8
302
GRIDFORMAT
  1
GRIDFORMAT_BEGIN
 90
        0
 91
        1
 62
     0
 92
       -2
340
0
 93
        0
 40
0.045
309
GRIDFORMAT_END
 95
       16
302
GRIDFORMAT
  1
GRIDFORMAT_BEGIN
 90
        0
 91
        1
 62
     0
 92
       -2
340
0
 93
        0
 40
0.045
309
GRIDFORMAT_END
 95
       32
302
GRIDFORMAT
  1
GRIDFORMAT_BEGIN
 90
        0
 91
        1
 62
     0
 92
       -2
340
0
 93
        0
 40
0.045
309
GRIDFORMAT_END
309
TABLEFORMAT_END
  1
CELLSTYLE_BEGIN
 90
        3
 91
        2
300
_DATA
309
CELLSTYLE_END
  0
XRECORD
  5
56EF
102
{ACAD_REACTORS
330
56EE
102
}
330
56EE
100
AcDbXrecord
280
     1
102
RTVSPost2010Prop28
280
     1
102
RTVSPost2010PropOp28
 70
     1
102
RTVSPost2010Prop29
280
     1
102
RTVSPost2010PropOp29
 70
     1
102
RTVSPost2010Prop30
280
     0
102
RTVSPost2010PropOp30
 70
     1
102
RTVSPost2010Prop31
280
     0
102
RTVSPost2010PropOp31
 70
     1
102
RTVSPost2010Prop32
280
     0
102
RTVSPost2010PropOp32
 70
     1
102
RTVSPost2010Prop33
280
     0
102
RTVSPost2010PropOp33
 70
     1
102
RTVSPost2010Prop34
280
     0
102
RTVSPost2010PropOp34
 70
     1
102
RTVSPost2010Prop35
280
     0
102
RTVSPost2010PropOp35
 70
     1
102
RTVSPost2010Prop36
280
     0
102
RTVSPost2010PropOp36
 70
     1
102
RTVSPost2010Prop37
 90
       50
102
RTVSPost2010PropOp37
 70
     1
102
RTVSPost2010Prop38
140
0.0
102
RTVSPost2010PropOp38
 70
     1
102
RTVSPost2010Prop39
140
1.0
102
RTVSPost2010PropOp39
 70
     1
102
RTVSPost2010Prop40
 90
        0
102
RTVSPost2010PropOp40
 70
     1
102
RTVSPost2010Prop41ColorIndex
 90
       18
102
RTVSPost2010Prop41ColorRGB
 90
-16777216
102
RTVSPost2010PropOp41
 70
     1
102
RTVSPost2010Prop42
 90
       50
102
RTVSPost2010PropOp42
 70
     1
102
RTVSPost2010Prop43
 90
        3
102
RTVSPost2010PropOp43
 70
     1
102
RTVSPost2010Prop44ColorIndex
 90
        5
102
RTVSPost2010Prop44ColorRGB
 90
      255
102
RTVSPost2010PropOp44
 70
     1
102
RTVSPost2010Prop45
280
     0
102
RTVSPost2010PropOp45
 70
     1
102
RTVSPost2010Prop46
 90
       50
102
RTVSPost2010PropOp46
 70
     1
102
RTVSPost2010Prop47
 90
       50
102
RTVSPost2010PropOp47
 70
     1
102
RTVSPost2010Prop48
 90
       50
102
RTVSPost2010PropOp48
 70
     1
102
RTVSPost2010Prop49
280
     0
102
RTVSPost2010PropOp49
 70
     1
102
RTVSPost2010Prop50
 90
       50
102
RTVSPost2010PropOp50
 70
     1
102
RTVSPost2010Prop51ColorIndex
 90
      256
102
RTVSPost2010Prop51ColorRGB
 90
-16777216
102
RTVSPost2010PropOp51
 70
     0
102
RTVSPost2010Prop52
140
1.0
102
RTVSPost2010PropOp52
 70
     0
102
RTVSPost2010Prop53
 90
        2
102
RTVSPost2010PropOp53
 70
     1
102
RTVSPost2010Prop54
  1
strokes_ogs.tif
102
RTVSPost2010PropOp54
 70
     1
102
RTVSPost2010Prop55
280
     0
102
RTVSPost2010PropOp55
 70
     1
102
RTVSPost2010Prop56
140
1.0
102
RTVSPost2010PropOp56
 70
     1
102
RTVSPost2010Prop57
140
1.0
102
RTVSPost2010PropOp57
 70
     1
  0
XRECORD
  5
56F3
102
{ACAD_REACTORS
330
56F2
102
}
330
56F2
100
AcDbXrecord
280
     1
102
RTVSPost2010Prop28
280
     0
102
RTVSPost2010PropOp28
 70
     1
102
RTVSPost2010Prop29
280
     1
102
RTVSPost2010PropOp29
 70
     1
102
RTVSPost2010Prop30
280
     1
102
RTVSPost2010PropOp30
 70
     1
102
RTVSPost2010Prop31
280
     0
102
RTVSPost2010PropOp31
 70
     1
102
RTVSPost2010Prop32
280
     0
102
RTVSPost2010PropOp32
 70
     1
102
RTVSPost2010Prop33
280
     0
102
RTVSPost2010PropOp33
 70
     1
102
RTVSPost2010Prop34
280
     0
102
RTVSPost2010PropOp34
 70
     1
102
RTVSPost2010Prop35
280
     0
102
RTVSPost2010PropOp35
 70
     1
102
RTVSPost2010Prop36
280
     0
102
RTVSPost2010PropOp36
 70
     1
102
RTVSPost2010Prop37
 90
       50
102
RTVSPost2010PropOp37
 70
     1
102
RTVSPost2010Prop38
140
0.0
102
RTVSPost2010PropOp38
 70
     1
102
RTVSPost2010Prop39
140
1.0
102
RTVSPost2010PropOp39
 70
     1
102
RTVSPost2010Prop40
 90
        0
102
RTVSPost2010PropOp40
 70
     1
102
RTVSPost2010Prop41ColorIndex
 90
       18
102
RTVSPost2010Prop41ColorRGB
 90
-16777216
102
RTVSPost2010PropOp41
 70
     1
102
RTVSPost2010Prop42
 90
       50
102
RTVSPost2010PropOp42
 70
     1
102
RTVSPost2010Prop43
 90
        3
102
RTVSPost2010PropOp43
 70
     1
102
RTVSPost2010Prop44ColorIndex
 90
        5
102
RTVSPost2010Prop44ColorRGB
 90
      255
102
RTVSPost2010PropOp44
 70
     1
102
RTVSPost2010Prop45
280
     0
102
RTVSPost2010PropOp45
 70
     1
102
RTVSPost2010Prop46
 90
       50
102
RTVSPost2010PropOp46
 70
     1
102
RTVSPost2010Prop47
 90
       50
102
RTVSPost2010PropOp47
 70
     1
102
RTVSPost2010Prop48
 90
       50
102
RTVSPost2010PropOp48
 70
     1
102
RTVSPost2010Prop49
280
     0
102
RTVSPost2010PropOp49
 70
     1
102
RTVSPost2010Prop50
 90
       50
102
RTVSPost2010PropOp50
 70
     1
102
RTVSPost2010Prop51ColorIndex
 90
      256
102
RTVSPost2010Prop51ColorRGB
 90
-16777216
102
RTVSPost2010PropOp51
 70
     0
102
RTVSPost2010Prop52
140
1.0
102
RTVSPost2010PropOp52
 70
     0
102
RTVSPost2010Prop53
 90
        2
102
RTVSPost2010PropOp53
 70
     1
102
RTVSPost2010Prop54
  1
strokes_ogs.tif
102
RTVSPost2010PropOp54
 70
     1
102
RTVSPost2010Prop55
280
     0
102
RTVSPost2010PropOp55
 70
     1
102
RTVSPost2010Prop56
140
1.0
102
RTVSPost2010PropOp56
 70
     1
102
RTVSPost2010Prop57
140
1.0
102
RTVSPost2010PropOp57
 70
     1
  0
XRECORD
  5
56F1
102
{ACAD_REACTORS
330
56F0
102
}
330
56F0
100
AcDbXrecord
280
     1
102
RTVSPost2010Prop28
280
     0
102
RTVSPost2010PropOp28
 70
     1
102
RTVSPost2010Prop29
280
     1
102
RTVSPost2010PropOp29
 70
     1
102
RTVSPost2010Prop30
280
     1
102
RTVSPost2010PropOp30
 70
     1
102
RTVSPost2010Prop31
280
     0
102
RTVSPost2010PropOp31
 70
     1
102
RTVSPost2010Prop32
280
     0
102
RTVSPost2010PropOp32
 70
     1
102
RTVSPost2010Prop33
280
     0
102
RTVSPost2010PropOp33
 70
     1
102
RTVSPost2010Prop34
280
     0
102
RTVSPost2010PropOp34
 70
     1
102
RTVSPost2010Prop35
280
     0
102
RTVSPost2010PropOp35
 70
     1
102
RTVSPost2010Prop36
280
     0
102
RTVSPost2010PropOp36
 70
     1
102
RTVSPost2010Prop37
 90
       50
102
RTVSPost2010PropOp37
 70
     1
102
RTVSPost2010Prop38
140
0.0
102
RTVSPost2010PropOp38
 70
     1
102
RTVSPost2010Prop39
140
1.0
102
RTVSPost2010PropOp39
 70
     1
102
RTVSPost2010Prop40
 90
        0
102
RTVSPost2010PropOp40
 70
     1
102
RTVSPost2010Prop41ColorIndex
 90
       18
102
RTVSPost2010Prop41ColorRGB
 90
-16777216
102
RTVSPost2010PropOp41
 70
     1
102
RTVSPost2010Prop42
 90
       50
102
RTVSPost2010PropOp42
 70
     1
102
RTVSPost2010Prop43
 90
        3
102
RTVSPost2010PropOp43
 70
     1
102
RTVSPost2010Prop44ColorIndex
 90
        5
102
RTVSPost2010Prop44ColorRGB
 90
      255
102
RTVSPost2010PropOp44
 70
     1
102
RTVSPost2010Prop45
280
     0
102
RTVSPost2010PropOp45
 70
     1
102
RTVSPost2010Prop46
 90
       50
102
RTVSPost2010PropOp46
 70
     1
102
RTVSPost2010Prop47
 90
       50
102
RTVSPost2010PropOp47
 70
     1
102
RTVSPost2010Prop48
 90
       50
102
RTVSPost2010PropOp48
 70
     1
102
RTVSPost2010Prop49
280
     0
102
RTVSPost2010PropOp49
 70
     1
102
RTVSPost2010Prop50
 90
       50
102
RTVSPost2010PropOp50
 70
     1
102
RTVSPost2010Prop51ColorIndex
 90
      256
102
RTVSPost2010Prop51ColorRGB
 90
-16777216
102
RTVSPost2010PropOp51
 70
     0
102
RTVSPost2010Prop52
140
1.0
102
RTVSPost2010PropOp52
 70
     0
102
RTVSPost2010Prop53
 90
        2
102
RTVSPost2010PropOp53
 70
     1
102
RTVSPost2010Prop54
  1
strokes_ogs.tif
102
RTVSPost2010PropOp54
 70
     1
102
RTVSPost2010Prop55
280
     0
102
RTVSPost2010PropOp55
 70
     1
102
RTVSPost2010Prop56
140
1.0
102
RTVSPost2010PropOp56
 70
     1
102
RTVSPost2010Prop57
140
1.0
102
RTVSPost2010PropOp57
 70
     1
  0
XRECORD
  5
56ED
102
{ACAD_REACTORS
330
56EC
102
}
330
56EC
100
AcDbXrecord
280
     1
102
RTVSPost2010Prop28
280
     0
102
RTVSPost2010PropOp28
 70
     1
102
RTVSPost2010Prop29
280
     1
102
RTVSPost2010PropOp29
 70
     1
102
RTVSPost2010Prop30
280
     1
102
RTVSPost2010PropOp30
 70
     1
102
RTVSPost2010Prop31
280
     0
102
RTVSPost2010PropOp31
 70
     1
102
RTVSPost2010Prop32
280
     0
102
RTVSPost2010PropOp32
 70
     1
102
RTVSPost2010Prop33
280
     0
102
RTVSPost2010PropOp33
 70
     1
102
RTVSPost2010Prop34
280
     0
102
RTVSPost2010PropOp34
 70
     1
102
RTVSPost2010Prop35
280
     0
102
RTVSPost2010PropOp35
 70
     1
102
RTVSPost2010Prop36
280
     0
102
RTVSPost2010PropOp36
 70
     1
102
RTVSPost2010Prop37
 90
       50
102
RTVSPost2010PropOp37
 70
     1
102
RTVSPost2010Prop38
140
0.0
102
RTVSPost2010PropOp38
 70
     1
102
RTVSPost2010Prop39
140
1.0
102
RTVSPost2010PropOp39
 70
     1
102
RTVSPost2010Prop40
 90
        0
102
RTVSPost2010PropOp40
 70
     1
102
RTVSPost2010Prop41ColorIndex
 90
       18
102
RTVSPost2010Prop41ColorRGB
 90
-16777216
102
RTVSPost2010PropOp41
 70
     1
102
RTVSPost2010Prop42
 90
       50
102
RTVSPost2010PropOp42
 70
     1
102
RTVSPost2010Prop43
 90
        3
102
RTVSPost2010PropOp43
 70
     1
102
RTVSPost2010Prop44ColorIndex
 90
        5
102
RTVSPost2010Prop44ColorRGB
 90
      255
102
RTVSPost2010PropOp44
 70
     1
102
RTVSPost2010Prop45
280
     0
102
RTVSPost2010PropOp45
 70
     1
102
RTVSPost2010Prop46
 90
       50
102
RTVSPost2010PropOp46
 70
     1
102
RTVSPost2010Prop47
 90
       50
102
RTVSPost2010PropOp47
 70
     1
102
RTVSPost2010Prop48
 90
       50
102
RTVSPost2010PropOp48
 70
     1
102
RTVSPost2010Prop49
280
     0
102
RTVSPost2010PropOp49
 70
     1
102
RTVSPost2010Prop50
 90
       50
102
RTVSPost2010PropOp50
 70
     1
102
RTVSPost2010Prop51ColorIndex
 90
      256
102
RTVSPost2010Prop51ColorRGB
 90
-16777216
102
RTVSPost2010PropOp51
 70
     0
102
RTVSPost2010Prop52
140
1.0
102
RTVSPost2010PropOp52
 70
     0
102
RTVSPost2010Prop53
 90
        2
102
RTVSPost2010PropOp53
 70
     1
102
RTVSPost2010Prop54
  1
strokes_ogs.tif
102
RTVSPost2010PropOp54
 70
     1
102
RTVSPost2010Prop55
280
     0
102
RTVSPost2010PropOp55
 70
     1
102
RTVSPost2010Prop56
140
1.0
102
RTVSPost2010PropOp56
 70
     1
102
RTVSPost2010Prop57
140
1.0
102
RTVSPost2010PropOp57
 70
     1
  0
XRECORD
  5
56FB
102
{ACAD_REACTORS
330
56FA
102
}
330
56FA
100
AcDbXrecord
280
     1
102
RTVSPost2010Prop28
280
     0
102
RTVSPost2010PropOp28
 70
     1
102
RTVSPost2010Prop29
280
     1
102
RTVSPost2010PropOp29
 70
     1
102
RTVSPost2010Prop30
280
     1
102
RTVSPost2010PropOp30
 70
     1
102
RTVSPost2010Prop31
280
     0
102
RTVSPost2010PropOp31
 70
     1
102
RTVSPost2010Prop32
280
     0
102
RTVSPost2010PropOp32
 70
     1
102
RTVSPost2010Prop33
280
     0
102
RTVSPost2010PropOp33
 70
     1
102
RTVSPost2010Prop34
280
     0
102
RTVSPost2010PropOp34
 70
     1
102
RTVSPost2010Prop35
280
     0
102
RTVSPost2010PropOp35
 70
     1
102
RTVSPost2010Prop36
280
     0
102
RTVSPost2010PropOp36
 70
     1
102
RTVSPost2010Prop37
 90
       50
102
RTVSPost2010PropOp37
 70
     1
102
RTVSPost2010Prop38
140
0.0
102
RTVSPost2010PropOp38
 70
     1
102
RTVSPost2010Prop39
140
1.0
102
RTVSPost2010PropOp39
 70
     1
102
RTVSPost2010Prop40
 90
        0
102
RTVSPost2010PropOp40
 70
     1
102
RTVSPost2010Prop41ColorIndex
 90
       18
102
RTVSPost2010Prop41ColorRGB
 90
-16777216
102
RTVSPost2010PropOp41
 70
     1
102
RTVSPost2010Prop42
 90
       50
102
RTVSPost2010PropOp42
 70
     1
102
RTVSPost2010Prop43
 90
        3
102
RTVSPost2010PropOp43
 70
     1
102
RTVSPost2010Prop44ColorIndex
 90
        5
102
RTVSPost2010Prop44ColorRGB
 90
      255
102
RTVSPost2010PropOp44
 70
     1
102
RTVSPost2010Prop45
280
     0
102
RTVSPost2010PropOp45
 70
     1
102
RTVSPost2010Prop46
 90
       50
102
RTVSPost2010PropOp46
 70
     1
102
RTVSPost2010Prop47
 90
       50
102
RTVSPost2010PropOp47
 70
     1
102
RTVSPost2010Prop48
 90
       50
102
RTVSPost2010PropOp48
 70
     1
102
RTVSPost2010Prop49
280
     0
102
RTVSPost2010PropOp49
 70
     1
102
RTVSPost2010Prop50
 90
       50
102
RTVSPost2010PropOp50
 70
     1
102
RTVSPost2010Prop51ColorIndex
 90
      256
102
RTVSPost2010Prop51ColorRGB
 90
-16777216
102
RTVSPost2010PropOp51
 70
     0
102
RTVSPost2010Prop52
140
1.0
102
RTVSPost2010PropOp52
 70
     0
102
RTVSPost2010Prop53
 90
        2
102
RTVSPost2010PropOp53
 70
     1
102
RTVSPost2010Prop54
  1
strokes_ogs.tif
102
RTVSPost2010PropOp54
 70
     1
102
RTVSPost2010Prop55
280
     0
102
RTVSPost2010PropOp55
 70
     1
102
RTVSPost2010Prop56
140
1.0
102
RTVSPost2010PropOp56
 70
     1
102
RTVSPost2010Prop57
140
1.0
102
RTVSPost2010PropOp57
 70
     1
  0
XRECORD
  5
5703
102
{ACAD_REACTORS
330
5702
102
}
330
5702
100
AcDbXrecord
280
     1
102
RTVSPost2010Prop28
280
     0
102
RTVSPost2010PropOp28
 70
     1
102
RTVSPost2010Prop29
280
     1
102
RTVSPost2010PropOp29
 70
     1
102
RTVSPost2010Prop30
280
     1
102
RTVSPost2010PropOp30
 70
     1
102
RTVSPost2010Prop31
280
     0
102
RTVSPost2010PropOp31
 70
     1
102
RTVSPost2010Prop32
280
     0
102
RTVSPost2010PropOp32
 70
     1
102
RTVSPost2010Prop33
280
     0
102
RTVSPost2010PropOp33
 70
     1
102
RTVSPost2010Prop34
280
     0
102
RTVSPost2010PropOp34
 70
     1
102
RTVSPost2010Prop35
280
     0
102
RTVSPost2010PropOp35
 70
     1
102
RTVSPost2010Prop36
280
     0
102
RTVSPost2010PropOp36
 70
     1
102
RTVSPost2010Prop37
 90
       50
102
RTVSPost2010PropOp37
 70
     1
102
RTVSPost2010Prop38
140
0.0
102
RTVSPost2010PropOp38
 70
     1
102
RTVSPost2010Prop39
140
1.0
102
RTVSPost2010PropOp39
 70
     1
102
RTVSPost2010Prop40
 90
        0
102
RTVSPost2010PropOp40
 70
     1
102
RTVSPost2010Prop41ColorIndex
 90
       18
102
RTVSPost2010Prop41ColorRGB
 90
-16777216
102
RTVSPost2010PropOp41
 70
     1
102
RTVSPost2010Prop42
 90
       50
102
RTVSPost2010PropOp42
 70
     1
102
RTVSPost2010Prop43
 90
        3
102
RTVSPost2010PropOp43
 70
     1
102
RTVSPost2010Prop44ColorIndex
 90
        5
102
RTVSPost2010Prop44ColorRGB
 90
      255
102
RTVSPost2010PropOp44
 70
     1
102
RTVSPost2010Prop45
280
     0
102
RTVSPost2010PropOp45
 70
     1
102
RTVSPost2010Prop46
 90
       50
102
RTVSPost2010PropOp46
 70
     1
102
RTVSPost2010Prop47
 90
       50
102
RTVSPost2010PropOp47
 70
     1
102
RTVSPost2010Prop48
 90
       50
102
RTVSPost2010PropOp48
 70
     1
102
RTVSPost2010Prop49
280
     0
102
RTVSPost2010PropOp49
 70
     1
102
RTVSPost2010Prop50
 90
       50
102
RTVSPost2010PropOp50
 70
     1
102
RTVSPost2010Prop51ColorIndex
 90
      256
102
RTVSPost2010Prop51ColorRGB
 90
-16777216
102
RTVSPost2010PropOp51
 70
     0
102
RTVSPost2010Prop52
140
1.0
102
RTVSPost2010PropOp52
 70
     0
102
RTVSPost2010Prop53
 90
        2
102
RTVSPost2010PropOp53
 70
     1
102
RTVSPost2010Prop54
  1
strokes_ogs.tif
102
RTVSPost2010PropOp54
 70
     1
102
RTVSPost2010Prop55
280
     0
102
RTVSPost2010PropOp55
 70
     1
102
RTVSPost2010Prop56
140
1.0
102
RTVSPost2010PropOp56
 70
     1
102
RTVSPost2010Prop57
140
1.0
102
RTVSPost2010PropOp57
 70
     1
  0
XRECORD
  5
56F5
102
{ACAD_REACTORS
330
56F4
102
}
330
56F4
100
AcDbXrecord
280
     1
102
RTVSPost2010Prop28
280
     0
102
RTVSPost2010PropOp28
 70
     1
102
RTVSPost2010Prop29
280
     1
102
RTVSPost2010PropOp29
 70
     1
102
RTVSPost2010Prop30
280
     1
102
RTVSPost2010PropOp30
 70
     1
102
RTVSPost2010Prop31
280
     0
102
RTVSPost2010PropOp31
 70
     1
102
RTVSPost2010Prop32
280
     0
102
RTVSPost2010PropOp32
 70
     1
102
RTVSPost2010Prop33
280
     0
102
RTVSPost2010PropOp33
 70
     1
102
RTVSPost2010Prop34
280
     0
102
RTVSPost2010PropOp34
 70
     1
102
RTVSPost2010Prop35
280
     0
102
RTVSPost2010PropOp35
 70
     1
102
RTVSPost2010Prop36
280
     0
102
RTVSPost2010PropOp36
 70
     1
102
RTVSPost2010Prop37
 90
       50
102
RTVSPost2010PropOp37
 70
     1
102
RTVSPost2010Prop38
140
0.0
102
RTVSPost2010PropOp38
 70
     1
102
RTVSPost2010Prop39
140
1.0
102
RTVSPost2010PropOp39
 70
     1
102
RTVSPost2010Prop40
 90
        0
102
RTVSPost2010PropOp40
 70
     1
102
RTVSPost2010Prop41ColorIndex
 90
       18
102
RTVSPost2010Prop41ColorRGB
 90
-16777216
102
RTVSPost2010PropOp41
 70
     1
102
RTVSPost2010Prop42
 90
       50
102
RTVSPost2010PropOp42
 70
     1
102
RTVSPost2010Prop43
 90
        3
102
RTVSPost2010PropOp43
 70
     1
102
RTVSPost2010Prop44ColorIndex
 90
        5
102
RTVSPost2010Prop44ColorRGB
 90
      255
102
RTVSPost2010PropOp44
 70
     1
102
RTVSPost2010Prop45
280
     0
102
RTVSPost2010PropOp45
 70
     1
102
RTVSPost2010Prop46
 90
       50
102
RTVSPost2010PropOp46
 70
     1
102
RTVSPost2010Prop47
 90
       50
102
RTVSPost2010PropOp47
 70
     1
102
RTVSPost2010Prop48
 90
       50
102
RTVSPost2010PropOp48
 70
     1
102
RTVSPost2010Prop49
280
     0
102
RTVSPost2010PropOp49
 70
     1
102
RTVSPost2010Prop50
 90
       50
102
RTVSPost2010PropOp50
 70
     1
102
RTVSPost2010Prop51ColorIndex
 90
      256
102
RTVSPost2010Prop51ColorRGB
 90
-16777216
102
RTVSPost2010PropOp51
 70
     0
102
RTVSPost2010Prop52
140
1.0
102
RTVSPost2010PropOp52
 70
     0
102
RTVSPost2010Prop53
 90
        2
102
RTVSPost2010PropOp53
 70
     1
102
RTVSPost2010Prop54
  1
strokes_ogs.tif
102
RTVSPost2010PropOp54
 70
     1
102
RTVSPost2010Prop55
280
     0
102
RTVSPost2010PropOp55
 70
     1
102
RTVSPost2010Prop56
140
1.0
102
RTVSPost2010PropOp56
 70
     1
102
RTVSPost2010Prop57
140
1.0
102
RTVSPost2010PropOp57
 70
     1
  0
XRECORD
  5
56F9
102
{ACAD_REACTORS
330
56F8
102
}
330
56F8
100
AcDbXrecord
280
     1
102
RTVSPost2010Prop28
280
     0
102
RTVSPost2010PropOp28
 70
     1
102
RTVSPost2010Prop29
280
     1
102
RTVSPost2010PropOp29
 70
     1
102
RTVSPost2010Prop30
280
     1
102
RTVSPost2010PropOp30
 70
     1
102
RTVSPost2010Prop31
280
     0
102
RTVSPost2010PropOp31
 70
     1
102
RTVSPost2010Prop32
280
     0
102
RTVSPost2010PropOp32
 70
     1
102
RTVSPost2010Prop33
280
     0
102
RTVSPost2010PropOp33
 70
     1
102
RTVSPost2010Prop34
280
     0
102
RTVSPost2010PropOp34
 70
     1
102
RTVSPost2010Prop35
280
     0
102
RTVSPost2010PropOp35
 70
     1
102
RTVSPost2010Prop36
280
     0
102
RTVSPost2010PropOp36
 70
     1
102
RTVSPost2010Prop37
 90
       50
102
RTVSPost2010PropOp37
 70
     1
102
RTVSPost2010Prop38
140
0.0
102
RTVSPost2010PropOp38
 70
     1
102
RTVSPost2010Prop39
140
1.0
102
RTVSPost2010PropOp39
 70
     1
102
RTVSPost2010Prop40
 90
        0
102
RTVSPost2010PropOp40
 70
     1
102
RTVSPost2010Prop41ColorIndex
 90
       18
102
RTVSPost2010Prop41ColorRGB
 90
-16777216
102
RTVSPost2010PropOp41
 70
     1
102
RTVSPost2010Prop42
 90
       50
102
RTVSPost2010PropOp42
 70
     1
102
RTVSPost2010Prop43
 90
        3
102
RTVSPost2010PropOp43
 70
     1
102
RTVSPost2010Prop44ColorIndex
 90
        5
102
RTVSPost2010Prop44ColorRGB
 90
      255
102
RTVSPost2010PropOp44
 70
     1
102
RTVSPost2010Prop45
280
     0
102
RTVSPost2010PropOp45
 70
     1
102
RTVSPost2010Prop46
 90
       50
102
RTVSPost2010PropOp46
 70
     1
102
RTVSPost2010Prop47
 90
       50
102
RTVSPost2010PropOp47
 70
     1
102
RTVSPost2010Prop48
 90
       50
102
RTVSPost2010PropOp48
 70
     1
102
RTVSPost2010Prop49
280
     0
102
RTVSPost2010PropOp49
 70
     1
102
RTVSPost2010Prop50
 90
       50
102
RTVSPost2010PropOp50
 70
     1
102
RTVSPost2010Prop51ColorIndex
 90
      256
102
RTVSPost2010Prop51ColorRGB
 90
-16777216
102
RTVSPost2010PropOp51
 70
     0
102
RTVSPost2010Prop52
140
1.0
102
RTVSPost2010PropOp52
 70
     0
102
RTVSPost2010Prop53
 90
        2
102
RTVSPost2010PropOp53
 70
     1
102
RTVSPost2010Prop54
  1
strokes_ogs.tif
102
RTVSPost2010PropOp54
 70
     1
102
RTVSPost2010Prop55
280
     0
102
RTVSPost2010PropOp55
 70
     1
102
RTVSPost2010Prop56
140
1.0
102
RTVSPost2010PropOp56
 70
     1
102
RTVSPost2010Prop57
140
1.0
102
RTVSPost2010PropOp57
 70
     1
  0
XRECORD
  5
5717
102
{ACAD_REACTORS
330
5716
102
}
330
5716
100
AcDbXrecord
280
     1
102
RTVSPost2010Prop28
280
     0
102
RTVSPost2010PropOp28
 70
     0
102
RTVSPost2010Prop29
280
     1
102
RTVSPost2010PropOp29
 70
     0
102
RTVSPost2010Prop30
280
     1
102
RTVSPost2010PropOp30
 70
     0
102
RTVSPost2010Prop31
280
     0
102
RTVSPost2010PropOp31
 70
     0
102
RTVSPost2010Prop32
280
     0
102
RTVSPost2010PropOp32
 70
     0
102
RTVSPost2010Prop33
280
     0
102
RTVSPost2010PropOp33
 70
     0
102
RTVSPost2010Prop34
280
     0
102
RTVSPost2010PropOp34
 70
     0
102
RTVSPost2010Prop35
280
     0
102
RTVSPost2010PropOp35
 70
     0
102
RTVSPost2010Prop36
280
     0
102
RTVSPost2010PropOp36
 70
     0
102
RTVSPost2010Prop37
 90
       50
102
RTVSPost2010PropOp37
 70
     0
102
RTVSPost2010Prop38
140
0.0
102
RTVSPost2010PropOp38
 70
     0
102
RTVSPost2010Prop39
140
1.0
102
RTVSPost2010PropOp39
 70
     0
102
RTVSPost2010Prop40
 90
        0
102
RTVSPost2010PropOp40
 70
     0
102
RTVSPost2010Prop41ColorIndex
 90
       18
102
RTVSPost2010Prop41ColorRGB
 90
-16777216
102
RTVSPost2010PropOp41
 70
     0
102
RTVSPost2010Prop42
 90
       50
102
RTVSPost2010PropOp42
 70
     0
102
RTVSPost2010Prop43
 90
        3
102
RTVSPost2010PropOp43
 70
     0
102
RTVSPost2010Prop44ColorIndex
 90
        5
102
RTVSPost2010Prop44ColorRGB
 90
      255
102
RTVSPost2010PropOp44
 70
     0
102
RTVSPost2010Prop45
280
     0
102
RTVSPost2010PropOp45
 70
     0
102
RTVSPost2010Prop46
 90
       50
102
RTVSPost2010PropOp46
 70
     0
102
RTVSPost2010Prop47
 90
       50
102
RTVSPost2010PropOp47
 70
     0
102
RTVSPost2010Prop48
 90
       50
102
RTVSPost2010PropOp48
 70
     0
102
RTVSPost2010Prop49
280
     0
102
RTVSPost2010PropOp49
 70
     0
102
RTVSPost2010Prop50
 90
       50
102
RTVSPost2010PropOp50
 70
     0
102
RTVSPost2010Prop51ColorIndex
 90
      256
102
RTVSPost2010Prop51ColorRGB
 90
-16777216
102
RTVSPost2010PropOp51
 70
     0
102
RTVSPost2010Prop52
140
1.0
102
RTVSPost2010PropOp52
 70
     0
102
RTVSPost2010Prop53
 90
        2
102
RTVSPost2010PropOp53
 70
     0
102
RTVSPost2010Prop54
  1
strokes_ogs.tif
102
RTVSPost2010PropOp54
 70
     0
102
RTVSPost2010Prop55
280
     0
102
RTVSPost2010PropOp55
 70
     0
102
RTVSPost2010Prop56
140
1.0
102
RTVSPost2010PropOp56
 70
     0
102
RTVSPost2010Prop57
140
1.0
102
RTVSPost2010PropOp57
 70
     0
  0
XRECORD
  5
5701
102
{ACAD_REACTORS
330
5700
102
}
330
5700
100
AcDbXrecord
280
     1
102
RTVSPost2010Prop28
280
     0
102
RTVSPost2010PropOp28
 70
     1
102
RTVSPost2010Prop29
280
     1
102
RTVSPost2010PropOp29
 70
     1
102
RTVSPost2010Prop30
280
     1
102
RTVSPost2010PropOp30
 70
     1
102
RTVSPost2010Prop31
280
     0
102
RTVSPost2010PropOp31
 70
     1
102
RTVSPost2010Prop32
280
     0
102
RTVSPost2010PropOp32
 70
     1
102
RTVSPost2010Prop33
280
     0
102
RTVSPost2010PropOp33
 70
     1
102
RTVSPost2010Prop34
280
     0
102
RTVSPost2010PropOp34
 70
     1
102
RTVSPost2010Prop35
280
     0
102
RTVSPost2010PropOp35
 70
     1
102
RTVSPost2010Prop36
280
     0
102
RTVSPost2010PropOp36
 70
     1
102
RTVSPost2010Prop37
 90
       50
102
RTVSPost2010PropOp37
 70
     1
102
RTVSPost2010Prop38
140
0.0
102
RTVSPost2010PropOp38
 70
     1
102
RTVSPost2010Prop39
140
1.0
102
RTVSPost2010PropOp39
 70
     1
102
RTVSPost2010Prop40
 90
        0
102
RTVSPost2010PropOp40
 70
     1
102
RTVSPost2010Prop41ColorIndex
 90
       18
102
RTVSPost2010Prop41ColorRGB
 90
-16777216
102
RTVSPost2010PropOp41
 70
     1
102
RTVSPost2010Prop42
 90
       50
102
RTVSPost2010PropOp42
 70
     1
102
RTVSPost2010Prop43
 90
        3
102
RTVSPost2010PropOp43
 70
     1
102
RTVSPost2010Prop44ColorIndex
 90
        5
102
RTVSPost2010Prop44ColorRGB
 90
      255
102
RTVSPost2010PropOp44
 70
     1
102
RTVSPost2010Prop45
280
     0
102
RTVSPost2010PropOp45
 70
     1
102
RTVSPost2010Prop46
 90
       50
102
RTVSPost2010PropOp46
 70
     1
102
RTVSPost2010Prop47
 90
       50
102
RTVSPost2010PropOp47
 70
     1
102
RTVSPost2010Prop48
 90
       50
102
RTVSPost2010PropOp48
 70
     1
102
RTVSPost2010Prop49
280
     0
102
RTVSPost2010PropOp49
 70
     1
102
RTVSPost2010Prop50
 90
       50
102
RTVSPost2010PropOp50
 70
     1
102
RTVSPost2010Prop51ColorIndex
 90
      256
102
RTVSPost2010Prop51ColorRGB
 90
-16777216
102
RTVSPost2010PropOp51
 70
     0
102
RTVSPost2010Prop52
140
1.0
102
RTVSPost2010PropOp52
 70
     0
102
RTVSPost2010Prop53
 90
        2
102
RTVSPost2010PropOp53
 70
     1
102
RTVSPost2010Prop54
  1
strokes_ogs.tif
102
RTVSPost2010PropOp54
 70
     1
102
RTVSPost2010Prop55
280
     0
102
RTVSPost2010PropOp55
 70
     1
102
RTVSPost2010Prop56
140
1.0
102
RTVSPost2010PropOp56
 70
     1
102
RTVSPost2010Prop57
140
1.0
102
RTVSPost2010PropOp57
 70
     1
  0
XRECORD
  5
56E5
102
{ACAD_REACTORS
330
56E4
102
}
330
56E4
100
AcDbXrecord
280
     1
102
RTVSPost2010Prop28
280
     0
102
RTVSPost2010PropOp28
 70
     1
102
RTVSPost2010Prop29
280
     1
102
RTVSPost2010PropOp29
 70
     1
102
RTVSPost2010Prop30
280
     1
102
RTVSPost2010PropOp30
 70
     1
102
RTVSPost2010Prop31
280
     0
102
RTVSPost2010PropOp31
 70
     1
102
RTVSPost2010Prop32
280
     0
102
RTVSPost2010PropOp32
 70
     1
102
RTVSPost2010Prop33
280
     0
102
RTVSPost2010PropOp33
 70
     1
102
RTVSPost2010Prop34
280
     0
102
RTVSPost2010PropOp34
 70
     1
102
RTVSPost2010Prop35
280
     0
102
RTVSPost2010PropOp35
 70
     1
102
RTVSPost2010Prop36
280
     0
102
RTVSPost2010PropOp36
 70
     1
102
RTVSPost2010Prop37
 90
       50
102
RTVSPost2010PropOp37
 70
     1
102
RTVSPost2010Prop38
140
0.0
102
RTVSPost2010PropOp38
 70
     1
102
RTVSPost2010Prop39
140
1.0
102
RTVSPost2010PropOp39
 70
     1
102
RTVSPost2010Prop40
 90
        0
102
RTVSPost2010PropOp40
 70
     1
102
RTVSPost2010Prop41ColorIndex
 90
       18
102
RTVSPost2010Prop41ColorRGB
 90
-16777216
102
RTVSPost2010PropOp41
 70
     1
102
RTVSPost2010Prop42
 90
       50
102
RTVSPost2010PropOp42
 70
     1
102
RTVSPost2010Prop43
 90
        3
102
RTVSPost2010PropOp43
 70
     1
102
RTVSPost2010Prop44ColorIndex
 90
        5
102
RTVSPost2010Prop44ColorRGB
 90
      255
102
RTVSPost2010PropOp44
 70
     1
102
RTVSPost2010Prop45
280
     0
102
RTVSPost2010PropOp45
 70
     1
102
RTVSPost2010Prop46
 90
       50
102
RTVSPost2010PropOp46
 70
     1
102
RTVSPost2010Prop47
 90
       50
102
RTVSPost2010PropOp47
 70
     1
102
RTVSPost2010Prop48
 90
       50
102
RTVSPost2010PropOp48
 70
     1
102
RTVSPost2010Prop49
280
     0
102
RTVSPost2010PropOp49
 70
     1
102
RTVSPost2010Prop50
 90
       50
102
RTVSPost2010PropOp50
 70
     1
102
RTVSPost2010Prop51ColorIndex
 90
      256
102
RTVSPost2010Prop51ColorRGB
 90
-16777216
102
RTVSPost2010PropOp51
 70
     0
102
RTVSPost2010Prop52
140
1.0
102
RTVSPost2010PropOp52
 70
     0
102
RTVSPost2010Prop53
 90
        2
102
RTVSPost2010PropOp53
 70
     1
102
RTVSPost2010Prop54
  1
strokes_ogs.tif
102
RTVSPost2010PropOp54
 70
     1
102
RTVSPost2010Prop55
280
     0
102
RTVSPost2010PropOp55
 70
     1
102
RTVSPost2010Prop56
140
1.0
102
RTVSPost2010PropOp56
 70
     1
102
RTVSPost2010Prop57
140
1.0
102
RTVSPost2010PropOp57
 70
     1
  0
XRECORD
  5
56E7
102
{ACAD_REACTORS
330
56E6
102
}
330
56E6
100
AcDbXrecord
280
     1
102
RTVSPost2010Prop28
280
     0
102
RTVSPost2010PropOp28
 70
     1
102
RTVSPost2010Prop29
280
     1
102
RTVSPost2010PropOp29
 70
     1
102
RTVSPost2010Prop30
280
     1
102
RTVSPost2010PropOp30
 70
     1
102
RTVSPost2010Prop31
280
     0
102
RTVSPost2010PropOp31
 70
     1
102
RTVSPost2010Prop32
280
     0
102
RTVSPost2010PropOp32
 70
     1
102
RTVSPost2010Prop33
280
     0
102
RTVSPost2010PropOp33
 70
     1
102
RTVSPost2010Prop34
280
     0
102
RTVSPost2010PropOp34
 70
     1
102
RTVSPost2010Prop35
280
     0
102
RTVSPost2010PropOp35
 70
     1
102
RTVSPost2010Prop36
280
     0
102
RTVSPost2010PropOp36
 70
     1
102
RTVSPost2010Prop37
 90
       50
102
RTVSPost2010PropOp37
 70
     1
102
RTVSPost2010Prop38
140
0.0
102
RTVSPost2010PropOp38
 70
     1
102
RTVSPost2010Prop39
140
1.0
102
RTVSPost2010PropOp39
 70
     1
102
RTVSPost2010Prop40
 90
        0
102
RTVSPost2010PropOp40
 70
     1
102
RTVSPost2010Prop41ColorIndex
 90
       18
102
RTVSPost2010Prop41ColorRGB
 90
-16777216
102
RTVSPost2010PropOp41
 70
     1
102
RTVSPost2010Prop42
 90
       50
102
RTVSPost2010PropOp42
 70
     1
102
RTVSPost2010Prop43
 90
        3
102
RTVSPost2010PropOp43
 70
     1
102
RTVSPost2010Prop44ColorIndex
 90
        5
102
RTVSPost2010Prop44ColorRGB
 90
      255
102
RTVSPost2010PropOp44
 70
     1
102
RTVSPost2010Prop45
280
     0
102
RTVSPost2010PropOp45
 70
     1
102
RTVSPost2010Prop46
 90
       50
102
RTVSPost2010PropOp46
 70
     1
102
RTVSPost2010Prop47
 90
       50
102
RTVSPost2010PropOp47
 70
     1
102
RTVSPost2010Prop48
 90
       50
102
RTVSPost2010PropOp48
 70
     1
102
RTVSPost2010Prop49
280
     0
102
RTVSPost2010PropOp49
 70
     1
102
RTVSPost2010Prop50
 90
       50
102
RTVSPost2010PropOp50
 70
     1
102
RTVSPost2010Prop51ColorIndex
 90
      256
102
RTVSPost2010Prop51ColorRGB
 90
-16777216
102
RTVSPost2010PropOp51
 70
     0
102
RTVSPost2010Prop52
140
1.0
102
RTVSPost2010PropOp52
 70
     0
102
RTVSPost2010Prop53
 90
        2
102
RTVSPost2010PropOp53
 70
     1
102
RTVSPost2010Prop54
  1
strokes_ogs.tif
102
RTVSPost2010PropOp54
 70
     1
102
RTVSPost2010Prop55
280
     0
102
RTVSPost2010PropOp55
 70
     1
102
RTVSPost2010Prop56
140
1.0
102
RTVSPost2010PropOp56
 70
     1
102
RTVSPost2010Prop57
140
1.0
102
RTVSPost2010PropOp57
 70
     1
  0
XRECORD
  5
56E9
102
{ACAD_REACTORS
330
56E8
102
}
330
56E8
100
AcDbXrecord
280
     1
102
RTVSPost2010Prop28
280
     0
102
RTVSPost2010PropOp28
 70
     1
102
RTVSPost2010Prop29
280
     1
102
RTVSPost2010PropOp29
 70
     1
102
RTVSPost2010Prop30
280
     1
102
RTVSPost2010PropOp30
 70
     1
102
RTVSPost2010Prop31
280
     0
102
RTVSPost2010PropOp31
 70
     1
102
RTVSPost2010Prop32
280
     0
102
RTVSPost2010PropOp32
 70
     1
102
RTVSPost2010Prop33
280
     0
102
RTVSPost2010PropOp33
 70
     1
102
RTVSPost2010Prop34
280
     0
102
RTVSPost2010PropOp34
 70
     1
102
RTVSPost2010Prop35
280
     0
102
RTVSPost2010PropOp35
 70
     1
102
RTVSPost2010Prop36
280
     0
102
RTVSPost2010PropOp36
 70
     1
102
RTVSPost2010Prop37
 90
       50
102
RTVSPost2010PropOp37
 70
     1
102
RTVSPost2010Prop38
140
0.0
102
RTVSPost2010PropOp38
 70
     1
102
RTVSPost2010Prop39
140
1.0
102
RTVSPost2010PropOp39
 70
     1
102
RTVSPost2010Prop40
 90
        0
102
RTVSPost2010PropOp40
 70
     1
102
RTVSPost2010Prop41ColorIndex
 90
       18
102
RTVSPost2010Prop41ColorRGB
 90
-16777216
102
RTVSPost2010PropOp41
 70
     1
102
RTVSPost2010Prop42
 90
       50
102
RTVSPost2010PropOp42
 70
     1
102
RTVSPost2010Prop43
 90
        3
102
RTVSPost2010PropOp43
 70
     1
102
RTVSPost2010Prop44ColorIndex
 90
        5
102
RTVSPost2010Prop44ColorRGB
 90
      255
102
RTVSPost2010PropOp44
 70
     1
102
RTVSPost2010Prop45
280
     0
102
RTVSPost2010PropOp45
 70
     1
102
RTVSPost2010Prop46
 90
       50
102
RTVSPost2010PropOp46
 70
     1
102
RTVSPost2010Prop47
 90
       50
102
RTVSPost2010PropOp47
 70
     1
102
RTVSPost2010Prop48
 90
       50
102
RTVSPost2010PropOp48
 70
     1
102
RTVSPost2010Prop49
280
     0
102
RTVSPost2010PropOp49
 70
     1
102
RTVSPost2010Prop50
 90
       50
102
RTVSPost2010PropOp50
 70
     1
102
RTVSPost2010Prop51ColorIndex
 90
      256
102
RTVSPost2010Prop51ColorRGB
 90
-16777216
102
RTVSPost2010PropOp51
 70
     0
102
RTVSPost2010Prop52
140
1.0
102
RTVSPost2010PropOp52
 70
     0
102
RTVSPost2010Prop53
 90
        2
102
RTVSPost2010PropOp53
 70
     1
102
RTVSPost2010Prop54
  1
strokes_ogs.tif
102
RTVSPost2010PropOp54
 70
     1
102
RTVSPost2010Prop55
280
     0
102
RTVSPost2010PropOp55
 70
     1
102
RTVSPost2010Prop56
140
1.0
102
RTVSPost2010PropOp56
 70
     1
102
RTVSPost2010Prop57
140
1.0
102
RTVSPost2010PropOp57
 70
     1
  0
XRECORD
  5
56EB
102
{ACAD_REACTORS
330
56EA
102
}
330
56EA
100
AcDbXrecord
280
     1
102
RTVSPost2010Prop28
280
     0
102
RTVSPost2010PropOp28
 70
     1
102
RTVSPost2010Prop29
280
     1
102
RTVSPost2010PropOp29
 70
     1
102
RTVSPost2010Prop30
280
     1
102
RTVSPost2010PropOp30
 70
     1
102
RTVSPost2010Prop31
280
     0
102
RTVSPost2010PropOp31
 70
     1
102
RTVSPost2010Prop32
280
     0
102
RTVSPost2010PropOp32
 70
     1
102
RTVSPost2010Prop33
280
     0
102
RTVSPost2010PropOp33
 70
     1
102
RTVSPost2010Prop34
280
     0
102
RTVSPost2010PropOp34
 70
     1
102
RTVSPost2010Prop35
280
     0
102
RTVSPost2010PropOp35
 70
     1
102
RTVSPost2010Prop36
280
     0
102
RTVSPost2010PropOp36
 70
     1
102
RTVSPost2010Prop37
 90
       50
102
RTVSPost2010PropOp37
 70
     1
102
RTVSPost2010Prop38
140
0.0
102
RTVSPost2010PropOp38
 70
     1
102
RTVSPost2010Prop39
140
1.0
102
RTVSPost2010PropOp39
 70
     1
102
RTVSPost2010Prop40
 90
        0
102
RTVSPost2010PropOp40
 70
     1
102
RTVSPost2010Prop41ColorIndex
 90
       18
102
RTVSPost2010Prop41ColorRGB
 90
-16777216
102
RTVSPost2010PropOp41
 70
     1
102
RTVSPost2010Prop42
 90
       50
102
RTVSPost2010PropOp42
 70
     1
102
RTVSPost2010Prop43
 90
        3
102
RTVSPost2010PropOp43
 70
     1
102
RTVSPost2010Prop44ColorIndex
 90
        5
102
RTVSPost2010Prop44ColorRGB
 90
      255
102
RTVSPost2010PropOp44
 70
     1
102
RTVSPost2010Prop45
280
     0
102
RTVSPost2010PropOp45
 70
     1
102
RTVSPost2010Prop46
 90
       50
102
RTVSPost2010PropOp46
 70
     1
102
RTVSPost2010Prop47
 90
       50
102
RTVSPost2010PropOp47
 70
     1
102
RTVSPost2010Prop48
 90
       50
102
RTVSPost2010PropOp48
 70
     1
102
RTVSPost2010Prop49
280
     0
102
RTVSPost2010PropOp49
 70
     1
102
RTVSPost2010Prop50
 90
       50
102
RTVSPost2010PropOp50
 70
     1
102
RTVSPost2010Prop51ColorIndex
 90
      256
102
RTVSPost2010Prop51ColorRGB
 90
-16777216
102
RTVSPost2010PropOp51
 70
     0
102
RTVSPost2010Prop52
140
1.0
102
RTVSPost2010PropOp52
 70
     0
102
RTVSPost2010Prop53
 90
        2
102
RTVSPost2010PropOp53
 70
     1
102
RTVSPost2010Prop54
  1
strokes_ogs.tif
102
RTVSPost2010PropOp54
 70
     1
102
RTVSPost2010Prop55
280
     0
102
RTVSPost2010PropOp55
 70
     1
102
RTVSPost2010Prop56
140
1.0
102
RTVSPost2010PropOp56
 70
     1
102
RTVSPost2010Prop57
140
1.0
102
RTVSPost2010PropOp57
 70
     1
  0
XRECORD
  5
5707
102
{ACAD_REACTORS
330
5706
102
}
330
5706
100
AcDbXrecord
280
     1
102
RTVSPost2010Prop28
280
     0
102
RTVSPost2010PropOp28
 70
     1
102
RTVSPost2010Prop29
280
     1
102
RTVSPost2010PropOp29
 70
     1
102
RTVSPost2010Prop30
280
     1
102
RTVSPost2010PropOp30
 70
     1
102
RTVSPost2010Prop31
280
     0
102
RTVSPost2010PropOp31
 70
     1
102
RTVSPost2010Prop32
280
     0
102
RTVSPost2010PropOp32
 70
     1
102
RTVSPost2010Prop33
280
     0
102
RTVSPost2010PropOp33
 70
     1
102
RTVSPost2010Prop34
280
     0
102
RTVSPost2010PropOp34
 70
     1
102
RTVSPost2010Prop35
280
     0
102
RTVSPost2010PropOp35
 70
     1
102
RTVSPost2010Prop36
280
     0
102
RTVSPost2010PropOp36
 70
     1
102
RTVSPost2010Prop37
 90
       50
102
RTVSPost2010PropOp37
 70
     1
102
RTVSPost2010Prop38
140
0.0
102
RTVSPost2010PropOp38
 70
     1
102
RTVSPost2010Prop39
140
1.0
102
RTVSPost2010PropOp39
 70
     1
102
RTVSPost2010Prop40
 90
        0
102
RTVSPost2010PropOp40
 70
     1
102
RTVSPost2010Prop41ColorIndex
 90
       18
102
RTVSPost2010Prop41ColorRGB
 90
-16777216
102
RTVSPost2010PropOp41
 70
     1
102
RTVSPost2010Prop42
 90
       50
102
RTVSPost2010PropOp42
 70
     1
102
RTVSPost2010Prop43
 90
        3
102
RTVSPost2010PropOp43
 70
     1
102
RTVSPost2010Prop44ColorIndex
 90
        5
102
RTVSPost2010Prop44ColorRGB
 90
      255
102
RTVSPost2010PropOp44
 70
     1
102
RTVSPost2010Prop45
280
     0
102
RTVSPost2010PropOp45
 70
     1
102
RTVSPost2010Prop46
 90
       50
102
RTVSPost2010PropOp46
 70
     1
102
RTVSPost2010Prop47
 90
       50
102
RTVSPost2010PropOp47
 70
     1
102
RTVSPost2010Prop48
 90
       50
102
RTVSPost2010PropOp48
 70
     1
102
RTVSPost2010Prop49
280
     0
102
RTVSPost2010PropOp49
 70
     1
102
RTVSPost2010Prop50
 90
       50
102
RTVSPost2010PropOp50
 70
     1
102
RTVSPost2010Prop51ColorIndex
 90
      256
102
RTVSPost2010Prop51ColorRGB
 90
-16777216
102
RTVSPost2010PropOp51
 70
     0
102
RTVSPost2010Prop52
140
1.0
102
RTVSPost2010PropOp52
 70
     0
102
RTVSPost2010Prop53
 90
        2
102
RTVSPost2010PropOp53
 70
     1
102
RTVSPost2010Prop54
  1
strokes_ogs.tif
102
RTVSPost2010PropOp54
 70
     1
102
RTVSPost2010Prop55
280
     0
102
RTVSPost2010PropOp55
 70
     1
102
RTVSPost2010Prop56
140
1.0
102
RTVSPost2010PropOp56
 70
     1
102
RTVSPost2010Prop57
140
1.0
102
RTVSPost2010PropOp57
 70
     1
  0
XRECORD
  5
5713
102
{ACAD_REACTORS
330
5712
102
}
330
5712
100
AcDbXrecord
280
     1
102
RTVSPost2010Prop28
280
     0
102
RTVSPost2010PropOp28
 70
     0
102
RTVSPost2010Prop29
280
     1
102
RTVSPost2010PropOp29
 70
     0
102
RTVSPost2010Prop30
280
     1
102
RTVSPost2010PropOp30
 70
     0
102
RTVSPost2010Prop31
280
     0
102
RTVSPost2010PropOp31
 70
     0
102
RTVSPost2010Prop32
280
     0
102
RTVSPost2010PropOp32
 70
     0
102
RTVSPost2010Prop33
280
     0
102
RTVSPost2010PropOp33
 70
     0
102
RTVSPost2010Prop34
280
     0
102
RTVSPost2010PropOp34
 70
     0
102
RTVSPost2010Prop35
280
     0
102
RTVSPost2010PropOp35
 70
     0
102
RTVSPost2010Prop36
280
     0
102
RTVSPost2010PropOp36
 70
     0
102
RTVSPost2010Prop37
 90
       50
102
RTVSPost2010PropOp37
 70
     0
102
RTVSPost2010Prop38
140
0.0
102
RTVSPost2010PropOp38
 70
     0
102
RTVSPost2010Prop39
140
1.0
102
RTVSPost2010PropOp39
 70
     0
102
RTVSPost2010Prop40
 90
        0
102
RTVSPost2010PropOp40
 70
     0
102
RTVSPost2010Prop41ColorIndex
 90
       18
102
RTVSPost2010Prop41ColorRGB
 90
-16777216
102
RTVSPost2010PropOp41
 70
     0
102
RTVSPost2010Prop42
 90
       50
102
RTVSPost2010PropOp42
 70
     0
102
RTVSPost2010Prop43
 90
        3
102
RTVSPost2010PropOp43
 70
     0
102
RTVSPost2010Prop44ColorIndex
 90
        5
102
RTVSPost2010Prop44ColorRGB
 90
      255
102
RTVSPost2010PropOp44
 70
     0
102
RTVSPost2010Prop45
280
     0
102
RTVSPost2010PropOp45
 70
     0
102
RTVSPost2010Prop46
 90
       50
102
RTVSPost2010PropOp46
 70
     0
102
RTVSPost2010Prop47
 90
       50
102
RTVSPost2010PropOp47
 70
     0
102
RTVSPost2010Prop48
 90
       50
102
RTVSPost2010PropOp48
 70
     0
102
RTVSPost2010Prop49
280
     0
102
RTVSPost2010PropOp49
 70
     0
102
RTVSPost2010Prop50
 90
       50
102
RTVSPost2010PropOp50
 70
     0
102
RTVSPost2010Prop51ColorIndex
 90
      256
102
RTVSPost2010Prop51ColorRGB
 90
-16777216
102
RTVSPost2010PropOp51
 70
     0
102
RTVSPost2010Prop52
140
1.0
102
RTVSPost2010PropOp52
 70
     0
102
RTVSPost2010Prop53
 90
        2
102
RTVSPost2010PropOp53
 70
     0
102
RTVSPost2010Prop54
  1
strokes_ogs.tif
102
RTVSPost2010PropOp54
 70
     0
102
RTVSPost2010Prop55
280
     0
102
RTVSPost2010PropOp55
 70
     0
102
RTVSPost2010Prop56
140
1.0
102
RTVSPost2010PropOp56
 70
     0
102
RTVSPost2010Prop57
140
1.0
102
RTVSPost2010PropOp57
 70
     0
  0
XRECORD
  5
56FF
102
{ACAD_REACTORS
330
56FE
102
}
330
56FE
100
AcDbXrecord
280
     1
102
RTVSPost2010Prop28
280
     0
102
RTVSPost2010PropOp28
 70
     1
102
RTVSPost2010Prop29
280
     1
102
RTVSPost2010PropOp29
 70
     1
102
RTVSPost2010Prop30
280
     1
102
RTVSPost2010PropOp30
 70
     1
102
RTVSPost2010Prop31
280
     0
102
RTVSPost2010PropOp31
 70
     1
102
RTVSPost2010Prop32
280
     0
102
RTVSPost2010PropOp32
 70
     1
102
RTVSPost2010Prop33
280
     0
102
RTVSPost2010PropOp33
 70
     1
102
RTVSPost2010Prop34
280
     0
102
RTVSPost2010PropOp34
 70
     1
102
RTVSPost2010Prop35
280
     0
102
RTVSPost2010PropOp35
 70
     1
102
RTVSPost2010Prop36
280
     0
102
RTVSPost2010PropOp36
 70
     1
102
RTVSPost2010Prop37
 90
       50
102
RTVSPost2010PropOp37
 70
     1
102
RTVSPost2010Prop38
140
0.0
102
RTVSPost2010PropOp38
 70
     1
102
RTVSPost2010Prop39
140
1.0
102
RTVSPost2010PropOp39
 70
     1
102
RTVSPost2010Prop40
 90
        0
102
RTVSPost2010PropOp40
 70
     1
102
RTVSPost2010Prop41ColorIndex
 90
       18
102
RTVSPost2010Prop41ColorRGB
 90
-16777216
102
RTVSPost2010PropOp41
 70
     1
102
RTVSPost2010Prop42
 90
       50
102
RTVSPost2010PropOp42
 70
     1
102
RTVSPost2010Prop43
 90
        3
102
RTVSPost2010PropOp43
 70
     1
102
RTVSPost2010Prop44ColorIndex
 90
        5
102
RTVSPost2010Prop44ColorRGB
 90
      255
102
RTVSPost2010PropOp44
 70
     1
102
RTVSPost2010Prop45
280
     0
102
RTVSPost2010PropOp45
 70
     1
102
RTVSPost2010Prop46
 90
       50
102
RTVSPost2010PropOp46
 70
     1
102
RTVSPost2010Prop47
 90
       50
102
RTVSPost2010PropOp47
 70
     1
102
RTVSPost2010Prop48
 90
       50
102
RTVSPost2010PropOp48
 70
     1
102
RTVSPost2010Prop49
280
     0
102
RTVSPost2010PropOp49
 70
     1
102
RTVSPost2010Prop50
 90
       50
102
RTVSPost2010PropOp50
 70
     1
102
RTVSPost2010Prop51ColorIndex
 90
      256
102
RTVSPost2010Prop51ColorRGB
 90
-16777216
102
RTVSPost2010PropOp51
 70
     0
102
RTVSPost2010Prop52
140
1.0
102
RTVSPost2010PropOp52
 70
     0
102
RTVSPost2010Prop53
 90
        2
102
RTVSPost2010PropOp53
 70
     1
102
RTVSPost2010Prop54
  1
strokes_ogs.tif
102
RTVSPost2010PropOp54
 70
     1
102
RTVSPost2010Prop55
280
     0
102
RTVSPost2010PropOp55
 70
     1
102
RTVSPost2010Prop56
140
1.0
102
RTVSPost2010PropOp56
 70
     1
102
RTVSPost2010Prop57
140
1.0
102
RTVSPost2010PropOp57
 70
     1
  0
XRECORD
  5
5715
102
{ACAD_REACTORS
330
5714
102
}
330
5714
100
AcDbXrecord
280
     1
102
RTVSPost2010Prop28
280
     0
102
RTVSPost2010PropOp28
 70
     0
102
RTVSPost2010Prop29
280
     1
102
RTVSPost2010PropOp29
 70
     0
102
RTVSPost2010Prop30
280
     1
102
RTVSPost2010PropOp30
 70
     0
102
RTVSPost2010Prop31
280
     0
102
RTVSPost2010PropOp31
 70
     0
102
RTVSPost2010Prop32
280
     0
102
RTVSPost2010PropOp32
 70
     0
102
RTVSPost2010Prop33
280
     0
102
RTVSPost2010PropOp33
 70
     0
102
RTVSPost2010Prop34
280
     0
102
RTVSPost2010PropOp34
 70
     0
102
RTVSPost2010Prop35
280
     0
102
RTVSPost2010PropOp35
 70
     0
102
RTVSPost2010Prop36
280
     0
102
RTVSPost2010PropOp36
 70
     0
102
RTVSPost2010Prop37
 90
       50
102
RTVSPost2010PropOp37
 70
     0
102
RTVSPost2010Prop38
140
0.0
102
RTVSPost2010PropOp38
 70
     0
102
RTVSPost2010Prop39
140
1.0
102
RTVSPost2010PropOp39
 70
     0
102
RTVSPost2010Prop40
 90
        0
102
RTVSPost2010PropOp40
 70
     0
102
RTVSPost2010Prop41ColorIndex
 90
       18
102
RTVSPost2010Prop41ColorRGB
 90
-16777216
102
RTVSPost2010PropOp41
 70
     0
102
RTVSPost2010Prop42
 90
       50
102
RTVSPost2010PropOp42
 70
     0
102
RTVSPost2010Prop43
 90
        3
102
RTVSPost2010PropOp43
 70
     0
102
RTVSPost2010Prop44ColorIndex
 90
        5
102
RTVSPost2010Prop44ColorRGB
 90
      255
102
RTVSPost2010PropOp44
 70
     0
102
RTVSPost2010Prop45
280
     0
102
RTVSPost2010PropOp45
 70
     0
102
RTVSPost2010Prop46
 90
       50
102
RTVSPost2010PropOp46
 70
     0
102
RTVSPost2010Prop47
 90
       50
102
RTVSPost2010PropOp47
 70
     0
102
RTVSPost2010Prop48
 90
       50
102
RTVSPost2010PropOp48
 70
     0
102
RTVSPost2010Prop49
280
     0
102
RTVSPost2010PropOp49
 70
     0
102
RTVSPost2010Prop50
 90
       50
102
RTVSPost2010PropOp50
 70
     0
102
RTVSPost2010Prop51ColorIndex
 90
      256
102
RTVSPost2010Prop51ColorRGB
 90
-16777216
102
RTVSPost2010PropOp51
 70
     0
102
RTVSPost2010Prop52
140
1.0
102
RTVSPost2010PropOp52
 70
     0
102
RTVSPost2010Prop53
 90
        2
102
RTVSPost2010PropOp53
 70
     0
102
RTVSPost2010Prop54
  1
strokes_ogs.tif
102
RTVSPost2010PropOp54
 70
     0
102
RTVSPost2010Prop55
280
     0
102
RTVSPost2010PropOp55
 70
     0
102
RTVSPost2010Prop56
140
1.0
102
RTVSPost2010PropOp56
 70
     0
102
RTVSPost2010Prop57
140
1.0
102
RTVSPost2010PropOp57
 70
     0
  0
XRECORD
  5
56F7
102
{ACAD_REACTORS
330
56F6
102
}
330
56F6
100
AcDbXrecord
280
     1
102
RTVSPost2010Prop28
280
     0
102
RTVSPost2010PropOp28
 70
     1
102
RTVSPost2010Prop29
280
     1
102
RTVSPost2010PropOp29
 70
     1
102
RTVSPost2010Prop30
280
     1
102
RTVSPost2010PropOp30
 70
     1
102
RTVSPost2010Prop31
280
     0
102
RTVSPost2010PropOp31
 70
     1
102
RTVSPost2010Prop32
280
     0
102
RTVSPost2010PropOp32
 70
     1
102
RTVSPost2010Prop33
280
     0
102
RTVSPost2010PropOp33
 70
     1
102
RTVSPost2010Prop34
280
     0
102
RTVSPost2010PropOp34
 70
     1
102
RTVSPost2010Prop35
280
     0
102
RTVSPost2010PropOp35
 70
     1
102
RTVSPost2010Prop36
280
     0
102
RTVSPost2010PropOp36
 70
     1
102
RTVSPost2010Prop37
 90
       50
102
RTVSPost2010PropOp37
 70
     1
102
RTVSPost2010Prop38
140
0.0
102
RTVSPost2010PropOp38
 70
     1
102
RTVSPost2010Prop39
140
1.0
102
RTVSPost2010PropOp39
 70
     1
102
RTVSPost2010Prop40
 90
        0
102
RTVSPost2010PropOp40
 70
     1
102
RTVSPost2010Prop41ColorIndex
 90
       18
102
RTVSPost2010Prop41ColorRGB
 90
-16777216
102
RTVSPost2010PropOp41
 70
     1
102
RTVSPost2010Prop42
 90
       50
102
RTVSPost2010PropOp42
 70
     1
102
RTVSPost2010Prop43
 90
        3
102
RTVSPost2010PropOp43
 70
     1
102
RTVSPost2010Prop44ColorIndex
 90
        5
102
RTVSPost2010Prop44ColorRGB
 90
      255
102
RTVSPost2010PropOp44
 70
     1
102
RTVSPost2010Prop45
280
     0
102
RTVSPost2010PropOp45
 70
     1
102
RTVSPost2010Prop46
 90
       50
102
RTVSPost2010PropOp46
 70
     1
102
RTVSPost2010Prop47
 90
       50
102
RTVSPost2010PropOp47
 70
     1
102
RTVSPost2010Prop48
 90
       50
102
RTVSPost2010PropOp48
 70
     1
102
RTVSPost2010Prop49
280
     0
102
RTVSPost2010PropOp49
 70
     1
102
RTVSPost2010Prop50
 90
       50
102
RTVSPost2010PropOp50
 70
     1
102
RTVSPost2010Prop51ColorIndex
 90
      256
102
RTVSPost2010Prop51ColorRGB
 90
-16777216
102
RTVSPost2010PropOp51
 70
     0
102
RTVSPost2010Prop52
140
1.0
102
RTVSPost2010PropOp52
 70
     0
102
RTVSPost2010Prop53
 90
        2
102
RTVSPost2010PropOp53
 70
     1
102
RTVSPost2010Prop54
  1
strokes_ogs.tif
102
RTVSPost2010PropOp54
 70
     1
102
RTVSPost2010Prop55
280
     0
102
RTVSPost2010PropOp55
 70
     1
102
RTVSPost2010Prop56
140
1.0
102
RTVSPost2010PropOp56
 70
     1
102
RTVSPost2010Prop57
140
1.0
102
RTVSPost2010PropOp57
 70
     1
  0
XRECORD
  5
5711
102
{ACAD_REACTORS
330
5710
102
}
330
5710
100
AcDbXrecord
280
     1
102
RTVSPost2010Prop28
280
     0
102
RTVSPost2010PropOp28
 70
     1
102
RTVSPost2010Prop29
280
     1
102
RTVSPost2010PropOp29
 70
     1
102
RTVSPost2010Prop30
280
     1
102
RTVSPost2010PropOp30
 70
     1
102
RTVSPost2010Prop31
280
     0
102
RTVSPost2010PropOp31
 70
     1
102
RTVSPost2010Prop32
280
     0
102
RTVSPost2010PropOp32
 70
     1
102
RTVSPost2010Prop33
280
     0
102
RTVSPost2010PropOp33
 70
     1
102
RTVSPost2010Prop34
280
     0
102
RTVSPost2010PropOp34
 70
     1
102
RTVSPost2010Prop35
280
     0
102
RTVSPost2010PropOp35
 70
     1
102
RTVSPost2010Prop36
280
     0
102
RTVSPost2010PropOp36
 70
     1
102
RTVSPost2010Prop37
 90
       50
102
RTVSPost2010PropOp37
 70
     1
102
RTVSPost2010Prop38
140
0.0
102
RTVSPost2010PropOp38
 70
     1
102
RTVSPost2010Prop39
140
1.0
102
RTVSPost2010PropOp39
 70
     1
102
RTVSPost2010Prop40
 90
        0
102
RTVSPost2010PropOp40
 70
     1
102
RTVSPost2010Prop41ColorIndex
 90
       18
102
RTVSPost2010Prop41ColorRGB
 90
-16777216
102
RTVSPost2010PropOp41
 70
     1
102
RTVSPost2010Prop42
 90
       50
102
RTVSPost2010PropOp42
 70
     1
102
RTVSPost2010Prop43
 90
        3
102
RTVSPost2010PropOp43
 70
     1
102
RTVSPost2010Prop44ColorIndex
 90
        5
102
RTVSPost2010Prop44ColorRGB
 90
      255
102
RTVSPost2010PropOp44
 70
     1
102
RTVSPost2010Prop45
280
     0
102
RTVSPost2010PropOp45
 70
     1
102
RTVSPost2010Prop46
 90
       50
102
RTVSPost2010PropOp46
 70
     1
102
RTVSPost2010Prop47
 90
       50
102
RTVSPost2010PropOp47
 70
     1
102
RTVSPost2010Prop48
 90
       50
102
RTVSPost2010PropOp48
 70
     1
102
RTVSPost2010Prop49
280
     0
102
RTVSPost2010PropOp49
 70
     1
102
RTVSPost2010Prop50
 90
       50
102
RTVSPost2010PropOp50
 70
     1
102
RTVSPost2010Prop51ColorIndex
 90
      256
102
RTVSPost2010Prop51ColorRGB
 90
-16777216
102
RTVSPost2010PropOp51
 70
     0
102
RTVSPost2010Prop52
140
1.0
102
RTVSPost2010PropOp52
 70
     0
102
RTVSPost2010Prop53
 90
        2
102
RTVSPost2010PropOp53
 70
     1
102
RTVSPost2010Prop54
  1
strokes_ogs.tif
102
RTVSPost2010PropOp54
 70
     1
102
RTVSPost2010Prop55
280
     0
102
RTVSPost2010PropOp55
 70
     1
102
RTVSPost2010Prop56
140
1.0
102
RTVSPost2010PropOp56
 70
     1
102
RTVSPost2010Prop57
140
1.0
102
RTVSPost2010PropOp57
 70
     1
  0
XRECORD
  5
570F
102
{ACAD_REACTORS
330
570E
102
}
330
570E
100
AcDbXrecord
280
     1
102
RTVSPost2010Prop28
280
     0
102
RTVSPost2010PropOp28
 70
     1
102
RTVSPost2010Prop29
280
     1
102
RTVSPost2010PropOp29
 70
     1
102
RTVSPost2010Prop30
280
     1
102
RTVSPost2010PropOp30
 70
     1
102
RTVSPost2010Prop31
280
     0
102
RTVSPost2010PropOp31
 70
     1
102
RTVSPost2010Prop32
280
     0
102
RTVSPost2010PropOp32
 70
     1
102
RTVSPost2010Prop33
280
     0
102
RTVSPost2010PropOp33
 70
     1
102
RTVSPost2010Prop34
280
     0
102
RTVSPost2010PropOp34
 70
     1
102
RTVSPost2010Prop35
280
     0
102
RTVSPost2010PropOp35
 70
     1
102
RTVSPost2010Prop36
280
     0
102
RTVSPost2010PropOp36
 70
     1
102
RTVSPost2010Prop37
 90
       50
102
RTVSPost2010PropOp37
 70
     1
102
RTVSPost2010Prop38
140
0.0
102
RTVSPost2010PropOp38
 70
     1
102
RTVSPost2010Prop39
140
1.0
102
RTVSPost2010PropOp39
 70
     1
102
RTVSPost2010Prop40
 90
        0
102
RTVSPost2010PropOp40
 70
     1
102
RTVSPost2010Prop41ColorIndex
 90
       18
102
RTVSPost2010Prop41ColorRGB
 90
-16777216
102
RTVSPost2010PropOp41
 70
     1
102
RTVSPost2010Prop42
 90
       50
102
RTVSPost2010PropOp42
 70
     1
102
RTVSPost2010Prop43
 90
        3
102
RTVSPost2010PropOp43
 70
     1
102
RTVSPost2010Prop44ColorIndex
 90
        5
102
RTVSPost2010Prop44ColorRGB
 90
      255
102
RTVSPost2010PropOp44
 70
     1
102
RTVSPost2010Prop45
280
     0
102
RTVSPost2010PropOp45
 70
     1
102
RTVSPost2010Prop46
 90
       50
102
RTVSPost2010PropOp46
 70
     1
102
RTVSPost2010Prop47
 90
       50
102
RTVSPost2010PropOp47
 70
     1
102
RTVSPost2010Prop48
 90
       50
102
RTVSPost2010PropOp48
 70
     1
102
RTVSPost2010Prop49
280
     0
102
RTVSPost2010PropOp49
 70
     1
102
RTVSPost2010Prop50
 90
       50
102
RTVSPost2010PropOp50
 70
     1
102
RTVSPost2010Prop51ColorIndex
 90
      256
102
RTVSPost2010Prop51ColorRGB
 90
-16777216
102
RTVSPost2010PropOp51
 70
     0
102
RTVSPost2010Prop52
140
1.0
102
RTVSPost2010PropOp52
 70
     0
102
RTVSPost2010Prop53
 90
        2
102
RTVSPost2010PropOp53
 70
     1
102
RTVSPost2010Prop54
  1
strokes_ogs.tif
102
RTVSPost2010PropOp54
 70
     1
102
RTVSPost2010Prop55
280
     0
102
RTVSPost2010PropOp55
 70
     1
102
RTVSPost2010Prop56
140
1.0
102
RTVSPost2010PropOp56
 70
     1
102
RTVSPost2010Prop57
140
1.0
102
RTVSPost2010PropOp57
 70
     1
  0
XRECORD
  5
5709
102
{ACAD_REACTORS
330
5708
102
}
330
5708
100
AcDbXrecord
280
     1
102
RTVSPost2010Prop28
280
     0
102
RTVSPost2010PropOp28
 70
     1
102
RTVSPost2010Prop29
280
     1
102
RTVSPost2010PropOp29
 70
     1
102
RTVSPost2010Prop30
280
     1
102
RTVSPost2010PropOp30
 70
     1
102
RTVSPost2010Prop31
280
     0
102
RTVSPost2010PropOp31
 70
     1
102
RTVSPost2010Prop32
280
     0
102
RTVSPost2010PropOp32
 70
     1
102
RTVSPost2010Prop33
280
     0
102
RTVSPost2010PropOp33
 70
     1
102
RTVSPost2010Prop34
280
     0
102
RTVSPost2010PropOp34
 70
     1
102
RTVSPost2010Prop35
280
     0
102
RTVSPost2010PropOp35
 70
     1
102
RTVSPost2010Prop36
280
     0
102
RTVSPost2010PropOp36
 70
     1
102
RTVSPost2010Prop37
 90
       50
102
RTVSPost2010PropOp37
 70
     1
102
RTVSPost2010Prop38
140
0.0
102
RTVSPost2010PropOp38
 70
     1
102
RTVSPost2010Prop39
140
1.0
102
RTVSPost2010PropOp39
 70
     1
102
RTVSPost2010Prop40
 90
        0
102
RTVSPost2010PropOp40
 70
     1
102
RTVSPost2010Prop41ColorIndex
 90
       18
102
RTVSPost2010Prop41ColorRGB
 90
-16777216
102
RTVSPost2010PropOp41
 70
     1
102
RTVSPost2010Prop42
 90
       50
102
RTVSPost2010PropOp42
 70
     1
102
RTVSPost2010Prop43
 90
        3
102
RTVSPost2010PropOp43
 70
     1
102
RTVSPost2010Prop44ColorIndex
 90
        5
102
RTVSPost2010Prop44ColorRGB
 90
      255
102
RTVSPost2010PropOp44
 70
     1
102
RTVSPost2010Prop45
280
     0
102
RTVSPost2010PropOp45
 70
     1
102
RTVSPost2010Prop46
 90
       50
102
RTVSPost2010PropOp46
 70
     1
102
RTVSPost2010Prop47
 90
       50
102
RTVSPost2010PropOp47
 70
     1
102
RTVSPost2010Prop48
 90
       50
102
RTVSPost2010PropOp48
 70
     1
102
RTVSPost2010Prop49
280
     0
102
RTVSPost2010PropOp49
 70
     1
102
RTVSPost2010Prop50
 90
       50
102
RTVSPost2010PropOp50
 70
     1
102
RTVSPost2010Prop51ColorIndex
 90
      256
102
RTVSPost2010Prop51ColorRGB
 90
-16777216
102
RTVSPost2010PropOp51
 70
     0
102
RTVSPost2010Prop52
140
1.0
102
RTVSPost2010PropOp52
 70
     0
102
RTVSPost2010Prop53
 90
        2
102
RTVSPost2010PropOp53
 70
     1
102
RTVSPost2010Prop54
  1
strokes_ogs.tif
102
RTVSPost2010PropOp54
 70
     1
102
RTVSPost2010Prop55
280
     0
102
RTVSPost2010PropOp55
 70
     1
102
RTVSPost2010Prop56
140
1.0
102
RTVSPost2010PropOp56
 70
     1
102
RTVSPost2010Prop57
140
1.0
102
RTVSPost2010PropOp57
 70
     1
  0
XRECORD
  5
570B
102
{ACAD_REACTORS
330
570A
102
}
330
570A
100
AcDbXrecord
280
     1
102
RTVSPost2010Prop28
280
     0
102
RTVSPost2010PropOp28
 70
     1
102
RTVSPost2010Prop29
280
     1
102
RTVSPost2010PropOp29
 70
     1
102
RTVSPost2010Prop30
280
     1
102
RTVSPost2010PropOp30
 70
     1
102
RTVSPost2010Prop31
280
     0
102
RTVSPost2010PropOp31
 70
     1
102
RTVSPost2010Prop32
280
     0
102
RTVSPost2010PropOp32
 70
     1
102
RTVSPost2010Prop33
280
     0
102
RTVSPost2010PropOp33
 70
     1
102
RTVSPost2010Prop34
280
     0
102
RTVSPost2010PropOp34
 70
     1
102
RTVSPost2010Prop35
280
     0
102
RTVSPost2010PropOp35
 70
     1
102
RTVSPost2010Prop36
280
     0
102
RTVSPost2010PropOp36
 70
     1
102
RTVSPost2010Prop37
 90
       50
102
RTVSPost2010PropOp37
 70
     1
102
RTVSPost2010Prop38
140
0.0
102
RTVSPost2010PropOp38
 70
     1
102
RTVSPost2010Prop39
140
1.0
102
RTVSPost2010PropOp39
 70
     1
102
RTVSPost2010Prop40
 90
        0
102
RTVSPost2010PropOp40
 70
     1
102
RTVSPost2010Prop41ColorIndex
 90
       18
102
RTVSPost2010Prop41ColorRGB
 90
-16777216
102
RTVSPost2010PropOp41
 70
     1
102
RTVSPost2010Prop42
 90
       50
102
RTVSPost2010PropOp42
 70
     1
102
RTVSPost2010Prop43
 90
        3
102
RTVSPost2010PropOp43
 70
     1
102
RTVSPost2010Prop44ColorIndex
 90
        5
102
RTVSPost2010Prop44ColorRGB
 90
      255
102
RTVSPost2010PropOp44
 70
     1
102
RTVSPost2010Prop45
280
     0
102
RTVSPost2010PropOp45
 70
     1
102
RTVSPost2010Prop46
 90
       50
102
RTVSPost2010PropOp46
 70
     1
102
RTVSPost2010Prop47
 90
       50
102
RTVSPost2010PropOp47
 70
     1
102
RTVSPost2010Prop48
 90
       50
102
RTVSPost2010PropOp48
 70
     1
102
RTVSPost2010Prop49
280
     0
102
RTVSPost2010PropOp49
 70
     1
102
RTVSPost2010Prop50
 90
       50
102
RTVSPost2010PropOp50
 70
     1
102
RTVSPost2010Prop51ColorIndex
 90
      256
102
RTVSPost2010Prop51ColorRGB
 90
-16777216
102
RTVSPost2010PropOp51
 70
     0
102
RTVSPost2010Prop52
140
1.0
102
RTVSPost2010PropOp52
 70
     0
102
RTVSPost2010Prop53
 90
        2
102
RTVSPost2010PropOp53
 70
     1
102
RTVSPost2010Prop54
  1
strokes_ogs.tif
102
RTVSPost2010PropOp54
 70
     1
102
RTVSPost2010Prop55
280
     0
102
RTVSPost2010PropOp55
 70
     1
102
RTVSPost2010Prop56
140
1.0
102
RTVSPost2010PropOp56
 70
     1
102
RTVSPost2010Prop57
140
1.0
102
RTVSPost2010PropOp57
 70
     1
  0
XRECORD
  5
56FD
102
{ACAD_REACTORS
330
56FC
102
}
330
56FC
100
AcDbXrecord
280
     1
102
RTVSPost2010Prop28
280
     0
102
RTVSPost2010PropOp28
 70
     1
102
RTVSPost2010Prop29
280
     1
102
RTVSPost2010PropOp29
 70
     1
102
RTVSPost2010Prop30
280
     1
102
RTVSPost2010PropOp30
 70
     1
102
RTVSPost2010Prop31
280
     0
102
RTVSPost2010PropOp31
 70
     1
102
RTVSPost2010Prop32
280
     0
102
RTVSPost2010PropOp32
 70
     1
102
RTVSPost2010Prop33
280
     0
102
RTVSPost2010PropOp33
 70
     1
102
RTVSPost2010Prop34
280
     0
102
RTVSPost2010PropOp34
 70
     1
102
RTVSPost2010Prop35
280
     0
102
RTVSPost2010PropOp35
 70
     1
102
RTVSPost2010Prop36
280
     0
102
RTVSPost2010PropOp36
 70
     1
102
RTVSPost2010Prop37
 90
       50
102
RTVSPost2010PropOp37
 70
     1
102
RTVSPost2010Prop38
140
0.0
102
RTVSPost2010PropOp38
 70
     1
102
RTVSPost2010Prop39
140
1.0
102
RTVSPost2010PropOp39
 70
     1
102
RTVSPost2010Prop40
 90
        0
102
RTVSPost2010PropOp40
 70
     1
102
RTVSPost2010Prop41ColorIndex
 90
       18
102
RTVSPost2010Prop41ColorRGB
 90
-16777216
102
RTVSPost2010PropOp41
 70
     1
102
RTVSPost2010Prop42
 90
       50
102
RTVSPost2010PropOp42
 70
     1
102
RTVSPost2010Prop43
 90
        3
102
RTVSPost2010PropOp43
 70
     1
102
RTVSPost2010Prop44ColorIndex
 90
        5
102
RTVSPost2010Prop44ColorRGB
 90
      255
102
RTVSPost2010PropOp44
 70
     1
102
RTVSPost2010Prop45
280
     0
102
RTVSPost2010PropOp45
 70
     1
102
RTVSPost2010Prop46
 90
       50
102
RTVSPost2010PropOp46
 70
     1
102
RTVSPost2010Prop47
 90
       50
102
RTVSPost2010PropOp47
 70
     1
102
RTVSPost2010Prop48
 90
       50
102
RTVSPost2010PropOp48
 70
     1
102
RTVSPost2010Prop49
280
     0
102
RTVSPost2010PropOp49
 70
     1
102
RTVSPost2010Prop50
 90
       50
102
RTVSPost2010PropOp50
 70
     1
102
RTVSPost2010Prop51ColorIndex
 90
      256
102
RTVSPost2010Prop51ColorRGB
 90
-16777216
102
RTVSPost2010PropOp51
 70
     0
102
RTVSPost2010Prop52
140
1.0
102
RTVSPost2010PropOp52
 70
     0
102
RTVSPost2010Prop53
 90
        2
102
RTVSPost2010PropOp53
 70
     1
102
RTVSPost2010Prop54
  1
strokes_ogs.tif
102
RTVSPost2010PropOp54
 70
     1
102
RTVSPost2010Prop55
280
     0
102
RTVSPost2010PropOp55
 70
     1
102
RTVSPost2010Prop56
140
1.0
102
RTVSPost2010PropOp56
 70
     1
102
RTVSPost2010Prop57
140
1.0
102
RTVSPost2010PropOp57
 70
     1
  0
XRECORD
  5
5705
102
{ACAD_REACTORS
330
5704
102
}
330
5704
100
AcDbXrecord
280
     1
102
RTVSPost2010Prop28
280
     0
102
RTVSPost2010PropOp28
 70
     1
102
RTVSPost2010Prop29
280
     1
102
RTVSPost2010PropOp29
 70
     1
102
RTVSPost2010Prop30
280
     1
102
RTVSPost2010PropOp30
 70
     1
102
RTVSPost2010Prop31
280
     0
102
RTVSPost2010PropOp31
 70
     1
102
RTVSPost2010Prop32
280
     0
102
RTVSPost2010PropOp32
 70
     1
102
RTVSPost2010Prop33
280
     0
102
RTVSPost2010PropOp33
 70
     1
102
RTVSPost2010Prop34
280
     0
102
RTVSPost2010PropOp34
 70
     1
102
RTVSPost2010Prop35
280
     0
102
RTVSPost2010PropOp35
 70
     1
102
RTVSPost2010Prop36
280
     0
102
RTVSPost2010PropOp36
 70
     1
102
RTVSPost2010Prop37
 90
       50
102
RTVSPost2010PropOp37
 70
     1
102
RTVSPost2010Prop38
140
0.0
102
RTVSPost2010PropOp38
 70
     1
102
RTVSPost2010Prop39
140
1.0
102
RTVSPost2010PropOp39
 70
     1
102
RTVSPost2010Prop40
 90
        0
102
RTVSPost2010PropOp40
 70
     1
102
RTVSPost2010Prop41ColorIndex
 90
       18
102
RTVSPost2010Prop41ColorRGB
 90
-16777216
102
RTVSPost2010PropOp41
 70
     1
102
RTVSPost2010Prop42
 90
       50
102
RTVSPost2010PropOp42
 70
     1
102
RTVSPost2010Prop43
 90
        3
102
RTVSPost2010PropOp43
 70
     1
102
RTVSPost2010Prop44ColorIndex
 90
        5
102
RTVSPost2010Prop44ColorRGB
 90
      255
102
RTVSPost2010PropOp44
 70
     1
102
RTVSPost2010Prop45
280
     0
102
RTVSPost2010PropOp45
 70
     1
102
RTVSPost2010Prop46
 90
       50
102
RTVSPost2010PropOp46
 70
     1
102
RTVSPost2010Prop47
 90
       50
102
RTVSPost2010PropOp47
 70
     1
102
RTVSPost2010Prop48
 90
       50
102
RTVSPost2010PropOp48
 70
     1
102
RTVSPost2010Prop49
280
     0
102
RTVSPost2010PropOp49
 70
     1
102
RTVSPost2010Prop50
 90
       50
102
RTVSPost2010PropOp50
 70
     1
102
RTVSPost2010Prop51ColorIndex
 90
      256
102
RTVSPost2010Prop51ColorRGB
 90
-16777216
102
RTVSPost2010PropOp51
 70
     0
102
RTVSPost2010Prop52
140
1.0
102
RTVSPost2010PropOp52
 70
     0
102
RTVSPost2010Prop53
 90
        2
102
RTVSPost2010PropOp53
 70
     1
102
RTVSPost2010Prop54
  1
strokes_ogs.tif
102
RTVSPost2010PropOp54
 70
     1
102
RTVSPost2010Prop55
280
     0
102
RTVSPost2010PropOp55
 70
     1
102
RTVSPost2010Prop56
140
1.0
102
RTVSPost2010PropOp56
 70
     1
102
RTVSPost2010Prop57
140
1.0
102
RTVSPost2010PropOp57
 70
     1
  0
XRECORD
  5
570D
102
{ACAD_REACTORS
330
570C
102
}
330
570C
100
AcDbXrecord
280
     1
102
RTVSPost2010Prop28
280
     0
102
RTVSPost2010PropOp28
 70
     1
102
RTVSPost2010Prop29
280
     1
102
RTVSPost2010PropOp29
 70
     1
102
RTVSPost2010Prop30
280
     1
102
RTVSPost2010PropOp30
 70
     1
102
RTVSPost2010Prop31
280
     0
102
RTVSPost2010PropOp31
 70
     1
102
RTVSPost2010Prop32
280
     0
102
RTVSPost2010PropOp32
 70
     1
102
RTVSPost2010Prop33
280
     0
102
RTVSPost2010PropOp33
 70
     1
102
RTVSPost2010Prop34
280
     0
102
RTVSPost2010PropOp34
 70
     1
102
RTVSPost2010Prop35
280
     0
102
RTVSPost2010PropOp35
 70
     1
102
RTVSPost2010Prop36
280
     0
102
RTVSPost2010PropOp36
 70
     1
102
RTVSPost2010Prop37
 90
       50
102
RTVSPost2010PropOp37
 70
     1
102
RTVSPost2010Prop38
140
0.0
102
RTVSPost2010PropOp38
 70
     1
102
RTVSPost2010Prop39
140
1.0
102
RTVSPost2010PropOp39
 70
     1
102
RTVSPost2010Prop40
 90
        0
102
RTVSPost2010PropOp40
 70
     1
102
RTVSPost2010Prop41ColorIndex
 90
       18
102
RTVSPost2010Prop41ColorRGB
 90
-16777216
102
RTVSPost2010PropOp41
 70
     1
102
RTVSPost2010Prop42
 90
       50
102
RTVSPost2010PropOp42
 70
     1
102
RTVSPost2010Prop43
 90
        3
102
RTVSPost2010PropOp43
 70
     1
102
RTVSPost2010Prop44ColorIndex
 90
        5
102
RTVSPost2010Prop44ColorRGB
 90
      255
102
RTVSPost2010PropOp44
 70
     1
102
RTVSPost2010Prop45
280
     0
102
RTVSPost2010PropOp45
 70
     1
102
RTVSPost2010Prop46
 90
       50
102
RTVSPost2010PropOp46
 70
     1
102
RTVSPost2010Prop47
 90
       50
102
RTVSPost2010PropOp47
 70
     1
102
RTVSPost2010Prop48
 90
       50
102
RTVSPost2010PropOp48
 70
     1
102
RTVSPost2010Prop49
280
     0
102
RTVSPost2010PropOp49
 70
     1
102
RTVSPost2010Prop50
 90
       50
102
RTVSPost2010PropOp50
 70
     1
102
RTVSPost2010Prop51ColorIndex
 90
      256
102
RTVSPost2010Prop51ColorRGB
 90
-16777216
102
RTVSPost2010PropOp51
 70
     0
102
RTVSPost2010Prop52
140
1.0
102
RTVSPost2010PropOp52
 70
     0
102
RTVSPost2010Prop53
 90
        2
102
RTVSPost2010PropOp53
 70
     1
102
RTVSPost2010Prop54
  1
strokes_ogs.tif
102
RTVSPost2010PropOp54
 70
     1
102
RTVSPost2010Prop55
280
     0
102
RTVSPost2010PropOp55
 70
     1
102
RTVSPost2010Prop56
140
1.0
102
RTVSPost2010PropOp56
 70
     1
102
RTVSPost2010Prop57
140
1.0
102
RTVSPost2010PropOp57
 70
     1
  0
ENDSEC
  0
EOF
