  0
SECTION
  2
HEADER
  9
$ACADVER
  1
AC1024
  9
$ACADMAINTVER
 70
   226
  9
$DWGCODEPAGE
  3
ANSI_1252
  9
$LASTSAVEDBY
  1
mhumphreys
  9
$INSBASE
 10
0.0
 20
0.0
 30
0.0
  9
$EXTMIN
 10
-31533.45800146366
 20
35820.00658168901
 30
-0.0015258207003583
  9
$EXTMAX
 10
-23781.62546948071
 20
41179.68684746109
 30
0.0000000349246037
  9
$LIMMIN
 10
0.0
 20
0.0
  9
$LIMMAX
 10
12.0
 20
9.0
  9
$ORTHOMODE
 70
     0
  9
$REGENMODE
 70
     1
  9
$FILLMODE
 70
     1
  9
$QTEXTMODE
 70
     0
  9
$MIRRTEXT
 70
     0
  9
$LTSCALE
 40
1.0
  9
$ATTMODE
 70
     1
  9
$TEXTSIZE
 40
2.5
  9
$TRACEWID
 40
0.05
  9
$TEXTSTYLE
  7
fastrack
  9
$CLAYER
  8
0
  9
$CELTYPE
  6
CONTINUOUS
  9
$CECOLOR
 62
   256
  9
$CELTSCALE
 40
10.0
  9
$DISPSILH
 70
     0
  9
$DIMSCALE
 40
1.0
  9
$DIMASZ
 40
65.0
  9
$DIMEXO
 40
37.5
  9
$DIMDLI
 40
37.5
  9
$DIMRND
 40
0.0
  9
$DIMDLE
 40
0.0
  9
$DIMEXE
 40
37.5
  9
$DIMTP
 40
0.0
  9
$DIMTM
 40
0.0
  9
$DIMTXT
 40
75.0
  9
$DIMCEN
 40
0.09
  9
$DIMTSZ
 40
0.0
  9
$DIMTOL
 70
     0
  9
$DIMLIM
 70
     0
  9
$DIMTIH
 70
     0
  9
$DIMTOH
 70
     0
  9
$DIMSE1
 70
     0
  9
$DIMSE2
 70
     0
  9
$DIMTAD
 70
     0
  9
$DIMZIN
 70
     0
  9
$DIMBLK
  1

  9
$DIMASO
 70
     1
  9
$DIMSHO
 70
     1
  9
$DIMPOST
  1

  9
$DIMAPOST
  1

  9
$DIMALT
 70
     0
  9
$DIMALTD
 70
     2
  9
$DIMALTF
 40
25.4
  9
$DIMLFAC
 40
1.0
  9
$DIMTOFL
 70
     0
  9
$DIMTVP
 40
0.0
  9
$DIMTIX
 70
     0
  9
$DIMSOXD
 70
     0
  9
$DIMSAH
 70
     0
  9
$DIMBLK1
  1

  9
$DIMBLK2
  1

  9
$DIMSTYLE
  2
STANDARD
  9
$DIMCLRD
 70
    20
  9
$DIMCLRE
 70
    20
  9
$DIMCLRT
 70
     4
  9
$DIMTFAC
 40
1.0
  9
$DIMGAP
 40
37.5
  9
$DIMJUST
 70
     0
  9
$DIMSD1
 70
     0
  9
$DIMSD2
 70
     0
  9
$DIMTOLJ
 70
     1
  9
$DIMTZIN
 70
     0
  9
$DIMALTZ
 70
     0
  9
$DIMALTTZ
 70
     0
  9
$DIMUPT
 70
     0
  9
$DIMDEC
 70
     0
  9
$DIMTDEC
 70
     0
  9
$DIMALTU
 70
     2
  9
$DIMALTTD
 70
     2
  9
$DIMTXSTY
  7
STANDARD
  9
$DIMAUNIT
 70
     0
  9
$DIMADEC
 70
     0
  9
$DIMALTRND
 40
0.0
  9
$DIMAZIN
 70
     0
  9
$DIMDSEP
 70
    46
  9
$DIMATFIT
 70
     3
  9
$DIMFRAC
 70
     0
  9
$DIMLDRBLK
  1

  9
$DIMLUNIT
 70
     2
  9
$DIMLWD
 70
    -2
  9
$DIMLWE
 70
    -2
  9
$DIMTMOVE
 70
     0
  9
$DIMFXL
 40
1.0
  9
$DIMFXLON
 70
     0
  9
$DIMJOGANG
 40
0.7853981633974483
  9
$DIMTFILL
 70
     0
  9
$DIMTFILLCLR
 70
     0
  9
$DIMARCSYM
 70
     0
  9
$DIMLTYPE
  6

  9
$DIMLTEX1
  6

  9
$DIMLTEX2
  6

  9
$DIMTXTDIRECTION
 70
     0
  9
$LUNITS
 70
     2
  9
$LUPREC
 70
     4
  9
$SKETCHINC
 40
0.1
  9
$FILLETRAD
 40
0.0
  9
$AUNITS
 70
     0
  9
$AUPREC
 70
     0
  9
$MENU
  1
acad
  9
$ELEVATION
 40
0.0
  9
$PELEVATION
 40
0.0
  9
$THICKNESS
 40
0.0
  9
$LIMCHECK
 70
     0
  9
$CHAMFERA
 40
0.0
  9
$CHAMFERB
 40
0.0
  9
$CHAMFERC
 40
1.0
  9
$CHAMFERD
 40
0.0
  9
$SKPOLY
 70
     0
  9
$TDCREATE
 40
2451900.387407408
  9
$TDUCREATE
 40
2451900.387418518
  9
$TDUPDATE
 40
2458815.578611111
  9
$TDUUPDATE
 40
2458815.578611111
  9
$TDINDWG
 40
7.2196681250
  9
$TDUSRTIMER
 40
7.2196681250
  9
$USRTIMER
 70
     1
  9
$ANGBASE
 50
0.0
  9
$ANGDIR
 70
     0
  9
$PDMODE
 70
     0
  9
$PDSIZE
 40
0.0
  9
$PLINEWID
 40
0.0
  9
$SPLFRAME
 70
     0
  9
$SPLINETYPE
 70
     6
  9
$SPLINESEGS
 70
     8
  9
$HANDSEED
  5
709C9
  9
$SURFTAB1
 70
     6
  9
$SURFTAB2
 70
     6
  9
$SURFTYPE
 70
     6
  9
$SURFU
 70
     6
  9
$SURFV
 70
     6
  9
$UCSBASE
  2

  9
$UCSNAME
  2

  9
$UCSORG
 10
0.0
 20
0.0
 30
0.0
  9
$UCSXDIR
 10
1.0
 20
0.0
 30
0.0
  9
$UCSYDIR
 10
0.0
 20
1.0
 30
0.0
  9
$UCSORTHOREF
  2

  9
$UCSORTHOVIEW
 70
     0
  9
$UCSORGTOP
 10
0.0
 20
0.0
 30
0.0
  9
$UCSORGBOTTOM
 10
0.0
 20
0.0
 30
0.0
  9
$UCSORGLEFT
 10
0.0
 20
0.0
 30
0.0
  9
$UCSORGRIGHT
 10
0.0
 20
0.0
 30
0.0
  9
$UCSORGFRONT
 10
0.0
 20
0.0
 30
0.0
  9
$UCSORGBACK
 10
0.0
 20
0.0
 30
0.0
  9
$PUCSBASE
  2

  9
$PUCSNAME
  2

  9
$PUCSORG
 10
0.0
 20
0.0
 30
0.0
  9
$PUCSXDIR
 10
1.0
 20
0.0
 30
0.0
  9
$PUCSYDIR
 10
0.0
 20
1.0
 30
0.0
  9
$PUCSORTHOREF
  2

  9
$PUCSORTHOVIEW
 70
     0
  9
$PUCSORGTOP
 10
0.0
 20
0.0
 30
0.0
  9
$PUCSORGBOTTOM
 10
0.0
 20
0.0
 30
0.0
  9
$PUCSORGLEFT
 10
0.0
 20
0.0
 30
0.0
  9
$PUCSORGRIGHT
 10
0.0
 20
0.0
 30
0.0
  9
$PUCSORGFRONT
 10
0.0
 20
0.0
 30
0.0
  9
$PUCSORGBACK
 10
0.0
 20
0.0
 30
0.0
  9
$USERI1
 70
     0
  9
$USERI2
 70
     0
  9
$USERI3
 70
     0
  9
$USERI4
 70
     0
  9
$USERI5
 70
     0
  9
$USERR1
 40
0.0
  9
$USERR2
 40
0.0
  9
$USERR3
 40
0.0
  9
$USERR4
 40
0.0
  9
$USERR5
 40
0.0
  9
$WORLDVIEW
 70
     1
  9
$SHADEDGE
 70
     3
  9
$SHADEDIF
 70
    70
  9
$TILEMODE
 70
     0
  9
$MAXACTVP
 70
    48
  9
$PINSBASE
 10
0.0
 20
0.0
 30
0.0
  9
$PLIMCHECK
 70
     0
  9
$PEXTMIN
 10
1.049591546364645
 20
0.7994995736664699
 30
-0.0015258207003583
  9
$PEXTMAX
 10
9.45031767818352
 20
7.200180384636592
 30
0.0000000349246037
  9
$PLIMMIN
 10
-0.1249995194082185
 20
-0.1249999981226884
  9
$PLIMMAX
 10
10.87500024029589
 20
8.375000362321147
  9
$UNITMODE
 70
     0
  9
$VISRETAIN
 70
     1
  9
$PLINEGEN
 70
     0
  9
$PSLTSCALE
 70
     1
  9
$TREEDEPTH
 70
  3020
  9
$CMLSTYLE
  2
STANDARD
  9
$CMLJUST
 70
     0
  9
$CMLSCALE
 40
1.0
  9
$PROXYGRAPHICS
 70
     1
  9
$MEASUREMENT
 70
     0
  9
$CELWEIGHT
370
    -1
  9
$ENDCAPS
280
     0
  9
$JOINSTYLE
280
     0
  9
$LWDISPLAY
290
     0
  9
$INSUNITS
 70
     0
  9
$HYPERLINKBASE
  1

  9
$STYLESHEET
  1
.15MM.CTB
  9
$XEDIT
290
     1
  9
$CEPSNTYPE
380
     0
  9
$PSTYLEMODE
290
     1
  9
$FINGERPRINTGUID
  2
{3E3120E5-EB26-11D6-B3DE-444553540000}
  9
$VERSIONGUID
  2
{2F9E3CD9-14BD-C349-8EBC-C5D10B73F000}
  9
$EXTNAMES
290
     1
  9
$PSVPSCALE
 40
0.0
  9
$OLESTARTUP
290
     0
  9
$SORTENTS
280
     1
  9
$INDEXCTL
280
     0
  9
$HIDETEXT
280
     0
  9
$XCLIPFRAME
280
     2
  9
$HALOGAP
280
     0
  9
$OBSCOLOR
 70
   257
  9
$OBSLTYPE
280
     0
  9
$INTERSECTIONDISPLAY
280
     0
  9
$INTERSECTIONCOLOR
 70
   257
  9
$DIMASSOC
280
     1
  9
$PROJECTNAME
  1

  9
$CAMERADISPLAY
290
     0
  9
$LENSLENGTH
 40
50.0
  9
$CAMERAHEIGHT
 40
0.0
  9
$STEPSPERSEC
 40
2.0
  9
$STEPSIZE
 40
6.0
  9
$3DDWFPREC
 40
2.0
  9
$PSOLWIDTH
 40
0.25
  9
$PSOLHEIGHT
 40
4.0
  9
$LOFTANG1
 40
1.570796326794896
  9
$LOFTANG2
 40
1.570796326794896
  9
$LOFTMAG1
 40
0.0
  9
$LOFTMAG2
 40
0.0
  9
$LOFTPARAM
 70
     7
  9
$LOFTNORMALS
280
     1
  9
$LATITUDE
 40
37.795
  9
$LONGITUDE
 40
-122.394
  9
$NORTHDIRECTION
 40
0.0
  9
$TIMEZONE
 70
 -8000
  9
$LIGHTGLYPHDISPLAY
280
     1
  9
$TILEMODELIGHTSYNCH
280
     1
  9
$CMATERIAL
347
70827
  9
$SOLIDHIST
280
     0
  9
$SHOWHIST
280
     1
  9
$DWFFRAME
280
     2
  9
$DGNFRAME
280
     0
  9
$REALWORLDSCALE
290
     1
  9
$INTERFERECOLOR
 62
     1
  9
$INTERFEREOBJVS
345
70849
  9
$INTERFEREVPVS
346
7095C
  9
$CSHADOW
280
     0
  9
$SHADOWPLANELOCATION
 40
0.0
  0
ENDSEC
  0
SECTION
  2
CLASSES
  0
CLASS
  1
DICTIONARYVAR
  2
AcDbDictionaryVar
  3
ObjectDBX Classes
 90
        0
 91
       13
280
     0
281
     0
  0
CLASS
  1
SORTENTSTABLE
  2
AcDbSortentsTable
  3
ObjectDBX Classes
 90
        0
 91
        1
280
     0
281
     0
  0
CLASS
  1
ACDBDICTIONARYWDFLT
  2
AcDbDictionaryWithDefault
  3
ObjectDBX Classes
 90
        0
 91
        1
280
     0
281
     0
  0
CLASS
  1
TABLESTYLE
  2
AcDbTableStyle
  3
ObjectDBX Classes
 90
     4095
 91
        1
280
     0
281
     0
  0
CLASS
  1
MATERIAL
  2
AcDbMaterial
  3
ObjectDBX Classes
 90
     1153
 91
        3
280
     0
281
     0
  0
CLASS
  1
VISUALSTYLE
  2
AcDbVisualStyle
  3
ObjectDBX Classes
 90
     4095
 91
       26
280
     0
281
     0
  0
CLASS
  1
SCALE
  2
AcDbScale
  3
ObjectDBX Classes
 90
     1153
 91
       33
280
     0
281
     0
  0
CLASS
  1
MLEADERSTYLE
  2
AcDbMLeaderStyle
  3
ACDB_MLEADERSTYLE_CLASS
 90
     4095
 91
        1
280
     0
281
     0
  0
CLASS
  1
CELLSTYLEMAP
  2
AcDbCellStyleMap
  3
ObjectDBX Classes
 90
     1152
 91
        2
280
     0
281
     0
  0
CLASS
  1
ACDBSECTIONVIEWSTYLE
  2
AcDbSectionViewStyle
  3
ObjectDBX Classes
 90
     1025
 91
        1
280
     0
281
     0
  0
CLASS
  1
ACDBDETAILVIEWSTYLE
  2
AcDbDetailViewStyle
  3
ObjectDBX Classes
 90
     1025
 91
        1
280
     0
281
     0
  0
ENDSEC
  0
SECTION
  2
TABLES
  0
TABLE
  2
VPORT
  5
8
102
{ACAD_XDICTIONARY
360
7092D
102
}
330
0
100
AcDbSymbolTable
 70
     1
  0
VPORT
  5
70825
330
8
100
AcDbSymbolTableRecord
100
AcDbViewportTableRecord
  2
*Active
 70
     0
 10
0.0
 20
0.0
 11
1.0
 21
1.0
 12
-24367.15775357038
 22
38999.024202238
 13
0.0
 23
0.0
 14
0.433012701892219
 24
0.125
 15
0.433012701892219
 25
0.125
 16
0.0
 26
0.0
 36
1.0
 17
0.0
 27
0.0
 37
0.0
 40
6774.703407262373
 41
2.292712066905615
 42
50.0
 43
0.0
 44
0.0
 50
0.0
 51
0.0
 71
     0
 72
   100
 73
     1
 74
     1
 75
     0
 76
     0
 77
     0
 78
     1
281
     0
 65
     1
110
0.0
120
0.0
130
0.0
111
1.0
121
0.0
131
0.0
112
0.0
122
1.0
132
0.0
 79
     0
146
0.0
348
70845
 60
     3
 61
     5
292
     1
282
     1
141
0.0
142
0.0
 63
   250
421
  3355443
1001
ACAD_NAV_VCDISPLAY
1070
     3
  0
ENDTAB
  0
TABLE
  2
LTYPE
  5
5
330
0
100
AcDbSymbolTable
 70
     3
  0
LTYPE
  5
12
330
5
100
AcDbSymbolTableRecord
100
AcDbLinetypeTableRecord
  2
BYBLOCK
 70
     0
  3

 72
    65
 73
     0
 40
0.0
  0
LTYPE
  5
13
330
5
100
AcDbSymbolTableRecord
100
AcDbLinetypeTableRecord
  2
BYLAYER
 70
     0
  3

 72
    65
 73
     0
 40
0.0
  0
LTYPE
  5
14
330
5
100
AcDbSymbolTableRecord
100
AcDbLinetypeTableRecord
  2
CONTINUOUS
 70
     0
  3
Solid line
 72
    65
 73
     0
 40
0.0
  0
LTYPE
  5
8BF
330
5
100
AcDbSymbolTableRecord
100
AcDbLinetypeTableRecord
  2
HIDDEN
 70
     0
  3
Hidden __ __ __ __ __ __ __ __ __ __ __ __ __ _
 72
    65
 73
     2
 40
0.375
 49
0.25
 74
     0
 49
-0.125
 74
     0
  0
LTYPE
  5
7090E
330
5
100
AcDbSymbolTableRecord
100
AcDbLinetypeTableRecord
  2
CENTER2
 70
     0
  3
Center (.5x) ___ _ ___ _ ___ _ ___ _ ___ _ ___
 72
    65
 73
     4
 40
1.125
 49
0.75
 74
     0
 49
-0.125
 74
     0
 49
0.125
 74
     0
 49
-0.125
 74
     0
  0
ENDTAB
  0
TABLE
  2
LAYER
  5
2
102
{ACAD_XDICTIONARY
360
2687
102
}
330
0
100
AcDbSymbolTable
 70
     8
  0
LAYER
  5
E
102
{ACAD_XDICTIONARY
360
70883
102
}
330
2
100
AcDbSymbolTableRecord
100
AcDbLayerTableRecord
  2
0
 70
     0
 62
     7
  6
CONTINUOUS
370
    -3
390
1DD2
347
70837
  0
LAYER
  5
1F9
330
2
100
AcDbSymbolTableRecord
100
AcDbLayerTableRecord
  2
DEFPOINTS
 70
     0
 62
     7
  6
CONTINUOUS
290
     0
370
    -3
390
1DD2
347
70837
  0
LAYER
  5
8C0
102
{ACAD_XDICTIONARY
360
70885
102
}
330
2
100
AcDbSymbolTableRecord
100
AcDbLayerTableRecord
  2
APPLICATION
 70
     0
 62
     3
  6
CONTINUOUS
370
    -3
390
1DD2
347
70837
  0
LAYER
  5
8C1
102
{ACAD_XDICTIONARY
360
70887
102
}
330
2
100
AcDbSymbolTableRecord
100
AcDbLayerTableRecord
  2
TEXT
 70
     0
 62
     7
  6
CONTINUOUS
370
    -3
390
1DD2
347
70837
  0
LAYER
  5
3341
102
{ACAD_XDICTIONARY
360
70889
102
}
330
2
100
AcDbSymbolTableRecord
100
AcDbLayerTableRecord
  2
DETAIL
 70
     0
 62
     2
  6
CONTINUOUS
370
    -3
390
1DD2
347
70837
  0
LAYER
  5
3344
102
{ACAD_XDICTIONARY
360
7088B
102
}
330
2
100
AcDbSymbolTableRecord
100
AcDbLayerTableRecord
  2
DIMS
 70
     0
 62
     7
  6
CONTINUOUS
370
    -3
390
1DD2
347
70837
  0
LAYER
  5
3393
102
{ACAD_XDICTIONARY
360
7088D
102
}
330
2
100
AcDbSymbolTableRecord
100
AcDbLayerTableRecord
  2
Wheels
 70
     0
 62
     7
  6
CONTINUOUS
370
    -3
390
1DD2
347
70837
  0
LAYER
  5
4AF9F
102
{ACAD_XDICTIONARY
360
7088F
102
}
330
2
100
AcDbSymbolTableRecord
100
AcDbLayerTableRecord
  2
CENTRE
 70
     0
 62
     4
  6
CENTER2
370
    -3
390
1DD2
347
70837
1001
AcAecLayerStandard
1000

1000

  0
ENDTAB
  0
TABLE
  2
STYLE
  5
3
330
0
100
AcDbSymbolTable
 70
     2
  0
STYLE
  5
F
330
3
100
AcDbSymbolTableRecord
100
AcDbTextStyleTableRecord
  2
STANDARD
 70
     0
 40
0.0
 41
1.0
 50
0.0
 71
     0
 42
100.0
  3
txt
  4

  0
STYLE
  5
708B9
330
3
100
AcDbSymbolTableRecord
100
AcDbTextStyleTableRecord
  2
fastrack
 70
     0
 40
0.0
 41
1.0
 50
0.0
 71
     0
 42
2.5
  3
simplex.shx
  4

  0
ENDTAB
  0
TABLE
  2
VIEW
  5
6
330
0
100
AcDbSymbolTable
 70
     1
  0
ENDTAB
  0
TABLE
  2
UCS
  5
7
330
0
100
AcDbSymbolTable
 70
     0
  0
ENDTAB
  0
TABLE
  2
APPID
  5
9
330
0
100
AcDbSymbolTable
 70
     5
  0
APPID
  5
10
330
9
100
AcDbSymbolTableRecord
100
AcDbRegAppTableRecord
  2
ACAD
 70
     0
  0
APPID
  5
4AFA0
330
9
100
AcDbSymbolTableRecord
100
AcDbRegAppTableRecord
  2
AcAecLayerStandard
 70
     0
  0
APPID
  5
500E7
330
9
100
AcDbSymbolTableRecord
100
AcDbRegAppTableRecord
  2
ACAD_DSTYLE_DIMTEXT_FILL
 70
     0
  0
APPID
  5
70874
330
9
100
AcDbSymbolTableRecord
100
AcDbRegAppTableRecord
  2
ACAD_MLEADERVER
 70
     0
  0
APPID
  5
70974
330
9
100
AcDbSymbolTableRecord
100
AcDbRegAppTableRecord
  2
ACAD_NAV_VCDISPLAY
 70
     0
  0
ENDTAB
  0
TABLE
  2
DIMSTYLE
  5
A
330
0
100
AcDbSymbolTable
 70
     1
100
AcDbDimStyleTable
 71
     1
340
1D
  0
DIMSTYLE
105
1D
102
{ACAD_REACTORS
330
6E427
330
6E422
330
6E423
102
}
330
A
100
AcDbSymbolTableRecord
100
AcDbDimStyleTableRecord
  2
STANDARD
 70
     0
340
F
  0
ENDTAB
  0
TABLE
  2
BLOCK_RECORD
  5
1
330
0
100
AcDbSymbolTable
 70
     3
  0
BLOCK_RECORD
  5
18
102
{ACAD_XDICTIONARY
360
3F6
102
}
330
1
100
AcDbSymbolTableRecord
100
AcDbBlockTableRecord
  2
*MODEL_SPACE
340
1DD5
 70
     0
280
     1
281
     0
  0
BLOCK_RECORD
  5
15
330
1
100
AcDbSymbolTableRecord
100
AcDbBlockTableRecord
  2
*PAPER_SPACE
340
1DD6
 70
     0
280
     1
281
     0
  0
BLOCK_RECORD
  5
6E436
330
1
100
AcDbSymbolTableRecord
100
AcDbBlockTableRecord
  2
*D0
340
0
 70
     0
280
     1
281
     0
  0
BLOCK_RECORD
  5
6E443
330
1
100
AcDbSymbolTableRecord
100
AcDbBlockTableRecord
  2
*D1
340
0
 70
     0
280
     1
281
     0
  0
BLOCK_RECORD
  5
6E477
330
1
100
AcDbSymbolTableRecord
100
AcDbBlockTableRecord
  2
*D2
340
0
 70
     0
280
     1
281
     0
  0
ENDTAB
  0
ENDSEC
  0
SECTION
  2
BLOCKS
  0
BLOCK
  5
19
330
18
100
AcDbEntity
  8
0
100
AcDbBlockBegin
  2
*MODEL_SPACE
 70
     0
 10
0.0
 20
0.0
 30
0.0
  3
*MODEL_SPACE
  1

  0
ENDBLK
  5
1A
330
18
100
AcDbEntity
  8
0
100
AcDbBlockEnd
  0
BLOCK
  5
16
330
15
100
AcDbEntity
 67
     1
  8
0
100
AcDbBlockBegin
  2
*PAPER_SPACE
 70
     0
 10
0.0
 20
0.0
 30
0.0
  3
*PAPER_SPACE
  1

  0
ENDBLK
  5
17
330
15
100
AcDbEntity
 67
     1
  8
0
100
AcDbBlockEnd
  0
BLOCK
  5
6E441
330
6E436
100
AcDbEntity
  8
0
 62
     9
 48
10.0
100
AcDbBlockBegin
  2
*D0
 70
     1
 10
0.0
 20
0.0
 30
0.0
  3
*D0
  1

  0
LINE
  5
708EF
330
6E436
100
AcDbEntity
  8
DIMS
  6
Continuous
 62
     7
440
 16777216
 48
10.0
370
    -2
100
AcDbLine
 10
-31256.4058334899
 20
38617.97120844297
 30
0.0
 11
-31519.9954133046
 21
38617.97120844297
 31
0.0
  0
LINE
  5
708F0
330
6E436
100
AcDbEntity
  8
DIMS
  6
Continuous
 62
     7
440
 16777216
 48
10.0
370
    -2
100
AcDbLine
 10
-30849.40712720185
 20
40617.97120844296
 30
0.0
 11
-31519.9954133046
 21
40617.97120844296
 31
0.0
  0
LINE
  5
708F1
330
6E436
100
AcDbEntity
  8
DIMS
  6
Continuous
 62
     7
440
 16777216
 48
10.0
370
    -2
100
AcDbLine
 10
-31482.4954133046
 20
38682.97120844296
 30
0.0
 11
-31482.4954133046
 21
38892.97120844296
 31
0.0
  0
LINE
  5
708F2
330
6E436
100
AcDbEntity
  8
DIMS
  6
Continuous
 62
     7
440
 16777216
 48
10.0
370
    -2
100
AcDbLine
 10
-31482.4954133046
 20
40552.97120844296
 30
0.0
 11
-31482.4954133046
 21
40342.97120844296
 31
0.0
  0
SOLID
  5
708F3
330
6E436
100
AcDbEntity
  8
DIMS
  6
Continuous
 62
     7
440
 16777216
 48
10.0
100
AcDbTrace
 10
-31493.32874663793
 20
38682.97120844296
 30
0.0
 11
-31471.66207997126
 21
38682.97120844296
 31
0.0
 12
-31482.4954133046
 22
38617.97120844297
 32
0.0
 13
-31482.4954133046
 23
38617.97120844297
 33
0.0
  0
SOLID
  5
708F4
330
6E436
100
AcDbEntity
  8
DIMS
  6
Continuous
 62
     7
440
 16777216
 48
10.0
100
AcDbTrace
 10
-31493.32874663793
 20
40552.97120844296
 30
0.0
 11
-31471.66207997126
 21
40552.97120844296
 31
0.0
 12
-31482.4954133046
 22
40617.97120844296
 32
0.0
 13
-31482.4954133046
 23
40617.97120844296
 33
0.0
  0
MTEXT
  5
708F5
330
6E436
100
AcDbEntity
  8
DIMS
  6
Continuous
 62
     7
440
 16777216
 48
10.0
100
AcDbMText
 10
-31482.4954133046
 20
39617.97120844297
 30
0.0
 40
75.0
 41
0.0
 46
0.0
 71
     5
 72
     1
  1
\A1;To suit fence height
 11
0.0000000000000001
 21
1.0
 31
0.0
 73
     1
 44
1.0
  0
POINT
  5
708F6
330
6E436
100
AcDbEntity
  8
DEFPOINTS
  6
Continuous
 62
     0
440
 16777216
 48
10.0
100
AcDbPoint
 10
-31218.9058334899
 20
38617.97120844297
 30
0.0
  0
POINT
  5
708F7
330
6E436
100
AcDbEntity
  8
DEFPOINTS
  6
Continuous
 62
     0
440
 16777216
 48
10.0
100
AcDbPoint
 10
-30811.90712720185
 20
40617.97120844296
 30
0.0
  0
POINT
  5
708F8
330
6E436
100
AcDbEntity
  8
DEFPOINTS
  6
Continuous
 62
     0
440
 16777216
 48
10.0
100
AcDbPoint
 10
-31482.4954133046
 20
40617.97120844296
 30
0.0
  0
ENDBLK
  5
6E442
330
6E436
100
AcDbEntity
  8
0
 62
     9
 48
10.0
100
AcDbBlockEnd
  0
BLOCK
  5
6E44E
330
6E443
100
AcDbEntity
  8
0
 62
     9
 48
10.0
100
AcDbBlockBegin
  2
*D1
 70
     1
 10
0.0
 20
0.0
 30
0.0
  3
*D1
  1

  0
LINE
  5
708F9
330
6E443
100
AcDbEntity
  8
DIMS
  6
Continuous
 62
     7
440
 16777216
 48
10.0
370
    -2
100
AcDbLine
 10
-30949.40712720185
 20
37857.97120844296
 30
0.0
 11
-31519.9954133046
 21
37857.97120844296
 31
0.0
  0
LINE
  5
708FA
330
6E443
100
AcDbEntity
  8
DIMS
  6
Continuous
 62
     7
440
 16777216
 48
10.0
370
    -2
100
AcDbLine
 10
-31256.4058334899
 20
38617.97120844297
 30
0.0
 11
-31519.9954133046
 21
38617.97120844297
 31
0.0
  0
LINE
  5
708FB
330
6E443
100
AcDbEntity
  8
DIMS
  6
Continuous
 62
     7
440
 16777216
 48
10.0
370
    -2
100
AcDbLine
 10
-31482.4954133046
 20
37922.97120844296
 30
0.0
 11
-31482.4954133046
 21
38106.72120844296
 31
0.0
  0
LINE
  5
708FC
330
6E443
100
AcDbEntity
  8
DIMS
  6
Continuous
 62
     7
440
 16777216
 48
10.0
370
    -2
100
AcDbLine
 10
-31482.4954133046
 20
38552.97120844296
 30
0.0
 11
-31482.4954133046
 21
38369.22120844296
 31
0.0
  0
SOLID
  5
708FD
330
6E443
100
AcDbEntity
  8
DIMS
  6
Continuous
 62
     7
440
 16777216
 48
10.0
100
AcDbTrace
 10
-31493.32874663793
 20
37922.97120844296
 30
0.0
 11
-31471.66207997126
 21
37922.97120844296
 31
0.0
 12
-31482.4954133046
 22
37857.97120844296
 32
0.0
 13
-31482.4954133046
 23
37857.97120844296
 33
0.0
  0
SOLID
  5
708FE
330
6E443
100
AcDbEntity
  8
DIMS
  6
Continuous
 62
     7
440
 16777216
 48
10.0
100
AcDbTrace
 10
-31493.32874663793
 20
38552.97120844296
 30
0.0
 11
-31471.66207997126
 21
38552.97120844296
 31
0.0
 12
-31482.4954133046
 22
38617.97120844297
 32
0.0
 13
-31482.4954133046
 23
38617.97120844297
 33
0.0
  0
MTEXT
  5
708FF
330
6E443
100
AcDbEntity
  8
DIMS
  6
Continuous
 62
     7
440
 16777216
 48
10.0
100
AcDbMText
 10
-31482.4954133046
 20
38237.97120844297
 30
0.0
 40
75.0
 41
0.0
 46
0.0
 71
     5
 72
     1
  1
\A1;760
 11
0.0000000000000001
 21
1.0
 31
0.0
 73
     1
 44
1.0
  0
POINT
  5
70900
330
6E443
100
AcDbEntity
  8
DEFPOINTS
  6
Continuous
 62
     0
440
 16777216
 48
10.0
100
AcDbPoint
 10
-30911.90712720185
 20
37857.97120844296
 30
0.0
  0
POINT
  5
70901
330
6E443
100
AcDbEntity
  8
DEFPOINTS
  6
Continuous
 62
     0
440
 16777216
 48
10.0
100
AcDbPoint
 10
-31218.9058334899
 20
38617.97120844297
 30
0.0
  0
POINT
  5
70902
330
6E443
100
AcDbEntity
  8
DEFPOINTS
  6
Continuous
 62
     0
440
 16777216
 48
10.0
100
AcDbPoint
 10
-31482.4954133046
 20
38617.97120844297
 30
0.0
  0
ENDBLK
  5
6E44F
330
6E443
100
AcDbEntity
  8
0
 62
     9
 48
10.0
100
AcDbBlockEnd
  0
BLOCK
  5
6E482
330
6E477
100
AcDbEntity
  8
0
 62
     9
 48
10.0
100
AcDbBlockBegin
  2
*D2
 70
     1
 10
0.0
 20
0.0
 30
0.0
  3
*D2
  1

  0
LINE
  5
708E5
330
6E477
100
AcDbEntity
  8
DIMS
  6
Continuous
 62
     7
440
 16777216
 48
10.0
370
    -2
100
AcDbLine
 10
-30661.90712720185
 20
40655.47120844296
 30
0.0
 11
-30661.90712720185
 21
41165.93008562642
 31
0.0
  0
LINE
  5
708E6
330
6E477
100
AcDbEntity
  8
DIMS
  6
Continuous
 62
     7
440
 16777216
 48
10.0
370
    -2
100
AcDbLine
 10
-26471.90712720186
 20
40655.47120844296
 30
0.0
 11
-26471.90712720186
 21
41165.93008562642
 31
0.0
  0
LINE
  5
708E7
330
6E477
100
AcDbEntity
  8
DIMS
  6
Continuous
 62
     7
440
 16777216
 48
10.0
370
    -2
100
AcDbLine
 10
-30596.90712720185
 20
41128.43008562642
 30
0.0
 11
-29041.90712720185
 21
41128.43008562642
 31
0.0
  0
LINE
  5
708E8
330
6E477
100
AcDbEntity
  8
DIMS
  6
Continuous
 62
     7
440
 16777216
 48
10.0
370
    -2
100
AcDbLine
 10
-26536.90712720186
 20
41128.43008562642
 30
0.0
 11
-28091.90712720185
 21
41128.43008562642
 31
0.0
  0
SOLID
  5
708E9
330
6E477
100
AcDbEntity
  8
DIMS
  6
Continuous
 62
     7
440
 16777216
 48
10.0
100
AcDbTrace
 10
-30596.90712720185
 20
41139.26341895975
 30
0.0
 11
-30596.90712720185
 21
41117.59675229309
 31
0.0
 12
-30661.90712720185
 22
41128.43008562642
 32
0.0
 13
-30661.90712720185
 23
41128.43008562642
 33
0.0
  0
SOLID
  5
708EA
330
6E477
100
AcDbEntity
  8
DIMS
  6
Continuous
 62
     7
440
 16777216
 48
10.0
100
AcDbTrace
 10
-26536.90712720186
 20
41139.26341895975
 30
0.0
 11
-26536.90712720186
 21
41117.59675229309
 31
0.0
 12
-26471.90712720186
 22
41128.43008562642
 32
0.0
 13
-26471.90712720186
 23
41128.43008562642
 33
0.0
  0
MTEXT
  5
708EB
330
6E477
100
AcDbEntity
  8
DIMS
  6
Continuous
 62
     7
440
 16777216
 48
10.0
100
AcDbMText
 10
-28566.90712720185
 20
41128.43008562642
 30
0.0
 40
75.0
 41
0.0
 46
0.0
 71
     5
 72
     1
  1
\A1;Opening Width
 73
     1
 44
1.0
  0
POINT
  5
708EC
330
6E477
100
AcDbEntity
  8
DEFPOINTS
  6
Continuous
 62
     0
440
 16777216
 48
10.0
100
AcDbPoint
 10
-30661.90712720185
 20
40617.97120844296
 30
0.0
  0
POINT
  5
708ED
330
6E477
100
AcDbEntity
  8
DEFPOINTS
  6
Continuous
 62
     0
440
 16777216
 48
10.0
100
AcDbPoint
 10
-26471.90712720186
 20
40617.97120844296
 30
0.0
  0
POINT
  5
708EE
330
6E477
100
AcDbEntity
  8
DEFPOINTS
  6
Continuous
 62
     0
440
 16777216
 48
10.0
100
AcDbPoint
 10
-26471.90712720186
 20
41128.43008562642
 30
0.0
  0
ENDBLK
  5
6E483
330
6E477
100
AcDbEntity
  8
0
 62
     9
 48
10.0
100
AcDbBlockEnd
  0
ENDSEC
  0
SECTION
  2
ENTITIES
  0
MTEXT
  5
223A
330
18
100
AcDbEntity
  8
0
 62
     4
100
AcDbMText
 10
-65057.55759819336
 20
16020.13006648888
 30
0.0
 40
150.0
 41
0.0
 46
0.0
 71
     9
 72
     1
  1

 73
     1
 44
1.0
  0
MTEXT
  5
2247
330
18
100
AcDbEntity
  8
0
 62
     4
100
AcDbMText
 10
-62412.73411120157
 20
19728.58279937692
 30
0.0
 40
150.0
 41
0.0
 46
0.0
 71
     1
 72
     1
  1

 73
     1
 44
1.0
  0
MTEXT
  5
2269
330
18
100
AcDbEntity
  8
0
 62
     4
100
AcDbMText
 10
-64945.21481755508
 20
21199.36977331157
 30
0.0
 40
150.0
 41
0.0
 46
0.0
 71
     9
 72
     1
  1

 73
     1
 44
1.0
  0
MTEXT
  5
226B
330
18
100
AcDbEntity
  8
0
 62
     4
100
AcDbMText
 10
-64553.40786432562
 20
21492.92157019591
 30
0.0
 40
150.0
 41
0.0
 46
0.0
 71
     9
 72
     1
  1

 73
     1
 44
1.0
  0
MTEXT
  5
25E4
330
18
100
AcDbEntity
  8
0
 62
     4
100
AcDbMText
 10
-82092.36887810718
 20
23420.25
 30
0.0
 40
150.0
 41
0.0
 46
0.0
 71
     9
 72
     1
  1

 73
     1
 44
1.0
  0
MTEXT
  5
25FD
330
18
100
AcDbEntity
  8
0
 62
     4
100
AcDbMText
 10
-79170.39916573847
 20
26187.25
 30
0.0
 40
150.0
 41
0.0
 46
0.0
 71
     9
 72
     1
  1

 73
     1
 44
1.0
  0
MTEXT
  5
2605
330
18
100
AcDbEntity
  8
0
 62
     4
100
AcDbMText
 10
-79516.19870940507
 20
25811.0
 30
0.0
 40
150.0
 41
0.0
 46
0.0
 71
     1
 72
     1
  1

 73
     1
 44
1.0
  0
MTEXT
  5
2612
330
18
100
AcDbEntity
  8
0
 62
     4
100
AcDbMText
 10
-80754.18202411492
 20
24506.25
 30
0.0
 40
150.0
 41
0.0
 46
0.0
 71
     1
 72
     1
  1

 73
     1
 44
1.0
  0
MTEXT
  5
2614
330
18
100
AcDbEntity
  8
0
 62
     4
100
AcDbMText
 10
-80504.33369512308
 20
24224.5
 30
0.0
 40
150.0
 41
0.0
 46
0.0
 71
     1
 72
     1
  1

 73
     1
 44
1.0
  0
MTEXT
  5
2699
330
18
100
AcDbEntity
  8
0
 62
     4
100
AcDbMText
 10
-39111.85950908843
 20
16755.49998887996
 30
0.0
 40
150.0
 41
0.0
 46
0.0
 71
     1
 72
     1
  1

 73
     1
 44
1.0
  0
MTEXT
  5
26A5
330
18
100
AcDbEntity
  8
0
 62
     4
100
AcDbMText
 10
-50107.0196274346
 20
18563.0
 30
0.0
 40
150.0
 41
0.0
 46
0.0
 71
     9
 72
     1
  1

 73
     1
 44
1.0
  0
MTEXT
  5
26A7
330
18
100
AcDbEntity
  8
0
 62
     4
100
AcDbMText
 10
-49957.0196274346
 20
18563.0
 30
0.0
 40
150.0
 41
0.0
 46
0.0
 71
     9
 72
     1
  1

 73
     1
 44
1.0
  0
MTEXT
  5
2D52
330
18
100
AcDbEntity
  8
0
 62
     4
100
AcDbMText
 10
-95954.71146715064
 20
-2229.024782799104
 30
0.0
 40
150.0
 41
0.0
 46
0.0
 71
     9
 72
     1
  1

 73
     1
 44
1.0
  0
MTEXT
  5
2D5E
330
18
100
AcDbEntity
  8
0
 62
     4
100
AcDbMText
 10
-95649.40327458428
 20
-147.6038027895483
 30
0.0
 40
150.0
 41
0.0
 46
0.0
 71
     9
 72
     1
  1

 73
     1
 44
1.0
  0
MTEXT
  5
2D6F
330
18
100
AcDbEntity
  8
0
 62
     4
100
AcDbMText
 10
-91273.48940267511
 20
2040.818605162
 30
0.0
 40
150.0
 41
0.0
 46
0.0
 71
     1
 72
     1
  1

 73
     1
 44
1.0
  0
MTEXT
  5
2DAC
330
18
100
AcDbEntity
  8
0
 62
     4
100
AcDbMText
 10
-60177.69368182653
 20
21404.70521028555
 30
0.0
 40
150.0
 41
0.0
 46
0.0
 71
     9
 72
     1
  1

 73
     1
 44
1.0
  0
MTEXT
  5
2E8F
330
18
100
AcDbEntity
  8
0
 62
     4
100
AcDbMText
 10
-63998.84032221709
 20
24015.45242580053
 30
0.0
 40
150.0
 41
0.0
 46
0.0
 71
     1
 72
     1
  1

 73
     1
 44
1.0
  0
MTEXT
  5
2F02
330
18
100
AcDbEntity
  8
0
 62
     4
100
AcDbMText
 10
-55750.57814285584
 20
23772.33591798555
 30
0.0
 40
150.0
 41
0.0
 46
0.0
 71
     1
 72
     1
  1

 73
     1
 44
1.0
  0
MTEXT
  5
4D28
330
18
100
AcDbEntity
  8
Wheels
  6
Continuous
 62
     4
 48
200.0
100
AcDbMText
 10
-47043.80677721783
 20
26390.99418897268
 30
0.0
 40
75.0
 41
0.0
 46
0.0
 71
     9
 72
     1
  1

 73
     1
 44
1.0
  0
MTEXT
  5
4D2A
330
18
100
AcDbEntity
  8
Wheels
  6
Continuous
 62
     4
 48
200.0
100
AcDbMText
 10
-44295.54056509596
 20
24935.04061064907
 30
0.0
 40
75.0
 41
0.0
 46
0.0
 71
     1
 72
     1
  1

 73
     1
 44
1.0
  0
MTEXT
  5
4D2C
330
18
100
AcDbEntity
  8
Wheels
  6
Continuous
 62
     4
 48
200.0
100
AcDbMText
 10
-44286.73291336576
 20
24591.89584020972
 30
0.0
 40
75.0
 41
0.0
 46
0.0
 71
     1
 72
     1
  1

 73
     1
 44
1.0
  0
MTEXT
  5
4D2E
330
18
100
AcDbEntity
  8
Wheels
  6
Continuous
 62
     4
 48
200.0
100
AcDbMText
 10
-44428.89489861268
 20
24035.5286644565
 30
0.0
 40
75.0
 41
0.0
 46
0.0
 71
     1
 72
     1
  1

 73
     1
 44
1.0
  0
MTEXT
  5
1969B
330
18
100
AcDbEntity
  8
0
 62
     4
100
AcDbMText
 10
112013.9474135319
 20
16020.13006648888
 30
0.0
 40
150.0
 41
0.0
 46
0.0
 71
     7
 72
     1
  1

 73
     1
 44
1.0
  0
MTEXT
  5
1969C
330
18
100
AcDbEntity
  8
0
 62
     4
100
AcDbMText
 10
109369.1239265401
 20
19728.58279937692
 30
0.0
 40
150.0
 41
0.0
 46
0.0
 71
     3
 72
     1
  1

 73
     1
 44
1.0
  0
MTEXT
  5
1969D
330
18
100
AcDbEntity
  8
0
 62
     4
100
AcDbMText
 10
111901.6046328936
 20
21199.36977331157
 30
0.0
 40
150.0
 41
0.0
 46
0.0
 71
     7
 72
     1
  1

 73
     1
 44
1.0
  0
MTEXT
  5
1969E
330
18
100
AcDbEntity
  8
0
 62
     4
100
AcDbMText
 10
111509.7976796641
 20
21492.92157019591
 30
0.0
 40
150.0
 41
0.0
 46
0.0
 71
     7
 72
     1
  1

 73
     1
 44
1.0
  0
MTEXT
  5
1969F
330
18
100
AcDbEntity
  8
0
 62
     4
100
AcDbMText
 10
129048.7586934456
 20
23420.25
 30
0.0
 40
150.0
 41
0.0
 46
0.0
 71
     7
 72
     1
  1

 73
     1
 44
1.0
  0
MTEXT
  5
196A0
330
18
100
AcDbEntity
  8
0
 62
     4
100
AcDbMText
 10
126126.788981077
 20
26187.25
 30
0.0
 40
150.0
 41
0.0
 46
0.0
 71
     7
 72
     1
  1

 73
     1
 44
1.0
  0
MTEXT
  5
196A1
330
18
100
AcDbEntity
  8
0
 62
     4
100
AcDbMText
 10
126472.5885247435
 20
25811.0
 30
0.0
 40
150.0
 41
0.0
 46
0.0
 71
     3
 72
     1
  1

 73
     1
 44
1.0
  0
MTEXT
  5
196A2
330
18
100
AcDbEntity
  8
0
 62
     4
100
AcDbMText
 10
127710.5718394534
 20
24506.25
 30
0.0
 40
150.0
 41
0.0
 46
0.0
 71
     3
 72
     1
  1

 73
     1
 44
1.0
  0
MTEXT
  5
196A3
330
18
100
AcDbEntity
  8
0
 62
     4
100
AcDbMText
 10
127460.7235104616
 20
24224.5
 30
0.0
 40
150.0
 41
0.0
 46
0.0
 71
     3
 72
     1
  1

 73
     1
 44
1.0
  0
MTEXT
  5
196A4
330
18
100
AcDbEntity
  8
0
 62
     4
100
AcDbMText
 10
86068.24932442693
 20
16755.49998887996
 30
0.0
 40
150.0
 41
0.0
 46
0.0
 71
     3
 72
     1
  1

 73
     1
 44
1.0
  0
MTEXT
  5
196A5
330
18
100
AcDbEntity
  8
0
 62
     4
100
AcDbMText
 10
97063.40944277306
 20
18563.0
 30
0.0
 40
150.0
 41
0.0
 46
0.0
 71
     7
 72
     1
  1

 73
     1
 44
1.0
  0
MTEXT
  5
196A6
330
18
100
AcDbEntity
  8
0
 62
     4
100
AcDbMText
 10
96913.40944277307
 20
18563.0
 30
0.0
 40
150.0
 41
0.0
 46
0.0
 71
     7
 72
     1
  1

 73
     1
 44
1.0
  0
MTEXT
  5
196A7
330
18
100
AcDbEntity
  8
0
 62
     4
100
AcDbMText
 10
142911.1012824891
 20
-2229.024782799104
 30
0.0
 40
150.0
 41
0.0
 46
0.0
 71
     7
 72
     1
  1

 73
     1
 44
1.0
  0
MTEXT
  5
196A8
330
18
100
AcDbEntity
  8
0
 62
     4
100
AcDbMText
 10
142605.7930899227
 20
-147.6038027895483
 30
0.0
 40
150.0
 41
0.0
 46
0.0
 71
     7
 72
     1
  1

 73
     1
 44
1.0
  0
MTEXT
  5
196A9
330
18
100
AcDbEntity
  8
0
 62
     4
100
AcDbMText
 10
138229.8792180136
 20
2040.818605162
 30
0.0
 40
150.0
 41
0.0
 46
0.0
 71
     3
 72
     1
  1

 73
     1
 44
1.0
  0
MTEXT
  5
196AA
330
18
100
AcDbEntity
  8
0
 62
     4
100
AcDbMText
 10
107134.083497165
 20
21404.70521028555
 30
0.0
 40
150.0
 41
0.0
 46
0.0
 71
     7
 72
     1
  1

 73
     1
 44
1.0
  0
MTEXT
  5
196AB
330
18
100
AcDbEntity
  8
0
 62
     4
100
AcDbMText
 10
110955.2301375556
 20
24015.45242580053
 30
0.0
 40
150.0
 41
0.0
 46
0.0
 71
     3
 72
     1
  1

 73
     1
 44
1.0
  0
MTEXT
  5
196AC
330
18
100
AcDbEntity
  8
0
 62
     4
100
AcDbMText
 10
102706.9679581943
 20
23772.33591798555
 30
0.0
 40
150.0
 41
0.0
 46
0.0
 71
     3
 72
     1
  1

 73
     1
 44
1.0
  0
MTEXT
  5
196AD
330
18
100
AcDbEntity
  8
Wheels
  6
Continuous
 62
     4
 48
200.0
100
AcDbMText
 10
94000.19659255633
 20
26390.99418897268
 30
0.0
 40
75.0
 41
0.0
 46
0.0
 71
     7
 72
     1
  1

 73
     1
 44
1.0
  0
MTEXT
  5
196AE
330
18
100
AcDbEntity
  8
Wheels
  6
Continuous
 62
     4
 48
200.0
100
AcDbMText
 10
91251.93038043445
 20
24935.04061064907
 30
0.0
 40
75.0
 41
0.0
 46
0.0
 71
     3
 72
     1
  1

 73
     1
 44
1.0
  0
MTEXT
  5
196AF
330
18
100
AcDbEntity
  8
Wheels
  6
Continuous
 62
     4
 48
200.0
100
AcDbMText
 10
91243.12272870424
 20
24591.89584020972
 30
0.0
 40
75.0
 41
0.0
 46
0.0
 71
     3
 72
     1
  1

 73
     1
 44
1.0
  0
MTEXT
  5
196B0
330
18
100
AcDbEntity
  8
Wheels
  6
Continuous
 62
     4
 48
200.0
100
AcDbMText
 10
91385.28471395117
 20
24035.5286644565
 30
0.0
 40
75.0
 41
0.0
 46
0.0
 71
     3
 72
     1
  1

 73
     1
 44
1.0
  0
MTEXT
  5
1A355
330
18
100
AcDbEntity
  8
0
 62
     4
100
AcDbMText
 10
111358.9984169163
 20
16020.13006648888
 30
0.0
 40
150.0
 41
0.0
 46
0.0
 71
     7
 72
     1
  1

 73
     1
 44
1.0
  0
MTEXT
  5
1A356
330
18
100
AcDbEntity
  8
0
 62
     4
100
AcDbMText
 10
108714.1749299245
 20
19728.58279937692
 30
0.0
 40
150.0
 41
0.0
 46
0.0
 71
     3
 72
     1
  1

 73
     1
 44
1.0
  0
MTEXT
  5
1A357
330
18
100
AcDbEntity
  8
0
 62
     4
100
AcDbMText
 10
111246.655636278
 20
21199.36977331157
 30
0.0
 40
150.0
 41
0.0
 46
0.0
 71
     7
 72
     1
  1

 73
     1
 44
1.0
  0
MTEXT
  5
1A358
330
18
100
AcDbEntity
  8
0
 62
     4
100
AcDbMText
 10
110854.8486830486
 20
21492.92157019591
 30
0.0
 40
150.0
 41
0.0
 46
0.0
 71
     7
 72
     1
  1

 73
     1
 44
1.0
  0
MTEXT
  5
1A359
330
18
100
AcDbEntity
  8
0
 62
     4
100
AcDbMText
 10
128393.8096968302
 20
23420.25
 30
0.0
 40
150.0
 41
0.0
 46
0.0
 71
     7
 72
     1
  1

 73
     1
 44
1.0
  0
MTEXT
  5
1A35A
330
18
100
AcDbEntity
  8
0
 62
     4
100
AcDbMText
 10
125471.8399844614
 20
26187.25
 30
0.0
 40
150.0
 41
0.0
 46
0.0
 71
     7
 72
     1
  1

 73
     1
 44
1.0
  0
MTEXT
  5
1A35B
330
18
100
AcDbEntity
  8
0
 62
     4
100
AcDbMText
 10
125817.6395281281
 20
25811.0
 30
0.0
 40
150.0
 41
0.0
 46
0.0
 71
     3
 72
     1
  1

 73
     1
 44
1.0
  0
MTEXT
  5
1A35C
330
18
100
AcDbEntity
  8
0
 62
     4
100
AcDbMText
 10
127055.6228428379
 20
24506.25
 30
0.0
 40
150.0
 41
0.0
 46
0.0
 71
     3
 72
     1
  1

 73
     1
 44
1.0
  0
MTEXT
  5
1A35D
330
18
100
AcDbEntity
  8
0
 62
     4
100
AcDbMText
 10
126805.7745138461
 20
24224.5
 30
0.0
 40
150.0
 41
0.0
 46
0.0
 71
     3
 72
     1
  1

 73
     1
 44
1.0
  0
MTEXT
  5
1A35E
330
18
100
AcDbEntity
  8
0
 62
     4
100
AcDbMText
 10
85413.30032781141
 20
16755.49998887996
 30
0.0
 40
150.0
 41
0.0
 46
0.0
 71
     3
 72
     1
  1

 73
     1
 44
1.0
  0
MTEXT
  5
1A35F
330
18
100
AcDbEntity
  8
0
 62
     4
100
AcDbMText
 10
96408.46044615758
 20
18563.0
 30
0.0
 40
150.0
 41
0.0
 46
0.0
 71
     7
 72
     1
  1

 73
     1
 44
1.0
  0
MTEXT
  5
1A360
330
18
100
AcDbEntity
  8
0
 62
     4
100
AcDbMText
 10
96258.46044615759
 20
18563.0
 30
0.0
 40
150.0
 41
0.0
 46
0.0
 71
     7
 72
     1
  1

 73
     1
 44
1.0
  0
MTEXT
  5
1A361
330
18
100
AcDbEntity
  8
0
 62
     4
100
AcDbMText
 10
142256.1522858736
 20
-2229.024782799104
 30
0.0
 40
150.0
 41
0.0
 46
0.0
 71
     7
 72
     1
  1

 73
     1
 44
1.0
  0
MTEXT
  5
1A362
330
18
100
AcDbEntity
  8
0
 62
     4
100
AcDbMText
 10
141950.8440933072
 20
-147.6038027895483
 30
0.0
 40
150.0
 41
0.0
 46
0.0
 71
     7
 72
     1
  1

 73
     1
 44
1.0
  0
MTEXT
  5
1A363
330
18
100
AcDbEntity
  8
0
 62
     4
100
AcDbMText
 10
137574.9302213981
 20
2040.818605162
 30
0.0
 40
150.0
 41
0.0
 46
0.0
 71
     3
 72
     1
  1

 73
     1
 44
1.0
  0
MTEXT
  5
1A364
330
18
100
AcDbEntity
  8
0
 62
     4
100
AcDbMText
 10
106479.1345005495
 20
21404.70521028555
 30
0.0
 40
150.0
 41
0.0
 46
0.0
 71
     7
 72
     1
  1

 73
     1
 44
1.0
  0
MTEXT
  5
1A365
330
18
100
AcDbEntity
  8
0
 62
     4
100
AcDbMText
 10
110300.2811409401
 20
24015.45242580053
 30
0.0
 40
150.0
 41
0.0
 46
0.0
 71
     3
 72
     1
  1

 73
     1
 44
1.0
  0
MTEXT
  5
1A366
330
18
100
AcDbEntity
  8
0
 62
     4
100
AcDbMText
 10
102052.0189615788
 20
23772.33591798555
 30
0.0
 40
150.0
 41
0.0
 46
0.0
 71
     3
 72
     1
  1

 73
     1
 44
1.0
  0
MTEXT
  5
1A367
330
18
100
AcDbEntity
  8
Wheels
  6
Continuous
 62
     4
 48
200.0
100
AcDbMText
 10
93345.2475959408
 20
26390.99418897268
 30
0.0
 40
75.0
 41
0.0
 46
0.0
 71
     7
 72
     1
  1

 73
     1
 44
1.0
  0
MTEXT
  5
1A368
330
18
100
AcDbEntity
  8
Wheels
  6
Continuous
 62
     4
 48
200.0
100
AcDbMText
 10
90596.98138381897
 20
24935.04061064907
 30
0.0
 40
75.0
 41
0.0
 46
0.0
 71
     3
 72
     1
  1

 73
     1
 44
1.0
  0
MTEXT
  5
1A369
330
18
100
AcDbEntity
  8
Wheels
  6
Continuous
 62
     4
 48
200.0
100
AcDbMText
 10
90588.17373208873
 20
24591.89584020972
 30
0.0
 40
75.0
 41
0.0
 46
0.0
 71
     3
 72
     1
  1

 73
     1
 44
1.0
  0
MTEXT
  5
1A36A
330
18
100
AcDbEntity
  8
Wheels
  6
Continuous
 62
     4
 48
200.0
100
AcDbMText
 10
90730.33571733565
 20
24035.5286644565
 30
0.0
 40
75.0
 41
0.0
 46
0.0
 71
     3
 72
     1
  1

 73
     1
 44
1.0
  0
MTEXT
  5
1A736
330
18
100
AcDbEntity
  8
0
 62
     4
100
AcDbMText
 10
-65712.50659480887
 20
16020.13006648888
 30
0.0
 40
150.0
 41
0.0
 46
0.0
 71
     9
 72
     1
  1

 73
     1
 44
1.0
  0
MTEXT
  5
1A737
330
18
100
AcDbEntity
  8
0
 62
     4
100
AcDbMText
 10
-63067.68310781707
 20
19728.58279937692
 30
0.0
 40
150.0
 41
0.0
 46
0.0
 71
     1
 72
     1
  1

 73
     1
 44
1.0
  0
MTEXT
  5
1A738
330
18
100
AcDbEntity
  8
0
 62
     4
100
AcDbMText
 10
-65600.16381417058
 20
21199.36977331157
 30
0.0
 40
150.0
 41
0.0
 46
0.0
 71
     9
 72
     1
  1

 73
     1
 44
1.0
  0
MTEXT
  5
1A739
330
18
100
AcDbEntity
  8
0
 62
     4
100
AcDbMText
 10
-65208.35686094113
 20
21492.92157019591
 30
0.0
 40
150.0
 41
0.0
 46
0.0
 71
     9
 72
     1
  1

 73
     1
 44
1.0
  0
MTEXT
  5
1A73A
330
18
100
AcDbEntity
  8
0
 62
     4
100
AcDbMText
 10
-82747.31787472267
 20
23420.25
 30
0.0
 40
150.0
 41
0.0
 46
0.0
 71
     9
 72
     1
  1

 73
     1
 44
1.0
  0
MTEXT
  5
1A73B
330
18
100
AcDbEntity
  8
0
 62
     4
100
AcDbMText
 10
-79825.34816235397
 20
26187.25
 30
0.0
 40
150.0
 41
0.0
 46
0.0
 71
     9
 72
     1
  1

 73
     1
 44
1.0
  0
MTEXT
  5
1A73C
330
18
100
AcDbEntity
  8
0
 62
     4
100
AcDbMText
 10
-80171.14770602058
 20
25811.0
 30
0.0
 40
150.0
 41
0.0
 46
0.0
 71
     1
 72
     1
  1

 73
     1
 44
1.0
  0
MTEXT
  5
1A73D
330
18
100
AcDbEntity
  8
0
 62
     4
100
AcDbMText
 10
-81409.13102073044
 20
24506.25
 30
0.0
 40
150.0
 41
0.0
 46
0.0
 71
     1
 72
     1
  1

 73
     1
 44
1.0
  0
MTEXT
  5
1A73E
330
18
100
AcDbEntity
  8
0
 62
     4
100
AcDbMText
 10
-81159.28269173863
 20
24224.5
 30
0.0
 40
150.0
 41
0.0
 46
0.0
 71
     1
 72
     1
  1

 73
     1
 44
1.0
  0
MTEXT
  5
1A73F
330
18
100
AcDbEntity
  8
0
 62
     4
100
AcDbMText
 10
-39766.80850570394
 20
16755.49998887996
 30
0.0
 40
150.0
 41
0.0
 46
0.0
 71
     1
 72
     1
  1

 73
     1
 44
1.0
  0
MTEXT
  5
1A740
330
18
100
AcDbEntity
  8
0
 62
     4
100
AcDbMText
 10
-50761.9686240501
 20
18563.0
 30
0.0
 40
150.0
 41
0.0
 46
0.0
 71
     9
 72
     1
  1

 73
     1
 44
1.0
  0
MTEXT
  5
1A741
330
18
100
AcDbEntity
  8
0
 62
     4
100
AcDbMText
 10
-50611.96862405009
 20
18563.0
 30
0.0
 40
150.0
 41
0.0
 46
0.0
 71
     9
 72
     1
  1

 73
     1
 44
1.0
  0
MTEXT
  5
1A742
330
18
100
AcDbEntity
  8
0
 62
     4
100
AcDbMText
 10
-96609.66046376614
 20
-2229.024782799104
 30
0.0
 40
150.0
 41
0.0
 46
0.0
 71
     9
 72
     1
  1

 73
     1
 44
1.0
  0
MTEXT
  5
1A743
330
18
100
AcDbEntity
  8
0
 62
     4
100
AcDbMText
 10
-96304.35227119976
 20
-147.6038027895483
 30
0.0
 40
150.0
 41
0.0
 46
0.0
 71
     9
 72
     1
  1

 73
     1
 44
1.0
  0
MTEXT
  5
1A744
330
18
100
AcDbEntity
  8
0
 62
     4
100
AcDbMText
 10
-91928.43839929064
 20
2040.818605162
 30
0.0
 40
150.0
 41
0.0
 46
0.0
 71
     1
 72
     1
  1

 73
     1
 44
1.0
  0
MTEXT
  5
1A745
330
18
100
AcDbEntity
  8
0
 62
     4
100
AcDbMText
 10
-60832.64267844205
 20
21404.70521028555
 30
0.0
 40
150.0
 41
0.0
 46
0.0
 71
     9
 72
     1
  1

 73
     1
 44
1.0
  0
MTEXT
  5
1A746
330
18
100
AcDbEntity
  8
0
 62
     4
100
AcDbMText
 10
-64653.78931883262
 20
24015.45242580053
 30
0.0
 40
150.0
 41
0.0
 46
0.0
 71
     1
 72
     1
  1

 73
     1
 44
1.0
  0
MTEXT
  5
1A747
330
18
100
AcDbEntity
  8
0
 62
     4
100
AcDbMText
 10
-56405.52713947132
 20
23772.33591798555
 30
0.0
 40
150.0
 41
0.0
 46
0.0
 71
     1
 72
     1
  1

 73
     1
 44
1.0
  0
MTEXT
  5
1A748
330
18
100
AcDbEntity
  8
Wheels
  6
Continuous
 62
     4
 48
200.0
100
AcDbMText
 10
-47698.75577383333
 20
26390.99418897268
 30
0.0
 40
75.0
 41
0.0
 46
0.0
 71
     9
 72
     1
  1

 73
     1
 44
1.0
  0
MTEXT
  5
1A749
330
18
100
AcDbEntity
  8
Wheels
  6
Continuous
 62
     4
 48
200.0
100
AcDbMText
 10
-44950.48956171148
 20
24935.04061064907
 30
0.0
 40
75.0
 41
0.0
 46
0.0
 71
     1
 72
     1
  1

 73
     1
 44
1.0
  0
MTEXT
  5
1A74A
330
18
100
AcDbEntity
  8
Wheels
  6
Continuous
 62
     4
 48
200.0
100
AcDbMText
 10
-44941.68190998125
 20
24591.89584020972
 30
0.0
 40
75.0
 41
0.0
 46
0.0
 71
     1
 72
     1
  1

 73
     1
 44
1.0
  0
MTEXT
  5
1A74B
330
18
100
AcDbEntity
  8
Wheels
  6
Continuous
 62
     4
 48
200.0
100
AcDbMText
 10
-45083.84389522818
 20
24035.5286644565
 30
0.0
 40
75.0
 41
0.0
 46
0.0
 71
     1
 72
     1
  1

 73
     1
 44
1.0
  0
MTEXT
  5
1D2F8
330
18
100
AcDbEntity
  8
0
 62
     4
100
AcDbMText
 10
151662.78425772
 20
16020.13006648888
 30
0.0
 40
150.0
 41
0.0
 46
0.0
 71
     7
 72
     1
  1

 73
     1
 44
1.0
  0
MTEXT
  5
1D2F9
330
18
100
AcDbEntity
  8
0
 62
     4
100
AcDbMText
 10
149017.9607707282
 20
19728.58279937692
 30
0.0
 40
150.0
 41
0.0
 46
0.0
 71
     3
 72
     1
  1

 73
     1
 44
1.0
  0
MTEXT
  5
1D2FA
330
18
100
AcDbEntity
  8
0
 62
     4
100
AcDbMText
 10
151550.4414770817
 20
21199.36977331157
 30
0.0
 40
150.0
 41
0.0
 46
0.0
 71
     7
 72
     1
  1

 73
     1
 44
1.0
  0
MTEXT
  5
1D2FB
330
18
100
AcDbEntity
  8
0
 62
     4
100
AcDbMText
 10
151158.6345238522
 20
21492.92157019591
 30
0.0
 40
150.0
 41
0.0
 46
0.0
 71
     7
 72
     1
  1

 73
     1
 44
1.0
  0
MTEXT
  5
1D2FC
330
18
100
AcDbEntity
  8
0
 62
     4
100
AcDbMText
 10
168697.5955376338
 20
23420.25
 30
0.0
 40
150.0
 41
0.0
 46
0.0
 71
     7
 72
     1
  1

 73
     1
 44
1.0
  0
MTEXT
  5
1D2FD
330
18
100
AcDbEntity
  8
0
 62
     4
100
AcDbMText
 10
165775.6258252651
 20
26187.25
 30
0.0
 40
150.0
 41
0.0
 46
0.0
 71
     7
 72
     1
  1

 73
     1
 44
1.0
  0
MTEXT
  5
1D2FE
330
18
100
AcDbEntity
  8
0
 62
     4
100
AcDbMText
 10
166121.4253689317
 20
25811.0
 30
0.0
 40
150.0
 41
0.0
 46
0.0
 71
     3
 72
     1
  1

 73
     1
 44
1.0
  0
MTEXT
  5
1D2FF
330
18
100
AcDbEntity
  8
0
 62
     4
100
AcDbMText
 10
167359.4086836415
 20
24506.25
 30
0.0
 40
150.0
 41
0.0
 46
0.0
 71
     3
 72
     1
  1

 73
     1
 44
1.0
  0
MTEXT
  5
1D300
330
18
100
AcDbEntity
  8
0
 62
     4
100
AcDbMText
 10
167109.5603546497
 20
24224.5
 30
0.0
 40
150.0
 41
0.0
 46
0.0
 71
     3
 72
     1
  1

 73
     1
 44
1.0
  0
MTEXT
  5
1D301
330
18
100
AcDbEntity
  8
0
 62
     4
100
AcDbMText
 10
125717.086168615
 20
16755.49998887996
 30
0.0
 40
150.0
 41
0.0
 46
0.0
 71
     3
 72
     1
  1

 73
     1
 44
1.0
  0
MTEXT
  5
1D302
330
18
100
AcDbEntity
  8
0
 62
     4
100
AcDbMText
 10
136712.2462869612
 20
18563.0
 30
0.0
 40
150.0
 41
0.0
 46
0.0
 71
     7
 72
     1
  1

 73
     1
 44
1.0
  0
MTEXT
  5
1D303
330
18
100
AcDbEntity
  8
0
 62
     4
100
AcDbMText
 10
136562.2462869612
 20
18563.0
 30
0.0
 40
150.0
 41
0.0
 46
0.0
 71
     7
 72
     1
  1

 73
     1
 44
1.0
  0
MTEXT
  5
1D304
330
18
100
AcDbEntity
  8
0
 62
     4
100
AcDbMText
 10
182559.9381266772
 20
-2229.024782799104
 30
0.0
 40
150.0
 41
0.0
 46
0.0
 71
     7
 72
     1
  1

 73
     1
 44
1.0
  0
MTEXT
  5
1D305
330
18
100
AcDbEntity
  8
0
 62
     4
100
AcDbMText
 10
182254.6299341109
 20
-147.6038027895483
 30
0.0
 40
150.0
 41
0.0
 46
0.0
 71
     7
 72
     1
  1

 73
     1
 44
1.0
  0
MTEXT
  5
1D306
330
18
100
AcDbEntity
  8
0
 62
     4
100
AcDbMText
 10
177878.7160622017
 20
2040.818605162
 30
0.0
 40
150.0
 41
0.0
 46
0.0
 71
     3
 72
     1
  1

 73
     1
 44
1.0
  0
MTEXT
  5
1D307
330
18
100
AcDbEntity
  8
0
 62
     4
100
AcDbMText
 10
146782.9203413532
 20
21404.70521028555
 30
0.0
 40
150.0
 41
0.0
 46
0.0
 71
     7
 72
     1
  1

 73
     1
 44
1.0
  0
MTEXT
  5
1D308
330
18
100
AcDbEntity
  8
0
 62
     4
100
AcDbMText
 10
150604.0669817437
 20
24015.45242580053
 30
0.0
 40
150.0
 41
0.0
 46
0.0
 71
     3
 72
     1
  1

 73
     1
 44
1.0
  0
MTEXT
  5
1D309
330
18
100
AcDbEntity
  8
0
 62
     4
100
AcDbMText
 10
142355.8048023824
 20
23772.33591798555
 30
0.0
 40
150.0
 41
0.0
 46
0.0
 71
     3
 72
     1
  1

 73
     1
 44
1.0
  0
MTEXT
  5
1D30A
330
18
100
AcDbEntity
  8
Wheels
  6
Continuous
 62
     4
 48
200.0
100
AcDbMText
 10
133649.0334367444
 20
26390.99418897268
 30
0.0
 40
75.0
 41
0.0
 46
0.0
 71
     7
 72
     1
  1

 73
     1
 44
1.0
  0
MTEXT
  5
1D30B
330
18
100
AcDbEntity
  8
Wheels
  6
Continuous
 62
     4
 48
200.0
100
AcDbMText
 10
130900.7672246226
 20
24935.04061064907
 30
0.0
 40
75.0
 41
0.0
 46
0.0
 71
     3
 72
     1
  1

 73
     1
 44
1.0
  0
MTEXT
  5
1D30C
330
18
100
AcDbEntity
  8
Wheels
  6
Continuous
 62
     4
 48
200.0
100
AcDbMText
 10
130891.9595728924
 20
24591.89584020972
 30
0.0
 40
75.0
 41
0.0
 46
0.0
 71
     3
 72
     1
  1

 73
     1
 44
1.0
  0
MTEXT
  5
1D30D
330
18
100
AcDbEntity
  8
Wheels
  6
Continuous
 62
     4
 48
200.0
100
AcDbMText
 10
131034.1215581393
 20
24035.5286644565
 30
0.0
 40
75.0
 41
0.0
 46
0.0
 71
     3
 72
     1
  1

 73
     1
 44
1.0
  0
MTEXT
  5
1D30E
330
18
100
AcDbEntity
  8
0
 62
     4
100
AcDbMText
 10
-25408.72075400525
 20
16020.13006648888
 30
0.0
 40
150.0
 41
0.0
 46
0.0
 71
     9
 72
     1
  1

 73
     1
 44
1.0
  0
MTEXT
  5
1D30F
330
18
100
AcDbEntity
  8
0
 62
     4
100
AcDbMText
 10
-22763.89726701345
 20
19728.58279937692
 30
0.0
 40
150.0
 41
0.0
 46
0.0
 71
     1
 72
     1
  1

 73
     1
 44
1.0
  0
MTEXT
  5
1D310
330
18
100
AcDbEntity
  8
0
 62
     4
100
AcDbMText
 10
-25296.37797336695
 20
21199.36977331157
 30
0.0
 40
150.0
 41
0.0
 46
0.0
 71
     9
 72
     1
  1

 73
     1
 44
1.0
  0
MTEXT
  5
1D311
330
18
100
AcDbEntity
  8
0
 62
     4
100
AcDbMText
 10
-24904.5710201375
 20
21492.92157019591
 30
0.0
 40
150.0
 41
0.0
 46
0.0
 71
     9
 72
     1
  1

 73
     1
 44
1.0
  0
MTEXT
  5
1D312
330
18
100
AcDbEntity
  8
0
 62
     4
100
AcDbMText
 10
-42443.53203391905
 20
23420.25
 30
0.0
 40
150.0
 41
0.0
 46
0.0
 71
     9
 72
     1
  1

 73
     1
 44
1.0
  0
MTEXT
  5
1D313
330
18
100
AcDbEntity
  8
0
 62
     4
100
AcDbMText
 10
-39521.56232155036
 20
26187.25
 30
0.0
 40
150.0
 41
0.0
 46
0.0
 71
     9
 72
     1
  1

 73
     1
 44
1.0
  0
MTEXT
  5
1D314
330
18
100
AcDbEntity
  8
0
 62
     4
100
AcDbMText
 10
-39867.36186521696
 20
25811.0
 30
0.0
 40
150.0
 41
0.0
 46
0.0
 71
     1
 72
     1
  1

 73
     1
 44
1.0
  0
MTEXT
  5
1D315
330
18
100
AcDbEntity
  8
0
 62
     4
100
AcDbMText
 10
-41105.34517992681
 20
24506.25
 30
0.0
 40
150.0
 41
0.0
 46
0.0
 71
     1
 72
     1
  1

 73
     1
 44
1.0
  0
MTEXT
  5
1D316
330
18
100
AcDbEntity
  8
0
 62
     4
100
AcDbMText
 10
-40855.49685093497
 20
24224.5
 30
0.0
 40
150.0
 41
0.0
 46
0.0
 71
     1
 72
     1
  1

 73
     1
 44
1.0
  0
MTEXT
  5
1D317
330
18
100
AcDbEntity
  8
0
 62
     4
100
AcDbMText
 10
536.9773350996838
 20
16755.49998887996
 30
0.0
 40
150.0
 41
0.0
 46
0.0
 71
     1
 72
     1
  1

 73
     1
 44
1.0
  0
MTEXT
  5
1D318
330
18
100
AcDbEntity
  8
0
 62
     4
100
AcDbMText
 10
-10458.18278324647
 20
18563.0
 30
0.0
 40
150.0
 41
0.0
 46
0.0
 71
     9
 72
     1
  1

 73
     1
 44
1.0
  0
MTEXT
  5
1D319
330
18
100
AcDbEntity
  8
0
 62
     4
100
AcDbMText
 10
-10308.18278324648
 20
18563.0
 30
0.0
 40
150.0
 41
0.0
 46
0.0
 71
     9
 72
     1
  1

 73
     1
 44
1.0
  0
MTEXT
  5
1D31A
330
18
100
AcDbEntity
  8
0
 62
     4
100
AcDbMText
 10
-56305.87462296253
 20
-2229.024782799104
 30
0.0
 40
150.0
 41
0.0
 46
0.0
 71
     9
 72
     1
  1

 73
     1
 44
1.0
  0
MTEXT
  5
1D31B
330
18
100
AcDbEntity
  8
0
 62
     4
100
AcDbMText
 10
-56000.56643039613
 20
-147.6038027895483
 30
0.0
 40
150.0
 41
0.0
 46
0.0
 71
     9
 72
     1
  1

 73
     1
 44
1.0
  0
MTEXT
  5
1D31C
330
18
100
AcDbEntity
  8
0
 62
     4
100
AcDbMText
 10
-51624.65255848698
 20
2040.818605162
 30
0.0
 40
150.0
 41
0.0
 46
0.0
 71
     1
 72
     1
  1

 73
     1
 44
1.0
  0
MTEXT
  5
1D31D
330
18
100
AcDbEntity
  8
0
 62
     4
100
AcDbMText
 10
-20528.85683763842
 20
21404.70521028555
 30
0.0
 40
150.0
 41
0.0
 46
0.0
 71
     9
 72
     1
  1

 73
     1
 44
1.0
  0
MTEXT
  5
1D31E
330
18
100
AcDbEntity
  8
0
 62
     4
100
AcDbMText
 10
-24350.00347802898
 20
24015.45242580053
 30
0.0
 40
150.0
 41
0.0
 46
0.0
 71
     1
 72
     1
  1

 73
     1
 44
1.0
  0
MTEXT
  5
1D31F
330
18
100
AcDbEntity
  8
0
 62
     4
100
AcDbMText
 10
-16101.74129866771
 20
23772.33591798555
 30
0.0
 40
150.0
 41
0.0
 46
0.0
 71
     1
 72
     1
  1

 73
     1
 44
1.0
  0
MTEXT
  5
1D320
330
18
100
AcDbEntity
  8
Wheels
  6
Continuous
 62
     4
 48
200.0
100
AcDbMText
 10
-7394.969933029701
 20
26390.99418897268
 30
0.0
 40
75.0
 41
0.0
 46
0.0
 71
     9
 72
     1
  1

 73
     1
 44
1.0
  0
MTEXT
  5
1D321
330
18
100
AcDbEntity
  8
Wheels
  6
Continuous
 62
     4
 48
200.0
100
AcDbMText
 10
-4646.703720907855
 20
24935.04061064907
 30
0.0
 40
75.0
 41
0.0
 46
0.0
 71
     1
 72
     1
  1

 73
     1
 44
1.0
  0
MTEXT
  5
1D322
330
18
100
AcDbEntity
  8
Wheels
  6
Continuous
 62
     4
 48
200.0
100
AcDbMText
 10
-4637.896069177629
 20
24591.89584020972
 30
0.0
 40
75.0
 41
0.0
 46
0.0
 71
     1
 72
     1
  1

 73
     1
 44
1.0
  0
MTEXT
  5
1D323
330
18
100
AcDbEntity
  8
Wheels
  6
Continuous
 62
     4
 48
200.0
100
AcDbMText
 10
-4780.05805442456
 20
24035.5286644565
 30
0.0
 40
75.0
 41
0.0
 46
0.0
 71
     1
 72
     1
  1

 73
     1
 44
1.0
  0
MTEXT
  5
1D324
330
18
100
AcDbEntity
  8
0
 62
     4
100
AcDbMText
 10
-24753.77175738974
 20
16020.13006648888
 30
0.0
 40
150.0
 41
0.0
 46
0.0
 71
     9
 72
     1
  1

 73
     1
 44
1.0
  0
MTEXT
  5
1D325
330
18
100
AcDbEntity
  8
0
 62
     4
100
AcDbMText
 10
-22108.94827039795
 20
19728.58279937692
 30
0.0
 40
150.0
 41
0.0
 46
0.0
 71
     1
 72
     1
  1

 73
     1
 44
1.0
  0
MTEXT
  5
1D326
330
18
100
AcDbEntity
  8
0
 62
     4
100
AcDbMText
 10
-24641.42897675144
 20
21199.36977331157
 30
0.0
 40
150.0
 41
0.0
 46
0.0
 71
     9
 72
     1
  1

 73
     1
 44
1.0
  0
MTEXT
  5
1D327
330
18
100
AcDbEntity
  8
0
 62
     4
100
AcDbMText
 10
-24249.622023522
 20
21492.92157019591
 30
0.0
 40
150.0
 41
0.0
 46
0.0
 71
     9
 72
     1
  1

 73
     1
 44
1.0
  0
MTEXT
  5
1D328
330
18
100
AcDbEntity
  8
0
 62
     4
100
AcDbMText
 10
-41788.58303730353
 20
23420.25
 30
0.0
 40
150.0
 41
0.0
 46
0.0
 71
     9
 72
     1
  1

 73
     1
 44
1.0
  0
MTEXT
  5
1D329
330
18
100
AcDbEntity
  8
0
 62
     4
100
AcDbMText
 10
-38866.61332493485
 20
26187.25
 30
0.0
 40
150.0
 41
0.0
 46
0.0
 71
     9
 72
     1
  1

 73
     1
 44
1.0
  0
MTEXT
  5
1D32A
330
18
100
AcDbEntity
  8
0
 62
     4
100
AcDbMText
 10
-39212.41286860145
 20
25811.0
 30
0.0
 40
150.0
 41
0.0
 46
0.0
 71
     1
 72
     1
  1

 73
     1
 44
1.0
  0
MTEXT
  5
1D32B
330
18
100
AcDbEntity
  8
0
 62
     4
100
AcDbMText
 10
-40450.3961833113
 20
24506.25
 30
0.0
 40
150.0
 41
0.0
 46
0.0
 71
     1
 72
     1
  1

 73
     1
 44
1.0
  0
MTEXT
  5
1D32C
330
18
100
AcDbEntity
  8
0
 62
     4
100
AcDbMText
 10
-40200.54785431947
 20
24224.5
 30
0.0
 40
150.0
 41
0.0
 46
0.0
 71
     1
 72
     1
  1

 73
     1
 44
1.0
  0
MTEXT
  5
1D32D
330
18
100
AcDbEntity
  8
0
 62
     4
100
AcDbMText
 10
1191.926331715192
 20
16755.49998887996
 30
0.0
 40
150.0
 41
0.0
 46
0.0
 71
     1
 72
     1
  1

 73
     1
 44
1.0
  0
MTEXT
  5
1D32E
330
18
100
AcDbEntity
  8
0
 62
     4
100
AcDbMText
 10
-9803.233786630968
 20
18563.0
 30
0.0
 40
150.0
 41
0.0
 46
0.0
 71
     9
 72
     1
  1

 73
     1
 44
1.0
  0
MTEXT
  5
1D32F
330
18
100
AcDbEntity
  8
0
 62
     4
100
AcDbMText
 10
-9653.23378663097
 20
18563.0
 30
0.0
 40
150.0
 41
0.0
 46
0.0
 71
     9
 72
     1
  1

 73
     1
 44
1.0
  0
MTEXT
  5
1D330
330
18
100
AcDbEntity
  8
0
 62
     4
100
AcDbMText
 10
-55650.92562634702
 20
-2229.024782799104
 30
0.0
 40
150.0
 41
0.0
 46
0.0
 71
     9
 72
     1
  1

 73
     1
 44
1.0
  0
MTEXT
  5
1D331
330
18
100
AcDbEntity
  8
0
 62
     4
100
AcDbMText
 10
-55345.61743378065
 20
-147.6038027895483
 30
0.0
 40
150.0
 41
0.0
 46
0.0
 71
     9
 72
     1
  1

 73
     1
 44
1.0
  0
MTEXT
  5
1D332
330
18
100
AcDbEntity
  8
0
 62
     4
100
AcDbMText
 10
-50969.70356187148
 20
2040.818605162
 30
0.0
 40
150.0
 41
0.0
 46
0.0
 71
     1
 72
     1
  1

 73
     1
 44
1.0
  0
MTEXT
  5
1D333
330
18
100
AcDbEntity
  8
0
 62
     4
100
AcDbMText
 10
-19873.90784102291
 20
21404.70521028555
 30
0.0
 40
150.0
 41
0.0
 46
0.0
 71
     9
 72
     1
  1

 73
     1
 44
1.0
  0
MTEXT
  5
1D334
330
18
100
AcDbEntity
  8
0
 62
     4
100
AcDbMText
 10
-23695.05448141348
 20
24015.45242580053
 30
0.0
 40
150.0
 41
0.0
 46
0.0
 71
     1
 72
     1
  1

 73
     1
 44
1.0
  0
MTEXT
  5
1D335
330
18
100
AcDbEntity
  8
0
 62
     4
100
AcDbMText
 10
-15446.7923020522
 20
23772.33591798555
 30
0.0
 40
150.0
 41
0.0
 46
0.0
 71
     1
 72
     1
  1

 73
     1
 44
1.0
  0
MTEXT
  5
1D336
330
18
100
AcDbEntity
  8
Wheels
  6
Continuous
 62
     4
 48
200.0
100
AcDbMText
 10
-6740.020936414191
 20
26390.99418897268
 30
0.0
 40
75.0
 41
0.0
 46
0.0
 71
     9
 72
     1
  1

 73
     1
 44
1.0
  0
MTEXT
  5
1D337
330
18
100
AcDbEntity
  8
Wheels
  6
Continuous
 62
     4
 48
200.0
100
AcDbMText
 10
-3991.754724292347
 20
24935.04061064907
 30
0.0
 40
75.0
 41
0.0
 46
0.0
 71
     1
 72
     1
  1

 73
     1
 44
1.0
  0
MTEXT
  5
1D338
330
18
100
AcDbEntity
  8
Wheels
  6
Continuous
 62
     4
 48
200.0
100
AcDbMText
 10
-3982.947072562121
 20
24591.89584020972
 30
0.0
 40
75.0
 41
0.0
 46
0.0
 71
     1
 72
     1
  1

 73
     1
 44
1.0
  0
MTEXT
  5
1D339
330
18
100
AcDbEntity
  8
Wheels
  6
Continuous
 62
     4
 48
200.0
100
AcDbMText
 10
-4125.109057809051
 20
24035.5286644565
 30
0.0
 40
75.0
 41
0.0
 46
0.0
 71
     1
 72
     1
  1

 73
     1
 44
1.0
  0
MTEXT
  5
1D5D2
330
18
100
AcDbEntity
  8
0
 62
     4
100
AcDbMText
 10
152317.7332543355
 20
16020.13006648888
 30
0.0
 40
150.0
 41
0.0
 46
0.0
 71
     7
 72
     1
  1

 73
     1
 44
1.0
  0
MTEXT
  5
1D5D3
330
18
100
AcDbEntity
  8
0
 62
     4
100
AcDbMText
 10
149672.9097673437
 20
19728.58279937692
 30
0.0
 40
150.0
 41
0.0
 46
0.0
 71
     3
 72
     1
  1

 73
     1
 44
1.0
  0
MTEXT
  5
1D5D4
330
18
100
AcDbEntity
  8
0
 62
     4
100
AcDbMText
 10
152205.3904736972
 20
21199.36977331157
 30
0.0
 40
150.0
 41
0.0
 46
0.0
 71
     7
 72
     1
  1

 73
     1
 44
1.0
  0
MTEXT
  5
1D5D5
330
18
100
AcDbEntity
  8
0
 62
     4
100
AcDbMText
 10
151813.5835204677
 20
21492.92157019591
 30
0.0
 40
150.0
 41
0.0
 46
0.0
 71
     7
 72
     1
  1

 73
     1
 44
1.0
  0
MTEXT
  5
1D5D6
330
18
100
AcDbEntity
  8
0
 62
     4
100
AcDbMText
 10
169352.5445342493
 20
23420.25
 30
0.0
 40
150.0
 41
0.0
 46
0.0
 71
     7
 72
     1
  1

 73
     1
 44
1.0
  0
MTEXT
  5
1D5D7
330
18
100
AcDbEntity
  8
0
 62
     4
100
AcDbMText
 10
166430.5748218806
 20
26187.25
 30
0.0
 40
150.0
 41
0.0
 46
0.0
 71
     7
 72
     1
  1

 73
     1
 44
1.0
  0
MTEXT
  5
1D5D8
330
18
100
AcDbEntity
  8
0
 62
     4
100
AcDbMText
 10
166776.3743655472
 20
25811.0
 30
0.0
 40
150.0
 41
0.0
 46
0.0
 71
     3
 72
     1
  1

 73
     1
 44
1.0
  0
MTEXT
  5
1D5D9
330
18
100
AcDbEntity
  8
0
 62
     4
100
AcDbMText
 10
168014.3576802571
 20
24506.25
 30
0.0
 40
150.0
 41
0.0
 46
0.0
 71
     3
 72
     1
  1

 73
     1
 44
1.0
  0
MTEXT
  5
1D5DA
330
18
100
AcDbEntity
  8
0
 62
     4
100
AcDbMText
 10
167764.5093512652
 20
24224.5
 30
0.0
 40
150.0
 41
0.0
 46
0.0
 71
     3
 72
     1
  1

 73
     1
 44
1.0
  0
MTEXT
  5
1D5DB
330
18
100
AcDbEntity
  8
0
 62
     4
100
AcDbMText
 10
126372.0351652305
 20
16755.49998887996
 30
0.0
 40
150.0
 41
0.0
 46
0.0
 71
     3
 72
     1
  1

 73
     1
 44
1.0
  0
MTEXT
  5
1D5DC
330
18
100
AcDbEntity
  8
0
 62
     4
100
AcDbMText
 10
137367.1952835767
 20
18563.0
 30
0.0
 40
150.0
 41
0.0
 46
0.0
 71
     7
 72
     1
  1

 73
     1
 44
1.0
  0
MTEXT
  5
1D5DD
330
18
100
AcDbEntity
  8
0
 62
     4
100
AcDbMText
 10
137217.1952835767
 20
18563.0
 30
0.0
 40
150.0
 41
0.0
 46
0.0
 71
     7
 72
     1
  1

 73
     1
 44
1.0
  0
MTEXT
  5
1D5DE
330
18
100
AcDbEntity
  8
0
 62
     4
100
AcDbMText
 10
183214.8871232927
 20
-2229.024782799104
 30
0.0
 40
150.0
 41
0.0
 46
0.0
 71
     7
 72
     1
  1

 73
     1
 44
1.0
  0
MTEXT
  5
1D5DF
330
18
100
AcDbEntity
  8
0
 62
     4
100
AcDbMText
 10
182909.5789307264
 20
-147.6038027895483
 30
0.0
 40
150.0
 41
0.0
 46
0.0
 71
     7
 72
     1
  1

 73
     1
 44
1.0
  0
MTEXT
  5
1D5E0
330
18
100
AcDbEntity
  8
0
 62
     4
100
AcDbMText
 10
178533.6650588172
 20
2040.818605162
 30
0.0
 40
150.0
 41
0.0
 46
0.0
 71
     3
 72
     1
  1

 73
     1
 44
1.0
  0
MTEXT
  5
1D5E1
330
18
100
AcDbEntity
  8
0
 62
     4
100
AcDbMText
 10
147437.8693379686
 20
21404.70521028555
 30
0.0
 40
150.0
 41
0.0
 46
0.0
 71
     7
 72
     1
  1

 73
     1
 44
1.0
  0
MTEXT
  5
1D5E2
330
18
100
AcDbEntity
  8
0
 62
     4
100
AcDbMText
 10
151259.0159783592
 20
24015.45242580053
 30
0.0
 40
150.0
 41
0.0
 46
0.0
 71
     3
 72
     1
  1

 73
     1
 44
1.0
  0
MTEXT
  5
1D5E3
330
18
100
AcDbEntity
  8
0
 62
     4
100
AcDbMText
 10
143010.7537989979
 20
23772.33591798555
 30
0.0
 40
150.0
 41
0.0
 46
0.0
 71
     3
 72
     1
  1

 73
     1
 44
1.0
  0
MTEXT
  5
1D5E4
330
18
100
AcDbEntity
  8
Wheels
  6
Continuous
 62
     4
 48
200.0
100
AcDbMText
 10
134303.9824333599
 20
26390.99418897268
 30
0.0
 40
75.0
 41
0.0
 46
0.0
 71
     7
 72
     1
  1

 73
     1
 44
1.0
  0
MTEXT
  5
1D5E5
330
18
100
AcDbEntity
  8
Wheels
  6
Continuous
 62
     4
 48
200.0
100
AcDbMText
 10
131555.7162212381
 20
24935.04061064907
 30
0.0
 40
75.0
 41
0.0
 46
0.0
 71
     3
 72
     1
  1

 73
     1
 44
1.0
  0
MTEXT
  5
1D5E6
330
18
100
AcDbEntity
  8
Wheels
  6
Continuous
 62
     4
 48
200.0
100
AcDbMText
 10
131546.9085695079
 20
24591.89584020972
 30
0.0
 40
75.0
 41
0.0
 46
0.0
 71
     3
 72
     1
  1

 73
     1
 44
1.0
  0
MTEXT
  5
1D5E7
330
18
100
AcDbEntity
  8
Wheels
  6
Continuous
 62
     4
 48
200.0
100
AcDbMText
 10
131689.0705547548
 20
24035.5286644565
 30
0.0
 40
75.0
 41
0.0
 46
0.0
 71
     3
 72
     1
  1

 73
     1
 44
1.0
  0
HATCH
  5
6E283
330
18
100
AcDbEntity
  8
APPLICATION
  6
Continuous
 48
10.0
100
AcDbHatch
 10
0.0
 20
0.0
 30
0.0
210
0.0
220
0.0
230
1.0
  2
AR-CONC
 70
     0
 71
     1
 91
        1
 92
        7
 72
     0
 73
     1
 93
        8
 10
-30661.90712720185
 20
37857.97120844296
 10
-30811.90712720185
 20
37857.97120844296
 10
-30811.90712720185
 20
38617.97120844297
 10
-30961.90712720184
 20
38617.97120844297
 10
-30961.90712720184
 20
37757.97120844297
 10
-30511.90712720184
 20
37757.97120844297
 10
-30511.90712720184
 20
38617.97120844297
 10
-30661.90712720185
 20
38617.97120844297
 97
        7
330
6E286
330
6E29F
330
6E287
330
6E29D
330
6E29E
330
6E288
330
6E2A0
 75
     0
 76
     1
 52
0.0
 41
50.0
 77
     0
 78
    13
 53
50.0
 43
13819.63694073396
 44
0.0
 45
358.6300913003766
 46
-31.37606749129755
 79
     2
 49
37.5
 49
-412.5
 53
355.0
 43
13819.63694073396
 44
0.0
 45
-69.37566680649999
 46
376.0960668500059
 79
     2
 49
30.0
 49
-330.0
 53
100.4514
 43
13849.52278073396
 44
-2.614669999999998
 45
289.2546908570108
 46
344.7197710304769
 79
     2
 49
31.870095
 49
-350.571056
 53
46.18419999999999
 43
13819.63694073396
 44
100.0
 45
533.6205243128222
 46
-82.75950716450905
 79
     2
 49
56.25
 49
-618.75
 53
96.63559999999998
 43
13864.10531323396
 44
93.10334649999999
 45
467.3313527743516
 46
487.0589354502207
 79
     2
 49
47.805144
 49
-525.8564999999999
 53
351.1842000000001
 43
13819.63694073396
 44
100.0
 45
467.3309725668135
 46
487.0593004626623
 79
     2
 49
45.0
 49
-495.0
 53
21.0
 43
13869.63694073396
 44
75.0
 45
298.4535260592309
 46
-201.3094453326694
 79
     2
 49
37.5
 49
-412.5
 53
326.0
 43
13869.63694073396
 44
75.0
 45
121.6576659607908
 46
362.5750225234265
 79
     2
 49
30.0
 49
-330.0
 53
71.45140000000002
 43
13894.50805723396
 44
58.224197
 45
420.1113142907448
 46
161.2652483549762
 79
     2
 49
31.870095
 49
-350.571056
 53
37.5
 43
13819.63694073396
 44
0.0
 45
6.079927658645334
 46
166.4469269156557
 79
     6
 49
0.0
 49
-326.0
 49
0.0
 49
-335.0
 49
0.0
 49
-331.25
 53
7.499999999999999
 43
13819.63694073396
 44
0.0
 45
131.5347687210743
 46
197.2058559411801
 79
     6
 49
0.0
 49
-191.0
 49
0.0
 49
-318.5
 49
0.0
 49
-126.25
 53
327.5
 43
13708.13694073396
 44
0.0
 45
266.9112180862045
 46
-11.2774358671899
 79
     6
 49
0.0
 49
-125.0
 49
0.0
 49
-390.0
 49
0.0
 49
-517.4999999999998
 53
317.5
 43
13658.13694073396
 44
0.0
 45
291.5930846711932
 46
50.05249116615882
 79
     6
 49
0.0
 49
-162.5
 49
0.0
 49
-259.0
 49
0.0
 49
-367.5
 47
4.108185986084058
 98
        1
 10
-30610.4469323862
 20
38333.19796858827
  0
HATCH
  5
6E284
330
18
100
AcDbEntity
  8
APPLICATION
  6
Continuous
 48
10.0
100
AcDbHatch
 10
0.0
 20
0.0
 30
0.0
210
0.0
220
0.0
230
1.0
  2
GRASS
 70
     0
 71
     0
 91
        2
 92
        7
 72
     0
 73
     1
 93
        4
 10
-30961.90712720185
 20
38617.97120844297
 10
-31218.90583348991
 20
38617.97120844297
 10
-31218.90583348992
 20
38356.22319031696
 10
-30961.90712720183
 20
38356.22319031696
 97
        0
 92
        7
 72
     0
 73
     1
 93
        4
 10
-25914.9084209138
 20
38617.97120844297
 10
-26171.90712720186
 20
38617.97120844297
 10
-26171.90712720186
 20
38356.22319031696
 10
-25914.9084209138
 20
38356.22319031696
 97
        0
 75
     0
 76
     1
 52
0.0
 41
100.0
 77
     0
 78
     3
 53
90.0
 43
13819.63694073396
 44
0.0
 45
-70.71067809999998
 46
70.71067809999998
 79
     2
 49
18.75
 49
-122.6713563
 53
45.0
 43
13819.63694073396
 44
0.0
 45
-70.71067811865474
 46
70.71067811865474
 79
     2
 49
18.75
 49
-81.25
 53
135.0
 43
13819.63694073396
 44
0.0
 45
-70.71067811865474
 46
-70.71067811865474
 79
     2
 49
18.75
 49
-81.25
 47
6.411307459770651
 98
        2
 10
-31105.6042504067
 20
38534.65380932947
 10
-25934.28900896225
 20
38489.77478334023
  0
HATCH
  5
6E285
330
18
100
AcDbEntity
  8
APPLICATION
  6
Continuous
 48
10.0
100
AcDbHatch
 10
0.0
 20
0.0
 30
0.0
210
0.0
220
0.0
230
1.0
  2
AR-CONC
 70
     0
 71
     0
 91
        1
 92
        7
 72
     0
 73
     1
 93
       12
 10
-28611.90712720186
 20
38617.97120844297
 10
-30511.90712720184
 20
38617.97120844297
 10
-30511.90712720185
 20
38465.21522721378
 10
-26621.90712720186
 20
38465.21522721378
 10
-26621.90712720186
 20
38617.97120844297
 10
-28521.90712720185
 20
38617.97120844295
 10
-28521.90712720185
 20
38517.97120844296
 10
-28541.90712720185
 20
38517.97120844296
 10
-28541.90712720185
 20
38617.97120844297
 10
-28591.90712720185
 20
38617.97120844297
 10
-28591.90712720184
 20
38517.97120844296
 10
-28611.90712720185
 20
38517.97120844296
 97
        0
 75
     0
 76
     1
 52
0.0
 41
100.0
 77
     0
 78
    13
 53
50.0
 43
13819.63694073396
 44
0.0
 45
717.2601826007532
 46
-62.7521349825951
 79
     2
 49
75.0
 49
-825.0
 53
355.0
 43
13819.63694073396
 44
0.0
 45
-138.751333613
 46
752.1921337000117
 79
     2
 49
60.0
 49
-660.0
 53
100.4514
 43
13879.40862073396
 44
-5.229339999999998
 45
578.5093817140216
 46
689.4395420609535
 79
     2
 49
63.74019
 49
-701.142112
 53
46.18419999999999
 43
13819.63694073396
 44
200.0
 45
1067.241048625644
 46
-165.5190143290181
 79
     2
 49
112.5
 49
-1237.5
 53
96.63559999999998
 43
13908.57368573396
 44
186.206693
 45
934.6627055487033
 46
974.1178709004415
 79
     2
 49
95.610288
 49
-1051.713
 53
351.1842000000001
 43
13819.63694073396
 44
200.0
 45
934.6619451336273
 46
974.1186009253246
 79
     2
 49
90.0
 49
-990.0
 53
21.0
 43
13919.63694073396
 44
150.0
 45
596.9070521184617
 46
-402.6188906653388
 79
     2
 49
75.0
 49
-825.0
 53
326.0
 43
13919.63694073396
 44
150.0
 45
243.3153319215817
 46
725.150045046853
 79
     2
 49
60.0
 49
-660.0
 53
71.45140000000002
 43
13969.37917373396
 44
116.448394
 45
840.2226285814899
 46
322.5304967099524
 79
     2
 49
63.74019
 49
-701.142112
 53
37.5
 43
13819.63694073396
 44
0.0
 45
12.15985531729067
 46
332.8938538313115
 79
     6
 49
0.0
 49
-652.0
 49
0.0
 49
-670.0
 49
0.0
 49
-662.5
 53
7.499999999999999
 43
13819.63694073396
 44
0.0
 45
263.0695374421486
 46
394.4117118823602
 79
     6
 49
0.0
 49
-382.0
 49
0.0
 49
-637.0
 49
0.0
 49
-252.5
 53
327.5
 43
13596.63694073396
 44
0.0
 45
533.822436172409
 46
-22.5548717343798
 79
     6
 49
0.0
 49
-250.0
 49
0.0
 49
-780.0
 49
0.0
 49
-1035.0
 53
317.5
 43
13496.63694073396
 44
0.0
 45
583.1861693423863
 46
100.1049823323176
 79
     6
 49
0.0
 49
-325.0
 49
0.0
 49
-518.0
 49
0.0
 49
-735.0
 47
6.411307459770651
 98
        1
 10
-29264.20522966367
 20
38573.12177916622
  0
LINE
  5
6E286
102
{ACAD_REACTORS
330
6E283
102
}
330
18
100
AcDbEntity
  8
APPLICATION
  6
Continuous
 48
10.0
100
AcDbLine
 10
-31218.9058334899
 20
38617.97120844297
 30
0.0
 11
-25914.9084209138
 21
38617.97120844297
 31
0.0
  0
LINE
  5
6E287
102
{ACAD_REACTORS
330
6E283
102
}
330
18
100
AcDbEntity
  8
DETAIL
  6
Continuous
 48
10.0
100
AcDbLine
 10
-30911.90712720185
 20
37857.97120844296
 30
0.0
 11
-30561.90712720185
 21
37857.97120844296
 31
0.0
  0
LINE
  5
6E288
102
{ACAD_REACTORS
330
6E283
102
}
330
18
100
AcDbEntity
  8
APPLICATION
  6
Continuous
 48
10.0
100
AcDbLine
 10
-30961.90712720184
 20
37757.97120844297
 30
0.0
 11
-30511.90712720184
 21
37757.97120844297
 31
0.0
  0
LINE
  5
6E289
330
18
100
AcDbEntity
  8
DETAIL
  6
Continuous
 48
10.0
100
AcDbLine
 10
-28611.90712720186
 20
38517.97120844296
 30
0.0
 11
-28591.90712720185
 21
38517.97120844296
 31
0.0
  0
LINE
  5
6E28A
330
18
100
AcDbEntity
  8
DETAIL
  6
Continuous
 48
10.0
100
AcDbLine
 10
-28781.90712720186
 20
39542.97120844296
 30
0.0
 11
-28631.90712720186
 21
39542.97120844296
 31
0.0
  0
LINE
  5
6E28B
330
18
100
AcDbEntity
  8
DETAIL
  6
Continuous
 48
10.0
100
AcDbLine
 10
-28781.90712720186
 20
39667.97120844296
 30
0.0
 11
-28631.90712720186
 21
39667.97120844296
 31
0.0
  0
LINE
  5
6E28C
330
18
100
AcDbEntity
  8
DETAIL
  6
Continuous
 48
10.0
100
AcDbLine
 10
-28781.90712720186
 20
39617.97120844297
 30
0.0
 11
-28631.90712720186
 21
39617.97120844297
 31
0.0
  0
LINE
  5
6E28D
330
18
100
AcDbEntity
  8
DETAIL
  6
Continuous
 48
10.0
100
AcDbLine
 10
-28841.90712720186
 20
39482.97120844296
 30
0.0
 11
-28631.90712720186
 21
39482.97120844296
 31
0.0
  0
LINE
  5
6E28E
330
18
100
AcDbEntity
  8
DETAIL
  6
Continuous
 48
10.0
100
AcDbLine
 10
-28781.90712720185
 20
39692.97120844296
 30
0.0
 11
-28631.90712720185
 21
39692.97120844296
 31
0.0
  0
LINE
  5
6E28F
330
18
100
AcDbEntity
  8
DETAIL
  6
Continuous
 48
10.0
100
AcDbLine
 10
-28841.90712720185
 20
39752.97120844297
 30
0.0
 11
-28631.90712720185
 21
39752.97120844297
 31
0.0
  0
LINE
  5
6E290
330
18
100
AcDbEntity
  8
DETAIL
  6
Continuous
 48
10.0
100
AcDbLine
 10
-30541.90712720185
 20
38717.97120844296
 30
0.0
 11
-28571.90712720185
 21
38717.97120844296
 31
0.0
  0
LINE
  5
6E291
330
18
100
AcDbEntity
  8
DETAIL
  6
Continuous
 48
10.0
100
AcDbLine
 10
-30661.90712720185
 20
38867.97120844296
 30
0.0
 11
-30541.90712720186
 21
38867.97120844296
 31
0.0
  0
LINE
  5
6E292
330
18
100
AcDbEntity
  8
DETAIL
  6
Continuous
 48
10.0
100
AcDbLine
 10
-30631.90712720185
 20
38887.97120844296
 30
0.0
 11
-30541.90712720186
 21
38887.97120844296
 31
0.0
  0
LINE
  5
6E293
330
18
100
AcDbEntity
  8
DETAIL
  6
Continuous
 48
10.0
100
AcDbLine
 10
-30609.90712720184
 20
38907.97120844296
 30
0.0
 11
-30593.90712720185
 21
38907.97120844297
 31
0.0
  0
LINE
  5
6E294
330
18
100
AcDbEntity
  8
DETAIL
  6
Continuous
 48
10.0
100
AcDbLine
 10
-30611.90712720185
 20
38905.97120844296
 30
0.0
 11
-30591.90712720185
 21
38905.97120844296
 31
0.0
  0
LINE
  5
6E295
330
18
100
AcDbEntity
  8
DETAIL
  6
Continuous
 48
10.0
100
AcDbLine
 10
-30661.90712720185
 20
38867.97120844296
 30
0.0
 11
-30541.90712720186
 21
38867.97120844296
 31
0.0
  0
LINE
  5
6E296
330
18
100
AcDbEntity
  8
DETAIL
  6
Continuous
 48
10.0
100
AcDbLine
 10
-30661.90712720185
 20
38847.97120844297
 30
0.0
 11
-30571.90712720186
 21
38847.97120844297
 31
0.0
  0
LINE
  5
6E297
330
18
100
AcDbEntity
  8
DETAIL
  6
Continuous
 48
10.0
100
AcDbLine
 10
-30481.90712720184
 20
38777.97120844297
 30
0.0
 11
-28631.90712720186
 21
38777.97120844297
 31
0.0
  0
LINE
  5
6E298
330
18
100
AcDbEntity
  8
DETAIL
  6
Continuous
 48
10.0
100
AcDbLine
 10
-28721.78625162571
 20
39077.97120844298
 30
0.0
 11
-28631.90712720186
 21
39077.97120844297
 31
0.0
  0
LINE
  5
6E299
330
18
100
AcDbEntity
  8
DETAIL
  6
Continuous
 48
10.0
100
AcDbLine
 10
-28721.78625162571
 20
39097.97120844299
 30
0.0
 11
-28631.90712720186
 21
39097.97120844297
 31
0.0
  0
LINE
  5
6E29A
330
18
100
AcDbEntity
  8
DETAIL
  6
Continuous
 48
10.0
100
AcDbLine
 10
-28571.90712720184
 20
40617.97120844297
 30
0.0
 11
-30541.90712720185
 21
40617.97120844296
 31
0.0
  0
LINE
  5
6E29B
330
18
100
AcDbEntity
  8
DETAIL
  6
Continuous
 48
10.0
100
AcDbLine
 10
-28631.90712720186
 20
40557.97120844297
 30
0.0
 11
-30481.90712720185
 21
40557.97120844297
 31
0.0
  0
LINE
  5
6E29C
330
18
100
AcDbEntity
  8
DETAIL
  6
Continuous
 48
10.0
100
AcDbLine
 10
-30661.90712720185
 20
40617.97120844296
 30
0.0
 11
-30811.90712720185
 21
40617.97120844296
 31
0.0
  0
LINE
  5
6E29D
102
{ACAD_REACTORS
330
6E283
102
}
330
18
100
AcDbEntity
  8
DETAIL
  6
Continuous
 48
10.0
100
AcDbLine
 10
-30811.90712720185
 20
40617.97120844296
 30
0.0
 11
-30811.90712720185
 21
37857.97120844296
 31
0.0
  0
LINE
  5
6E29E
102
{ACAD_REACTORS
330
6E283
102
}
330
18
100
AcDbEntity
  8
APPLICATION
  6
Continuous
 48
10.0
100
AcDbLine
 10
-30961.90712720184
 20
38617.97120844297
 30
0.0
 11
-30961.90712720184
 21
37757.97120844297
 31
0.0
  0
LINE
  5
6E29F
102
{ACAD_REACTORS
330
6E283
102
}
330
18
100
AcDbEntity
  8
DETAIL
  6
Continuous
 48
10.0
100
AcDbLine
 10
-30661.90712720185
 20
40617.97120844296
 30
0.0
 11
-30661.90712720185
 21
37857.97120844296
 31
0.0
  0
LINE
  5
6E2A0
102
{ACAD_REACTORS
330
6E283
102
}
330
18
100
AcDbEntity
  8
APPLICATION
  6
Continuous
 48
10.0
100
AcDbLine
 10
-30511.90712720184
 20
38617.97120844297
 30
0.0
 11
-30511.90712720184
 21
37757.97120844297
 31
0.0
  0
LINE
  5
6E2A1
330
18
100
AcDbEntity
  8
DETAIL
  6
Continuous
 48
10.0
100
AcDbLine
 10
-30611.90712720184
 20
38905.97120844296
 30
0.0
 11
-30611.90712720185
 21
38887.97120844297
 31
0.0
  0
LINE
  5
6E2A2
330
18
100
AcDbEntity
  8
DETAIL
  6
Continuous
 48
10.0
100
AcDbLine
 10
-30609.90712720184
 20
38907.97120844296
 30
0.0
 11
-30611.90712720184
 21
38905.97120844296
 31
0.0
  0
LINE
  5
6E2A3
330
18
100
AcDbEntity
  8
DETAIL
  6
Continuous
 48
10.0
100
AcDbLine
 10
-30591.90712720185
 20
38905.97120844297
 30
0.0
 11
-30591.90712720185
 21
38887.97120844297
 31
0.0
  0
LINE
  5
6E2A4
330
18
100
AcDbEntity
  8
DETAIL
  6
Continuous
 48
10.0
100
AcDbLine
 10
-30593.90712720185
 20
38907.97120844297
 30
0.0
 11
-30591.90712720185
 21
38905.97120844297
 31
0.0
  0
LINE
  5
6E2A5
330
18
100
AcDbEntity
  8
DETAIL
  6
Continuous
 48
10.0
100
AcDbLine
 10
-30631.90712720185
 20
38887.97120844296
 30
0.0
 11
-30631.90712720185
 21
38867.97120844296
 31
0.0
  0
LINE
  5
6E2A6
330
18
100
AcDbEntity
  8
DETAIL
  6
Continuous
 48
10.0
100
AcDbLine
 10
-30541.90712720185
 20
38717.97120844296
 30
0.0
 11
-30541.90712720185
 21
40617.97120844296
 31
0.0
  0
LINE
  5
6E2A7
330
18
100
AcDbEntity
  8
DETAIL
  6
Continuous
 48
10.0
100
AcDbLine
 10
-30543.90712720185
 20
40412.97120844296
 30
0.0
 11
-30543.90712720185
 21
40442.97120844296
 31
0.0
  0
LINE
  5
6E2A8
330
18
100
AcDbEntity
  8
DETAIL
  6
Continuous
 48
10.0
100
AcDbLine
 10
-30543.90712720185
 20
40440.97120844296
 30
0.0
 11
-30543.90712720184
 21
40442.97120844296
 31
0.0
  0
LINE
  5
6E2A9
330
18
100
AcDbEntity
  8
DETAIL
  6
Continuous
 48
10.0
100
AcDbLine
 10
-30553.90712720185
 20
40417.47120844296
 30
0.0
 11
-30553.90712720186
 21
40438.47120844296
 31
0.0
  0
LINE
  5
6E2AA
330
18
100
AcDbEntity
  8
DETAIL
  6
Continuous
 48
10.0
100
AcDbLine
 10
-30571.90712720186
 20
38847.97120844297
 30
0.0
 11
-30571.90712720185
 21
38867.97120844296
 31
0.0
  0
LINE
  5
6E2AB
330
18
100
AcDbEntity
  8
DETAIL
  6
Continuous
 48
10.0
100
AcDbLine
 10
-30481.90712720184
 20
38777.97120844297
 30
0.0
 11
-30481.90712720185
 21
40557.97120844297
 31
0.0
  0
LINE
  5
6E2AC
330
18
100
AcDbEntity
  8
DETAIL
  6
Continuous
 48
10.0
100
AcDbLine
 10
-28571.90712720184
 20
40617.97120844297
 30
0.0
 11
-28571.90712720185
 21
38717.97120844296
 31
0.0
  0
LINE
  5
6E2AD
330
18
100
AcDbEntity
  8
DETAIL
  6
HIDDEN
 48
100.0
100
AcDbLine
 10
-28616.90712720184
 20
40317.97120844297
 30
0.0
 11
-28616.90712720185
 21
40217.97120844297
 31
0.0
  0
LINE
  5
6E2AE
330
18
100
AcDbEntity
  8
DETAIL
  6
Continuous
 48
10.0
100
AcDbLine
 10
-28591.90712720185
 20
38717.97120844296
 30
0.0
 11
-28591.90712720185
 21
38517.97120844296
 31
0.0
  0
LINE
  5
6E2AF
330
18
100
AcDbEntity
  8
DETAIL
  6
Continuous
 48
10.0
100
AcDbLine
 10
-28631.90712720186
 20
40557.97120844297
 30
0.0
 11
-28631.90712720186
 21
38777.97120844297
 31
0.0
  0
LINE
  5
6E2B0
330
18
100
AcDbEntity
  8
DETAIL
  6
Continuous
 48
10.0
100
AcDbLine
 10
-28611.90712720186
 20
38717.97120844296
 30
0.0
 11
-28611.90712720186
 21
38517.97120844296
 31
0.0
  0
LINE
  5
6E2B1
330
18
100
AcDbEntity
  8
DETAIL
  6
Continuous
 48
10.0
100
AcDbLine
 10
-28781.90712720186
 20
39692.97120844296
 30
0.0
 11
-28781.90712720186
 21
39542.97120844296
 31
0.0
  0
LINE
  5
6E2B2
330
18
100
AcDbEntity
  8
DETAIL
  6
Continuous
 48
10.0
100
AcDbLine
 10
-28841.90712720185
 20
39752.97120844297
 30
0.0
 11
-28841.90712720185
 21
39482.97120844296
 31
0.0
  0
LINE
  5
6E2B3
330
18
100
AcDbEntity
  8
DETAIL
  6
Continuous
 48
10.0
100
AcDbLine
 10
-30541.90712720185
 20
40617.97120844296
 30
0.0
 11
-30481.90712720185
 21
40557.97120844297
 31
0.0
  0
LINE
  5
6E2B4
330
18
100
AcDbEntity
  8
DETAIL
  6
Continuous
 48
10.0
100
AcDbLine
 10
-30541.90712720185
 20
38717.97120844296
 30
0.0
 11
-30481.90712720184
 21
38777.97120844297
 31
0.0
  0
LINE
  5
6E2B5
330
18
100
AcDbEntity
  8
DETAIL
  6
Continuous
 48
10.0
100
AcDbLine
 10
-28631.90712720185
 20
40557.97120844297
 30
0.0
 11
-28571.90712720185
 21
40617.97120844296
 31
0.0
  0
LINE
  5
6E2B6
330
18
100
AcDbEntity
  8
DETAIL
  6
Continuous
 48
10.0
100
AcDbLine
 10
-28571.90712720185
 20
38717.97120844296
 30
0.0
 11
-28631.90712720186
 21
38777.97120844297
 31
0.0
  0
LINE
  5
6E2B7
330
18
100
AcDbEntity
  8
DETAIL
  6
Continuous
 48
10.0
100
AcDbLine
 10
-30661.90712720184
 20
40417.97120844296
 30
0.0
 11
-30571.90712720184
 21
40417.97120844296
 31
0.0
  0
LINE
  5
6E2B8
330
18
100
AcDbEntity
  8
DETAIL
  6
Continuous
 48
10.0
100
AcDbLine
 10
-30631.90712720184
 20
40437.97120844296
 30
0.0
 11
-30571.90712720181
 21
40437.97120844296
 31
0.0
  0
LINE
  5
6E2B9
330
18
100
AcDbEntity
  8
DETAIL
  6
Continuous
 48
10.0
100
AcDbLine
 10
-30568.30354481135
 20
40434.97120844296
 30
0.0
 11
-30553.90712720185
 21
40434.97120844296
 31
0.0
  0
LINE
  5
6E2BA
330
18
100
AcDbEntity
  8
DETAIL
  6
Continuous
 48
10.0
100
AcDbLine
 10
-30609.90712720184
 20
40457.97120844296
 30
0.0
 11
-30593.90712720184
 21
40457.97120844297
 31
0.0
  0
LINE
  5
6E2BB
330
18
100
AcDbEntity
  8
DETAIL
  6
Continuous
 48
10.0
100
AcDbLine
 10
-30611.90712720184
 20
40455.97120844296
 30
0.0
 11
-30591.90712720184
 21
40455.97120844296
 31
0.0
  0
LINE
  5
6E2BC
330
18
100
AcDbEntity
  8
DETAIL
  6
Continuous
 48
10.0
100
AcDbLine
 10
-30661.90712720184
 20
40417.97120844296
 30
0.0
 11
-30571.90712720184
 21
40417.97120844296
 31
0.0
  0
LINE
  5
6E2BD
330
18
100
AcDbEntity
  8
DETAIL
  6
Continuous
 48
10.0
100
AcDbLine
 10
-30661.90712720184
 20
40397.97120844297
 30
0.0
 11
-30571.90712720185
 21
40397.97120844297
 31
0.0
  0
LINE
  5
6E2BE
330
18
100
AcDbEntity
  8
DETAIL
  6
Continuous
 48
10.0
100
AcDbLine
 10
-30611.90712720184
 20
40455.97120844296
 30
0.0
 11
-30611.90712720184
 21
40437.97120844296
 31
0.0
  0
LINE
  5
6E2BF
330
18
100
AcDbEntity
  8
DETAIL
  6
Continuous
 48
10.0
100
AcDbLine
 10
-30609.90712720184
 20
40457.97120844296
 30
0.0
 11
-30611.90712720184
 21
40455.97120844296
 31
0.0
  0
LINE
  5
6E2C0
330
18
100
AcDbEntity
  8
DETAIL
  6
Continuous
 48
10.0
100
AcDbLine
 10
-30591.90712720184
 20
40455.97120844297
 30
0.0
 11
-30591.90712720184
 21
40437.97120844296
 31
0.0
  0
LINE
  5
6E2C1
330
18
100
AcDbEntity
  8
DETAIL
  6
Continuous
 48
10.0
100
AcDbLine
 10
-30593.90712720184
 20
40457.97120844297
 30
0.0
 11
-30591.90712720184
 21
40455.97120844297
 31
0.0
  0
LINE
  5
6E2C2
330
18
100
AcDbEntity
  8
DETAIL
  6
Continuous
 48
10.0
100
AcDbLine
 10
-30631.90712720184
 20
40437.97120844296
 30
0.0
 11
-30631.90712720184
 21
40417.97120844296
 31
0.0
  0
LINE
  5
6E2C3
330
18
100
AcDbEntity
  8
DETAIL
  6
Continuous
 48
10.0
100
AcDbLine
 10
-30571.90712720185
 20
40397.97120844297
 30
0.0
 11
-30571.90712720184
 21
40417.97120844296
 31
0.0
  0
LINE
  5
6E2C4
330
18
100
AcDbEntity
  8
DETAIL
  6
Continuous
 48
10.0
100
AcDbLine
 10
-30568.30354481134
 20
40420.97120844296
 30
0.0
 11
-30553.90712720185
 21
40420.97120844296
 31
0.0
  0
LINE
  5
6E2C5
330
18
100
AcDbEntity
  8
DETAIL
  6
Continuous
 48
10.0
100
AcDbLine
 10
-30543.90712720185
 20
40442.97120844296
 30
0.0
 11
-30541.90712720185
 21
40442.97120844296
 31
0.0
  0
LINE
  5
6E2C6
330
18
100
AcDbEntity
  8
DETAIL
  6
Continuous
 48
10.0
100
AcDbLine
 10
-30543.90712720185
 20
40412.97120844296
 30
0.0
 11
-30541.90712720185
 21
40412.97120844296
 31
0.0
  0
LINE
  5
6E2C7
330
18
100
AcDbEntity
  8
DETAIL
  6
Continuous
 48
10.0
100
AcDbLine
 10
-30551.90712720185
 20
40419.97120844296
 30
0.0
 11
-30545.90712720185
 21
40419.97120844297
 31
0.0
  0
LINE
  5
6E2C8
330
18
100
AcDbEntity
  8
DETAIL
  6
Continuous
 48
10.0
100
AcDbLine
 10
-30551.90712720185
 20
40414.97120844296
 30
0.0
 11
-30545.90712720185
 21
40414.97120844296
 31
0.0
  0
LINE
  5
6E2C9
330
18
100
AcDbEntity
  8
DETAIL
  6
Continuous
 48
10.0
100
AcDbLine
 10
-30551.90712720185
 20
40435.97120844296
 30
0.0
 11
-30545.90712720185
 21
40435.97120844296
 31
0.0
  0
LINE
  5
6E2CA
330
18
100
AcDbEntity
  8
DETAIL
  6
Continuous
 48
10.0
100
AcDbLine
 10
-30551.90712720185
 20
40440.97120844296
 30
0.0
 11
-30545.90712720185
 21
40440.97120844296
 31
0.0
  0
ARC
  5
6E2CB
330
18
100
AcDbEntity
  8
DETAIL
  6
Continuous
 48
10.0
100
AcDbCircle
 10
-30536.90712720185
 20
40427.97120844296
 30
0.0
 40
17.0
100
AcDbArc
 50
151.927513064147
 51
208.072486935853
  0
ARC
  5
6E2CC
330
18
100
AcDbEntity
  8
DETAIL
  6
Continuous
 48
10.0
100
AcDbCircle
 10
-30560.90712720185
 20
40427.97120844296
 30
0.0
 40
17.0
100
AcDbArc
 50
331.927513064147
 51
28.07248693585297
  0
ARC
  5
6E2CD
330
18
100
AcDbEntity
  8
DETAIL
  6
Continuous
 48
10.0
100
AcDbCircle
 10
-30551.34462720185
 20
40417.47120844296
 30
0.0
 40
2.5625
100
AcDbArc
 50
102.6803834918198
 51
257.3196165081802
  0
ARC
  5
6E2CE
330
18
100
AcDbEntity
  8
DETAIL
  6
Continuous
 48
10.0
100
AcDbCircle
 10
-30546.46962720185
 20
40417.47120844296
 30
0.0
 40
2.5625
100
AcDbArc
 50
282.6803834918198
 51
77.31961650818016
  0
ARC
  5
6E2CF
330
18
100
AcDbEntity
  8
DETAIL
  6
Continuous
 48
10.0
100
AcDbCircle
 10
-30546.46962720185
 20
40438.47120844296
 30
0.0
 40
2.5625
100
AcDbArc
 50
282.6803834918198
 51
77.31961650818019
  0
ARC
  5
6E2D0
330
18
100
AcDbEntity
  8
DETAIL
  6
Continuous
 48
10.0
100
AcDbCircle
 10
-30551.34462720185
 20
40438.47120844296
 30
0.0
 40
2.5625
100
AcDbArc
 50
102.6803834918198
 51
257.3196165081802
  0
LINE
  5
6E2D1
330
18
100
AcDbEntity
  8
DETAIL
  6
Continuous
 48
10.0
100
AcDbLine
 10
-30568.30354481135
 20
40434.97120844297
 30
0.0
 11
-30568.30354481135
 21
40420.97120844296
 31
0.0
  0
LINE
  5
6E2D2
330
18
100
AcDbEntity
  8
DETAIL
  6
Continuous
 48
10.0
100
AcDbLine
 10
-30571.90712720184
 20
40417.97120844296
 30
0.0
 11
-30568.30354481135
 21
40420.97120844296
 31
0.0
  0
LINE
  5
6E2D3
330
18
100
AcDbEntity
  8
DETAIL
  6
Continuous
 48
10.0
100
AcDbLine
 10
-30571.90712720183
 20
40437.97120844296
 30
0.0
 11
-30568.30354481134
 21
40434.97120844297
 31
0.0
  0
LINE
  5
6E2D4
330
18
100
AcDbEntity
  8
DETAIL
  6
Continuous
 48
10.0
100
AcDbLine
 10
-30479.90712720186
 20
40412.97120844296
 30
0.0
 11
-30479.90712720186
 21
40442.97120844296
 31
0.0
  0
LINE
  5
6E2D5
330
18
100
AcDbEntity
  8
DETAIL
  6
Continuous
 48
10.0
100
AcDbLine
 10
-30479.90712720186
 20
40440.97120844296
 30
0.0
 11
-30479.90712720187
 21
40442.97120844296
 31
0.0
  0
LINE
  5
6E2D6
330
18
100
AcDbEntity
  8
DETAIL
  6
Continuous
 48
10.0
100
AcDbLine
 10
-30469.90712720186
 20
40417.47120844296
 30
0.0
 11
-30469.90712720186
 21
40438.47120844296
 31
0.0
  0
LINE
  5
6E2D7
330
18
100
AcDbEntity
  8
DETAIL
  6
Continuous
 48
10.0
100
AcDbLine
 10
-30479.90712720186
 20
40442.97120844296
 30
0.0
 11
-30481.90712720186
 21
40442.97120844296
 31
0.0
  0
LINE
  5
6E2D8
330
18
100
AcDbEntity
  8
DETAIL
  6
Continuous
 48
10.0
100
AcDbLine
 10
-30479.90712720186
 20
40412.97120844296
 30
0.0
 11
-30481.90712720186
 21
40412.97120844296
 31
0.0
  0
LINE
  5
6E2D9
330
18
100
AcDbEntity
  8
DETAIL
  6
Continuous
 48
10.0
100
AcDbLine
 10
-30471.90712720186
 20
40419.97120844296
 30
0.0
 11
-30477.90712720186
 21
40419.97120844297
 31
0.0
  0
LINE
  5
6E2DA
330
18
100
AcDbEntity
  8
DETAIL
  6
Continuous
 48
10.0
100
AcDbLine
 10
-30471.90712720186
 20
40414.97120844296
 30
0.0
 11
-30477.90712720186
 21
40414.97120844296
 31
0.0
  0
LINE
  5
6E2DB
330
18
100
AcDbEntity
  8
DETAIL
  6
Continuous
 48
10.0
100
AcDbLine
 10
-30471.90712720186
 20
40435.97120844296
 30
0.0
 11
-30477.90712720186
 21
40435.97120844296
 31
0.0
  0
LINE
  5
6E2DC
330
18
100
AcDbEntity
  8
DETAIL
  6
Continuous
 48
10.0
100
AcDbLine
 10
-30471.90712720186
 20
40440.97120844296
 30
0.0
 11
-30477.90712720186
 21
40440.97120844296
 31
0.0
  0
ARC
  5
6E2DD
330
18
100
AcDbEntity
  8
DETAIL
  6
Continuous
 48
10.0
100
AcDbCircle
 10
-30486.90712720186
 20
40427.97120844296
 30
0.0
 40
17.0
100
AcDbArc
 50
331.927513064147
 51
28.07248693585297
  0
ARC
  5
6E2DE
330
18
100
AcDbEntity
  8
DETAIL
  6
Continuous
 48
10.0
100
AcDbCircle
 10
-30462.90712720186
 20
40427.97120844296
 30
0.0
 40
17.0
100
AcDbArc
 50
151.927513064147
 51
208.072486935853
  0
ARC
  5
6E2DF
330
18
100
AcDbEntity
  8
DETAIL
  6
Continuous
 48
10.0
100
AcDbCircle
 10
-30472.46962720187
 20
40417.47120844296
 30
0.0
 40
2.5625
100
AcDbArc
 50
282.6803834918198
 51
77.31961650818019
  0
ARC
  5
6E2E0
330
18
100
AcDbEntity
  8
DETAIL
  6
Continuous
 48
10.0
100
AcDbCircle
 10
-30477.34462720186
 20
40417.47120844296
 30
0.0
 40
2.5625
100
AcDbArc
 50
102.6803834918198
 51
257.3196165081802
  0
ARC
  5
6E2E1
330
18
100
AcDbEntity
  8
DETAIL
  6
Continuous
 48
10.0
100
AcDbCircle
 10
-30477.34462720186
 20
40438.47120844296
 30
0.0
 40
2.5625
100
AcDbArc
 50
102.6803834918198
 51
257.3196165081802
  0
ARC
  5
6E2E2
330
18
100
AcDbEntity
  8
DETAIL
  6
Continuous
 48
10.0
100
AcDbCircle
 10
-30472.46962720187
 20
40438.47120844296
 30
0.0
 40
2.5625
100
AcDbArc
 50
282.6803834918198
 51
77.31961650818019
  0
LINE
  5
6E2E3
330
18
100
AcDbEntity
  8
DETAIL
  6
Continuous
 48
10.0
100
AcDbLine
 10
-30455.51070959236
 20
40434.97120844296
 30
0.0
 11
-30469.90712720186
 21
40434.97120844296
 31
0.0
  0
LINE
  5
6E2E4
330
18
100
AcDbEntity
  8
DETAIL
  6
Continuous
 48
10.0
100
AcDbLine
 10
-30455.51070959237
 20
40420.97120844296
 30
0.0
 11
-30469.90712720186
 21
40420.97120844296
 31
0.0
  0
LINE
  5
6E2E5
330
18
100
AcDbEntity
  8
DETAIL
  6
Continuous
 48
10.0
100
AcDbLine
 10
-30455.51070959236
 20
40434.97120844296
 30
0.0
 11
-30455.51070959237
 21
40420.97120844296
 31
0.0
  0
LINE
  5
6E2FE
330
18
100
AcDbEntity
  8
DETAIL
  6
Continuous
 48
10.0
100
AcDbLine
 10
-28841.90712720185
 20
39752.97120844297
 30
0.0
 11
-28781.90712720185
 21
39692.97120844296
 31
0.0
  0
LINE
  5
6E2FF
330
18
100
AcDbEntity
  8
DETAIL
  6
Continuous
 48
10.0
100
AcDbLine
 10
-28841.90712720186
 20
39482.97120844296
 30
0.0
 11
-28781.90712720186
 21
39542.97120844296
 31
0.0
  0
LINE
  5
6E306
330
18
100
AcDbEntity
  8
DETAIL
  6
Continuous
 48
10.0
100
AcDbLine
 10
-28721.7862516257
 20
39097.97120844299
 30
0.0
 11
-28721.78625162571
 21
39077.97120844298
 31
0.0
  0
HATCH
  5
6E307
330
18
100
AcDbEntity
  8
APPLICATION
  6
Continuous
 48
10.0
100
AcDbHatch
 10
0.0
 20
0.0
 30
0.0
210
0.0
220
0.0
230
1.0
  2
AR-CONC
 70
     0
 71
     0
 91
        1
 92
        7
 72
     0
 73
     1
 93
        8
 10
-26471.90712720186
 20
37857.97120844295
 10
-26321.90712720186
 20
37857.97120844295
 10
-26321.90712720186
 20
38617.97120844295
 10
-26171.90712720188
 20
38617.97120844295
 10
-26171.90712720187
 20
37757.97120844295
 10
-26621.90712720186
 20
37757.97120844297
 10
-26621.90712720187
 20
38617.97120844297
 10
-26471.90712720187
 20
38617.97120844297
 97
        0
 75
     0
 76
     1
 52
0.0
 41
50.0
 77
     0
 78
    13
 53
130.0
 43
-70953.45119513769
 44
0.0
 45
-358.6300913003769
 46
-31.37606749129755
 79
     2
 49
37.50000000000001
 49
-412.5
 53
185.0
 43
-70953.45119513769
 44
0.0
 45
69.37566680650004
 46
376.0960668500059
 79
     2
 49
30.00000000000002
 49
-330.0000000000002
 53
79.5486
 43
-70983.3370351377
 44
-2.614669999999998
 45
-289.2546908570109
 46
344.7197710304769
 79
     2
 49
31.870095
 49
-350.5710559999998
 53
133.8158
 43
-70953.45119513769
 44
100.0
 45
-533.6205243128223
 46
-82.75950716450905
 79
     2
 49
56.25
 49
-618.75
 53
83.36440000000001
 43
-70997.9195676377
 44
93.10334649999999
 45
-467.3313527743519
 46
487.0589354502207
 79
     2
 49
47.805144
 49
-525.8564999999999
 53
188.8158
 43
-70953.45119513769
 44
100.0
 45
-467.3309725668137
 46
487.0593004626623
 79
     2
 49
45.00000000000002
 49
-495.0000000000001
 53
159.0
 43
-71003.45119513769
 44
75.0
 45
-298.453526059231
 46
-201.3094453326694
 79
     2
 49
37.50000000000002
 49
-412.5000000000001
 53
214.0
 43
-71003.45119513769
 44
75.0
 45
-121.6576659607909
 46
362.5750225234265
 79
     2
 49
30.00000000000001
 49
-330.0000000000001
 53
108.5486
 43
-71028.32231163769
 44
58.224197
 45
-420.1113142907451
 46
161.2652483549762
 79
     2
 49
31.870095
 49
-350.571056
 53
142.5
 43
-70953.45119513769
 44
0.0
 45
-6.079927658645337
 46
166.4469269156557
 79
     6
 49
0.0
 49
-326.0000000000001
 49
0.0
 49
-335.0
 49
0.0
 49
-331.25
 53
172.5
 43
-70953.45119513769
 44
0.0
 45
-131.5347687210743
 46
197.2058559411801
 79
     6
 49
0.0
 49
-191.0000000000001
 49
0.0
 49
-318.5000000000001
 49
0.0
 49
-126.25
 53
212.5
 43
-70841.95119513769
 44
0.0
 45
-266.9112180862047
 46
-11.2774358671899
 79
     6
 49
0.0
 49
-125.0
 49
0.0
 49
-390.0000000000002
 49
0.0
 49
-517.4999999999998
 53
222.5
 43
-70791.95119513769
 44
0.0
 45
-291.5930846711932
 46
50.05249116615882
 79
     6
 49
0.0
 49
-162.5
 49
0.0
 49
-259.0000000000001
 49
0.0
 49
-367.5000000000002
 47
4.108185986084058
 98
        1
 10
-26523.3673220175
 20
38333.19796858827
  0
LINE
  5
6E308
330
18
100
AcDbEntity
  8
DETAIL
  6
Continuous
 48
10.0
100
AcDbLine
 10
-26221.90712720186
 20
37857.97120844296
 30
0.0
 11
-26571.90712720185
 21
37857.97120844296
 31
0.0
  0
LINE
  5
6E309
330
18
100
AcDbEntity
  8
APPLICATION
  6
Continuous
 48
10.0
100
AcDbLine
 10
-26171.90712720186
 20
37757.97120844297
 30
0.0
 11
-26621.90712720186
 21
37757.97120844297
 31
0.0
  0
LINE
  5
6E30A
330
18
100
AcDbEntity
  8
DETAIL
  6
Continuous
 48
10.0
100
AcDbLine
 10
-28521.90712720185
 20
38517.97120844296
 30
0.0
 11
-28541.90712720185
 21
38517.97120844296
 31
0.0
  0
LINE
  5
6E30B
330
18
100
AcDbEntity
  8
DETAIL
  6
Continuous
 48
10.0
100
AcDbLine
 10
-28351.90712720185
 20
39542.97120844296
 30
0.0
 11
-28501.90712720186
 21
39542.97120844296
 31
0.0
  0
LINE
  5
6E30C
330
18
100
AcDbEntity
  8
DETAIL
  6
Continuous
 48
10.0
100
AcDbLine
 10
-28291.90712720185
 20
39482.97120844296
 30
0.0
 11
-28501.90712720186
 21
39482.97120844296
 31
0.0
  0
LINE
  5
6E30D
330
18
100
AcDbEntity
  8
DETAIL
  6
Continuous
 48
10.0
100
AcDbLine
 10
-28351.90712720186
 20
39692.97120844296
 30
0.0
 11
-28501.90712720186
 21
39692.97120844296
 31
0.0
  0
LINE
  5
6E30E
330
18
100
AcDbEntity
  8
DETAIL
  6
Continuous
 48
10.0
100
AcDbLine
 10
-28291.90712720185
 20
39752.97120844297
 30
0.0
 11
-28501.90712720186
 21
39752.97120844297
 31
0.0
  0
LINE
  5
6E30F
330
18
100
AcDbEntity
  8
DETAIL
  6
Continuous
 48
10.0
100
AcDbLine
 10
-26591.90712720186
 20
38717.97120844296
 30
0.0
 11
-28561.90712720186
 21
38717.97120844296
 31
0.0
  0
LINE
  5
6E310
330
18
100
AcDbEntity
  8
DETAIL
  6
Continuous
 48
10.0
100
AcDbLine
 10
-26471.90712720186
 20
38867.97120844296
 30
0.0
 11
-26591.90712720185
 21
38867.97120844296
 31
0.0
  0
LINE
  5
6E311
330
18
100
AcDbEntity
  8
DETAIL
  6
Continuous
 48
10.0
100
AcDbLine
 10
-26501.90712720186
 20
38887.97120844296
 30
0.0
 11
-26591.90712720185
 21
38887.97120844296
 31
0.0
  0
LINE
  5
6E312
330
18
100
AcDbEntity
  8
DETAIL
  6
Continuous
 48
10.0
100
AcDbLine
 10
-26523.90712720186
 20
38907.97120844296
 30
0.0
 11
-26539.90712720186
 21
38907.97120844297
 31
0.0
  0
LINE
  5
6E313
330
18
100
AcDbEntity
  8
DETAIL
  6
Continuous
 48
10.0
100
AcDbLine
 10
-26521.90712720186
 20
38905.97120844296
 30
0.0
 11
-26541.90712720186
 21
38905.97120844296
 31
0.0
  0
LINE
  5
6E314
330
18
100
AcDbEntity
  8
DETAIL
  6
Continuous
 48
10.0
100
AcDbLine
 10
-26471.90712720186
 20
38867.97120844296
 30
0.0
 11
-26591.90712720185
 21
38867.97120844296
 31
0.0
  0
LINE
  5
6E315
330
18
100
AcDbEntity
  8
DETAIL
  6
Continuous
 48
10.0
100
AcDbLine
 10
-26471.90712720186
 20
38847.97120844297
 30
0.0
 11
-26561.90712720185
 21
38847.97120844297
 31
0.0
  0
LINE
  5
6E316
330
18
100
AcDbEntity
  8
DETAIL
  6
Continuous
 48
10.0
100
AcDbLine
 10
-26651.90712720186
 20
38777.97120844297
 30
0.0
 11
-28501.90712720186
 21
38777.97120844297
 31
0.0
  0
LINE
  5
6E317
330
18
100
AcDbEntity
  8
DETAIL
  6
Continuous
 48
10.0
100
AcDbLine
 10
-28412.028002778
 20
39077.97120844298
 30
0.0
 11
-28501.90712720186
 21
39077.97120844297
 31
0.0
  0
LINE
  5
6E318
330
18
100
AcDbEntity
  8
DETAIL
  6
Continuous
 48
10.0
100
AcDbLine
 10
-28412.028002778
 20
39097.97120844299
 30
0.0
 11
-28501.90712720186
 21
39097.97120844297
 31
0.0
  0
LINE
  5
6E319
330
18
100
AcDbEntity
  8
DETAIL
  6
Continuous
 48
10.0
100
AcDbLine
 10
-28561.90712720186
 20
40617.97120844297
 30
0.0
 11
-26591.90712720186
 21
40617.97120844296
 31
0.0
  0
LINE
  5
6E31A
330
18
100
AcDbEntity
  8
DETAIL
  6
HIDDEN
 48
100.0
100
AcDbLine
 10
-28616.90712720184
 20
40317.97120844297
 30
0.0
 11
-28571.90712720184
 21
40317.97120844297
 31
0.0
  0
LINE
  5
6E31B
330
18
100
AcDbEntity
  8
DETAIL
  6
HIDDEN
 48
100.0
100
AcDbLine
 10
-28561.90712720186
 20
40317.97120844297
 30
0.0
 11
-28516.90712720186
 21
40317.97120844297
 31
0.0
  0
LINE
  5
6E31C
330
18
100
AcDbEntity
  8
DETAIL
  6
HIDDEN
 48
100.0
100
AcDbLine
 10
-28616.90712720185
 20
40217.97120844297
 30
0.0
 11
-28571.90712720184
 21
40217.97120844297
 31
0.0
  0
LINE
  5
6E31D
330
18
100
AcDbEntity
  8
DETAIL
  6
HIDDEN
 48
100.0
100
AcDbLine
 10
-28561.90712720186
 20
40217.97120844297
 30
0.0
 11
-28516.90712720186
 21
40217.97120844297
 31
0.0
  0
LINE
  5
6E31E
330
18
100
AcDbEntity
  8
DETAIL
  6
Continuous
 48
10.0
100
AcDbLine
 10
-28501.90712720186
 20
40557.97120844297
 30
0.0
 11
-26651.90712720185
 21
40557.97120844297
 31
0.0
  0
LINE
  5
6E31F
330
18
100
AcDbEntity
  8
DETAIL
  6
Continuous
 48
10.0
100
AcDbLine
 10
-26471.90712720186
 20
40617.97120844296
 30
0.0
 11
-26321.90712720186
 21
40617.97120844296
 31
0.0
  0
LINE
  5
6E320
330
18
100
AcDbEntity
  8
DETAIL
  6
Continuous
 48
10.0
100
AcDbLine
 10
-26321.90712720186
 20
40617.97120844296
 30
0.0
 11
-26321.90712720186
 21
37857.97120844296
 31
0.0
  0
LINE
  5
6E321
330
18
100
AcDbEntity
  8
APPLICATION
  6
Continuous
 48
10.0
100
AcDbLine
 10
-26171.90712720186
 20
38617.97120844297
 30
0.0
 11
-26171.90712720186
 21
37757.97120844297
 31
0.0
  0
LINE
  5
6E322
330
18
100
AcDbEntity
  8
DETAIL
  6
Continuous
 48
10.0
100
AcDbLine
 10
-26471.90712720186
 20
40617.97120844296
 30
0.0
 11
-26471.90712720186
 21
37857.97120844296
 31
0.0
  0
LINE
  5
6E323
330
18
100
AcDbEntity
  8
APPLICATION
  6
Continuous
 48
10.0
100
AcDbLine
 10
-26621.90712720186
 20
38617.97120844297
 30
0.0
 11
-26621.90712720186
 21
37757.97120844297
 31
0.0
  0
LINE
  5
6E324
330
18
100
AcDbEntity
  8
DETAIL
  6
Continuous
 48
10.0
100
AcDbLine
 10
-26521.90712720186
 20
38905.97120844296
 30
0.0
 11
-26521.90712720186
 21
38887.97120844297
 31
0.0
  0
LINE
  5
6E325
330
18
100
AcDbEntity
  8
DETAIL
  6
Continuous
 48
10.0
100
AcDbLine
 10
-26523.90712720186
 20
38907.97120844296
 30
0.0
 11
-26521.90712720186
 21
38905.97120844296
 31
0.0
  0
LINE
  5
6E326
330
18
100
AcDbEntity
  8
DETAIL
  6
Continuous
 48
10.0
100
AcDbLine
 10
-26541.90712720186
 20
38905.97120844297
 30
0.0
 11
-26541.90712720186
 21
38887.97120844297
 31
0.0
  0
LINE
  5
6E327
330
18
100
AcDbEntity
  8
DETAIL
  6
Continuous
 48
10.0
100
AcDbLine
 10
-26539.90712720186
 20
38907.97120844297
 30
0.0
 11
-26541.90712720186
 21
38905.97120844297
 31
0.0
  0
LINE
  5
6E328
330
18
100
AcDbEntity
  8
DETAIL
  6
Continuous
 48
10.0
100
AcDbLine
 10
-26501.90712720186
 20
38887.97120844296
 30
0.0
 11
-26501.90712720186
 21
38867.97120844296
 31
0.0
  0
LINE
  5
6E329
330
18
100
AcDbEntity
  8
DETAIL
  6
Continuous
 48
10.0
100
AcDbLine
 10
-26591.90712720186
 20
38717.97120844296
 30
0.0
 11
-26591.90712720186
 21
40617.97120844296
 31
0.0
  0
LINE
  5
6E32A
330
18
100
AcDbEntity
  8
DETAIL
  6
Continuous
 48
10.0
100
AcDbLine
 10
-26589.90712720186
 20
40412.97120844296
 30
0.0
 11
-26589.90712720186
 21
40442.97120844296
 31
0.0
  0
LINE
  5
6E32B
330
18
100
AcDbEntity
  8
DETAIL
  6
Continuous
 48
10.0
100
AcDbLine
 10
-26589.90712720186
 20
40440.97120844296
 30
0.0
 11
-26589.90712720187
 21
40442.97120844296
 31
0.0
  0
LINE
  5
6E32C
330
18
100
AcDbEntity
  8
DETAIL
  6
Continuous
 48
10.0
100
AcDbLine
 10
-26579.90712720186
 20
40417.47120844296
 30
0.0
 11
-26579.90712720185
 21
40438.47120844296
 31
0.0
  0
LINE
  5
6E32D
330
18
100
AcDbEntity
  8
DETAIL
  6
Continuous
 48
10.0
100
AcDbLine
 10
-26561.90712720185
 20
38847.97120844297
 30
0.0
 11
-26561.90712720186
 21
38867.97120844296
 31
0.0
  0
LINE
  5
6E32E
330
18
100
AcDbEntity
  8
DETAIL
  6
Continuous
 48
10.0
100
AcDbLine
 10
-26651.90712720186
 20
38777.97120844297
 30
0.0
 11
-26651.90712720185
 21
40557.97120844297
 31
0.0
  0
LINE
  5
6E32F
330
18
100
AcDbEntity
  8
DETAIL
  6
Continuous
 48
10.0
100
AcDbLine
 10
-28561.90712720186
 20
40617.97120844297
 30
0.0
 11
-28561.90712720186
 21
38717.97120844296
 31
0.0
  0
LINE
  5
6E330
330
18
100
AcDbEntity
  8
DETAIL
  6
HIDDEN
 48
100.0
100
AcDbLine
 10
-28516.90712720186
 20
40317.97120844297
 30
0.0
 11
-28516.90712720186
 21
40217.97120844297
 31
0.0
  0
LINE
  5
6E331
330
18
100
AcDbEntity
  8
DETAIL
  6
Continuous
 48
10.0
100
AcDbLine
 10
-28541.90712720185
 20
38717.97120844296
 30
0.0
 11
-28541.90712720185
 21
38517.97120844296
 31
0.0
  0
LINE
  5
6E332
330
18
100
AcDbEntity
  8
DETAIL
  6
Continuous
 48
10.0
100
AcDbLine
 10
-28501.90712720186
 20
40557.97120844297
 30
0.0
 11
-28501.90712720186
 21
38777.97120844297
 31
0.0
  0
LINE
  5
6E333
330
18
100
AcDbEntity
  8
DETAIL
  6
Continuous
 48
10.0
100
AcDbLine
 10
-28451.90712720185
 20
39662.97120844296
 30
0.0
 11
-28451.90712720185
 21
39622.97120844297
 31
0.0
  0
ARC
  5
6E334
330
18
100
AcDbEntity
  8
DETAIL
  6
Continuous
 48
10.0
100
AcDbCircle
 10
-28456.90712720185
 20
39662.97120844296
 30
0.0
 40
5.0
100
AcDbArc
 50
0.0
 51
90.0
  0
LINE
  5
6E335
330
18
100
AcDbEntity
  8
DETAIL
  6
Continuous
 48
10.0
100
AcDbLine
 10
-28521.90712720185
 20
38717.97120844296
 30
0.0
 11
-28521.90712720185
 21
38517.97120844296
 31
0.0
  0
LINE
  5
6E336
330
18
100
AcDbEntity
  8
DETAIL
  6
Continuous
 48
10.0
100
AcDbLine
 10
-28351.90712720185
 20
39692.97120844296
 30
0.0
 11
-28351.90712720185
 21
39542.97120844296
 31
0.0
  0
LINE
  5
6E337
330
18
100
AcDbEntity
  8
DETAIL
  6
Continuous
 48
10.0
100
AcDbLine
 10
-28291.90712720185
 20
39752.97120844297
 30
0.0
 11
-28291.90712720185
 21
39482.97120844296
 31
0.0
  0
LINE
  5
6E338
330
18
100
AcDbEntity
  8
DETAIL
  6
Continuous
 48
10.0
100
AcDbLine
 10
-26591.90712720186
 20
40617.97120844296
 30
0.0
 11
-26651.90712720185
 21
40557.97120844297
 31
0.0
  0
LINE
  5
6E339
330
18
100
AcDbEntity
  8
DETAIL
  6
Continuous
 48
10.0
100
AcDbLine
 10
-26591.90712720186
 20
38717.97120844296
 30
0.0
 11
-26651.90712720186
 21
38777.97120844297
 31
0.0
  0
LINE
  5
6E33A
330
18
100
AcDbEntity
  8
DETAIL
  6
Continuous
 48
10.0
100
AcDbLine
 10
-28501.90712720186
 20
40557.97120844297
 30
0.0
 11
-28561.90712720186
 21
40617.97120844296
 31
0.0
  0
LINE
  5
6E33B
330
18
100
AcDbEntity
  8
DETAIL
  6
Continuous
 48
10.0
100
AcDbLine
 10
-28561.90712720186
 20
38717.97120844296
 30
0.0
 11
-28501.90712720186
 21
38777.97120844297
 31
0.0
  0
LINE
  5
6E33C
330
18
100
AcDbEntity
  8
DETAIL
  6
Continuous
 48
10.0
100
AcDbLine
 10
-26471.90712720187
 20
40417.97120844296
 30
0.0
 11
-26561.90712720186
 21
40417.97120844296
 31
0.0
  0
LINE
  5
6E33D
330
18
100
AcDbEntity
  8
DETAIL
  6
Continuous
 48
10.0
100
AcDbLine
 10
-26501.90712720186
 20
40437.97120844296
 30
0.0
 11
-26561.90712720189
 21
40437.97120844296
 31
0.0
  0
LINE
  5
6E33E
330
18
100
AcDbEntity
  8
DETAIL
  6
Continuous
 48
10.0
100
AcDbLine
 10
-26565.51070959235
 20
40434.97120844296
 30
0.0
 11
-26579.90712720186
 21
40434.97120844296
 31
0.0
  0
LINE
  5
6E33F
330
18
100
AcDbEntity
  8
DETAIL
  6
Continuous
 48
10.0
100
AcDbLine
 10
-26523.90712720187
 20
40457.97120844296
 30
0.0
 11
-26539.90712720186
 21
40457.97120844297
 31
0.0
  0
LINE
  5
6E340
330
18
100
AcDbEntity
  8
DETAIL
  6
Continuous
 48
10.0
100
AcDbLine
 10
-26521.90712720186
 20
40455.97120844296
 30
0.0
 11
-26541.90712720186
 21
40455.97120844296
 31
0.0
  0
LINE
  5
6E341
330
18
100
AcDbEntity
  8
DETAIL
  6
Continuous
 48
10.0
100
AcDbLine
 10
-26471.90712720187
 20
40417.97120844296
 30
0.0
 11
-26561.90712720186
 21
40417.97120844296
 31
0.0
  0
LINE
  5
6E342
330
18
100
AcDbEntity
  8
DETAIL
  6
Continuous
 48
10.0
100
AcDbLine
 10
-26471.90712720187
 20
40397.97120844297
 30
0.0
 11
-26561.90712720186
 21
40397.97120844297
 31
0.0
  0
LINE
  5
6E343
330
18
100
AcDbEntity
  8
DETAIL
  6
Continuous
 48
10.0
100
AcDbLine
 10
-26521.90712720187
 20
40455.97120844296
 30
0.0
 11
-26521.90712720186
 21
40437.97120844296
 31
0.0
  0
LINE
  5
6E344
330
18
100
AcDbEntity
  8
DETAIL
  6
Continuous
 48
10.0
100
AcDbLine
 10
-26523.90712720187
 20
40457.97120844296
 30
0.0
 11
-26521.90712720187
 21
40455.97120844296
 31
0.0
  0
LINE
  5
6E345
330
18
100
AcDbEntity
  8
DETAIL
  6
Continuous
 48
10.0
100
AcDbLine
 10
-26541.90712720186
 20
40455.97120844297
 30
0.0
 11
-26541.90712720186
 21
40437.97120844296
 31
0.0
  0
LINE
  5
6E346
330
18
100
AcDbEntity
  8
DETAIL
  6
Continuous
 48
10.0
100
AcDbLine
 10
-26539.90712720186
 20
40457.97120844297
 30
0.0
 11
-26541.90712720186
 21
40455.97120844297
 31
0.0
  0
LINE
  5
6E347
330
18
100
AcDbEntity
  8
DETAIL
  6
Continuous
 48
10.0
100
AcDbLine
 10
-26501.90712720186
 20
40437.97120844296
 30
0.0
 11
-26501.90712720186
 21
40417.97120844296
 31
0.0
  0
LINE
  5
6E348
330
18
100
AcDbEntity
  8
DETAIL
  6
Continuous
 48
10.0
100
AcDbLine
 10
-26561.90712720186
 20
40397.97120844297
 30
0.0
 11
-26561.90712720186
 21
40417.97120844296
 31
0.0
  0
LINE
  5
6E349
330
18
100
AcDbEntity
  8
DETAIL
  6
Continuous
 48
10.0
100
AcDbLine
 10
-26565.51070959236
 20
40420.97120844296
 30
0.0
 11
-26579.90712720186
 21
40420.97120844296
 31
0.0
  0
LINE
  5
6E34A
330
18
100
AcDbEntity
  8
DETAIL
  6
Continuous
 48
10.0
100
AcDbLine
 10
-26589.90712720186
 20
40442.97120844296
 30
0.0
 11
-26591.90712720186
 21
40442.97120844296
 31
0.0
  0
LINE
  5
6E34B
330
18
100
AcDbEntity
  8
DETAIL
  6
Continuous
 48
10.0
100
AcDbLine
 10
-26589.90712720186
 20
40412.97120844296
 30
0.0
 11
-26591.90712720186
 21
40412.97120844296
 31
0.0
  0
LINE
  5
6E34C
330
18
100
AcDbEntity
  8
DETAIL
  6
Continuous
 48
10.0
100
AcDbLine
 10
-26581.90712720186
 20
40419.97120844296
 30
0.0
 11
-26587.90712720186
 21
40419.97120844297
 31
0.0
  0
LINE
  5
6E34D
330
18
100
AcDbEntity
  8
DETAIL
  6
Continuous
 48
10.0
100
AcDbLine
 10
-26581.90712720186
 20
40414.97120844296
 30
0.0
 11
-26587.90712720186
 21
40414.97120844296
 31
0.0
  0
LINE
  5
6E34E
330
18
100
AcDbEntity
  8
DETAIL
  6
Continuous
 48
10.0
100
AcDbLine
 10
-26581.90712720186
 20
40435.97120844296
 30
0.0
 11
-26587.90712720186
 21
40435.97120844296
 31
0.0
  0
LINE
  5
6E34F
330
18
100
AcDbEntity
  8
DETAIL
  6
Continuous
 48
10.0
100
AcDbLine
 10
-26581.90712720186
 20
40440.97120844296
 30
0.0
 11
-26587.90712720186
 21
40440.97120844296
 31
0.0
  0
ARC
  5
6E350
330
18
100
AcDbEntity
  8
DETAIL
  6
Continuous
 48
10.0
100
AcDbCircle
 10
-26596.90712720186
 20
40427.97120844296
 30
0.0
 40
17.0
100
AcDbArc
 50
331.927513064147
 51
28.07248693585296
  0
ARC
  5
6E351
330
18
100
AcDbEntity
  8
DETAIL
  6
Continuous
 48
10.0
100
AcDbCircle
 10
-26572.90712720186
 20
40427.97120844296
 30
0.0
 40
17.0
100
AcDbArc
 50
151.927513064147
 51
208.072486935853
  0
ARC
  5
6E352
330
18
100
AcDbEntity
  8
DETAIL
  6
Continuous
 48
10.0
100
AcDbCircle
 10
-26582.46962720185
 20
40417.47120844296
 30
0.0
 40
2.5625
100
AcDbArc
 50
282.6803834918198
 51
77.31961650818019
  0
ARC
  5
6E353
330
18
100
AcDbEntity
  8
DETAIL
  6
Continuous
 48
10.0
100
AcDbCircle
 10
-26587.34462720186
 20
40417.47120844296
 30
0.0
 40
2.5625
100
AcDbArc
 50
102.6803834918198
 51
257.3196165081802
  0
ARC
  5
6E354
330
18
100
AcDbEntity
  8
DETAIL
  6
Continuous
 48
10.0
100
AcDbCircle
 10
-26587.34462720186
 20
40438.47120844296
 30
0.0
 40
2.5625
100
AcDbArc
 50
102.6803834918198
 51
257.3196165081802
  0
ARC
  5
6E355
330
18
100
AcDbEntity
  8
DETAIL
  6
Continuous
 48
10.0
100
AcDbCircle
 10
-26582.46962720185
 20
40438.47120844296
 30
0.0
 40
2.5625
100
AcDbArc
 50
282.6803834918198
 51
77.31961650818019
  0
LINE
  5
6E356
330
18
100
AcDbEntity
  8
DETAIL
  6
Continuous
 48
10.0
100
AcDbLine
 10
-26565.51070959235
 20
40434.97120844297
 30
0.0
 11
-26565.51070959235
 21
40420.97120844296
 31
0.0
  0
LINE
  5
6E357
330
18
100
AcDbEntity
  8
DETAIL
  6
Continuous
 48
10.0
100
AcDbLine
 10
-26561.90712720186
 20
40417.97120844296
 30
0.0
 11
-26565.51070959235
 21
40420.97120844296
 31
0.0
  0
LINE
  5
6E358
330
18
100
AcDbEntity
  8
DETAIL
  6
Continuous
 48
10.0
100
AcDbLine
 10
-26561.90712720188
 20
40437.97120844296
 30
0.0
 11
-26565.51070959237
 21
40434.97120844297
 31
0.0
  0
LINE
  5
6E359
330
18
100
AcDbEntity
  8
DETAIL
  6
Continuous
 48
10.0
100
AcDbLine
 10
-26653.90712720184
 20
40412.97120844296
 30
0.0
 11
-26653.90712720184
 21
40442.97120844296
 31
0.0
  0
LINE
  5
6E35A
330
18
100
AcDbEntity
  8
DETAIL
  6
Continuous
 48
10.0
100
AcDbLine
 10
-26653.90712720184
 20
40440.97120844296
 30
0.0
 11
-26653.90712720184
 21
40442.97120844296
 31
0.0
  0
LINE
  5
6E35B
330
18
100
AcDbEntity
  8
DETAIL
  6
Continuous
 48
10.0
100
AcDbLine
 10
-26663.90712720184
 20
40417.47120844296
 30
0.0
 11
-26663.90712720185
 21
40438.47120844296
 31
0.0
  0
LINE
  5
6E35C
330
18
100
AcDbEntity
  8
DETAIL
  6
Continuous
 48
10.0
100
AcDbLine
 10
-26653.90712720184
 20
40442.97120844296
 30
0.0
 11
-26651.90712720184
 21
40442.97120844296
 31
0.0
  0
LINE
  5
6E35D
330
18
100
AcDbEntity
  8
DETAIL
  6
Continuous
 48
10.0
100
AcDbLine
 10
-26653.90712720184
 20
40412.97120844296
 30
0.0
 11
-26651.90712720184
 21
40412.97120844296
 31
0.0
  0
LINE
  5
6E35E
330
18
100
AcDbEntity
  8
DETAIL
  6
Continuous
 48
10.0
100
AcDbLine
 10
-26661.90712720184
 20
40419.97120844296
 30
0.0
 11
-26655.90712720184
 21
40419.97120844297
 31
0.0
  0
LINE
  5
6E35F
330
18
100
AcDbEntity
  8
DETAIL
  6
Continuous
 48
10.0
100
AcDbLine
 10
-26661.90712720184
 20
40414.97120844296
 30
0.0
 11
-26655.90712720184
 21
40414.97120844296
 31
0.0
  0
LINE
  5
6E360
330
18
100
AcDbEntity
  8
DETAIL
  6
Continuous
 48
10.0
100
AcDbLine
 10
-26661.90712720184
 20
40435.97120844296
 30
0.0
 11
-26655.90712720184
 21
40435.97120844296
 31
0.0
  0
LINE
  5
6E361
330
18
100
AcDbEntity
  8
DETAIL
  6
Continuous
 48
10.0
100
AcDbLine
 10
-26661.90712720184
 20
40440.97120844296
 30
0.0
 11
-26655.90712720184
 21
40440.97120844296
 31
0.0
  0
ARC
  5
6E362
330
18
100
AcDbEntity
  8
DETAIL
  6
Continuous
 48
10.0
100
AcDbCircle
 10
-26646.90712720184
 20
40427.97120844296
 30
0.0
 40
17.0
100
AcDbArc
 50
151.927513064147
 51
208.072486935853
  0
ARC
  5
6E363
330
18
100
AcDbEntity
  8
DETAIL
  6
Continuous
 48
10.0
100
AcDbCircle
 10
-26670.90712720184
 20
40427.97120844296
 30
0.0
 40
17.0
100
AcDbArc
 50
331.927513064147
 51
28.07248693585296
  0
ARC
  5
6E364
330
18
100
AcDbEntity
  8
DETAIL
  6
Continuous
 48
10.0
100
AcDbCircle
 10
-26661.34462720184
 20
40417.47120844296
 30
0.0
 40
2.5625
100
AcDbArc
 50
102.6803834918198
 51
257.3196165081802
  0
ARC
  5
6E365
330
18
100
AcDbEntity
  8
DETAIL
  6
Continuous
 48
10.0
100
AcDbCircle
 10
-26656.46962720184
 20
40417.47120844296
 30
0.0
 40
2.5625
100
AcDbArc
 50
282.6803834918198
 51
77.31961650818016
  0
ARC
  5
6E366
330
18
100
AcDbEntity
  8
DETAIL
  6
Continuous
 48
10.0
100
AcDbCircle
 10
-26656.46962720184
 20
40438.47120844296
 30
0.0
 40
2.5625
100
AcDbArc
 50
282.6803834918198
 51
77.31961650818019
  0
ARC
  5
6E367
330
18
100
AcDbEntity
  8
DETAIL
  6
Continuous
 48
10.0
100
AcDbCircle
 10
-26661.34462720184
 20
40438.47120844296
 30
0.0
 40
2.5625
100
AcDbArc
 50
102.6803834918198
 51
257.3196165081802
  0
LINE
  5
6E368
330
18
100
AcDbEntity
  8
DETAIL
  6
Continuous
 48
10.0
100
AcDbLine
 10
-26678.30354481135
 20
40434.97120844296
 30
0.0
 11
-26663.90712720184
 21
40434.97120844296
 31
0.0
  0
LINE
  5
6E369
330
18
100
AcDbEntity
  8
DETAIL
  6
Continuous
 48
10.0
100
AcDbLine
 10
-26678.30354481135
 20
40420.97120844296
 30
0.0
 11
-26663.90712720184
 21
40420.97120844296
 31
0.0
  0
LINE
  5
6E36A
330
18
100
AcDbEntity
  8
DETAIL
  6
Continuous
 48
10.0
100
AcDbLine
 10
-26678.30354481135
 20
40434.97120844296
 30
0.0
 11
-26678.30354481135
 21
40420.97120844296
 31
0.0
  0
LINE
  5
6E383
330
18
100
AcDbEntity
  8
DETAIL
  6
Continuous
 48
10.0
100
AcDbLine
 10
-28291.90712720185
 20
39752.97120844297
 30
0.0
 11
-28351.90712720186
 21
39692.97120844296
 31
0.0
  0
LINE
  5
6E384
330
18
100
AcDbEntity
  8
DETAIL
  6
Continuous
 48
10.0
100
AcDbLine
 10
-28291.90712720185
 20
39482.97120844296
 30
0.0
 11
-28351.90712720185
 21
39542.97120844296
 31
0.0
  0
LINE
  5
6E38B
330
18
100
AcDbEntity
  8
DETAIL
  6
Continuous
 48
10.0
100
AcDbLine
 10
-28412.028002778
 20
39097.97120844299
 30
0.0
 11
-28412.028002778
 21
39077.97120844298
 31
0.0
  0
LINE
  5
6E38C
330
18
100
AcDbEntity
  8
DETAIL
  6
Continuous
 48
10.0
100
AcDbLine
 10
-28571.90712720184
 20
39667.97120844296
 30
0.0
 11
-28561.90712720185
 21
39667.97120844297
 31
0.0
  0
LINE
  5
6E38D
330
18
100
AcDbEntity
  8
DETAIL
  6
Continuous
 48
10.0
100
AcDbLine
 10
-28501.90712720186
 20
39667.97120844297
 30
0.0
 11
-28456.90712720185
 21
39667.97120844296
 31
0.0
  0
LINE
  5
6E38E
330
18
100
AcDbEntity
  8
DETAIL
  6
Continuous
 48
10.0
100
AcDbLine
 10
-28571.90712720183
 20
39617.97120844297
 30
0.0
 11
-28561.90712720186
 21
39617.97120844297
 31
0.0
  0
LINE
  5
6E38F
330
18
100
AcDbEntity
  8
DETAIL
  6
Continuous
 48
10.0
100
AcDbLine
 10
-28501.90712720186
 20
39617.97120844297
 30
0.0
 11
-28456.90712720186
 21
39617.97120844297
 31
0.0
  0
ARC
  5
6E390
330
18
100
AcDbEntity
  8
DETAIL
  6
Continuous
 48
10.0
100
AcDbCircle
 10
-28456.90712720186
 20
39622.97120844297
 30
0.0
 40
5.0
100
AcDbArc
 50
270.0
 51
0.0
  0
LINE
  5
6E391
330
18
100
AcDbEntity
  8
DETAIL
  6
Continuous
 48
10.0
100
AcDbLine
 10
-28846.71261144363
 20
39667.97120844296
 30
0.0
 11
-28842.4460765707
 21
39667.97120844296
 31
0.0
  0
LINE
  5
6E392
330
18
100
AcDbEntity
  8
DETAIL
  6
Continuous
 48
10.0
100
AcDbLine
 10
-28846.71261144363
 20
39617.97120844297
 30
0.0
 11
-28842.4460765707
 21
39617.97120844297
 31
0.0
  0
ARC
  5
6E393
330
18
100
AcDbEntity
  8
DETAIL
  6
Continuous
 48
10.0
100
AcDbCircle
 10
-28846.71261144363
 20
39622.97120844297
 30
0.0
 40
5.0
100
AcDbArc
 50
180.0
 51
270.0
  0
CIRCLE
  5
6E394
330
18
100
AcDbEntity
  8
DETAIL
  6
Continuous
 48
10.0
100
AcDbCircle
 10
-28477.23424872386
 20
39634.07962176819
 30
0.0
 40
10.0
  0
CIRCLE
  5
6E395
330
18
100
AcDbEntity
  8
DETAIL
  6
Continuous
 48
10.0
100
AcDbCircle
 10
-28649.67896521612
 20
39641.00014960571
 30
0.0
 40
10.0
  0
LINE
  5
6E396
330
18
100
AcDbEntity
  8
DETAIL
  6
Continuous
 48
10.0
100
AcDbLine
 10
-28851.71261144363
 20
39662.97120844296
 30
0.0
 11
-28851.71261144363
 21
39622.97120844297
 31
0.0
  0
ARC
  5
6E397
330
18
100
AcDbEntity
  8
DETAIL
  6
Continuous
 48
10.0
100
AcDbCircle
 10
-28846.71261144363
 20
39662.97120844296
 30
0.0
 40
5.0
100
AcDbArc
 50
90.0
 51
180.0000000000002
  0
HATCH
  5
6E398
330
18
100
AcDbEntity
  8
APPLICATION
  6
Continuous
 48
10.0
100
AcDbHatch
 10
0.0
 20
0.0
 30
0.0
210
0.0
220
0.0
230
1.0
  2
AR-CONC
 70
     0
 71
     0
 91
        6
 92
        7
 72
     1
 73
     1
 93
       17
 10
-30511.90712720185
 20
37266.90417537752
 42
0.0
 10
-30511.90712720183
 20
37276.01960269632
 42
0.0
 10
-30961.90712720185
 20
37276.01960269632
 42
0.0
 10
-30961.90712720184
 20
37051.01960269632
 42
0.0
 10
-30811.90712720185
 20
37051.01960269632
 42
0.0
 10
-30811.90712720185
 20
37126.01960269632
 42
0.0
 10
-30661.90712720185
 20
37126.01960269632
 42
0.0
 10
-30661.90712720185
 20
37076.01960269633
 42
0.0
 10
-30603.70944519919
 20
37076.01960269633
 42
0.2202641309872826
 10
-30589.96930502834
 20
37085.69651723255
 42
0.0
 10
-30583.96930502833
 20
37096.08882207797
 42
0.0
 10
-30584.83533043212
 20
37096.58882207797
 42
0.0
 10
-30580.83533043212
 20
37103.51702530824
 42
0.3507810593580309
 10
-30582.00039394158
 20
37106.49907611581
 42
0.0
 10
-30585.89750825861
 20
37108.74907611582
 42
0.0
 10
-30584.89750825862
 20
37110.48112692339
 42
0.0
 10
-30597.88788931538
 20
37117.98112692338
 42
0.0
 97
        0
 92
       22
 72
     1
 73
     1
 93
        2
 10
-30588.16545745103
 20
37100.82087288554
 42
0.0
 10
-30587.60295745105
 20
37101.79515146479
 42
0.1111111111098579
 97
        0
 92
        7
 72
     0
 73
     1
 93
       10
 10
-30511.90712720185
 20
37021.01960269633
 10
-30541.90712720186
 20
37021.01960269632
 10
-30541.90712720187
 20
37026.01960269633
 10
-30661.90712720185
 20
37026.01960269632
 10
-30661.90712720186
 20
36976.01960269632
 10
-30811.90712720185
 20
36976.01960269632
 10
-30811.90712720185
 20
37051.01960269633
 10
-30961.90712720184
 20
37051.01960269633
 10
-30961.90712720183
 20
36826.01960269632
 10
-30511.90712720185
 20
36826.01960269632
 97
        0
 92
       23
 72
     1
 73
     1
 93
       14
 10
-30511.90712720186
 20
37146.90417537748
 42
0.0
 10
-30545.92636508831
 20
37087.98112692339
 42
0.0
 10
-30558.91674614507
 20
37095.48112692339
 42
0.0
 10
-30559.91674614507
 20
37093.74907611581
 42
0.0
 10
-30563.81386046211
 20
37095.99907611581
 42
-0.3507810593570798
 10
-30562.64879695265
 20
37093.01702530825
 42
0.0
 10
-30565.64879695264
 20
37087.82087288553
 42
-0.3507810593580891
 10
-30568.81386046212
 20
37087.33882207797
 42
0.0
 10
-30571.84494937535
 20
37089.08882207797
 42
0.0
 10
-30577.84494937536
 20
37078.69651723255
 42
0.0371986084421152
 10
-30579.13552453763
 20
37076.01960269633
 42
0.0
 10
-30541.90712720185
 20
37076.01960269632
 42
0.0
 10
-30541.90712720185
 20
37081.01960269632
 42
0.0
 10
-30511.90712720185
 20
37081.01960269632
 42
0.0
 97
        0
 92
       23
 72
     0
 73
     1
 93
        4
 10
-30511.90712720184
 20
37146.90417537752
 10
-30511.90712720183
 20
37266.9041753775
 10
-30597.88788931538
 20
37117.98112692339
 10
-30545.92636508831
 20
37087.98112692338
 97
        0
 92
       23
 72
     1
 73
     1
 93
        7
 10
-30571.84494937533
 20
37089.08882207797
 42
0.0
 10
-30583.96930502833
 20
37096.08882207798
 42
0.0
 10
-30589.96930502834
 20
37085.69651723255
 42
-0.1961343866371523
 10
-30601.90712720185
 20
37076.43446405854
 42
0.0
 10
-30601.90712720185
 20
37076.01960269633
 42
0.0
 10
-30579.13552453763
 20
37076.01960269633
 42
-0.037198608441911
 10
-30577.84494937537
 20
37078.69651723254
 42
0.0
 97
        0
 75
     0
 76
     1
 52
0.0
 41
50.0
 77
     0
 78
    13
 53
50.0
 43
13819.63694073396
 44
1289.598731855534
 45
358.6300913003766
 46
-31.37606749129755
 79
     2
 49
37.5
 49
-412.5
 53
355.0
 43
13819.63694073396
 44
1289.598731855534
 45
-69.37566680649999
 46
376.0960668500059
 79
     2
 49
30.0
 49
-330.0
 53
100.4514
 43
13849.52278073396
 44
1286.984061855534
 45
289.2546908570108
 46
344.7197710304769
 79
     2
 49
31.870095
 49
-350.571056
 53
46.18419999999999
 43
13819.63694073396
 44
1389.598731855534
 45
533.6205243128222
 46
-82.75950716450905
 79
     2
 49
56.25
 49
-618.75
 53
96.63559999999998
 43
13864.10531323396
 44
1382.702078355534
 45
467.3313527743516
 46
487.0589354502207
 79
     2
 49
47.80514399999999
 49
-525.8564999999999
 53
351.1842000000001
 43
13819.63694073396
 44
1389.598731855534
 45
467.3309725668135
 46
487.0593004626623
 79
     2
 49
45.0
 49
-495.0
 53
21.0
 43
13869.63694073396
 44
1364.598731855534
 45
298.4535260592309
 46
-201.3094453326694
 79
     2
 49
37.5
 49
-412.5
 53
326.0
 43
13869.63694073396
 44
1364.598731855534
 45
121.6576659607908
 46
362.5750225234265
 79
     2
 49
30.0
 49
-330.0
 53
71.45140000000002
 43
13894.50805723396
 44
1347.822928855534
 45
420.1113142907448
 46
161.2652483549762
 79
     2
 49
31.870095
 49
-350.571056
 53
37.5
 43
13819.63694073396
 44
1289.598731855534
 45
6.079927658645334
 46
166.4469269156557
 79
     6
 49
0.0
 49
-326.0
 49
0.0
 49
-335.0
 49
0.0
 49
-331.25
 53
7.499999999999999
 43
13819.63694073396
 44
1289.598731855534
 45
131.5347687210743
 46
197.2058559411801
 79
     6
 49
0.0
 49
-191.0
 49
0.0
 49
-318.5
 49
0.0
 49
-126.25
 53
327.5
 43
13708.13694073396
 44
1289.598731855534
 45
266.9112180862045
 46
-11.2774358671899
 79
     6
 49
0.0
 49
-125.0
 49
0.0
 49
-390.0
 49
0.0
 49
-517.4999999999998
 53
317.5
 43
13658.13694073396
 44
1289.598731855534
 45
291.5930846711932
 46
50.05249116615882
 79
     6
 49
0.0
 49
-162.5
 49
0.0
 49
-259.0
 49
0.0
 49
-367.5
 47
9.812162328067424
 98
        6
 10
-30758.31549214647
 20
37197.81659884549
 10
-30758.31549214647
 20
37197.81659884549
 10
-30664.44817564034
 20
36924.23846857063
 10
-30522.57692348448
 20
37100.72141978706
 10
-30540.43242196314
 20
37142.97980997312
 10
-30586.48083041835
 20
37084.75736130893
  0
LINE
  5
6E399
330
18
100
AcDbEntity
  8
DETAIL
  6
Continuous
 48
10.0
100
AcDbLine
 10
-30811.90712720185
 20
37126.01960269632
 30
0.0
 11
-30811.90712720185
 21
36976.01960269632
 31
0.0
  0
LINE
  5
6E39A
330
18
100
AcDbEntity
  8
DETAIL
  6
Continuous
 48
10.0
100
AcDbLine
 10
-30661.90712720185
 20
37126.01960269632
 30
0.0
 11
-30661.90712720185
 21
36976.01960269632
 31
0.0
  0
LINE
  5
6E39B
330
18
100
AcDbEntity
  8
DETAIL
  6
Continuous
 48
10.0
100
AcDbLine
 10
-30541.90712720185
 20
37021.01960269632
 30
0.0
 11
-30541.90712720185
 21
37081.01960269632
 31
0.0
  0
LINE
  5
6E39C
330
18
100
AcDbEntity
  8
CENTRE
  6
CENTER2
 48
10.0
100
AcDbLine
 10
-30601.90712720185
 20
37021.01960269632
 30
0.0
 11
-30601.90712720185
 21
37081.01960269632
 31
0.0
  0
LINE
  5
6E39D
330
18
100
AcDbEntity
  8
DETAIL
  6
Continuous
 48
10.0
100
AcDbLine
 10
-26591.90712720186
 20
37021.01960269632
 30
0.0
 11
-26591.90712720186
 21
37081.01960269632
 31
0.0
  0
LINE
  5
6E39E
330
18
100
AcDbEntity
  8
DETAIL
  6
Continuous
 48
10.0
100
AcDbLine
 10
-30541.90712720185
 20
37081.01960269632
 30
0.0
 11
-28571.90712720185
 21
37081.01960269632
 31
0.0
  0
LINE
  5
6E39F
330
18
100
AcDbEntity
  8
DETAIL
  6
Continuous
 48
10.0
100
AcDbLine
 10
-28561.90712720186
 20
37081.01960269632
 30
0.0
 11
-26591.90712720186
 21
37081.01960269632
 31
0.0
  0
LINE
  5
6E3A0
330
18
100
AcDbEntity
  8
DETAIL
  6
Continuous
 48
10.0
100
AcDbLine
 10
-30541.90712720185
 20
37021.01960269632
 30
0.0
 11
-28571.90712720185
 21
37021.01960269632
 31
0.0
  0
LINE
  5
6E3A1
330
18
100
AcDbEntity
  8
DETAIL
  6
Continuous
 48
10.0
100
AcDbLine
 10
-28561.90712720186
 20
37021.01960269632
 30
0.0
 11
-26591.90712720186
 21
37021.01960269632
 31
0.0
  0
LINE
  5
6E3A2
330
18
100
AcDbEntity
  8
DETAIL
  6
Continuous
 48
10.0
100
AcDbLine
 10
-28571.90712720185
 20
37081.01960269632
 30
0.0
 11
-28571.90712720185
 21
37021.01960269632
 31
0.0
  0
LINE
  5
6E3A3
330
18
100
AcDbEntity
  8
DETAIL
  6
Continuous
 48
10.0
100
AcDbLine
 10
-28616.90712720186
 20
37086.01960269632
 30
0.0
 11
-28616.90712720185
 21
37081.01960269632
 31
0.0
  0
LINE
  5
6E3A4
330
18
100
AcDbEntity
  8
DETAIL
  6
Continuous
 48
10.0
100
AcDbLine
 10
-28561.90712720186
 20
37081.01960269632
 30
0.0
 11
-28561.90712720186
 21
37021.01960269632
 31
0.0
  0
LINE
  5
6E3A5
330
18
100
AcDbEntity
  8
DETAIL
  6
Continuous
 48
10.0
100
AcDbLine
 10
-28516.90712720186
 20
37086.01960269632
 30
0.0
 11
-28516.90712720186
 21
37081.01960269632
 31
0.0
  0
LINE
  5
6E3A6
330
18
100
AcDbEntity
  8
DETAIL
  6
Continuous
 48
10.0
100
AcDbLine
 10
-30661.90712720185
 20
37026.01960269632
 30
0.0
 11
-30541.90712720185
 21
37026.01960269633
 31
0.0
  0
LINE
  5
6E3A7
330
18
100
AcDbEntity
  8
DETAIL
  6
Continuous
 48
10.0
100
AcDbLine
 10
-30661.90712720185
 20
37076.01960269632
 30
0.0
 11
-30541.90712720185
 21
37076.01960269633
 31
0.0
  0
LINE
  5
6E3A8
330
18
100
AcDbEntity
  8
DETAIL
  6
Continuous
 48
10.0
100
AcDbLine
 10
-30811.90712720185
 20
36976.01960269632
 30
0.0
 11
-30661.90712720185
 21
36976.01960269632
 31
0.0
  0
LINE
  5
6E3A9
330
18
100
AcDbEntity
  8
DETAIL
  6
Continuous
 48
10.0
100
AcDbLine
 10
-30811.90712720185
 20
37126.01960269632
 30
0.0
 11
-30661.90712720185
 21
37126.01960269632
 31
0.0
  0
CIRCLE
  5
6E3AA
330
18
100
AcDbEntity
  8
DETAIL
  6
Continuous
 48
10.0
100
AcDbCircle
 10
-30601.90712720185
 20
37051.01960269632
 30
0.0
 40
25.0
  0
ARC
  5
6E3AB
330
18
100
AcDbEntity
  8
DETAIL
  6
Continuous
 48
10.0
100
AcDbCircle
 10
-30565.90712720185
 20
37078.01960269632
 30
0.0
 40
20.0
100
AcDbArc
 50
216.869897645844
 51
270.0
  0
ARC
  5
6E3AC
330
18
100
AcDbEntity
  8
DETAIL
  6
Continuous
 48
10.0
100
AcDbCircle
 10
-30565.90712720185
 20
37024.01960269632
 30
0.0
 40
20.0
100
AcDbArc
 50
90.0
 51
143.130102354156
  0
CIRCLE
  5
6E3AD
330
18
100
AcDbEntity
  8
DETAIL
  6
Continuous
 48
10.0
100
AcDbCircle
 10
-30601.90712720185
 20
37051.01960269632
 30
0.0
 40
10.0
  0
LINE
  5
6E3AE
330
18
100
AcDbEntity
  8
DETAIL
  6
Continuous
 48
10.0
100
AcDbLine
 10
-30543.90712720184
 20
37036.01960269632
 30
0.0
 11
-30543.90712720184
 21
37066.01960269632
 31
0.0
  0
LINE
  5
6E3AF
330
18
100
AcDbEntity
  8
DETAIL
  6
Continuous
 48
10.0
100
AcDbLine
 10
-30543.90712720184
 20
37064.01960269632
 30
0.0
 11
-30543.90712720183
 21
37066.01960269632
 31
0.0
  0
LINE
  5
6E3B0
330
18
100
AcDbEntity
  8
DETAIL
  6
Continuous
 48
10.0
100
AcDbLine
 10
-30553.90712720184
 20
37040.51960269632
 30
0.0
 11
-30553.90712720185
 21
37061.51960269632
 31
0.0
  0
LINE
  5
6E3B1
330
18
100
AcDbEntity
  8
DETAIL
  6
Continuous
 48
10.0
100
AcDbLine
 10
-30543.90712720184
 20
37066.01960269632
 30
0.0
 11
-30541.90712720184
 21
37066.01960269632
 31
0.0
  0
LINE
  5
6E3B2
330
18
100
AcDbEntity
  8
DETAIL
  6
Continuous
 48
10.0
100
AcDbLine
 10
-30543.90712720184
 20
37036.01960269632
 30
0.0
 11
-30541.90712720184
 21
37036.01960269632
 31
0.0
  0
LINE
  5
6E3B3
330
18
100
AcDbEntity
  8
DETAIL
  6
Continuous
 48
10.0
100
AcDbLine
 10
-30551.90712720184
 20
37043.01960269632
 30
0.0
 11
-30545.90712720184
 21
37043.01960269633
 31
0.0
  0
LINE
  5
6E3B4
330
18
100
AcDbEntity
  8
DETAIL
  6
Continuous
 48
10.0
100
AcDbLine
 10
-30551.90712720184
 20
37038.01960269632
 30
0.0
 11
-30545.90712720184
 21
37038.01960269633
 31
0.0
  0
LINE
  5
6E3B5
330
18
100
AcDbEntity
  8
DETAIL
  6
Continuous
 48
10.0
100
AcDbLine
 10
-30551.90712720184
 20
37059.01960269632
 30
0.0
 11
-30545.90712720184
 21
37059.01960269632
 31
0.0
  0
LINE
  5
6E3B6
330
18
100
AcDbEntity
  8
DETAIL
  6
Continuous
 48
10.0
100
AcDbLine
 10
-30551.90712720184
 20
37064.01960269632
 30
0.0
 11
-30545.90712720184
 21
37064.01960269632
 31
0.0
  0
ARC
  5
6E3B7
330
18
100
AcDbEntity
  8
DETAIL
  6
Continuous
 48
10.0
100
AcDbCircle
 10
-30536.90712720184
 20
37051.01960269632
 30
0.0
 40
17.0
100
AcDbArc
 50
151.927513064147
 51
208.072486935853
  0
ARC
  5
6E3B8
330
18
100
AcDbEntity
  8
DETAIL
  6
Continuous
 48
10.0
100
AcDbCircle
 10
-30560.90712720184
 20
37051.01960269632
 30
0.0
 40
17.0
100
AcDbArc
 50
331.927513064147
 51
28.07248693585297
  0
ARC
  5
6E3B9
330
18
100
AcDbEntity
  8
DETAIL
  6
Continuous
 48
10.0
100
AcDbCircle
 10
-30551.34462720184
 20
37040.51960269632
 30
0.0
 40
2.5625
100
AcDbArc
 50
102.6803834918198
 51
257.3196165081802
  0
ARC
  5
6E3BA
330
18
100
AcDbEntity
  8
DETAIL
  6
Continuous
 48
10.0
100
AcDbCircle
 10
-30546.46962720184
 20
37040.51960269632
 30
0.0
 40
2.5625
100
AcDbArc
 50
282.6803834918198
 51
77.31961650818016
  0
ARC
  5
6E3BB
330
18
100
AcDbEntity
  8
DETAIL
  6
Continuous
 48
10.0
100
AcDbCircle
 10
-30546.46962720184
 20
37061.51960269632
 30
0.0
 40
2.5625
100
AcDbArc
 50
282.6803834918198
 51
77.31961650818019
  0
ARC
  5
6E3BC
330
18
100
AcDbEntity
  8
DETAIL
  6
Continuous
 48
10.0
100
AcDbCircle
 10
-30551.34462720184
 20
37061.51960269632
 30
0.0
 40
2.5625
100
AcDbArc
 50
102.6803834918198
 51
257.3196165081802
  0
LINE
  5
6E3BD
330
18
100
AcDbEntity
  8
DETAIL
  6
Continuous
 48
10.0
100
AcDbLine
 10
-30565.90712720185
 20
37058.01960269632
 30
0.0
 11
-30553.90712720184
 21
37058.01960269632
 31
0.0
  0
LINE
  5
6E3BE
330
18
100
AcDbEntity
  8
DETAIL
  6
Continuous
 48
10.0
100
AcDbLine
 10
-30565.90712720185
 20
37044.01960269632
 30
0.0
 11
-30553.90712720184
 21
37044.01960269632
 31
0.0
  0
LINE
  5
6E3BF
330
18
100
AcDbEntity
  8
DETAIL
  6
HIDDEN
 48
200.0
100
AcDbLine
 10
-30535.08258859662
 20
37045.14754682129
 30
0.0
 11
-30557.11475933869
 21
37100.95600005549
 31
0.0
  0
LINE
  5
6E3C0
330
18
100
AcDbEntity
  8
CENTRE
  6
CENTER2
 48
10.0
100
AcDbLine
 10
-30575.92636508831
 20
37036.01960269632
 30
0.0
 11
-30627.88788931538
 21
37066.01960269632
 31
0.0
  0
LINE
  5
6E3C1
330
18
100
AcDbEntity
  8
DETAIL
  6
HIDDEN
 48
200.0
100
AcDbLine
 10
-30557.11475933869
 20
37100.95600005549
 30
0.0
 11
-28724.73721148292
 21
37824.34560608674
 31
0.0
  0
LINE
  5
6E3C2
330
18
100
AcDbEntity
  8
DETAIL
  6
HIDDEN
 48
200.0
100
AcDbLine
 10
-30535.08258859662
 20
37045.14754682129
 30
0.0
 11
-28702.70504074085
 21
37768.53715285255
 31
0.0
  0
LINE
  5
6E3C3
330
18
100
AcDbEntity
  8
DETAIL
  6
Continuous
 48
10.0
100
AcDbLine
 10
-28724.73721148292
 20
37824.34560608674
 30
0.0
 11
-28702.70504074085
 21
37768.53715285255
 31
0.0
  0
CIRCLE
  5
6E3C4
330
18
100
AcDbEntity
  8
DETAIL
  6
Continuous
 48
10.0
100
AcDbCircle
 10
-30601.90712720185
 20
37051.01960269632
 30
0.0
 40
25.0
  0
ARC
  5
6E3C5
330
18
100
AcDbEntity
  8
DETAIL
  6
Continuous
 48
10.0
100
AcDbCircle
 10
-30578.33653209527
 20
37089.35270909694
 30
0.0
 40
20.0
100
AcDbArc
 50
238.4131102674969
 51
291.5432126216529
  0
ARC
  5
6E3C6
330
18
100
AcDbEntity
  8
DETAIL
  6
Continuous
 48
10.0
100
AcDbCircle
 10
-30558.50757842741
 20
37039.12510118617
 30
0.0
 40
20.0
100
AcDbArc
 50
111.5432126216528
 51
164.6733149758089
  0
CIRCLE
  5
6E3C7
330
18
100
AcDbEntity
  8
DETAIL
  6
Continuous
 48
10.0
100
AcDbCircle
 10
-30601.90712720185
 20
37051.01960269632
 30
0.0
 40
10.0
  0
LINE
  5
6E3C8
330
18
100
AcDbEntity
  8
DETAIL
  6
HIDDEN
 48
200.0
100
AcDbLine
 10
-30542.45091305661
 20
37058.36525443844
 30
0.0
 11
-30553.46699842765
 21
37086.26948105553
 31
0.0
  0
LINE
  5
6E3C9
330
18
100
AcDbEntity
  8
DETAIL
  6
HIDDEN
 48
200.0
100
AcDbLine
 10
-30552.73259273624
 20
37084.40919928106
 30
0.0
 11
-30553.46699842764
 21
37086.26948105553
 31
0.0
  0
LINE
  5
6E3CA
330
18
100
AcDbEntity
  8
DETAIL
  6
HIDDEN
 48
200.0
100
AcDbLine
 10
-30553.40473473463
 20
37058.878859974
 30
0.0
 11
-30561.11599449435
 21
37078.41181860595
 31
0.0
  0
LINE
  5
6E3CB
330
18
100
AcDbEntity
  8
DETAIL
  6
HIDDEN
 48
200.0
100
AcDbLine
 10
-30553.46699842765
 20
37086.26948105553
 30
0.0
 11
-30551.60671665318
 21
37087.00388674694
 31
0.0
  0
LINE
  5
6E3CC
330
18
100
AcDbEntity
  8
DETAIL
  6
HIDDEN
 48
200.0
100
AcDbLine
 10
-30542.45091305661
 20
37058.36525443844
 30
0.0
 11
-30540.59063128214
 21
37059.09966012983
 31
0.0
  0
LINE
  5
6E3CD
330
18
100
AcDbEntity
  8
DETAIL
  6
HIDDEN
 48
200.0
100
AcDbLine
 10
-30552.46246007441
 20
37061.93861788347
 30
0.0
 11
-30546.881614751
 21
37064.14183495769
 31
0.0
  0
LINE
  5
6E3CE
330
18
100
AcDbEntity
  8
DETAIL
  6
HIDDEN
 48
200.0
100
AcDbLine
 10
-30550.62644584591
 20
37057.28791344728
 30
0.0
 11
-30545.04560052249
 21
37059.49113052152
 31
0.0
  0
LINE
  5
6E3CF
330
18
100
AcDbEntity
  8
DETAIL
  6
HIDDEN
 48
200.0
100
AcDbLine
 10
-30558.33770560564
 20
37076.82087207926
 30
0.0
 11
-30552.75686028222
 21
37079.02408915346
 31
0.0
  0
LINE
  5
6E3D0
330
18
100
AcDbEntity
  8
DETAIL
  6
HIDDEN
 48
200.0
100
AcDbLine
 10
-30560.17371983414
 20
37081.47157651544
 30
0.0
 11
-30554.59287451072
 21
37083.67479358964
 31
0.0
  0
ARC
  5
6E3D1
330
18
100
AcDbEntity
  8
DETAIL
  6
HIDDEN
 48
200.0
100
AcDbCircle
 10
-30541.44796953147
 20
37074.88778766689
 30
0.0
 40
17.0
100
AcDbArc
 50
173.4707256857999
 51
229.615699557506
  0
ARC
  5
6E3D2
330
18
100
AcDbEntity
  8
DETAIL
  6
HIDDEN
 48
200.0
100
AcDbCircle
 10
-30563.77135082514
 20
37066.07491937007
 30
0.0
 40
17.0
100
AcDbArc
 50
353.4707256858
 51
49.61569955750589
  0
ARC
  5
6E3D3
330
18
100
AcDbEntity
  8
DETAIL
  6
HIDDEN
 48
200.0
100
AcDbCircle
 10
-30551.02124871108
 20
37059.81981726609
 30
0.0
 40
2.5625
100
AcDbArc
 50
124.2235961134727
 51
278.8628291298331
  0
ARC
  5
6E3D4
330
18
100
AcDbEntity
  8
DETAIL
  6
HIDDEN
 48
200.0
100
AcDbCircle
 10
-30546.4868118858
 20
37061.60993113889
 30
0.0
 40
2.5625
100
AcDbArc
 50
304.2235961134728
 51
98.86282912983308
  0
ARC
  5
6E3D5
330
18
100
AcDbEntity
  8
DETAIL
  6
HIDDEN
 48
200.0
100
AcDbCircle
 10
-30554.19807164553
 20
37081.14288977086
 30
0.0
 40
2.5625
100
AcDbArc
 50
304.2235961134728
 51
98.86282912983308
  0
ARC
  5
6E3D6
330
18
100
AcDbEntity
  8
DETAIL
  6
HIDDEN
 48
200.0
100
AcDbCircle
 10
-30558.73250847081
 20
37079.35277589807
 30
0.0
 40
2.5625
100
AcDbArc
 50
124.2235961134727
 51
278.8628291298331
  0
LINE
  5
6E3D7
330
18
100
AcDbEntity
  8
DETAIL
  6
HIDDEN
 48
200.0
100
AcDbLine
 10
-30570.99247518125
 20
37070.74989135222
 30
0.0
 11
-30559.8307845344
 21
37075.15632550062
 31
0.0
  0
LINE
  5
6E3D8
330
18
100
AcDbEntity
  8
DETAIL
  6
HIDDEN
 48
200.0
100
AcDbLine
 10
-30565.85163534143
 20
37057.7279189309
 30
0.0
 11
-30554.68994469459
 21
37062.13435307931
 31
0.0
  0
SOLID
  5
6E3DA
330
18
100
AcDbEntity
  8
DIMS
  6
Continuous
 48
10.0
100
AcDbTrace
 10
-28866.65705168517
 20
37146.21770717685
 30
0.0
 11
-28888.3196332352
 21
37145.79698751591
 31
0.0
 12
-28876.22618347739
 22
37081.01960269632
 32
0.0
 13
-28876.22618347739
 23
37081.01960269632
 33
0.0
  0
SOLID
  5
6E3DB
330
18
100
AcDbEntity
  8
DIMS
  6
Continuous
 48
10.0
100
AcDbTrace
 10
-29264.346919925
 20
37488.10174504471
 30
0.0
 11
-29253.15127523575
 21
37506.6517311481
 31
0.0
 12
-29314.39905589058
 22
37530.96367216414
 32
0.0
 13
-29314.39905589058
 23
37530.96367216414
 33
0.0
  0
LINE
  5
6E3DC
330
18
100
AcDbEntity
  8
DETAIL
  6
Continuous
 48
10.0
100
AcDbLine
 10
-26321.90712720185
 20
37126.01960269632
 30
0.0
 11
-26321.90712720185
 21
36976.01960269632
 31
0.0
  0
LINE
  5
6E3DD
330
18
100
AcDbEntity
  8
DETAIL
  6
Continuous
 48
10.0
100
AcDbLine
 10
-26471.90712720185
 20
37126.01960269632
 30
0.0
 11
-26471.90712720185
 21
36976.01960269632
 31
0.0
  0
LINE
  5
6E3DE
330
18
100
AcDbEntity
  8
DETAIL
  6
Continuous
 48
10.0
100
AcDbLine
 10
-26591.90712720185
 20
37021.01960269632
 30
0.0
 11
-26591.90712720185
 21
37081.01960269632
 31
0.0
  0
LINE
  5
6E3DF
330
18
100
AcDbEntity
  8
CENTRE
  6
CENTER2
 48
10.0
100
AcDbLine
 10
-26531.90712720185
 20
37021.01960269632
 30
0.0
 11
-26531.90712720185
 21
37081.01960269632
 31
0.0
  0
LINE
  5
6E3E0
330
18
100
AcDbEntity
  8
DETAIL
  6
Continuous
 48
10.0
100
AcDbLine
 10
-26591.90712720185
 20
37081.01960269632
 30
0.0
 11
-28561.90712720185
 21
37081.01960269632
 31
0.0
  0
LINE
  5
6E3E1
330
18
100
AcDbEntity
  8
DETAIL
  6
Continuous
 48
10.0
100
AcDbLine
 10
-28516.90712720186
 20
37086.01960269632
 30
0.0
 11
-28616.90712720185
 21
37086.01960269632
 31
0.0
  0
LINE
  5
6E3E2
330
18
100
AcDbEntity
  8
DETAIL
  6
Continuous
 48
10.0
100
AcDbLine
 10
-26591.90712720185
 20
37021.01960269632
 30
0.0
 11
-28561.90712720185
 21
37021.01960269632
 31
0.0
  0
LINE
  5
6E3E3
330
18
100
AcDbEntity
  8
DETAIL
  6
Continuous
 48
10.0
100
AcDbLine
 10
-26471.90712720185
 20
37026.01960269632
 30
0.0
 11
-26591.90712720185
 21
37026.01960269633
 31
0.0
  0
LINE
  5
6E3E4
330
18
100
AcDbEntity
  8
DETAIL
  6
Continuous
 48
10.0
100
AcDbLine
 10
-26471.90712720185
 20
37076.01960269632
 30
0.0
 11
-26591.90712720185
 21
37076.01960269633
 31
0.0
  0
LINE
  5
6E3E5
330
18
100
AcDbEntity
  8
DETAIL
  6
Continuous
 48
10.0
100
AcDbLine
 10
-26321.90712720185
 20
36976.01960269632
 30
0.0
 11
-26471.90712720185
 21
36976.01960269632
 31
0.0
  0
LINE
  5
6E3E6
330
18
100
AcDbEntity
  8
DETAIL
  6
Continuous
 48
10.0
100
AcDbLine
 10
-26321.90712720185
 20
37126.01960269632
 30
0.0
 11
-26471.90712720185
 21
37126.01960269632
 31
0.0
  0
CIRCLE
  5
6E3E7
330
18
100
AcDbEntity
  8
DETAIL
  6
Continuous
 48
10.0
100
AcDbCircle
 10
-26531.90712720185
 20
37051.01960269632
 30
0.0
 40
25.0
  0
ARC
  5
6E3E8
330
18
100
AcDbEntity
  8
DETAIL
  6
Continuous
 48
10.0
100
AcDbCircle
 10
-26567.90712720185
 20
37078.01960269632
 30
0.0
 40
20.0
100
AcDbArc
 50
270.0
 51
323.130102354156
  0
ARC
  5
6E3E9
330
18
100
AcDbEntity
  8
DETAIL
  6
Continuous
 48
10.0
100
AcDbCircle
 10
-26567.90712720185
 20
37024.01960269632
 30
0.0
 40
20.0
100
AcDbArc
 50
36.86989764584403
 51
90.0
  0
CIRCLE
  5
6E3EA
330
18
100
AcDbEntity
  8
DETAIL
  6
Continuous
 48
10.0
100
AcDbCircle
 10
-26531.90712720185
 20
37051.01960269632
 30
0.0
 40
10.0
  0
LINE
  5
6E3EB
330
18
100
AcDbEntity
  8
DETAIL
  6
Continuous
 48
10.0
100
AcDbLine
 10
-26589.90712720186
 20
37036.01960269632
 30
0.0
 11
-26589.90712720186
 21
37066.01960269632
 31
0.0
  0
LINE
  5
6E3EC
330
18
100
AcDbEntity
  8
DETAIL
  6
Continuous
 48
10.0
100
AcDbLine
 10
-26589.90712720186
 20
37064.01960269632
 30
0.0
 11
-26589.90712720187
 21
37066.01960269632
 31
0.0
  0
LINE
  5
6E3ED
330
18
100
AcDbEntity
  8
DETAIL
  6
Continuous
 48
10.0
100
AcDbLine
 10
-26579.90712720186
 20
37040.51960269632
 30
0.0
 11
-26579.90712720185
 21
37061.51960269632
 31
0.0
  0
LINE
  5
6E3EE
330
18
100
AcDbEntity
  8
DETAIL
  6
Continuous
 48
10.0
100
AcDbLine
 10
-26589.90712720186
 20
37066.01960269632
 30
0.0
 11
-26591.90712720186
 21
37066.01960269632
 31
0.0
  0
LINE
  5
6E3EF
330
18
100
AcDbEntity
  8
DETAIL
  6
Continuous
 48
10.0
100
AcDbLine
 10
-26589.90712720186
 20
37036.01960269632
 30
0.0
 11
-26591.90712720186
 21
37036.01960269632
 31
0.0
  0
LINE
  5
6E3F0
330
18
100
AcDbEntity
  8
DETAIL
  6
Continuous
 48
10.0
100
AcDbLine
 10
-26581.90712720186
 20
37043.01960269632
 30
0.0
 11
-26587.90712720186
 21
37043.01960269633
 31
0.0
  0
LINE
  5
6E3F1
330
18
100
AcDbEntity
  8
DETAIL
  6
Continuous
 48
10.0
100
AcDbLine
 10
-26581.90712720186
 20
37038.01960269632
 30
0.0
 11
-26587.90712720186
 21
37038.01960269633
 31
0.0
  0
LINE
  5
6E3F2
330
18
100
AcDbEntity
  8
DETAIL
  6
Continuous
 48
10.0
100
AcDbLine
 10
-26581.90712720186
 20
37059.01960269632
 30
0.0
 11
-26587.90712720186
 21
37059.01960269632
 31
0.0
  0
LINE
  5
6E3F3
330
18
100
AcDbEntity
  8
DETAIL
  6
Continuous
 48
10.0
100
AcDbLine
 10
-26581.90712720186
 20
37064.01960269632
 30
0.0
 11
-26587.90712720186
 21
37064.01960269632
 31
0.0
  0
ARC
  5
6E3F4
330
18
100
AcDbEntity
  8
DETAIL
  6
Continuous
 48
10.0
100
AcDbCircle
 10
-26596.90712720186
 20
37051.01960269632
 30
0.0
 40
17.0
100
AcDbArc
 50
331.927513064147
 51
28.07248693585297
  0
ARC
  5
6E3F5
330
18
100
AcDbEntity
  8
DETAIL
  6
Continuous
 48
10.0
100
AcDbCircle
 10
-26572.90712720186
 20
37051.01960269632
 30
0.0
 40
17.0
100
AcDbArc
 50
151.927513064147
 51
208.072486935853
  0
ARC
  5
6E3F6
330
18
100
AcDbEntity
  8
DETAIL
  6
Continuous
 48
10.0
100
AcDbCircle
 10
-26582.46962720185
 20
37040.51960269632
 30
0.0
 40
2.5625
100
AcDbArc
 50
282.6803834918198
 51
77.31961650818019
  0
ARC
  5
6E3F7
330
18
100
AcDbEntity
  8
DETAIL
  6
Continuous
 48
10.0
100
AcDbCircle
 10
-26587.34462720186
 20
37040.51960269632
 30
0.0
 40
2.5625
100
AcDbArc
 50
102.6803834918198
 51
257.3196165081802
  0
ARC
  5
6E3F8
330
18
100
AcDbEntity
  8
DETAIL
  6
Continuous
 48
10.0
100
AcDbCircle
 10
-26587.34462720186
 20
37061.51960269632
 30
0.0
 40
2.5625
100
AcDbArc
 50
102.6803834918198
 51
257.3196165081802
  0
ARC
  5
6E3F9
330
18
100
AcDbEntity
  8
DETAIL
  6
Continuous
 48
10.0
100
AcDbCircle
 10
-26582.46962720185
 20
37061.51960269632
 30
0.0
 40
2.5625
100
AcDbArc
 50
282.6803834918198
 51
77.31961650818019
  0
LINE
  5
6E3FA
330
18
100
AcDbEntity
  8
DETAIL
  6
Continuous
 48
10.0
100
AcDbLine
 10
-26567.90712720185
 20
37058.01960269632
 30
0.0
 11
-26579.90712720186
 21
37058.01960269632
 31
0.0
  0
LINE
  5
6E3FB
330
18
100
AcDbEntity
  8
DETAIL
  6
Continuous
 48
10.0
100
AcDbLine
 10
-26567.90712720185
 20
37044.01960269632
 30
0.0
 11
-26579.90712720186
 21
37044.01960269632
 31
0.0
  0
LINE
  5
6E3FC
330
18
100
AcDbEntity
  8
DETAIL
  6
HIDDEN
 48
200.0
100
AcDbLine
 10
-26598.74925118518
 20
37045.35122890853
 30
0.0
 11
-26576.54710062208
 21
37101.09227761031
 31
0.0
  0
LINE
  5
6E3FD
330
18
100
AcDbEntity
  8
CENTRE
  6
CENTER2
 48
10.0
100
AcDbLine
 10
-26557.88788931539
 20
37036.01960269632
 30
0.0
 11
-26505.92636508832
 21
37066.01960269632
 31
0.0
  0
LINE
  5
6E3FE
330
18
100
AcDbEntity
  8
DETAIL
  6
HIDDEN
 48
200.0
100
AcDbLine
 10
-26576.54710062208
 20
37101.09227761031
 30
0.0
 11
-28406.71153299695
 21
37830.06288776546
 31
0.0
  0
LINE
  5
6E3FF
330
18
100
AcDbEntity
  8
DETAIL
  6
HIDDEN
 48
200.0
100
AcDbLine
 10
-26598.74925118518
 20
37045.35122890853
 30
0.0
 11
-28428.91368356005
 21
37774.32183906368
 31
0.0
  0
LINE
  5
6E400
330
18
100
AcDbEntity
  8
DETAIL
  6
Continuous
 48
10.0
100
AcDbLine
 10
-28406.71153299695
 20
37830.06288776546
 30
0.0
 11
-28428.91368356005
 21
37774.32183906368
 31
0.0
  0
CIRCLE
  5
6E401
330
18
100
AcDbEntity
  8
DETAIL
  6
Continuous
 48
10.0
100
AcDbCircle
 10
-26531.90712720185
 20
37051.01960269632
 30
0.0
 40
25.0
  0
ARC
  5
6E402
330
18
100
AcDbEntity
  8
DETAIL
  6
Continuous
 48
10.0
100
AcDbCircle
 10
-26555.36078866952
 20
37089.42436494997
 30
0.0
 40
20.0
100
AcDbArc
 50
248.2821721870557
 51
301.4122745412117
  0
ARC
  5
6E403
330
18
100
AcDbEntity
  8
DETAIL
  6
Continuous
 48
10.0
100
AcDbCircle
 10
-26575.34272417631
 20
37039.25742111839
 30
0.0
 40
20.0
100
AcDbArc
 50
15.15206983289977
 51
68.28217218705572
  0
CIRCLE
  5
6E404
330
18
100
AcDbEntity
  8
DETAIL
  6
Continuous
 48
10.0
100
AcDbCircle
 10
-26531.90712720185
 20
37051.01960269632
 30
0.0
 40
10.0
  0
LINE
  5
6E405
330
18
100
AcDbEntity
  8
DETAIL
  6
HIDDEN
 48
200.0
100
AcDbLine
 10
-26591.34067858769
 20
37058.54641939853
 30
0.0
 11
-26580.23960330614
 21
37086.41694374942
 31
0.0
  0
LINE
  5
6E406
330
18
100
AcDbEntity
  8
DETAIL
  6
HIDDEN
 48
200.0
100
AcDbLine
 10
-26580.97967499156
 20
37084.5589087927
 30
0.0
 11
-26580.23960330614
 21
37086.41694374942
 31
0.0
  0
LINE
  5
6E407
330
18
100
AcDbEntity
  8
DETAIL
  6
HIDDEN
 48
200.0
100
AcDbLine
 10
-26580.38534251181
 20
37059.02663962398
 30
0.0
 11
-26572.61458981474
 21
37078.5360066696
 31
0.0
  0
LINE
  5
6E408
330
18
100
AcDbEntity
  8
APPLICATION
  6
HIDDEN
 48
200.0
100
AcDbLine
 10
-26547.91674614509
 20
37108.74907611582
 30
0.0
 11
-26548.91674614509
 21
37110.48112692338
 31
0.0
  0
LINE
  5
6E409
330
18
100
AcDbEntity
  8
DETAIL
  6
HIDDEN
 48
200.0
100
AcDbLine
 10
-26591.34067858769
 20
37058.54641939853
 30
0.0
 11
-26593.19871354441
 21
37059.28649108397
 31
0.0
  0
LINE
  5
6E40A
330
18
100
AcDbEntity
  8
DETAIL
  6
HIDDEN
 48
200.0
100
AcDbLine
 10
-26581.31828786175
 20
37062.08925500532
 30
0.0
 11
-26586.89239273192
 21
37064.30947006164
 31
0.0
  0
LINE
  5
6E40B
330
18
100
AcDbEntity
  8
DETAIL
  6
HIDDEN
 48
200.0
100
AcDbLine
 10
-26583.16846707534
 20
37057.44416761351
 30
0.0
 11
-26588.74257194552
 21
37059.66438266983
 31
0.0
  0
LINE
  5
6E40C
330
18
100
AcDbEntity
  8
DETAIL
  6
HIDDEN
 48
200.0
100
AcDbLine
 10
-26575.39771437825
 20
37076.95353465914
 30
0.0
 11
-26580.97181924843
 21
37079.17374971545
 31
0.0
  0
LINE
  5
6E40D
330
18
100
AcDbEntity
  8
DETAIL
  6
HIDDEN
 48
200.0
100
AcDbLine
 10
-26573.54753516466
 20
37081.59862205095
 30
0.0
 11
-26579.12164003484
 21
37083.81883710726
 31
0.0
  0
ARC
  5
6E40E
330
18
100
AcDbEntity
  8
DETAIL
  6
HIDDEN
 48
200.0
100
AcDbCircle
 10
-26592.29326329545
 20
37075.07193247302
 30
0.0
 40
17.0
100
AcDbArc
 50
310.2096852512028
 51
6.354659122908712
  0
ARC
  5
6E40F
330
18
100
AcDbEntity
  8
DETAIL
  6
HIDDEN
 48
200.0
100
AcDbCircle
 10
-26569.99684381474
 20
37066.19107224779
 30
0.0
 40
17.0
100
AcDbArc
 50
130.2096852512027
 51
186.3546591229086
  0
ARC
  5
6E410
330
18
100
AcDbEntity
  8
DETAIL
  6
HIDDEN
 48
200.0
100
AcDbCircle
 10
-26582.76594980013
 20
37059.97485647095
 30
0.0
 40
2.5625
100
AcDbArc
 50
260.9625556788756
 51
55.60178869523589
  0
ARC
  5
6E411
330
18
100
AcDbEntity
  8
DETAIL
  6
HIDDEN
 48
200.0
100
AcDbCircle
 10
-26587.29491000715
 20
37061.7787812042
 30
0.0
 40
2.5625
100
AcDbArc
 50
80.96255567887554
 51
235.6017886952359
  0
ARC
  5
6E412
330
18
100
AcDbEntity
  8
DETAIL
  6
HIDDEN
 48
200.0
100
AcDbCircle
 10
-26579.52415731006
 20
37081.28814824983
 30
0.0
 40
2.5625
100
AcDbArc
 50
80.96255567887551
 51
235.6017886952359
  0
ARC
  5
6E413
330
18
100
AcDbEntity
  8
DETAIL
  6
HIDDEN
 48
200.0
100
AcDbCircle
 10
-26574.99519710305
 20
37079.48422351657
 30
0.0
 40
2.5625
100
AcDbArc
 50
260.9625556788756
 51
55.60178869523589
  0
LINE
  5
6E414
330
18
100
AcDbEntity
  8
DETAIL
  6
HIDDEN
 48
200.0
100
AcDbLine
 10
-26562.76150552389
 20
37070.84401538272
 30
0.0
 11
-26573.90971526425
 21
37075.28444549533
 31
0.0
  0
LINE
  5
6E415
330
18
100
AcDbEntity
  8
DETAIL
  6
HIDDEN
 48
200.0
100
AcDbLine
 10
-26567.94200732194
 20
37057.83777068563
 30
0.0
 11
-26579.0902170623
 21
37062.27820079825
 31
0.0
  0
SOLID
  5
6E417
330
18
100
AcDbEntity
  8
DIMS
  6
Continuous
 48
10.0
100
AcDbTrace
 10
-27868.78007787493
 20
37488.41755764499
 30
0.0
 11
-27879.97572256418
 21
37506.9675437484
 31
0.0
 12
-27818.72794190934
 22
37531.27948476444
 32
0.0
 13
-27818.72794190934
 23
37531.27948476444
 33
0.0
  0
LINE
  5
6E418
330
18
100
AcDbEntity
  8
APPLICATION
  6
Continuous
 48
10.0
100
AcDbLine
 10
-30961.90712720184
 20
36826.01960269632
 30
0.0
 11
-30961.90712720184
 21
37276.01960269632
 31
0.0
  0
LINE
  5
6E419
330
18
100
AcDbEntity
  8
APPLICATION
  6
Continuous
 48
10.0
100
AcDbLine
 10
-30511.90712720184
 20
36826.01960269632
 30
0.0
 11
-30511.90712720185
 21
37021.01960269632
 31
0.0
  0
LINE
  5
6E41A
330
18
100
AcDbEntity
  8
APPLICATION
  6
Continuous
 48
10.0
100
AcDbLine
 10
-30511.90712720184
 20
36826.01960269632
 30
0.0
 11
-30961.90712720184
 21
36826.01960269632
 31
0.0
  0
LINE
  5
6E41B
330
18
100
AcDbEntity
  8
APPLICATION
  6
Continuous
 48
10.0
100
AcDbLine
 10
-30961.90712720184
 20
37276.01960269632
 30
0.0
 11
-30511.90712720184
 21
37276.01960269632
 31
0.0
  0
HATCH
  5
6E41C
330
18
100
AcDbEntity
  8
APPLICATION
  6
Continuous
 48
10.0
100
AcDbHatch
 10
0.0
 20
0.0
 30
0.0
210
0.0
220
0.0
230
1.0
  2
AR-CONC
 70
     0
 71
     0
 91
        6
 92
        7
 72
     1
 73
     1
 93
       17
 10
-26621.90712720186
 20
37266.90417537752
 42
0.0
 10
-26621.90712720187
 20
37276.01960269632
 42
0.0
 10
-26171.90712720186
 20
37276.01960269632
 42
0.0
 10
-26171.90712720186
 20
37051.01960269632
 42
0.0
 10
-26321.90712720186
 20
37051.01960269632
 42
0.0
 10
-26321.90712720186
 20
37126.01960269632
 42
0.0
 10
-26471.90712720186
 20
37126.01960269632
 42
0.0
 10
-26471.90712720186
 20
37076.01960269633
 42
0.0
 10
-26530.10480920451
 20
37076.01960269633
 42
-0.2202641309872826
 10
-26543.84494937537
 20
37085.69651723255
 42
0.0
 10
-26549.84494937537
 20
37096.08882207797
 42
0.0
 10
-26548.97892397158
 20
37096.58882207797
 42
0.0
 10
-26552.97892397158
 20
37103.51702530824
 42
-0.3507810593580309
 10
-26551.81386046213
 20
37106.49907611581
 42
0.0
 10
-26547.9167461451
 20
37108.74907611582
 42
0.0
 10
-26548.91674614509
 20
37110.48112692339
 42
0.0
 10
-26535.92636508833
 20
37117.98112692338
 42
0.0
 97
        0
 92
       22
 72
     1
 73
     1
 93
        2
 10
-26545.64879695266
 20
37100.82087288554
 42
0.0
 10
-26546.21129695266
 20
37101.79515146479
 42
-0.1111111111098579
 97
        0
 92
        7
 72
     0
 73
     1
 93
       10
 10
-26621.90712720186
 20
37021.01960269633
 10
-26591.90712720185
 20
37021.01960269632
 10
-26591.90712720184
 20
37026.01960269633
 10
-26471.90712720186
 20
37026.01960269632
 10
-26471.90712720185
 20
36976.01960269632
 10
-26321.90712720186
 20
36976.01960269632
 10
-26321.90712720186
 20
37051.01960269633
 10
-26171.90712720186
 20
37051.01960269633
 10
-26171.90712720187
 20
36826.01960269632
 10
-26621.90712720186
 20
36826.01960269632
 97
        0
 92
       23
 72
     1
 73
     1
 93
       14
 10
-26621.90712720185
 20
37146.90417537748
 42
0.0
 10
-26587.8878893154
 20
37087.98112692339
 42
0.0
 10
-26574.89750825863
 20
37095.48112692339
 42
0.0
 10
-26573.89750825863
 20
37093.74907611581
 42
0.0
 10
-26570.0003939416
 20
37095.99907611581
 42
0.3507810593570798
 10
-26571.16545745105
 20
37093.01702530825
 42
0.0
 10
-26568.16545745106
 20
37087.82087288553
 42
0.3507810593580891
 10
-26565.0003939416
 20
37087.33882207797
 42
0.0
 10
-26561.96930502835
 20
37089.08882207797
 42
0.0
 10
-26555.96930502835
 20
37078.69651723255
 42
-0.0371986084421152
 10
-26554.67872986607
 20
37076.01960269633
 42
0.0
 10
-26591.90712720186
 20
37076.01960269632
 42
0.0
 10
-26591.90712720186
 20
37081.01960269632
 42
0.0
 10
-26621.90712720186
 20
37081.01960269632
 42
0.0
 97
        0
 92
       23
 72
     0
 73
     1
 93
        4
 10
-26621.90712720186
 20
37146.90417537752
 10
-26621.90712720187
 20
37266.9041753775
 10
-26535.92636508833
 20
37117.98112692339
 10
-26587.8878893154
 20
37087.98112692338
 97
        0
 92
       23
 72
     1
 73
     1
 93
        7
 10
-26561.96930502836
 20
37089.08882207797
 42
0.0
 10
-26549.84494937537
 20
37096.08882207798
 42
0.0
 10
-26543.84494937537
 20
37085.69651723255
 42
0.1961343866371523
 10
-26531.90712720185
 20
37076.43446405854
 42
0.0
 10
-26531.90712720185
 20
37076.01960269633
 42
0.0
 10
-26554.67872986607
 20
37076.01960269633
 42
0.037198608441911
 10
-26555.96930502834
 20
37078.69651723254
 42
0.0
 97
        0
 75
     0
 76
     1
 52
0.0
 41
50.0
 77
     0
 78
    13
 53
130.0
 43
-70953.45119513769
 44
1289.598731855534
 45
-358.6300913003769
 46
-31.37606749129755
 79
     2
 49
37.50000000000001
 49
-412.5
 53
185.0
 43
-70953.45119513769
 44
1289.598731855534
 45
69.37566680650004
 46
376.0960668500059
 79
     2
 49
30.00000000000002
 49
-330.0000000000002
 53
79.5486
 43
-70983.3370351377
 44
1286.984061855534
 45
-289.2546908570109
 46
344.7197710304769
 79
     2
 49
31.870095
 49
-350.5710559999998
 53
133.8158
 43
-70953.45119513769
 44
1389.598731855534
 45
-533.6205243128223
 46
-82.75950716450905
 79
     2
 49
56.25
 49
-618.75
 53
83.36440000000001
 43
-70997.9195676377
 44
1382.702078355534
 45
-467.3313527743519
 46
487.0589354502207
 79
     2
 49
47.805144
 49
-525.8564999999999
 53
188.8158
 43
-70953.45119513769
 44
1389.598731855534
 45
-467.3309725668137
 46
487.0593004626623
 79
     2
 49
45.00000000000002
 49
-495.0000000000001
 53
159.0
 43
-71003.45119513769
 44
1364.598731855534
 45
-298.453526059231
 46
-201.3094453326694
 79
     2
 49
37.50000000000002
 49
-412.5000000000001
 53
214.0
 43
-71003.45119513769
 44
1364.598731855534
 45
-121.6576659607909
 46
362.5750225234265
 79
     2
 49
30.00000000000001
 49
-330.0000000000001
 53
108.5486
 43
-71028.32231163769
 44
1347.822928855534
 45
-420.1113142907451
 46
161.2652483549762
 79
     2
 49
31.870095
 49
-350.571056
 53
142.5
 43
-70953.45119513769
 44
1289.598731855534
 45
-6.079927658645337
 46
166.4469269156557
 79
     6
 49
0.0
 49
-326.0000000000001
 49
0.0
 49
-335.0
 49
0.0
 49
-331.25
 53
172.5
 43
-70953.45119513769
 44
1289.598731855534
 45
-131.5347687210743
 46
197.2058559411801
 79
     6
 49
0.0
 49
-191.0000000000001
 49
0.0
 49
-318.5000000000001
 49
0.0
 49
-126.25
 53
212.5
 43
-70841.95119513769
 44
1289.598731855534
 45
-266.9112180862047
 46
-11.2774358671899
 79
     6
 49
0.0
 49
-125.0
 49
0.0
 49
-390.0
 49
0.0
 49
-517.4999999999998
 53
222.5
 43
-70791.95119513769
 44
1289.598731855534
 45
-291.5930846711932
 46
50.05249116615882
 79
     6
 49
0.0
 49
-162.5
 49
0.0
 49
-259.0000000000001
 49
0.0
 49
-367.5000000000002
 47
9.812162328067424
 98
        6
 10
-26375.49876225723
 20
37197.81659884549
 10
-26375.49876225723
 20
37197.81659884549
 10
-26469.36607876336
 20
36924.23846857063
 10
-26611.23733091923
 20
37100.72141978706
 10
-26593.38183244057
 20
37142.97980997312
 10
-26547.33342398535
 20
37084.75736130893
  0
LINE
  5
6E41D
330
18
100
AcDbEntity
  8
APPLICATION
  6
Continuous
 48
10.0
100
AcDbLine
 10
-26171.90712720186
 20
36826.01960269632
 30
0.0
 11
-26171.90712720186
 21
37276.01960269632
 31
0.0
  0
LINE
  5
6E41E
330
18
100
AcDbEntity
  8
APPLICATION
  6
Continuous
 48
10.0
100
AcDbLine
 10
-26621.90712720186
 20
36826.01960269632
 30
0.0
 11
-26621.90712720186
 21
37021.01960269632
 31
0.0
  0
LINE
  5
6E41F
330
18
100
AcDbEntity
  8
APPLICATION
  6
Continuous
 48
10.0
100
AcDbLine
 10
-26621.90712720186
 20
36826.01960269632
 30
0.0
 11
-26171.90712720186
 21
36826.01960269632
 31
0.0
  0
LINE
  5
6E420
330
18
100
AcDbEntity
  8
APPLICATION
  6
Continuous
 48
10.0
100
AcDbLine
 10
-26171.90712720186
 20
37276.01960269632
 30
0.0
 11
-26621.90712720186
 21
37276.01960269632
 31
0.0
  0
SOLID
  5
6E421
330
18
100
AcDbEntity
  8
DIMS
  6
Continuous
 48
10.0
100
AcDbTrace
 10
-28267.15720271852
 20
37146.21770717685
 30
0.0
 11
-28245.4946211685
 21
37145.79698751591
 31
0.0
 12
-28257.58807092631
 22
37081.01960269632
 32
0.0
 13
-28257.58807092631
 23
37081.01960269632
 33
0.0
  0
DIMENSION
  5
6E422
330
18
100
AcDbEntity
  8
DIMS
  6
Continuous
 62
     9
 48
10.0
100
AcDbDimension
280
     0
  2
*D0
 10
-31482.4954133046
 20
40617.97120844296
 30
0.0
 11
-31482.4954133046
 21
39617.97120844297
 31
0.0
 70
    32
  1
To suit fence height
 71
     5
 42
2000.0
 73
     0
 74
     0
 75
     0
  3
STANDARD
100
AcDbAlignedDimension
 13
-31218.9058334899
 23
38617.97120844297
 33
0.0
 14
-30811.90712720185
 24
40617.97120844296
 34
0.0
 50
90.0
100
AcDbRotatedDimension
1001
ACAD
1000
DSTYLE
1002
{
1070
    41
1040
65.0
1070
    42
1040
37.5
1070
    43
1040
37.5
1070
    44
1040
37.5
1070
    73
1070
     0
1070
    74
1070
     0
1070
   140
1040
75.0
1070
   147
1040
37.5
1070
   176
1070
     7
1070
   177
1070
     7
1070
   178
1070
     7
1070
   271
1070
     0
1070
   272
1070
     0
1002
}
  0
DIMENSION
  5
6E423
330
18
100
AcDbEntity
  8
DIMS
  6
Continuous
 62
     9
 48
10.0
100
AcDbDimension
280
     0
  2
*D1
 10
-31482.4954133046
 20
38617.97120844297
 30
0.0
 11
-31482.4954133046
 21
38237.97120844297
 31
0.0
 70
    32
 71
     5
 42
760.0
 73
     0
 74
     0
 75
     0
  3
STANDARD
100
AcDbAlignedDimension
 13
-30911.90712720185
 23
37857.97120844296
 33
0.0
 14
-31218.9058334899
 24
38617.97120844297
 34
0.0
 50
90.0
100
AcDbRotatedDimension
1001
ACAD
1000
DSTYLE
1002
{
1070
    41
1040
65.0
1070
    42
1040
37.5
1070
    43
1040
37.5
1070
    44
1040
37.5
1070
    73
1070
     0
1070
    74
1070
     0
1070
   140
1040
75.0
1070
   147
1040
37.5
1070
   176
1070
     7
1070
   177
1070
     7
1070
   178
1070
     7
1070
   271
1070
     0
1070
   272
1070
     0
1002
}
  0
DIMENSION
  5
6E427
330
18
100
AcDbEntity
  8
DIMS
  6
Continuous
 62
     9
 48
10.0
100
AcDbDimension
280
     0
  2
*D2
 10
-26471.90712720186
 20
41128.43008562642
 30
0.0
 11
-28566.90712720185
 21
41128.43008562642
 31
0.0
 70
    32
  1
Opening Width
 71
     5
 42
4189.999999999993
 73
     0
 74
     0
 75
     0
  3
STANDARD
100
AcDbAlignedDimension
 13
-30661.90712720185
 23
40617.97120844296
 33
0.0
 14
-26471.90712720186
 24
40617.97120844296
 34
0.0
100
AcDbRotatedDimension
1001
ACAD
1000
DSTYLE
1002
{
1070
    41
1040
65.0
1070
    42
1040
37.5
1070
    43
1040
37.5
1070
    44
1040
37.5
1070
    73
1070
     0
1070
    74
1070
     0
1070
   140
1040
75.0
1070
   147
1040
37.5
1070
   176
1070
     7
1070
   177
1070
     7
1070
   178
1070
     7
1070
   271
1070
     0
1070
   272
1070
     0
1002
}
  0
LINE
  5
6E431
330
18
100
AcDbEntity
  8
DETAIL
  6
Continuous
 48
10.0
100
AcDbLine
 10
-28571.90712720184
 20
40317.97120844297
 30
0.0
 11
-28561.90712720186
 21
40317.97120844297
 31
0.0
  0
LINE
  5
6E432
330
18
100
AcDbEntity
  8
DETAIL
  6
Continuous
 48
10.0
100
AcDbLine
 10
-28571.90712720184
 20
40217.97120844297
 30
0.0
 11
-28561.90712720186
 21
40217.97120844297
 31
0.0
  0
LINE
  5
6E433
330
18
100
AcDbEntity
  8
DETAIL
  6
Continuous
 48
10.0
100
AcDbLine
 10
-28571.90712720185
 20
37081.01960269632
 30
0.0
 11
-28561.90712720185
 21
37081.01960269632
 31
0.0
  0
LINE
  5
6E58F
330
18
100
AcDbEntity
  8
DETAIL
  6
Continuous
 48
10.0
100
AcDbLine
 10
-28631.90712720186
 20
40352.97120844296
 30
0.0
 11
-30481.90712720185
 21
40352.97120844297
 31
0.0
  0
LINE
  5
6E590
330
18
100
AcDbEntity
  8
DETAIL
  6
Continuous
 48
10.0
100
AcDbLine
 10
-28631.90712720186
 20
40357.97120844296
 30
0.0
 11
-30481.90712720185
 21
40357.97120844296
 31
0.0
  0
LINE
  5
6E595
330
18
100
AcDbEntity
  8
DETAIL
  6
Continuous
 48
10.0
100
AcDbLine
 10
-30431.90712720186
 20
40557.97120844297
 30
0.0
 11
-30431.90712720185
 21
38777.97120844297
 31
0.0
  0
LINE
  5
6E596
330
18
100
AcDbEntity
  8
DETAIL
  6
Continuous
 48
10.0
100
AcDbLine
 10
-30426.90712720186
 20
40557.97120844297
 30
0.0
 11
-30426.90712720185
 21
38777.97120844297
 31
0.0
  0
LINE
  5
6E597
330
18
100
AcDbEntity
  8
DETAIL
  6
Continuous
 48
10.0
100
AcDbLine
 10
-30376.90712720185
 20
40557.97120844297
 30
0.0
 11
-30376.90712720185
 21
38777.97120844297
 31
0.0
  0
LINE
  5
6E598
330
18
100
AcDbEntity
  8
DETAIL
  6
Continuous
 48
10.0
100
AcDbLine
 10
-30371.90712720186
 20
40557.97120844297
 30
0.0
 11
-30371.90712720185
 21
38777.97120844297
 31
0.0
  0
LINE
  5
6E599
330
18
100
AcDbEntity
  8
DETAIL
  6
Continuous
 48
10.0
100
AcDbLine
 10
-30321.90712720185
 20
40557.97120844297
 30
0.0
 11
-30321.90712720185
 21
38777.97120844297
 31
0.0
  0
LINE
  5
6E59A
330
18
100
AcDbEntity
  8
DETAIL
  6
Continuous
 48
10.0
100
AcDbLine
 10
-30316.90712720186
 20
40557.97120844297
 30
0.0
 11
-30316.90712720185
 21
38777.97120844297
 31
0.0
  0
LINE
  5
6E59B
330
18
100
AcDbEntity
  8
DETAIL
  6
Continuous
 48
10.0
100
AcDbLine
 10
-30266.90712720186
 20
40552.97120844297
 30
0.0
 11
-30266.90712720186
 21
38777.97120844299
 31
0.0
  0
LINE
  5
6E59C
330
18
100
AcDbEntity
  8
DETAIL
  6
Continuous
 48
10.0
100
AcDbLine
 10
-30261.90712720187
 20
40552.97120844297
 30
0.0
 11
-30261.90712720186
 21
38777.97120844299
 31
0.0
  0
LINE
  5
6E59D
330
18
100
AcDbEntity
  8
DETAIL
  6
Continuous
 48
10.0
100
AcDbLine
 10
-30211.90712720186
 20
40557.97120844297
 30
0.0
 11
-30211.90712720185
 21
38777.97120844297
 31
0.0
  0
LINE
  5
6E59E
330
18
100
AcDbEntity
  8
DETAIL
  6
Continuous
 48
10.0
100
AcDbLine
 10
-30206.90712720186
 20
40557.97120844297
 30
0.0
 11
-30206.90712720185
 21
38777.97120844297
 31
0.0
  0
LINE
  5
6E59F
330
18
100
AcDbEntity
  8
DETAIL
  6
Continuous
 48
10.0
100
AcDbLine
 10
-30156.90712720186
 20
40557.97120844297
 30
0.0
 11
-30156.90712720185
 21
38777.97120844297
 31
0.0
  0
LINE
  5
6E5A0
330
18
100
AcDbEntity
  8
DETAIL
  6
Continuous
 48
10.0
100
AcDbLine
 10
-30151.90712720186
 20
40557.97120844297
 30
0.0
 11
-30151.90712720185
 21
38777.97120844297
 31
0.0
  0
LINE
  5
6E5A1
330
18
100
AcDbEntity
  8
DETAIL
  6
Continuous
 48
10.0
100
AcDbLine
 10
-30101.90712720186
 20
40557.97120844297
 30
0.0
 11
-30101.90712720185
 21
38777.97120844297
 31
0.0
  0
LINE
  5
6E5A2
330
18
100
AcDbEntity
  8
DETAIL
  6
Continuous
 48
10.0
100
AcDbLine
 10
-30096.90712720185
 20
40557.97120844297
 30
0.0
 11
-30096.90712720185
 21
38777.97120844297
 31
0.0
  0
LINE
  5
6E5A3
330
18
100
AcDbEntity
  8
DETAIL
  6
Continuous
 48
10.0
100
AcDbLine
 10
-30046.90712720186
 20
40557.97120844297
 30
0.0
 11
-30046.90712720185
 21
38777.97120844297
 31
0.0
  0
LINE
  5
6E5A4
330
18
100
AcDbEntity
  8
DETAIL
  6
Continuous
 48
10.0
100
AcDbLine
 10
-30041.90712720186
 20
40557.97120844297
 30
0.0
 11
-30041.90712720185
 21
38777.97120844297
 31
0.0
  0
LINE
  5
6E5A5
330
18
100
AcDbEntity
  8
DETAIL
  6
Continuous
 48
10.0
100
AcDbLine
 10
-29991.90712720185
 20
40557.97120844297
 30
0.0
 11
-29991.90712720185
 21
38777.97120844297
 31
0.0
  0
LINE
  5
6E5A6
330
18
100
AcDbEntity
  8
DETAIL
  6
Continuous
 48
10.0
100
AcDbLine
 10
-29986.90712720186
 20
40557.97120844297
 30
0.0
 11
-29986.90712720185
 21
38777.97120844297
 31
0.0
  0
LINE
  5
6E5A7
330
18
100
AcDbEntity
  8
DETAIL
  6
Continuous
 48
10.0
100
AcDbLine
 10
-29936.90712720185
 20
40557.97120844297
 30
0.0
 11
-29936.90712720185
 21
38777.97120844297
 31
0.0
  0
LINE
  5
6E5A8
330
18
100
AcDbEntity
  8
DETAIL
  6
Continuous
 48
10.0
100
AcDbLine
 10
-29931.90712720186
 20
40557.97120844297
 30
0.0
 11
-29931.90712720185
 21
38777.97120844297
 31
0.0
  0
LINE
  5
6E5A9
330
18
100
AcDbEntity
  8
DETAIL
  6
Continuous
 48
10.0
100
AcDbLine
 10
-29881.90712720186
 20
40557.97120844297
 30
0.0
 11
-29881.90712720185
 21
38777.97120844297
 31
0.0
  0
LINE
  5
6E5AA
330
18
100
AcDbEntity
  8
DETAIL
  6
Continuous
 48
10.0
100
AcDbLine
 10
-29876.90712720186
 20
40557.97120844297
 30
0.0
 11
-29876.90712720185
 21
38777.97120844297
 31
0.0
  0
LINE
  5
6E5AB
330
18
100
AcDbEntity
  8
DETAIL
  6
Continuous
 48
10.0
100
AcDbLine
 10
-29826.90712720186
 20
40557.97120844297
 30
0.0
 11
-29826.90712720185
 21
38777.97120844297
 31
0.0
  0
LINE
  5
6E5AC
330
18
100
AcDbEntity
  8
DETAIL
  6
Continuous
 48
10.0
100
AcDbLine
 10
-29821.90712720186
 20
40557.97120844297
 30
0.0
 11
-29821.90712720185
 21
38777.97120844297
 31
0.0
  0
LINE
  5
6E5AD
330
18
100
AcDbEntity
  8
DETAIL
  6
Continuous
 48
10.0
100
AcDbLine
 10
-29771.90712720186
 20
40557.97120844297
 30
0.0
 11
-29771.90712720185
 21
38777.97120844297
 31
0.0
  0
LINE
  5
6E5AE
330
18
100
AcDbEntity
  8
DETAIL
  6
Continuous
 48
10.0
100
AcDbLine
 10
-29766.90712720186
 20
40557.97120844297
 30
0.0
 11
-29766.90712720185
 21
38777.97120844297
 31
0.0
  0
LINE
  5
6E5AF
330
18
100
AcDbEntity
  8
DETAIL
  6
Continuous
 48
10.0
100
AcDbLine
 10
-29716.90712720186
 20
40557.97120844297
 30
0.0
 11
-29716.90712720185
 21
38777.97120844297
 31
0.0
  0
LINE
  5
6E5B0
330
18
100
AcDbEntity
  8
DETAIL
  6
Continuous
 48
10.0
100
AcDbLine
 10
-29711.90712720185
 20
40557.97120844297
 30
0.0
 11
-29711.90712720185
 21
38777.97120844297
 31
0.0
  0
LINE
  5
6E5B1
330
18
100
AcDbEntity
  8
DETAIL
  6
Continuous
 48
10.0
100
AcDbLine
 10
-29661.90712720186
 20
40557.97120844297
 30
0.0
 11
-29661.90712720185
 21
38777.97120844297
 31
0.0
  0
LINE
  5
6E5B2
330
18
100
AcDbEntity
  8
DETAIL
  6
Continuous
 48
10.0
100
AcDbLine
 10
-29656.90712720185
 20
40557.97120844297
 30
0.0
 11
-29656.90712720185
 21
38777.97120844297
 31
0.0
  0
LINE
  5
6E5B3
330
18
100
AcDbEntity
  8
DETAIL
  6
Continuous
 48
10.0
100
AcDbLine
 10
-29606.90712720186
 20
40557.97120844297
 30
0.0
 11
-29606.90712720185
 21
38777.97120844297
 31
0.0
  0
LINE
  5
6E5B4
330
18
100
AcDbEntity
  8
DETAIL
  6
Continuous
 48
10.0
100
AcDbLine
 10
-29601.90712720186
 20
40557.97120844297
 30
0.0
 11
-29601.90712720185
 21
38777.97120844297
 31
0.0
  0
LINE
  5
6E5B5
330
18
100
AcDbEntity
  8
DETAIL
  6
Continuous
 48
10.0
100
AcDbLine
 10
-29551.90712720185
 20
40557.97120844297
 30
0.0
 11
-29551.90712720185
 21
38777.97120844297
 31
0.0
  0
LINE
  5
6E5B6
330
18
100
AcDbEntity
  8
DETAIL
  6
Continuous
 48
10.0
100
AcDbLine
 10
-29546.90712720186
 20
40557.97120844297
 30
0.0
 11
-29546.90712720185
 21
38777.97120844297
 31
0.0
  0
LINE
  5
6E5B7
330
18
100
AcDbEntity
  8
DETAIL
  6
Continuous
 48
10.0
100
AcDbLine
 10
-29496.90712720186
 20
40562.97120844297
 30
0.0
 11
-29496.90712720185
 21
38777.97120844297
 31
0.0
  0
LINE
  5
6E5B8
330
18
100
AcDbEntity
  8
DETAIL
  6
Continuous
 48
10.0
100
AcDbLine
 10
-29491.90712720186
 20
40562.97120844297
 30
0.0
 11
-29491.90712720185
 21
38777.97120844297
 31
0.0
  0
LINE
  5
6E5B9
330
18
100
AcDbEntity
  8
DETAIL
  6
Continuous
 48
10.0
100
AcDbLine
 10
-29441.90712720186
 20
40557.97120844297
 30
0.0
 11
-29441.90712720185
 21
38777.97120844297
 31
0.0
  0
LINE
  5
6E5BA
330
18
100
AcDbEntity
  8
DETAIL
  6
Continuous
 48
10.0
100
AcDbLine
 10
-29436.90712720186
 20
40557.97120844297
 30
0.0
 11
-29436.90712720185
 21
38777.97120844297
 31
0.0
  0
LINE
  5
6E5BB
330
18
100
AcDbEntity
  8
DETAIL
  6
Continuous
 48
10.0
100
AcDbLine
 10
-29386.90712720186
 20
40557.97120844297
 30
0.0
 11
-29386.90712720185
 21
38777.97120844297
 31
0.0
  0
LINE
  5
6E5BC
330
18
100
AcDbEntity
  8
DETAIL
  6
Continuous
 48
10.0
100
AcDbLine
 10
-29381.90712720185
 20
40557.97120844297
 30
0.0
 11
-29381.90712720185
 21
38777.97120844297
 31
0.0
  0
LINE
  5
6E5BD
330
18
100
AcDbEntity
  8
DETAIL
  6
Continuous
 48
10.0
100
AcDbLine
 10
-29331.90712720186
 20
40557.97120844297
 30
0.0
 11
-29331.90712720185
 21
38777.97120844297
 31
0.0
  0
LINE
  5
6E5BE
330
18
100
AcDbEntity
  8
DETAIL
  6
Continuous
 48
10.0
100
AcDbLine
 10
-29326.90712720185
 20
40557.97120844297
 30
0.0
 11
-29326.90712720185
 21
38777.97120844297
 31
0.0
  0
LINE
  5
6E5BF
330
18
100
AcDbEntity
  8
DETAIL
  6
Continuous
 48
10.0
100
AcDbLine
 10
-29276.90712720186
 20
40557.97120844297
 30
0.0
 11
-29276.90712720185
 21
38777.97120844297
 31
0.0
  0
LINE
  5
6E5C0
330
18
100
AcDbEntity
  8
DETAIL
  6
Continuous
 48
10.0
100
AcDbLine
 10
-29271.90712720186
 20
40557.97120844297
 30
0.0
 11
-29271.90712720186
 21
38777.97120844297
 31
0.0
  0
LINE
  5
6E5C1
330
18
100
AcDbEntity
  8
DETAIL
  6
Continuous
 48
10.0
100
AcDbLine
 10
-29221.90712720185
 20
40557.97120844297
 30
0.0
 11
-29221.90712720185
 21
38777.97120844297
 31
0.0
  0
LINE
  5
6E5C2
330
18
100
AcDbEntity
  8
DETAIL
  6
Continuous
 48
10.0
100
AcDbLine
 10
-29216.90712720186
 20
40557.97120844297
 30
0.0
 11
-29216.90712720185
 21
38777.97120844297
 31
0.0
  0
LINE
  5
6E5C3
330
18
100
AcDbEntity
  8
DETAIL
  6
Continuous
 48
10.0
100
AcDbLine
 10
-29166.90712720185
 20
40557.97120844297
 30
0.0
 11
-29166.90712720185
 21
38777.97120844297
 31
0.0
  0
LINE
  5
6E5C4
330
18
100
AcDbEntity
  8
DETAIL
  6
Continuous
 48
10.0
100
AcDbLine
 10
-29161.90712720186
 20
40557.97120844297
 30
0.0
 11
-29161.90712720185
 21
38777.97120844297
 31
0.0
  0
LINE
  5
6E5C5
330
18
100
AcDbEntity
  8
DETAIL
  6
Continuous
 48
10.0
100
AcDbLine
 10
-29111.90712720186
 20
40557.97120844297
 30
0.0
 11
-29111.90712720186
 21
38777.97120844297
 31
0.0
  0
LINE
  5
6E5C6
330
18
100
AcDbEntity
  8
DETAIL
  6
Continuous
 48
10.0
100
AcDbLine
 10
-29106.90712720186
 20
40557.97120844297
 30
0.0
 11
-29106.90712720185
 21
38777.97120844297
 31
0.0
  0
LINE
  5
6E5C7
330
18
100
AcDbEntity
  8
DETAIL
  6
Continuous
 48
10.0
100
AcDbLine
 10
-29056.90712720186
 20
40557.97120844297
 30
0.0
 11
-29056.90712720185
 21
38777.97120844297
 31
0.0
  0
LINE
  5
6E5C8
330
18
100
AcDbEntity
  8
DETAIL
  6
Continuous
 48
10.0
100
AcDbLine
 10
-29051.90712720186
 20
40557.97120844297
 30
0.0
 11
-29051.90712720185
 21
38777.97120844297
 31
0.0
  0
LINE
  5
6E5C9
330
18
100
AcDbEntity
  8
DETAIL
  6
Continuous
 48
10.0
100
AcDbLine
 10
-29001.90712720186
 20
40557.97120844297
 30
0.0
 11
-29001.90712720185
 21
38777.97120844297
 31
0.0
  0
LINE
  5
6E5CA
330
18
100
AcDbEntity
  8
DETAIL
  6
Continuous
 48
10.0
100
AcDbLine
 10
-28996.90712720186
 20
40557.97120844297
 30
0.0
 11
-28996.90712720185
 21
38777.97120844297
 31
0.0
  0
LINE
  5
6E5CB
330
18
100
AcDbEntity
  8
DETAIL
  6
Continuous
 48
10.0
100
AcDbLine
 10
-28946.90712720186
 20
40557.97120844297
 30
0.0
 11
-28946.90712720185
 21
38777.97120844297
 31
0.0
  0
LINE
  5
6E5CC
330
18
100
AcDbEntity
  8
DETAIL
  6
Continuous
 48
10.0
100
AcDbLine
 10
-28941.90712720186
 20
40557.97120844297
 30
0.0
 11
-28941.90712720185
 21
38777.97120844297
 31
0.0
  0
LINE
  5
6E5CD
330
18
100
AcDbEntity
  8
DETAIL
  6
Continuous
 48
10.0
100
AcDbLine
 10
-28891.90712720186
 20
40557.97120844297
 30
0.0
 11
-28891.90712720185
 21
38777.97120844297
 31
0.0
  0
LINE
  5
6E5CE
330
18
100
AcDbEntity
  8
DETAIL
  6
Continuous
 48
10.0
100
AcDbLine
 10
-28886.90712720185
 20
40557.97120844297
 30
0.0
 11
-28886.90712720185
 21
38777.97120844297
 31
0.0
  0
LINE
  5
6E5CF
330
18
100
AcDbEntity
  8
DETAIL
  6
Continuous
 48
10.0
100
AcDbLine
 10
-28836.90712720186
 20
40557.97120844297
 30
0.0
 11
-28836.90712720185
 21
39752.97120844297
 31
0.0
  0
LINE
  5
6E5D0
330
18
100
AcDbEntity
  8
DETAIL
  6
Continuous
 48
10.0
100
AcDbLine
 10
-28831.90712720186
 20
40557.97120844297
 30
0.0
 11
-28831.90712720185
 21
39752.97120844297
 31
0.0
  0
LINE
  5
6E5D1
330
18
100
AcDbEntity
  8
DETAIL
  6
Continuous
 48
10.0
100
AcDbLine
 10
-28781.90712720186
 20
40557.97120844297
 30
0.0
 11
-28781.90712720185
 21
39752.97120844297
 31
0.0
  0
LINE
  5
6E5D2
330
18
100
AcDbEntity
  8
DETAIL
  6
Continuous
 48
10.0
100
AcDbLine
 10
-28776.90712720186
 20
40557.97120844297
 30
0.0
 11
-28776.90712720185
 21
39752.97120844297
 31
0.0
  0
LINE
  5
6E5D3
330
18
100
AcDbEntity
  8
DETAIL
  6
Continuous
 48
10.0
100
AcDbLine
 10
-28631.90712720186
 20
40152.97120844297
 30
0.0
 11
-30481.90712720185
 21
40152.97120844297
 31
0.0
  0
LINE
  5
6E5D4
330
18
100
AcDbEntity
  8
DETAIL
  6
Continuous
 48
10.0
100
AcDbLine
 10
-28631.90712720186
 20
40157.97120844297
 30
0.0
 11
-30481.90712720185
 21
40157.97120844297
 31
0.0
  0
LINE
  5
6E5D5
330
18
100
AcDbEntity
  8
DETAIL
  6
Continuous
 48
10.0
100
AcDbLine
 10
-28631.90712720186
 20
39952.97120844297
 30
0.0
 11
-30481.90712720185
 21
39952.97120844297
 31
0.0
  0
LINE
  5
6E5D6
330
18
100
AcDbEntity
  8
DETAIL
  6
Continuous
 48
10.0
100
AcDbLine
 10
-28631.90712720186
 20
39957.97120844297
 30
0.0
 11
-30481.90712720185
 21
39957.97120844297
 31
0.0
  0
LINE
  5
6E5D7
330
18
100
AcDbEntity
  8
DETAIL
  6
Continuous
 48
10.0
100
AcDbLine
 10
-28631.90712720186
 20
39752.97120844297
 30
0.0
 11
-30481.90712720186
 21
39752.97120844297
 31
0.0
  0
LINE
  5
6E5D8
330
18
100
AcDbEntity
  8
DETAIL
  6
Continuous
 48
10.0
100
AcDbLine
 10
-28631.90712720186
 20
39757.97120844296
 30
0.0
 11
-30481.90712720186
 21
39757.97120844297
 31
0.0
  0
LINE
  5
6E5D9
330
18
100
AcDbEntity
  8
DETAIL
  6
Continuous
 48
10.0
100
AcDbLine
 10
-28841.90712720185
 20
39552.97120844297
 30
0.0
 11
-30481.90712720186
 21
39552.97120844297
 31
0.0
  0
LINE
  5
6E5DA
330
18
100
AcDbEntity
  8
DETAIL
  6
Continuous
 48
10.0
100
AcDbLine
 10
-28841.90712720185
 20
39557.97120844297
 30
0.0
 11
-30481.90712720186
 21
39557.97120844297
 31
0.0
  0
LINE
  5
6E5DB
330
18
100
AcDbEntity
  8
DETAIL
  6
Continuous
 48
10.0
100
AcDbLine
 10
-28631.90712720186
 20
39352.97120844297
 30
0.0
 11
-30481.90712720186
 21
39352.97120844297
 31
0.0
  0
LINE
  5
6E5DC
330
18
100
AcDbEntity
  8
DETAIL
  6
Continuous
 48
10.0
100
AcDbLine
 10
-28631.90712720186
 20
39357.97120844297
 30
0.0
 11
-30481.90712720186
 21
39357.97120844297
 31
0.0
  0
LINE
  5
6E5DD
330
18
100
AcDbEntity
  8
DETAIL
  6
Continuous
 48
10.0
100
AcDbLine
 10
-28631.90712720186
 20
39152.97120844297
 30
0.0
 11
-30481.90712720186
 21
39152.97120844297
 31
0.0
  0
LINE
  5
6E5DE
330
18
100
AcDbEntity
  8
DETAIL
  6
Continuous
 48
10.0
100
AcDbLine
 10
-28631.90712720186
 20
39157.97120844297
 30
0.0
 11
-30481.90712720186
 21
39157.97120844297
 31
0.0
  0
LINE
  5
6E5DF
330
18
100
AcDbEntity
  8
DETAIL
  6
Continuous
 48
10.0
100
AcDbLine
 10
-28631.90712720186
 20
38952.97120844297
 30
0.0
 11
-30481.90712720186
 21
38952.97120844297
 31
0.0
  0
LINE
  5
6E5E0
330
18
100
AcDbEntity
  8
DETAIL
  6
Continuous
 48
10.0
100
AcDbLine
 10
-28631.90712720186
 20
38957.97120844297
 30
0.0
 11
-30481.90712720186
 21
38957.97120844297
 31
0.0
  0
LINE
  5
6E5E1
330
18
100
AcDbEntity
  8
DETAIL
  6
Continuous
 48
10.0
100
AcDbLine
 10
-28631.90712720186
 20
38777.97120844299
 30
0.0
 11
-30481.90712720186
 21
38777.97120844299
 31
0.0
  0
LINE
  5
6E5E2
330
18
100
AcDbEntity
  8
DETAIL
  6
Continuous
 48
10.0
100
AcDbLine
 10
-28631.90712720186
 20
38782.97120844298
 30
0.0
 11
-30481.90712720186
 21
38782.97120844298
 31
0.0
  0
LINE
  5
6E5E3
330
18
100
AcDbEntity
  8
DETAIL
  6
Continuous
 48
10.0
100
AcDbLine
 10
-28631.90712720186
 20
40552.97120844297
 30
0.0
 11
-30481.90712720185
 21
40552.97120844297
 31
0.0
  0
LINE
  5
6E5E5
330
18
100
AcDbEntity
  8
DETAIL
  6
Continuous
 48
10.0
100
AcDbLine
 10
-28726.90712720185
 20
40557.97120844297
 30
0.0
 11
-28726.90712720185
 21
39752.97120844297
 31
0.0
  0
LINE
  5
6E5E6
330
18
100
AcDbEntity
  8
DETAIL
  6
Continuous
 48
10.0
100
AcDbLine
 10
-28721.90712720186
 20
40557.97120844297
 30
0.0
 11
-28721.90712720185
 21
39752.97120844297
 31
0.0
  0
LINE
  5
6E5E7
330
18
100
AcDbEntity
  8
DETAIL
  6
Continuous
 48
10.0
100
AcDbLine
 10
-28671.90712720186
 20
40557.97120844297
 30
0.0
 11
-28671.90712720185
 21
39752.97120844297
 31
0.0
  0
LINE
  5
6E5E8
330
18
100
AcDbEntity
  8
DETAIL
  6
Continuous
 48
10.0
100
AcDbLine
 10
-28666.90712720186
 20
40557.97120844297
 30
0.0
 11
-28666.90712720185
 21
39752.97120844297
 31
0.0
  0
LINE
  5
6E5E9
330
18
100
AcDbEntity
  8
DETAIL
  6
Continuous
 48
10.0
100
AcDbLine
 10
-28776.90712720186
 20
39482.97120844296
 30
0.0
 11
-28776.90712720186
 21
38777.97120844297
 31
0.0
  0
LINE
  5
6E5EA
330
18
100
AcDbEntity
  8
DETAIL
  6
Continuous
 48
10.0
100
AcDbLine
 10
-28781.90712720186
 20
39482.97120844296
 30
0.0
 11
-28781.90712720186
 21
38777.97120844297
 31
0.0
  0
LINE
  5
6E5EB
330
18
100
AcDbEntity
  8
DETAIL
  6
Continuous
 48
10.0
100
AcDbLine
 10
-28726.90712720185
 20
39482.97120844296
 30
0.0
 11
-28726.90712720185
 21
38777.97120844297
 31
0.0
  0
LINE
  5
6E5EC
330
18
100
AcDbEntity
  8
DETAIL
  6
Continuous
 48
10.0
100
AcDbLine
 10
-28721.90712720186
 20
39482.97120844296
 30
0.0
 11
-28721.90712720186
 21
38777.97120844297
 31
0.0
  0
LINE
  5
6E5ED
330
18
100
AcDbEntity
  8
DETAIL
  6
Continuous
 48
10.0
100
AcDbLine
 10
-28666.90712720186
 20
39482.97120844296
 30
0.0
 11
-28666.90712720186
 21
38777.97120844297
 31
0.0
  0
LINE
  5
6E5EE
330
18
100
AcDbEntity
  8
DETAIL
  6
Continuous
 48
10.0
100
AcDbLine
 10
-28671.90712720186
 20
39482.97120844296
 30
0.0
 11
-28671.90712720186
 21
38777.97120844297
 31
0.0
  0
LINE
  5
6E5EF
330
18
100
AcDbEntity
  8
DETAIL
  6
Continuous
 48
10.0
100
AcDbLine
 10
-28831.90712720186
 20
39482.97120844296
 30
0.0
 11
-28831.90712720186
 21
38777.97120844297
 31
0.0
  0
LINE
  5
6E5F0
330
18
100
AcDbEntity
  8
DETAIL
  6
Continuous
 48
10.0
100
AcDbLine
 10
-28836.90712720186
 20
39482.97120844296
 30
0.0
 11
-28836.90712720186
 21
38777.97120844297
 31
0.0
  0
LINE
  5
6E5F2
330
18
100
AcDbEntity
  8
DETAIL
  6
Continuous
 48
10.0
100
AcDbLine
 10
-28291.90712720183
 20
39482.97120844296
 30
0.0
 11
-28501.90712720183
 21
39482.97120844296
 31
0.0
  0
LINE
  5
6E5F3
330
18
100
AcDbEntity
  8
DETAIL
  6
Continuous
 48
10.0
100
AcDbLine
 10
-26651.90712720184
 20
38777.97120844297
 30
0.0
 11
-28501.90712720183
 21
38777.97120844297
 31
0.0
  0
LINE
  5
6E5F4
330
18
100
AcDbEntity
  8
DETAIL
  6
Continuous
 48
10.0
100
AcDbLine
 10
-28412.02800277797
 20
39077.97120844298
 30
0.0
 11
-28501.90712720183
 21
39077.97120844297
 31
0.0
  0
LINE
  5
6E5F5
330
18
100
AcDbEntity
  8
DETAIL
  6
Continuous
 48
10.0
100
AcDbLine
 10
-28412.02800277797
 20
39097.97120844299
 30
0.0
 11
-28501.90712720183
 21
39097.97120844297
 31
0.0
  0
LINE
  5
6E5F6
330
18
100
AcDbEntity
  8
DETAIL
  6
Continuous
 48
10.0
100
AcDbLine
 10
-28501.90712720183
 20
40552.97120844297
 30
0.0
 11
-26651.90712720183
 21
40552.97120844297
 31
0.0
  0
LINE
  5
6E5F7
330
18
100
AcDbEntity
  8
DETAIL
  6
Continuous
 48
10.0
100
AcDbLine
 10
-28412.02800277799
 20
39097.97120844299
 30
0.0
 11
-28412.02800277797
 21
39077.97120844298
 31
0.0
  0
LINE
  5
6E5F8
330
18
100
AcDbEntity
  8
DETAIL
  6
Continuous
 48
10.0
100
AcDbLine
 10
-28501.90712720183
 20
40352.97120844296
 30
0.0
 11
-26651.90712720183
 21
40352.97120844297
 31
0.0
  0
LINE
  5
6E5F9
330
18
100
AcDbEntity
  8
DETAIL
  6
Continuous
 48
10.0
100
AcDbLine
 10
-28501.90712720183
 20
40357.97120844296
 30
0.0
 11
-26651.90712720183
 21
40357.97120844296
 31
0.0
  0
LINE
  5
6E5FA
330
18
100
AcDbEntity
  8
DETAIL
  6
Continuous
 48
10.0
100
AcDbLine
 10
-26701.90712720183
 20
40557.97120844297
 30
0.0
 11
-26701.90712720183
 21
38777.97120844297
 31
0.0
  0
LINE
  5
6E5FB
330
18
100
AcDbEntity
  8
DETAIL
  6
Continuous
 48
10.0
100
AcDbLine
 10
-26706.90712720183
 20
40557.97120844297
 30
0.0
 11
-26706.90712720183
 21
38777.97120844297
 31
0.0
  0
LINE
  5
6E5FC
330
18
100
AcDbEntity
  8
DETAIL
  6
Continuous
 48
10.0
100
AcDbLine
 10
-26756.90712720183
 20
40557.97120844297
 30
0.0
 11
-26756.90712720183
 21
38777.97120844297
 31
0.0
  0
LINE
  5
6E5FD
330
18
100
AcDbEntity
  8
DETAIL
  6
Continuous
 48
10.0
100
AcDbLine
 10
-26761.90712720183
 20
40557.97120844297
 30
0.0
 11
-26761.90712720183
 21
38777.97120844297
 31
0.0
  0
LINE
  5
6E5FE
330
18
100
AcDbEntity
  8
DETAIL
  6
Continuous
 48
10.0
100
AcDbLine
 10
-26811.90712720183
 20
40557.97120844297
 30
0.0
 11
-26811.90712720183
 21
38777.97120844297
 31
0.0
  0
LINE
  5
6E5FF
330
18
100
AcDbEntity
  8
DETAIL
  6
Continuous
 48
10.0
100
AcDbLine
 10
-26816.90712720183
 20
40557.97120844297
 30
0.0
 11
-26816.90712720183
 21
38777.97120844297
 31
0.0
  0
LINE
  5
6E600
330
18
100
AcDbEntity
  8
DETAIL
  6
Continuous
 48
10.0
100
AcDbLine
 10
-26866.90712720183
 20
40552.97120844297
 30
0.0
 11
-26866.90712720183
 21
38777.97120844299
 31
0.0
  0
LINE
  5
6E601
330
18
100
AcDbEntity
  8
DETAIL
  6
Continuous
 48
10.0
100
AcDbLine
 10
-26871.90712720182
 20
40552.97120844297
 30
0.0
 11
-26871.90712720183
 21
38777.97120844299
 31
0.0
  0
LINE
  5
6E602
330
18
100
AcDbEntity
  8
DETAIL
  6
Continuous
 48
10.0
100
AcDbLine
 10
-26921.90712720183
 20
40557.97120844297
 30
0.0
 11
-26921.90712720183
 21
38777.97120844297
 31
0.0
  0
LINE
  5
6E603
330
18
100
AcDbEntity
  8
DETAIL
  6
Continuous
 48
10.0
100
AcDbLine
 10
-26926.90712720183
 20
40557.97120844297
 30
0.0
 11
-26926.90712720184
 21
38777.97120844297
 31
0.0
  0
LINE
  5
6E604
330
18
100
AcDbEntity
  8
DETAIL
  6
Continuous
 48
10.0
100
AcDbLine
 10
-26976.90712720183
 20
40557.97120844297
 30
0.0
 11
-26976.90712720183
 21
38777.97120844297
 31
0.0
  0
LINE
  5
6E605
330
18
100
AcDbEntity
  8
DETAIL
  6
Continuous
 48
10.0
100
AcDbLine
 10
-26981.90712720183
 20
40557.97120844297
 30
0.0
 11
-26981.90712720184
 21
38777.97120844297
 31
0.0
  0
LINE
  5
6E606
330
18
100
AcDbEntity
  8
DETAIL
  6
Continuous
 48
10.0
100
AcDbLine
 10
-27031.90712720183
 20
40557.97120844297
 30
0.0
 11
-27031.90712720183
 21
38777.97120844297
 31
0.0
  0
LINE
  5
6E607
330
18
100
AcDbEntity
  8
DETAIL
  6
Continuous
 48
10.0
100
AcDbLine
 10
-27036.90712720183
 20
40557.97120844297
 30
0.0
 11
-27036.90712720184
 21
38777.97120844297
 31
0.0
  0
LINE
  5
6E608
330
18
100
AcDbEntity
  8
DETAIL
  6
Continuous
 48
10.0
100
AcDbLine
 10
-27086.90712720183
 20
40557.97120844297
 30
0.0
 11
-27086.90712720183
 21
38777.97120844297
 31
0.0
  0
LINE
  5
6E609
330
18
100
AcDbEntity
  8
DETAIL
  6
Continuous
 48
10.0
100
AcDbLine
 10
-27091.90712720183
 20
40557.97120844297
 30
0.0
 11
-27091.90712720183
 21
38777.97120844297
 31
0.0
  0
LINE
  5
6E60A
330
18
100
AcDbEntity
  8
DETAIL
  6
Continuous
 48
10.0
100
AcDbLine
 10
-27141.90712720183
 20
40557.97120844297
 30
0.0
 11
-27141.90712720183
 21
38777.97120844297
 31
0.0
  0
LINE
  5
6E60B
330
18
100
AcDbEntity
  8
DETAIL
  6
Continuous
 48
10.0
100
AcDbLine
 10
-27146.90712720183
 20
40557.97120844297
 30
0.0
 11
-27146.90712720183
 21
38777.97120844297
 31
0.0
  0
LINE
  5
6E60C
330
18
100
AcDbEntity
  8
DETAIL
  6
Continuous
 48
10.0
100
AcDbLine
 10
-27196.90712720183
 20
40557.97120844297
 30
0.0
 11
-27196.90712720183
 21
38777.97120844297
 31
0.0
  0
LINE
  5
6E60D
330
18
100
AcDbEntity
  8
DETAIL
  6
Continuous
 48
10.0
100
AcDbLine
 10
-27201.90712720183
 20
40557.97120844297
 30
0.0
 11
-27201.90712720183
 21
38777.97120844297
 31
0.0
  0
LINE
  5
6E60E
330
18
100
AcDbEntity
  8
DETAIL
  6
Continuous
 48
10.0
100
AcDbLine
 10
-27251.90712720183
 20
40557.97120844297
 30
0.0
 11
-27251.90712720183
 21
38777.97120844297
 31
0.0
  0
LINE
  5
6E60F
330
18
100
AcDbEntity
  8
DETAIL
  6
Continuous
 48
10.0
100
AcDbLine
 10
-27256.90712720183
 20
40557.97120844297
 30
0.0
 11
-27256.90712720183
 21
38777.97120844297
 31
0.0
  0
LINE
  5
6E610
330
18
100
AcDbEntity
  8
DETAIL
  6
Continuous
 48
10.0
100
AcDbLine
 10
-27306.90712720183
 20
40557.97120844297
 30
0.0
 11
-27306.90712720183
 21
38777.97120844297
 31
0.0
  0
LINE
  5
6E611
330
18
100
AcDbEntity
  8
DETAIL
  6
Continuous
 48
10.0
100
AcDbLine
 10
-27311.90712720183
 20
40557.97120844297
 30
0.0
 11
-27311.90712720183
 21
38777.97120844297
 31
0.0
  0
LINE
  5
6E612
330
18
100
AcDbEntity
  8
DETAIL
  6
Continuous
 48
10.0
100
AcDbLine
 10
-27361.90712720182
 20
40557.97120844297
 30
0.0
 11
-27361.90712720183
 21
38777.97120844297
 31
0.0
  0
LINE
  5
6E613
330
18
100
AcDbEntity
  8
DETAIL
  6
Continuous
 48
10.0
100
AcDbLine
 10
-27366.90712720183
 20
40557.97120844297
 30
0.0
 11
-27366.90712720183
 21
38777.97120844297
 31
0.0
  0
LINE
  5
6E614
330
18
100
AcDbEntity
  8
DETAIL
  6
Continuous
 48
10.0
100
AcDbLine
 10
-27416.90712720183
 20
40557.97120844297
 30
0.0
 11
-27416.90712720183
 21
38777.97120844297
 31
0.0
  0
LINE
  5
6E615
330
18
100
AcDbEntity
  8
DETAIL
  6
Continuous
 48
10.0
100
AcDbLine
 10
-27421.90712720183
 20
40557.97120844297
 30
0.0
 11
-27421.90712720183
 21
38777.97120844297
 31
0.0
  0
LINE
  5
6E616
330
18
100
AcDbEntity
  8
DETAIL
  6
Continuous
 48
10.0
100
AcDbLine
 10
-27471.90712720183
 20
40557.97120844297
 30
0.0
 11
-27471.90712720183
 21
38777.97120844297
 31
0.0
  0
LINE
  5
6E617
330
18
100
AcDbEntity
  8
DETAIL
  6
Continuous
 48
10.0
100
AcDbLine
 10
-27476.90712720183
 20
40557.97120844297
 30
0.0
 11
-27476.90712720183
 21
38777.97120844297
 31
0.0
  0
LINE
  5
6E618
330
18
100
AcDbEntity
  8
DETAIL
  6
Continuous
 48
10.0
100
AcDbLine
 10
-27526.90712720183
 20
40557.97120844297
 30
0.0
 11
-27526.90712720183
 21
38777.97120844297
 31
0.0
  0
LINE
  5
6E619
330
18
100
AcDbEntity
  8
DETAIL
  6
Continuous
 48
10.0
100
AcDbLine
 10
-27531.90712720183
 20
40557.97120844297
 30
0.0
 11
-27531.90712720183
 21
38777.97120844297
 31
0.0
  0
LINE
  5
6E61A
330
18
100
AcDbEntity
  8
DETAIL
  6
Continuous
 48
10.0
100
AcDbLine
 10
-27581.90712720183
 20
40557.97120844297
 30
0.0
 11
-27581.90712720183
 21
38777.97120844297
 31
0.0
  0
LINE
  5
6E61B
330
18
100
AcDbEntity
  8
DETAIL
  6
Continuous
 48
10.0
100
AcDbLine
 10
-27586.90712720183
 20
40557.97120844297
 30
0.0
 11
-27586.90712720183
 21
38777.97120844297
 31
0.0
  0
LINE
  5
6E61C
330
18
100
AcDbEntity
  8
DETAIL
  6
Continuous
 48
10.0
100
AcDbLine
 10
-27636.90712720183
 20
40562.97120844297
 30
0.0
 11
-27636.90712720183
 21
38777.97120844297
 31
0.0
  0
LINE
  5
6E61D
330
18
100
AcDbEntity
  8
DETAIL
  6
Continuous
 48
10.0
100
AcDbLine
 10
-27641.90712720183
 20
40562.97120844297
 30
0.0
 11
-27641.90712720183
 21
38777.97120844297
 31
0.0
  0
LINE
  5
6E61E
330
18
100
AcDbEntity
  8
DETAIL
  6
Continuous
 48
10.0
100
AcDbLine
 10
-27691.90712720183
 20
40557.97120844297
 30
0.0
 11
-27691.90712720183
 21
38777.97120844297
 31
0.0
  0
LINE
  5
6E61F
330
18
100
AcDbEntity
  8
DETAIL
  6
Continuous
 48
10.0
100
AcDbLine
 10
-27696.90712720183
 20
40557.97120844297
 30
0.0
 11
-27696.90712720183
 21
38777.97120844297
 31
0.0
  0
LINE
  5
6E620
330
18
100
AcDbEntity
  8
DETAIL
  6
Continuous
 48
10.0
100
AcDbLine
 10
-27746.90712720183
 20
40557.97120844297
 30
0.0
 11
-27746.90712720183
 21
38777.97120844297
 31
0.0
  0
LINE
  5
6E621
330
18
100
AcDbEntity
  8
DETAIL
  6
Continuous
 48
10.0
100
AcDbLine
 10
-27751.90712720183
 20
40557.97120844297
 30
0.0
 11
-27751.90712720183
 21
38777.97120844297
 31
0.0
  0
LINE
  5
6E622
330
18
100
AcDbEntity
  8
DETAIL
  6
Continuous
 48
10.0
100
AcDbLine
 10
-27801.90712720183
 20
40557.97120844297
 30
0.0
 11
-27801.90712720183
 21
38777.97120844297
 31
0.0
  0
LINE
  5
6E623
330
18
100
AcDbEntity
  8
DETAIL
  6
Continuous
 48
10.0
100
AcDbLine
 10
-27806.90712720183
 20
40557.97120844297
 30
0.0
 11
-27806.90712720183
 21
38777.97120844297
 31
0.0
  0
LINE
  5
6E624
330
18
100
AcDbEntity
  8
DETAIL
  6
Continuous
 48
10.0
100
AcDbLine
 10
-27856.90712720183
 20
40557.97120844297
 30
0.0
 11
-27856.90712720183
 21
38777.97120844297
 31
0.0
  0
LINE
  5
6E625
330
18
100
AcDbEntity
  8
DETAIL
  6
Continuous
 48
10.0
100
AcDbLine
 10
-27861.90712720183
 20
40557.97120844297
 30
0.0
 11
-27861.90712720183
 21
38777.97120844297
 31
0.0
  0
LINE
  5
6E626
330
18
100
AcDbEntity
  8
DETAIL
  6
Continuous
 48
10.0
100
AcDbLine
 10
-27911.90712720183
 20
40557.97120844297
 30
0.0
 11
-27911.90712720183
 21
38777.97120844297
 31
0.0
  0
LINE
  5
6E627
330
18
100
AcDbEntity
  8
DETAIL
  6
Continuous
 48
10.0
100
AcDbLine
 10
-27916.90712720183
 20
40557.97120844297
 30
0.0
 11
-27916.90712720183
 21
38777.97120844297
 31
0.0
  0
LINE
  5
6E628
330
18
100
AcDbEntity
  8
DETAIL
  6
Continuous
 48
10.0
100
AcDbLine
 10
-27966.90712720183
 20
40557.97120844297
 30
0.0
 11
-27966.90712720184
 21
38777.97120844297
 31
0.0
  0
LINE
  5
6E629
330
18
100
AcDbEntity
  8
DETAIL
  6
Continuous
 48
10.0
100
AcDbLine
 10
-27971.90712720183
 20
40557.97120844297
 30
0.0
 11
-27971.90712720183
 21
38777.97120844297
 31
0.0
  0
LINE
  5
6E62A
330
18
100
AcDbEntity
  8
DETAIL
  6
Continuous
 48
10.0
100
AcDbLine
 10
-28021.90712720183
 20
40557.97120844297
 30
0.0
 11
-28021.90712720184
 21
38777.97120844297
 31
0.0
  0
LINE
  5
6E62B
330
18
100
AcDbEntity
  8
DETAIL
  6
Continuous
 48
10.0
100
AcDbLine
 10
-28026.90712720183
 20
40557.97120844297
 30
0.0
 11
-28026.90712720183
 21
38777.97120844297
 31
0.0
  0
LINE
  5
6E62C
330
18
100
AcDbEntity
  8
DETAIL
  6
Continuous
 48
10.0
100
AcDbLine
 10
-28076.90712720183
 20
40557.97120844297
 30
0.0
 11
-28076.90712720183
 21
38777.97120844297
 31
0.0
  0
LINE
  5
6E62D
330
18
100
AcDbEntity
  8
DETAIL
  6
Continuous
 48
10.0
100
AcDbLine
 10
-28081.90712720183
 20
40557.97120844297
 30
0.0
 11
-28081.90712720183
 21
38777.97120844297
 31
0.0
  0
LINE
  5
6E62E
330
18
100
AcDbEntity
  8
DETAIL
  6
Continuous
 48
10.0
100
AcDbLine
 10
-28131.90712720183
 20
40557.97120844297
 30
0.0
 11
-28131.90712720183
 21
38777.97120844297
 31
0.0
  0
LINE
  5
6E62F
330
18
100
AcDbEntity
  8
DETAIL
  6
Continuous
 48
10.0
100
AcDbLine
 10
-28136.90712720183
 20
40557.97120844297
 30
0.0
 11
-28136.90712720184
 21
38777.97120844297
 31
0.0
  0
LINE
  5
6E630
330
18
100
AcDbEntity
  8
DETAIL
  6
Continuous
 48
10.0
100
AcDbLine
 10
-28186.90712720183
 20
40557.97120844297
 30
0.0
 11
-28186.90712720183
 21
38777.97120844297
 31
0.0
  0
LINE
  5
6E631
330
18
100
AcDbEntity
  8
DETAIL
  6
Continuous
 48
10.0
100
AcDbLine
 10
-28191.90712720183
 20
40557.97120844297
 30
0.0
 11
-28191.90712720183
 21
38777.97120844297
 31
0.0
  0
LINE
  5
6E632
330
18
100
AcDbEntity
  8
DETAIL
  6
Continuous
 48
10.0
100
AcDbLine
 10
-28241.90712720183
 20
40557.97120844297
 30
0.0
 11
-28241.90712720183
 21
38777.97120844297
 31
0.0
  0
LINE
  5
6E633
330
18
100
AcDbEntity
  8
DETAIL
  6
Continuous
 48
10.0
100
AcDbLine
 10
-28246.90712720183
 20
40557.97120844297
 30
0.0
 11
-28246.90712720183
 21
38777.97120844297
 31
0.0
  0
LINE
  5
6E634
330
18
100
AcDbEntity
  8
DETAIL
  6
Continuous
 48
10.0
100
AcDbLine
 10
-28296.90712720183
 20
40557.97120844297
 30
0.0
 11
-28296.90712720183
 21
39752.97120844297
 31
0.0
  0
LINE
  5
6E635
330
18
100
AcDbEntity
  8
DETAIL
  6
Continuous
 48
10.0
100
AcDbLine
 10
-28296.90712720183
 20
39482.97120844296
 30
0.0
 11
-28296.90712720182
 21
38777.97120844297
 31
0.0
  0
LINE
  5
6E636
330
18
100
AcDbEntity
  8
DETAIL
  6
Continuous
 48
10.0
100
AcDbLine
 10
-28301.90712720183
 20
40557.97120844297
 30
0.0
 11
-28301.90712720183
 21
39752.97120844297
 31
0.0
  0
LINE
  5
6E637
330
18
100
AcDbEntity
  8
DETAIL
  6
Continuous
 48
10.0
100
AcDbLine
 10
-28301.90712720183
 20
39482.97120844296
 30
0.0
 11
-28301.90712720181
 21
38777.97120844297
 31
0.0
  0
LINE
  5
6E638
330
18
100
AcDbEntity
  8
DETAIL
  6
Continuous
 48
10.0
100
AcDbLine
 10
-28351.90712720183
 20
40557.97120844297
 30
0.0
 11
-28351.90712720183
 21
39752.97120844297
 31
0.0
  0
LINE
  5
6E639
330
18
100
AcDbEntity
  8
DETAIL
  6
Continuous
 48
10.0
100
AcDbLine
 10
-28351.90712720183
 20
39482.97120844296
 30
0.0
 11
-28351.90712720183
 21
38777.97120844297
 31
0.0
  0
LINE
  5
6E63A
330
18
100
AcDbEntity
  8
DETAIL
  6
Continuous
 48
10.0
100
AcDbLine
 10
-28356.90712720183
 20
40557.97120844297
 30
0.0
 11
-28356.90712720183
 21
39752.97120844297
 31
0.0
  0
LINE
  5
6E63B
330
18
100
AcDbEntity
  8
DETAIL
  6
Continuous
 48
10.0
100
AcDbLine
 10
-28356.90712720183
 20
39482.97120844296
 30
0.0
 11
-28356.90712720183
 21
38777.97120844297
 31
0.0
  0
LINE
  5
6E63C
330
18
100
AcDbEntity
  8
DETAIL
  6
Continuous
 48
10.0
100
AcDbLine
 10
-28501.90712720183
 20
40152.97120844297
 30
0.0
 11
-26651.90712720183
 21
40152.97120844297
 31
0.0
  0
LINE
  5
6E63D
330
18
100
AcDbEntity
  8
DETAIL
  6
Continuous
 48
10.0
100
AcDbLine
 10
-28501.90712720183
 20
40157.97120844297
 30
0.0
 11
-26651.90712720183
 21
40157.97120844297
 31
0.0
  0
LINE
  5
6E63E
330
18
100
AcDbEntity
  8
DETAIL
  6
Continuous
 48
10.0
100
AcDbLine
 10
-28501.90712720183
 20
39952.97120844297
 30
0.0
 11
-26651.90712720183
 21
39952.97120844297
 31
0.0
  0
LINE
  5
6E63F
330
18
100
AcDbEntity
  8
DETAIL
  6
Continuous
 48
10.0
100
AcDbLine
 10
-28501.90712720183
 20
39957.97120844297
 30
0.0
 11
-26651.90712720183
 21
39957.97120844297
 31
0.0
  0
LINE
  5
6E640
330
18
100
AcDbEntity
  8
DETAIL
  6
Continuous
 48
10.0
100
AcDbLine
 10
-28501.90712720183
 20
39752.97120844297
 30
0.0
 11
-26651.90712720181
 21
39752.97120844297
 31
0.0
  0
LINE
  5
6E641
330
18
100
AcDbEntity
  8
DETAIL
  6
Continuous
 48
10.0
100
AcDbLine
 10
-28501.90712720183
 20
39757.97120844296
 30
0.0
 11
-26651.90712720181
 21
39757.97120844297
 31
0.0
  0
LINE
  5
6E642
330
18
100
AcDbEntity
  8
DETAIL
  6
Continuous
 48
10.0
100
AcDbLine
 10
-28291.90712720183
 20
39552.97120844297
 30
0.0
 11
-26651.90712720181
 21
39552.97120844297
 31
0.0
  0
LINE
  5
6E643
330
18
100
AcDbEntity
  8
DETAIL
  6
Continuous
 48
10.0
100
AcDbLine
 10
-28291.90712720183
 20
39557.97120844297
 30
0.0
 11
-26651.90712720181
 21
39557.97120844297
 31
0.0
  0
LINE
  5
6E644
330
18
100
AcDbEntity
  8
DETAIL
  6
Continuous
 48
10.0
100
AcDbLine
 10
-28501.90712720183
 20
39352.97120844297
 30
0.0
 11
-26651.90712720181
 21
39352.97120844297
 31
0.0
  0
LINE
  5
6E645
330
18
100
AcDbEntity
  8
DETAIL
  6
Continuous
 48
10.0
100
AcDbLine
 10
-28501.90712720183
 20
39357.97120844297
 30
0.0
 11
-26651.90712720181
 21
39357.97120844297
 31
0.0
  0
LINE
  5
6E646
330
18
100
AcDbEntity
  8
DETAIL
  6
Continuous
 48
10.0
100
AcDbLine
 10
-28501.90712720183
 20
39152.97120844297
 30
0.0
 11
-26651.90712720181
 21
39152.97120844297
 31
0.0
  0
LINE
  5
6E647
330
18
100
AcDbEntity
  8
DETAIL
  6
Continuous
 48
10.0
100
AcDbLine
 10
-28501.90712720183
 20
39157.97120844297
 30
0.0
 11
-26651.90712720181
 21
39157.97120844297
 31
0.0
  0
LINE
  5
6E648
330
18
100
AcDbEntity
  8
DETAIL
  6
Continuous
 48
10.0
100
AcDbLine
 10
-28501.90712720183
 20
38952.97120844297
 30
0.0
 11
-26651.90712720181
 21
38952.97120844297
 31
0.0
  0
LINE
  5
6E649
330
18
100
AcDbEntity
  8
DETAIL
  6
Continuous
 48
10.0
100
AcDbLine
 10
-28501.90712720183
 20
38957.97120844297
 30
0.0
 11
-26651.90712720181
 21
38957.97120844297
 31
0.0
  0
LINE
  5
6E64A
330
18
100
AcDbEntity
  8
DETAIL
  6
Continuous
 48
10.0
100
AcDbLine
 10
-28501.90712720183
 20
38777.97120844299
 30
0.0
 11
-26651.90712720181
 21
38777.97120844299
 31
0.0
  0
LINE
  5
6E64B
330
18
100
AcDbEntity
  8
DETAIL
  6
Continuous
 48
10.0
100
AcDbLine
 10
-28501.90712720183
 20
38782.97120844298
 30
0.0
 11
-26651.90712720181
 21
38782.97120844298
 31
0.0
  0
LINE
  5
6E64C
330
18
100
AcDbEntity
  8
DETAIL
  6
Continuous
 48
10.0
100
AcDbLine
 10
-28406.90712720183
 20
40557.97120844297
 30
0.0
 11
-28406.90712720183
 21
39752.97120844297
 31
0.0
  0
LINE
  5
6E64D
330
18
100
AcDbEntity
  8
DETAIL
  6
Continuous
 48
10.0
100
AcDbLine
 10
-28406.90712720183
 20
39482.97120844296
 30
0.0
 11
-28406.90712720183
 21
38777.97120844297
 31
0.0
  0
LINE
  5
6E64E
330
18
100
AcDbEntity
  8
DETAIL
  6
Continuous
 48
10.0
100
AcDbLine
 10
-28411.90712720183
 20
40557.97120844297
 30
0.0
 11
-28411.90712720183
 21
39752.97120844297
 31
0.0
  0
LINE
  5
6E64F
330
18
100
AcDbEntity
  8
DETAIL
  6
Continuous
 48
10.0
100
AcDbLine
 10
-28411.90712720183
 20
39482.97120844296
 30
0.0
 11
-28411.90712720183
 21
38777.97120844297
 31
0.0
  0
LINE
  5
6E650
330
18
100
AcDbEntity
  8
DETAIL
  6
Continuous
 48
10.0
100
AcDbLine
 10
-28461.90712720183
 20
40557.97120844297
 30
0.0
 11
-28461.90712720183
 21
39752.97120844297
 31
0.0
  0
LINE
  5
6E651
330
18
100
AcDbEntity
  8
DETAIL
  6
Continuous
 48
10.0
100
AcDbLine
 10
-28461.90712720183
 20
39482.97120844296
 30
0.0
 11
-28461.90712720183
 21
38777.97120844297
 31
0.0
  0
LINE
  5
6E652
330
18
100
AcDbEntity
  8
DETAIL
  6
Continuous
 48
10.0
100
AcDbLine
 10
-28466.90712720183
 20
40557.97120844297
 30
0.0
 11
-28466.90712720183
 21
39752.97120844297
 31
0.0
  0
LINE
  5
6E653
330
18
100
AcDbEntity
  8
DETAIL
  6
Continuous
 48
10.0
100
AcDbLine
 10
-28466.90712720183
 20
39482.97120844296
 30
0.0
 11
-28466.90712720183
 21
38777.97120844297
 31
0.0
  0
LINE
  5
6EF2E
330
18
100
AcDbEntity
  8
APPLICATION
  6
Continuous
 48
10.0
100
AcDbLine
 10
-26621.90712720186
 20
37081.01960269632
 30
0.0
 11
-26621.90712720186
 21
37276.01960269632
 31
0.0
  0
LINE
  5
6EF2F
330
18
100
AcDbEntity
  8
APPLICATION
  6
Continuous
 48
10.0
100
AcDbLine
 10
-30511.90712720185
 20
37081.01960269632
 30
0.0
 11
-30511.90712720184
 21
37276.01960269632
 31
0.0
  0
MTEXT
  5
70064
330
18
100
AcDbEntity
  8
TEXT
  6
Continuous
 48
10.0
100
AcDbMText
 10
-24892.26175156455
 20
37062.27930355259
 30
0.0
 40
100.0
 41
1121.502897900847
 46
0.0
 71
     1
 72
     5
  1
{\fVerdana|b0|i0|c0|p34;200x50x5 Mesh}
  7
fastrack
 73
     1
 44
1.0
  0
MTEXT
  5
7007B
330
18
100
AcDbEntity
  8
TEXT
  6
Continuous
 48
10.0
100
AcDbMText
 10
-25676.36685092583
 20
37603.24741236507
 30
0.0
 40
100.0
 41
1121.502897900847
 46
0.0
 71
     1
 72
     5
  1
{\fVerdana|b0|i0|c0|p34;Materials}
  7
fastrack
 73
     1
 44
1.0
  0
MTEXT
  5
7007C
330
18
100
AcDbEntity
  8
TEXT
  6
Continuous
 48
10.0
100
AcDbMText
 10
-25495.36754153488
 20
37400.87241236508
 30
0.0
 40
100.0
 41
1121.502897900847
 46
0.0
 71
     1
 72
     5
  1
{\fVerdana|b0|i0|c0|p34;Posts}
  7
fastrack
 73
     1
 44
1.0
  0
MTEXT
  5
7007D
330
18
100
AcDbEntity
  8
TEXT
  6
Continuous
 48
10.0
100
AcDbMText
 10
-24879.75575309696
 20
37400.87241236508
 30
0.0
 40
100.0
 41
1121.502897900847
 46
0.0
 71
     1
 72
     5
  1
{\fVerdana|b0|i0|c0|p34;150x150x5 SHS}
  7
fastrack
 73
     1
 44
1.0
  0
MTEXT
  5
7007E
330
18
100
AcDbEntity
  8
TEXT
  6
Continuous
 48
10.0
100
AcDbMText
 10
-25501.80831202556
 20
37229.08678160882
 30
0.0
 40
100.0
 41
1121.502897900847
 46
0.0
 71
     1
 72
     5
  1
{\fVerdana|b0|i0|c0|p34;Frame}
  7
fastrack
 73
     1
 44
1.0
  0
MTEXT
  5
7007F
330
18
100
AcDbEntity
  8
TEXT
  6
Continuous
 48
10.0
100
AcDbMText
 10
-24886.19652358764
 20
37229.08678160882
 30
0.0
 40
100.0
 41
1121.502897900847
 46
0.0
 71
     1
 72
     5
  1
{\fVerdana|b0|i0|c0|p34;60x60x3 SHS}
  7
fastrack
 73
     1
 44
1.0
  0
MTEXT
  5
70080
330
18
100
AcDbEntity
  8
TEXT
  6
Continuous
 48
10.0
100
AcDbMText
 10
-25501.80831202556
 20
37067.12308268543
 30
0.0
 40
100.0
 41
1121.502897900847
 46
0.0
 71
     1
 72
     5
  1
{\fVerdana|b0|i0|c0|p34;Infill}
  7
fastrack
 73
     1
 44
1.0
  0
ARC
  5
707FC
330
18
100
AcDbEntity
  8
DIMS
  6
Continuous
 62
     7
 48
10.0
100
AcDbCircle
 10
-27523.63617213649
 20
36733.51911926586
 30
0.0
 40
840.8214989660397
100
AcDbArc
 50
114.6542635203281
 51
150.6214446381231
  0
ARC
  5
707FD
330
18
100
AcDbEntity
  8
DIMS
  6
Continuous
 62
     7
 48
10.0
100
AcDbCircle
 10
-29610.17808226721
 20
36733.51911926586
 30
0.0
 40
840.8214989660397
100
AcDbArc
 50
29.37855536187687
 51
65.34573647967182
  0
MTEXT
  5
708C2
102
{ACAD_XDICTIONARY
360
7094C
102
}
330
18
100
AcDbEntity
  8
TEXT
100
AcDbMText
 10
-27854.31748730839
 20
36087.32058003607
 30
0.0
 40
100.0
 41
3177.87997086287
 46
0.0
 71
     2
 72
     5
  1
PROCTER FENCING SYSTEMS\PDOUBLE LEAF GATES-WELDED MESH 
  7
fastrack
 73
     1
 44
1.0
  0
VIEWPORT
  5
20FE
330
15
100
AcDbEntity
 67
     1
  8
0
 62
     7
348
70845
100
AcDbViewport
 10
5.249954612274081
 20
3.99983997915153
 30
0.0
 40
14.77998914459871
 41
6.446509074533153
 68
     1
 69
     1
 12
5.249954612274081
 22
3.99983997915153
 13
0.0
 23
0.0
 14
10.0
 24
10.0
 15
10.0
 25
10.0
 16
0.0
 26
0.0
 36
1.0
 17
0.0
 27
0.0
 37
0.0
 42
50.0
 43
0.0
 44
0.0
 45
6.446509074533153
 50
0.0
 51
0.0
 72
   100
 90
    32800
  1

281
     0
 71
     1
 74
     0
110
0.0
120
0.0
130
0.0
111
1.0
121
0.0
131
0.0
112
0.0
122
1.0
132
0.0
 79
     0
146
0.0
170
     0
 61
     5
348
70845
292
     1
282
     1
141
0.0
142
0.0
 63
   250
421
  3355443
  0
VIEWPORT
  5
2100
330
15
100
AcDbEntity
 67
     1
  8
0
 62
     7
348
70845
100
AcDbViewport
 10
5.24999976158142
 20
3.999999761581419
 30
0.0
 40
8.399999618530271
 41
6.399999618530272
 68
     2
 69
     2
 12
-27657.54173547219
 22
38499.84671457506
 13
0.0
 23
0.0
 14
0.8660254037844389
 24
0.25
 15
0.8660254037844389
 25
0.25
 16
0.0
 26
0.0
 36
1.0
 17
0.0
 27
0.0
 37
0.0
 42
50.0
 43
0.0
 44
0.0
 45
5976.286812954576
 50
0.0
 51
0.0
 72
   100
 90
    34336
  1

281
     0
 71
     1
 74
     0
110
0.0
120
0.0
130
0.0
111
1.0
121
0.0
131
0.0
112
0.0
122
1.0
132
0.0
 79
     0
146
0.0
170
     0
 61
     5
348
70845
292
     1
282
     1
141
0.0
142
0.0
 63
   250
421
  3355443
  0
ENDSEC
  0
SECTION
  2
OBJECTS
  0
DICTIONARY
  5
C
330
0
100
AcDbDictionary
281
     1
  3
ACAD_CIP_PREVIOUS_PRODUCT_INFO
350
7096D
  3
ACAD_COLOR
350
3C45F
  3
ACAD_DETAILVIEWSTYLE
350
70968
  3
ACAD_GROUP
350
D
  3
ACAD_LAYOUT
350
1DD3
  3
ACAD_MATERIAL
350
3C45E
  3
ACAD_MLEADERSTYLE
350
70872
  3
ACAD_MLINESTYLE
350
1B
  3
ACAD_PLOTSETTINGS
350
1DD4
  3
ACAD_PLOTSTYLENAME
350
1DD1
  3
ACAD_SCALELIST
350
70850
  3
ACAD_SECTIONVIEWSTYLE
350
70966
  3
ACAD_TABLESTYLE
350
3C460
  3
ACAD_VISUALSTYLE
350
7083F
  3
AcadDim
350
50C84
  3
ACDB_RECOMPOSE_DATA
350
70988
  3
ACDBVARIABLEDICTIONARY
350
232
  3
AcDsDecomposeData
350
7098E
  3
AEC_PROPERTY_SET_DEFS
350
708C0
  0
DICTIONARY
  5
7092D
330
8
100
AcDbDictionary
280
     1
281
     1
  0
DICTIONARY
  5
2687
330
2
100
AcDbDictionary
280
     1
281
     1
  3
ACAD_LAYERFILTERS
360
70910
  3
ACAD_LAYERSTATES
360
552EB
  3
ACLYDICTIONARY
360
7090F
  0
DICTIONARY
  5
70883
330
E
100
AcDbDictionary
280
     1
281
     1
  3
ADSK_XREC_LAYER_RECONCILED
360
70884
  0
DICTIONARY
  5
70885
330
8C0
100
AcDbDictionary
280
     1
281
     1
  3
ADSK_XREC_LAYER_RECONCILED
360
70886
  0
DICTIONARY
  5
70887
330
8C1
100
AcDbDictionary
280
     1
281
     1
  3
ADSK_XREC_LAYER_RECONCILED
360
70888
  0
DICTIONARY
  5
70889
330
3341
100
AcDbDictionary
280
     1
281
     1
  3
ADSK_XREC_LAYER_RECONCILED
360
7088A
  0
DICTIONARY
  5
7088B
330
3344
100
AcDbDictionary
280
     1
281
     1
  3
ADSK_XREC_LAYER_RECONCILED
360
7088C
  0
DICTIONARY
  5
7088D
330
3393
100
AcDbDictionary
280
     1
281
     1
  3
ADSK_XREC_LAYER_RECONCILED
360
7088E
  0
DICTIONARY
  5
7088F
330
4AF9F
100
AcDbDictionary
280
     1
281
     1
  3
ADSK_XREC_LAYER_RECONCILED
360
70890
  0
DICTIONARY
  5
3F6
330
18
100
AcDbDictionary
280
     1
281
     1
  3
ACAD_SORTENTS
360
3F7
  0
DICTIONARY
  5
7094C
330
708C2
100
AcDbDictionary
280
     1
281
     1
  3
ACAD_MTEXT_2008_RT
360
70987
  0
XRECORD
  5
7096D
102
{ACAD_REACTORS
330
C
102
}
330
C
100
AcDbXrecord
280
     1
300
ACDLT
300
2020
300
ACDLT_F_S
  0
DICTIONARY
  5
3C45F
102
{ACAD_REACTORS
330
C
102
}
330
C
100
AcDbDictionary
281
     1
  0
DICTIONARY
  5
70968
102
{ACAD_REACTORS
330
C
102
}
330
C
100
AcDbDictionary
281
     1
  3
Imperial24
350
70969
  0
DICTIONARY
  5
D
102
{ACAD_REACTORS
330
C
102
}
330
C
100
AcDbDictionary
281
     1
  0
DICTIONARY
  5
1DD3
102
{ACAD_REACTORS
330
C
102
}
330
C
100
AcDbDictionary
281
     1
  3
Layout1
350
1DD6
  3
Model
350
1DD5
  0
DICTIONARY
  5
3C45E
102
{ACAD_REACTORS
330
C
102
}
330
C
100
AcDbDictionary
281
     1
  3
ByBlock
350
7082F
  3
ByLayer
350
70827
  3
Global
350
70837
  0
DICTIONARY
  5
70872
102
{ACAD_REACTORS
330
C
102
}
330
C
100
AcDbDictionary
281
     1
  3
Standard
350
70873
  0
DICTIONARY
  5
1B
102
{ACAD_REACTORS
330
C
102
}
330
C
100
AcDbDictionary
281
     1
  3
STANDARD
350
1C
  0
DICTIONARY
  5
1DD4
102
{ACAD_REACTORS
330
C
102
}
330
C
100
AcDbDictionary
281
     1
  0
ACDBDICTIONARYWDFLT
  5
1DD1
102
{ACAD_REACTORS
330
C
102
}
330
C
100
AcDbDictionary
281
     1
  3
Normal
350
1DD2
100
AcDbDictionaryWithDefault
340
1DD2
  0
DICTIONARY
  5
70850
102
{ACAD_REACTORS
330
C
102
}
330
C
100
AcDbDictionary
281
     1
  3
A0
350
70851
  3
A1
350
70852
  3
A2
350
70853
  3
A3
350
70854
  3
A4
350
70855
  3
A5
350
70856
  3
A6
350
70857
  3
A7
350
70858
  3
A8
350
70859
  3
A9
350
7085A
  3
B0
350
7085B
  3
B1
350
7085C
  3
B2
350
7085D
  3
B3
350
7085E
  3
B4
350
7085F
  3
B5
350
70860
  3
B6
350
70861
  3
B7
350
70862
  3
B8
350
70863
  3
B9
350
70864
  3
C0
350
70865
  3
C1
350
70866
  3
C2
350
70867
  3
C3
350
70868
  3
C4
350
70869
  3
C5
350
7086A
  3
C6
350
7086B
  3
C7
350
7086C
  3
C8
350
7086D
  3
C9
350
7086E
  3
D0
350
7086F
  3
D1
350
70870
  3
D2
350
70871
  0
DICTIONARY
  5
70966
102
{ACAD_REACTORS
330
C
102
}
330
C
100
AcDbDictionary
281
     1
  3
Imperial24
350
70967
  0
DICTIONARY
  5
3C460
102
{ACAD_REACTORS
330
C
102
}
330
C
100
AcDbDictionary
281
     1
  3
Standard
350
3C461
  0
DICTIONARY
  5
7083F
102
{ACAD_REACTORS
330
C
102
}
330
C
100
AcDbDictionary
281
     1
  3
2dWireframe
350
70845
  3
3D Hidden
350
70847
  3
3dWireframe
350
70846
  3
Basic
350
70844
  3
Brighten
350
7084B
  3
ColorChange
350
7084F
  3
Conceptual
350
70848
  3
Dim
350
7084A
  3
EdgeColorOff
350
70965
  3
Facepattern
350
7084E
  3
Flat
350
70840
  3
FlatWithEdges
350
70841
  3
Gouraud
350
70842
  3
GouraudWithEdges
350
70843
  3
Hidden
350
7095D
  3
JitterOff
350
70963
  3
Linepattern
350
7084D
  3
OverhangOff
350
70964
  3
Realistic
350
70849
  3
Shaded
350
70962
  3
Shaded with edges
350
70961
  3
Shades of Gray
350
7095E
  3
Sketchy
350
7095F
  3
Thicken
350
7084C
  3
Wireframe
350
7095C
  3
X-Ray
350
70960
  0
XRECORD
  5
50C84
102
{ACAD_REACTORS
330
C
102
}
330
C
100
AcDbXrecord
280
     1
 90
   990106
  3

 60
     0
 61
     0
 62
     1
 63
     3
 64
     0
 65
     0
 66
     0
 67
     3
 68
     1
 69
     0
 70
     0
 71
     0
 72
     0
 40
1500.0
170
     0
340
0
  0
XRECORD
  5
70988
102
{ACAD_REACTORS
330
C
102
}
330
C
100
AcDbXrecord
280
     1
 90
        1
330
3C461
330
708C2
  0
DICTIONARY
  5
232
102
{ACAD_REACTORS
330
C
102
}
330
C
100
AcDbDictionary
281
     1
  3
CANNOSCALE
350
7093D
  3
CMLEADERSTYLE
350
7093C
  3
CTABLESTYLE
350
3C488
  3
CVIEWDETAILSTYLE
350
7096E
  3
CVIEWSECTIONSTYLE
350
7096F
  3
DIMASSOC
350
1578B
  3
INDEXCTL
350
7093E
  3
LAYEREVAL
350
70972
  3
LAYERNOTIFY
350
70973
  3
LIGHTINGUNITS
350
70971
  3
MSLTSCALE
350
70970
  3
PROJECTNAME
350
5F318
  3
SORTENTS
350
233
  0
DICTIONARY
  5
7098E
102
{ACAD_REACTORS
330
C
102
}
330
C
100
AcDbDictionary
281
     1
  3
AcDsRecords
350
70990
  3
AcDsSchemas
350
7098F
1001
ACAD
1070
     2
  0
DICTIONARY
  5
708C0
102
{ACAD_REACTORS
330
C
102
}
330
C
100
AcDbDictionary
281
     1
  0
DICTIONARY
  5
70910
102
{ACAD_REACTORS
330
2687
102
}
330
2687
100
AcDbDictionary
281
     1
  3
AM
350
70912
  3
BOLLINI
350
7091C
  3
D
350
7091E
  3
gig
350
70920
  3
INVISIBLE
350
70922
  3
PRIMO
350
70924
  3
quote
350
70926
  3
tavola
350
70914
  3
te
350
70916
  3
TRATTI_N
350
70918
  3
xx
350
7091A
  0
DICTIONARY
  5
552EB
102
{ACAD_REACTORS
330
2687
102
}
330
2687
100
AcDbDictionary
281
     1
  0
DICTIONARY
  5
7090F
102
{ACAD_REACTORS
330
2687
102
}
330
2687
100
AcDbDictionary
281
     1
  3
*A1
350
70911
  3
*A10
350
70917
  3
*A11
350
70919
  3
*A2
350
7091B
  3
*A3
350
7091D
  3
*A4
350
7091F
  3
*A5
350
70921
  3
*A6
350
70923
  3
*A7
350
70925
  3
*A8
350
70913
  3
*A9
350
70915
1001
ACAD
1000
<All
  0
XRECORD
  5
70884
102
{ACAD_REACTORS
330
70883
102
}
330
70883
100
AcDbXrecord
280
     1
290
     1
  0
XRECORD
  5
70886
102
{ACAD_REACTORS
330
70885
102
}
330
70885
100
AcDbXrecord
280
     1
290
     1
  0
XRECORD
  5
70888
102
{ACAD_REACTORS
330
70887
102
}
330
70887
100
AcDbXrecord
280
     1
290
     1
  0
XRECORD
  5
7088A
102
{ACAD_REACTORS
330
70889
102
}
330
70889
100
AcDbXrecord
280
     1
290
     1
  0
XRECORD
  5
7088C
102
{ACAD_REACTORS
330
7088B
102
}
330
7088B
100
AcDbXrecord
280
     1
290
     1
  0
XRECORD
  5
7088E
102
{ACAD_REACTORS
330
7088D
102
}
330
7088D
100
AcDbXrecord
280
     1
290
     1
  0
XRECORD
  5
70890
102
{ACAD_REACTORS
330
7088F
102
}
330
7088F
100
AcDbXrecord
280
     1
290
     1
  0
SORTENTSTABLE
  5
3F7
102
{ACAD_REACTORS
330
3F6
102
}
330
3F6
100
AcDbSortentsTable
330
18
331
6E283
  5
6E285
331
6E284
  5
6E286
331
6E285
  5
6E287
331
6E286
  5
6E288
331
6E287
  5
6E289
331
6E288
  5
6E28A
331
6E289
  5
6E28B
331
6E28A
  5
6E28C
331
6E28B
  5
6E28D
331
6E28C
  5
6E28E
331
6E28D
  5
6E28F
331
6E28E
  5
6E290
331
6E28F
  5
6E291
331
6E290
  5
6E292
331
6E291
  5
6E293
331
6E292
  5
6E294
331
6E293
  5
6E295
331
6E294
  5
6E296
331
6E295
  5
6E297
331
6E296
  5
6E298
331
6E297
  5
6E299
331
6E298
  5
6E29A
331
6E299
  5
6E29B
331
6E29A
  5
6E29C
331
6E29B
  5
6E29D
331
6E29C
  5
6E29F
331
6E29D
  5
6E2A0
331
6E29E
  5
6E2A1
331
6E29F
  5
6E2A2
331
6E2A0
  5
6E2A3
331
6E2A1
  5
6E2A4
331
6E2A2
  5
6E2A5
331
6E2A3
  5
6E2A6
331
6E2A4
  5
6E2A7
331
6E2A5
  5
6E2A8
331
6E2A6
  5
6E2A9
331
6E2A7
  5
6E2AA
331
6E2A8
  5
6E2AB
331
6E2A9
  5
6E2AC
331
6E2AA
  5
6E2AD
331
6E2AB
  5
6E2AF
331
6E2AC
  5
6E2B0
331
6E2AD
  5
6E2B1
331
6E2AE
  5
6E2B2
331
6E2AF
  5
6E2B3
331
6E2B0
  5
6E2B4
331
6E2B1
  5
6E2B5
331
6E2B2
  5
6E2B6
331
6E2B3
  5
6E2B7
331
6E2B4
  5
6E2B8
331
6E2B5
  5
6E2B9
331
6E2B6
  5
6E2BA
331
6E2B7
  5
6E2BB
331
6E2B8
  5
6E2BC
331
6E2B9
  5
6E2BD
331
6E2BA
  5
6E2BE
331
6E2BB
  5
6E2BF
331
6E2BC
  5
6E2C0
331
6E2BD
  5
6E2C1
331
6E2BE
  5
6E2C2
331
6E2BF
  5
6E2C3
331
6E2C0
  5
6E2C4
331
6E2C1
  5
6E2C5
331
6E2C2
  5
6E2C6
331
6E2C3
  5
6E2C7
331
6E2C4
  5
6E2C8
331
6E2C5
  5
6E2C9
331
6E2C6
  5
6E2CA
331
6E2C7
  5
6E2CB
331
6E2C8
  5
6E2CC
331
6E2C9
  5
6E2CD
331
6E2CA
  5
6E2CE
331
6E2CB
  5
6E2CF
331
6E2CC
  5
6E2D0
331
6E2CD
  5
6E2D1
331
6E2CE
  5
6E2D2
331
6E2CF
  5
6E2D3
331
6E2D0
  5
6E2D4
331
6E2D1
  5
6E2D5
331
6E2D2
  5
6E2D6
331
6E2D3
  5
6E2D7
331
6E2D4
  5
6E2D8
331
6E2D5
  5
6E2D9
331
6E2D6
  5
6E2DA
331
6E2D7
  5
6E2DB
331
6E2D8
  5
6E2DC
331
6E2D9
  5
6E2DD
331
6E2DA
  5
6E2DE
331
6E2DB
  5
6E2DF
331
6E2DC
  5
6E2E0
331
6E2DD
  5
6E2E1
331
6E2DE
  5
6E2E2
331
6E2DF
  5
6E2E3
331
6E2E0
  5
6E2E4
331
6E2E1
  5
6E2E5
331
6E2E2
  5
6E2FE
331
6E2E3
  5
6E2FF
331
6E2E4
  5
6E306
331
6E2E5
  5
6E307
331
6E2FE
  5
6E308
331
6E2FF
  5
6E309
331
6E306
  5
6E30A
331
6E307
  5
6E30B
331
6E308
  5
6E30C
331
6E309
  5
6E30D
331
6E30A
  5
6E30E
331
6E30B
  5
6E30F
331
6E30C
  5
6E310
331
6E30D
  5
6E311
331
6E30E
  5
6E312
331
6E30F
  5
6E313
331
6E310
  5
6E314
331
6E311
  5
6E315
331
6E312
  5
6E316
331
6E313
  5
6E317
331
6E314
  5
6E318
331
6E315
  5
6E319
331
6E316
  5
6E31A
331
6E317
  5
6E31B
331
6E318
  5
6E31C
331
6E319
  5
6E31D
331
6E31A
  5
6E31E
331
6E31B
  5
6E31F
331
6E31C
  5
6E320
331
6E31D
  5
6E321
331
6E31E
  5
6E322
331
6E31F
  5
6E323
331
6E320
  5
6E324
331
6E321
  5
6E325
331
6E322
  5
6E326
331
6E323
  5
6E327
331
6E324
  5
6E328
331
6E325
  5
6E329
331
6E326
  5
6E32A
331
6E327
  5
6E32B
331
6E328
  5
6E32C
331
6E329
  5
6E32D
331
6E32A
  5
6E32E
331
6E32B
  5
6E32F
331
6E32C
  5
6E330
331
6E32D
  5
6E331
331
6E32E
  5
6E332
331
6E32F
  5
6E333
331
6E330
  5
6E334
331
6E331
  5
6E335
331
6E332
  5
6E336
331
6E333
  5
6E337
331
6E334
  5
6E338
331
6E335
  5
6E339
331
6E336
  5
6E33A
331
6E337
  5
6E33B
331
6E338
  5
6E33C
331
6E339
  5
6E33D
331
6E33A
  5
6E33E
331
6E33B
  5
6E33F
331
6E33C
  5
6E340
331
6E33D
  5
6E341
331
6E33E
  5
6E342
331
6E33F
  5
6E343
331
6E340
  5
6E344
331
6E341
  5
6E345
331
6E342
  5
6E346
331
6E343
  5
6E347
331
6E344
  5
6E348
331
6E345
  5
6E349
331
6E346
  5
6E34A
331
6E347
  5
6E34B
331
6E348
  5
6E34C
331
6E349
  5
6E34D
331
6E34A
  5
6E34E
331
6E34B
  5
6E34F
331
6E34C
  5
6E350
331
6E34D
  5
6E351
331
6E34E
  5
6E352
331
6E34F
  5
6E353
331
6E350
  5
6E354
331
6E351
  5
6E355
331
6E352
  5
6E356
331
6E353
  5
6E357
331
6E354
  5
6E358
331
6E355
  5
6E359
331
6E356
  5
6E35A
331
6E357
  5
6E35B
331
6E358
  5
6E35C
331
6E359
  5
6E35D
331
6E35A
  5
6E35E
331
6E35B
  5
6E35F
331
6E35C
  5
6E360
331
6E35D
  5
6E361
331
6E35E
  5
6E362
331
6E35F
  5
6E363
331
6E360
  5
6E364
331
6E361
  5
6E365
331
6E362
  5
6E366
331
6E363
  5
6E367
331
6E364
  5
6E368
331
6E365
  5
6E369
331
6E366
  5
6E36A
331
6E367
  5
6E383
331
6E368
  5
6E384
331
6E369
  5
6E38B
331
6E36A
  5
6E38C
331
6E383
  5
6E38D
331
6E384
  5
6E38E
331
6E38B
  5
6E38F
331
6E38C
  5
6E390
331
6E38D
  5
6E391
331
6E38E
  5
6E392
331
6E38F
  5
6E393
331
6E390
  5
6E394
331
6E391
  5
6E395
331
6E392
  5
6E396
331
6E393
  5
6E397
331
6E394
  5
6E398
331
6E395
  5
6E399
331
6E396
  5
6E39A
331
6E397
  5
6E39B
331
6E398
  5
6E39C
331
6E399
  5
6E39D
331
6E39A
  5
6E39E
331
6E39B
  5
6E39F
331
6E39C
  5
6E3A0
331
6E39D
  5
6E3A1
331
6E39E
  5
6E3A2
331
6E39F
  5
6E3A3
331
6E3A0
  5
6E3A4
331
6E3A1
  5
6E3A5
331
6E3A2
  5
6E3A6
331
6E3A3
  5
6E3A7
331
6E3A4
  5
6E3A8
331
6E3A5
  5
6E3A9
331
6E3A6
  5
6E3AA
331
6E3A7
  5
6E3AB
331
6E3A8
  5
6E3AC
331
6E3A9
  5
6E3AD
331
6E3AA
  5
6E3AE
331
6E3AB
  5
6E3AF
331
6E3AC
  5
6E3B0
331
6E3AD
  5
6E3B1
331
6E3AE
  5
6E3B2
331
6E3AF
  5
6E3B3
331
6E3B0
  5
6E3B4
331
6E3B1
  5
6E3B5
331
6E3B2
  5
6E3B6
331
6E3B3
  5
6E3B7
331
6E3B4
  5
6E3B8
331
6E3B5
  5
6E3B9
331
6E3B6
  5
6E3BA
331
6E3B7
  5
6E3BB
331
6E3B8
  5
6E3BC
331
6E3B9
  5
6E3BD
331
6E3BA
  5
6E3BE
331
6E3BB
  5
6E3BF
331
6E3BC
  5
6E3C0
331
6E3BD
  5
6E3C1
331
6E3BE
  5
6E3C2
331
6E3BF
  5
6E3C3
331
6E3C0
  5
6E3C4
331
6E3C1
  5
6E3C5
331
6E3C2
  5
6E3C6
331
6E3C3
  5
6E3C7
331
6E3C4
  5
6E3C8
331
6E3C5
  5
6E3C9
331
6E3C6
  5
6E3CA
331
6E3C7
  5
6E3CB
331
6E3C8
  5
6E3CC
331
6E3C9
  5
6E3CD
331
6E3CA
  5
6E3CE
331
6E3CB
  5
6E3CF
331
6E3CC
  5
6E3D0
331
6E3CD
  5
6E3D1
331
6E3CE
  5
6E3D2
331
6E3CF
  5
6E3D3
331
6E3D0
  5
6E3D4
331
6E3D1
  5
6E3D5
331
6E3D2
  5
6E3D6
331
6E3D3
  5
6E3D7
331
6E3D4
  5
6E3D8
331
6E3D5
  5
6E3D9
331
6E3D6
  5
6E3DA
331
6E3D7
  5
6E3DB
331
6E3D8
  5
6E3DC
331
6E3DA
  5
6E3DE
331
6E3DB
  5
6E3DF
331
6E3DC
  5
6E3E0
331
6E3DD
  5
6E3E1
331
6E3DE
  5
6E3E2
331
6E3DF
  5
6E3E3
331
6E3E0
  5
6E3E4
331
6E3E1
  5
6E3E5
331
6E3E2
  5
6E3E6
331
6E3E3
  5
6E3E7
331
6E3E4
  5
6E3E8
331
6E3E5
  5
6E3E9
331
6E3E6
  5
6E3EA
331
6E3E7
  5
6E3EB
331
6E3E8
  5
6E3EC
331
6E3E9
  5
6E3ED
331
6E3EA
  5
6E3EE
331
6E3EB
  5
6E3EF
331
6E3EC
  5
6E3F0
331
6E3ED
  5
6E3F1
331
6E3EE
  5
6E3F2
331
6E3EF
  5
6E3F3
331
6E3F0
  5
6E3F4
331
6E3F1
  5
6E3F5
331
6E3F2
  5
6E3F6
331
6E3F3
  5
6E3F7
331
6E3F4
  5
6E3F8
331
6E3F5
  5
6E3F9
331
6E3F6
  5
6E3FA
331
6E3F7
  5
6E3FB
331
6E3F8
  5
6E3FC
331
6E3F9
  5
6E3FD
331
6E3FA
  5
6E3FE
331
6E3FB
  5
6E3FF
331
6E3FC
  5
6E400
331
6E3FD
  5
6E401
331
6E3FE
  5
6E402
331
6E3FF
  5
6E403
331
6E400
  5
6E404
331
6E401
  5
6E405
331
6E402
  5
6E406
331
6E403
  5
6E407
331
6E404
  5
6E408
331
6E405
  5
6E409
331
6E406
  5
6E40A
331
6E407
  5
6E40B
331
6E408
  5
6E40C
331
6E409
  5
6E40D
331
6E40A
  5
6E40E
331
6E40B
  5
6E40F
331
6E40C
  5
6E410
331
6E40D
  5
6E411
331
6E40E
  5
6E412
331
6E40F
  5
6E413
331
6E410
  5
6E414
331
6E411
  5
6E415
331
6E412
  5
6E416
331
6E413
  5
6E417
331
6E414
  5
6E418
331
6E415
  5
6E419
331
6E417
  5
6E41B
331
6E418
  5
6E41C
331
6E419
  5
6E41D
331
6E41A
  5
6E41F
331
6E41B
  5
6E420
331
6E41C
  5
6E421
331
6E41D
  5
6E422
331
6E41E
  5
6E423
331
6E41F
  5
6E425
331
6E420
  5
6E426
331
6E421
  5
6E427
331
6E422
  5
6E428
331
6E423
  5
6E429
331
6E427
  5
6E42D
331
6E431
  5
6E590
331
6E432
  5
6E591
331
6E433
  5
6E596
331
6E58F
  5
6E599
331
6E590
  5
6E59A
331
6E595
  5
6E59B
331
6E596
  5
6E59C
331
6E597
  5
6E59D
331
6E598
  5
6E59E
331
6E599
  5
6E59F
331
6E59A
  5
6E5A0
331
6E59B
  5
6E5A1
331
6E59C
  5
6E5A2
331
6E59D
  5
6E5A3
331
6E59E
  5
6E5A4
331
6E59F
  5
6E5A5
331
6E5A0
  5
6E5A6
331
6E5A1
  5
6E5A7
331
6E5A2
  5
6E5A8
331
6E5A3
  5
6E5A9
331
6E5A4
  5
6E5AA
331
6E5A5
  5
6E5AB
331
6E5A6
  5
6E5AC
331
6E5A7
  5
6E5AD
331
6E5A8
  5
6E5AE
331
6E5A9
  5
6E5AF
331
6E5AA
  5
6E5B0
331
6E5AB
  5
6E5B1
331
6E5AC
  5
6E5B2
331
6E5AD
  5
6E5B3
331
6E5AE
  5
6E5B4
331
6E5AF
  5
6E5B5
331
6E5B0
  5
6E5B6
331
6E5B1
  5
6E5B7
331
6E5B2
  5
6E5B8
331
6E5B3
  5
6E5B9
331
6E5B4
  5
6E5BA
331
6E5B5
  5
6E5BB
331
6E5B6
  5
6E5BC
331
6E5B7
  5
6E5BD
331
6E5B8
  5
6E5BE
331
6E5B9
  5
6E5BF
331
6E5BA
  5
6E5C0
331
6E5BB
  5
6E5C1
331
6E5BC
  5
6E5C2
331
6E5BD
  5
6E5C3
331
6E5BE
  5
6E5C4
331
6E5BF
  5
6E5C5
331
6E5C0
  5
6E5C6
331
6E5C1
  5
6E5C7
331
6E5C2
  5
6E5C8
331
6E5C3
  5
6E5C9
331
6E5C4
  5
6E5CA
331
6E5C5
  5
6E5CB
331
6E5C6
  5
6E5CC
331
6E5C7
  5
6E5CD
331
6E5C8
  5
6E5CE
331
6E5C9
  5
6E5CF
331
6E5CA
  5
6E5D0
331
6E5CB
  5
6E5D1
331
6E5CC
  5
6E5D2
331
6E5CD
  5
6E5D3
331
6E5CE
  5
6E5D4
331
6E5CF
  5
6E5D5
331
6E5D0
  5
6E5D7
331
6E5D1
  5
6E5D9
331
6E5D2
  5
6E5DB
331
6E5D3
  5
6E5DD
331
6E5D4
  5
6E5DE
331
6E5D5
  5
6E5DF
331
6E5D6
  5
6E5E0
331
6E5D7
  5
6E5E1
331
6E5D8
  5
6E5E2
331
6E5D9
  5
6E5E3
331
6E5DA
  5
6E5E5
331
6E5DB
  5
6E5E6
331
6E5DC
  5
6E5E7
331
6E5DD
  5
6E5E8
331
6E5DE
  5
6E5E9
331
6E5DF
  5
6E5EA
331
6E5E0
  5
6E5EB
331
6E5E1
  5
6E5EC
331
6E5E2
  5
6E5ED
331
6E5E3
  5
6E29E
331
6E5E5
  5
6E5EE
331
6E5E6
  5
6E5F0
331
6E5E7
  5
6E5F2
331
6E5E8
  5
6E5F4
331
6E5E9
  5
6E5DC
331
6E5EA
  5
6E5DA
331
6E5EB
  5
6E5EF
331
6E5EC
  5
6E5F1
331
6E5ED
  5
6E5F5
331
6E5EE
  5
6E5F3
331
6E5EF
  5
6E5D8
331
6E5F0
  5
6E5D6
331
6E5F2
  5
6E5F6
331
6E5F3
  5
6E5F7
331
6E5F4
  5
6E5F8
331
6E5F5
  5
6E5F9
331
6E5F6
  5
6E5FA
331
6E5F7
  5
6E5FB
331
6E5F8
  5
6E5FC
331
6E5F9
  5
6E5FD
331
6E5FA
  5
6E5FE
331
6E5FB
  5
6E5FF
331
6E5FC
  5
6E600
331
6E5FD
  5
6E601
331
6E5FE
  5
6E602
331
6E5FF
  5
6E603
331
6E600
  5
6E604
331
6E601
  5
6E605
331
6E602
  5
6E606
331
6E603
  5
6E607
331
6E604
  5
6E608
331
6E605
  5
6E609
331
6E606
  5
6E60A
331
6E607
  5
6E60B
331
6E608
  5
6E60C
331
6E609
  5
6E60D
331
6E60A
  5
6E60E
331
6E60B
  5
6E60F
331
6E60C
  5
6E610
331
6E60D
  5
6E611
331
6E60E
  5
6E612
331
6E60F
  5
6E613
331
6E610
  5
6E614
331
6E611
  5
6E615
331
6E612
  5
6E616
331
6E613
  5
6E617
331
6E614
  5
6E618
331
6E615
  5
6E619
331
6E616
  5
6E61A
331
6E617
  5
6E61B
331
6E618
  5
6E61C
331
6E619
  5
6E61D
331
6E61A
  5
6E61E
331
6E61B
  5
6E61F
331
6E61C
  5
6E620
331
6E61D
  5
6E621
331
6E61E
  5
6E622
331
6E61F
  5
6E623
331
6E620
  5
6E624
331
6E621
  5
6E625
331
6E622
  5
6E626
331
6E623
  5
6E627
331
6E624
  5
6E628
331
6E625
  5
6E629
331
6E626
  5
6E62A
331
6E627
  5
6E62B
331
6E628
  5
6E62C
331
6E629
  5
6E62D
331
6E62A
  5
6E62E
331
6E62B
  5
6E62F
331
6E62C
  5
6E630
331
6E62D
  5
6E631
331
6E62E
  5
6E632
331
6E62F
  5
6E633
331
6E630
  5
6E634
331
6E631
  5
6E635
331
6E632
  5
6E636
331
6E633
  5
6E637
331
6E634
  5
6E638
331
6E635
  5
6E639
331
6E636
  5
6E63A
331
6E637
  5
6E63B
331
6E638
  5
6E63C
331
6E639
  5
6E63D
331
6E63A
  5
6E63E
331
6E63B
  5
6E63F
331
6E63C
  5
6E640
331
6E63D
  5
6E641
331
6E63E
  5
6E642
331
6E63F
  5
6E643
331
6E640
  5
6E644
331
6E641
  5
6E645
331
6E642
  5
6E646
331
6E643
  5
6E647
331
6E644
  5
6E648
331
6E645
  5
6E649
331
6E646
  5
6E64A
331
6E647
  5
6E64B
331
6E648
  5
6E64C
331
6E649
  5
6E64D
331
6E64A
  5
6E64E
331
6E64B
  5
6E64F
331
6E64C
  5
6E650
331
6E64D
  5
6E651
331
6E64E
  5
6E652
331
6E64F
  5
6E653
331
6E650
  5
6E654
331
6E651
  5
6E655
331
6E652
  5
6E656
331
6E653
  5
6E657
331
6EF2E
  5
6E424
331
6EF2F
  5
6E41E
331
70064
  5
70091
331
7007B
  5
70099
331
7007C
  5
7009A
331
7007D
  5
7009B
331
7007E
  5
7009C
331
7007F
  5
7009D
331
70080
  5
7009E
  0
XRECORD
  5
70987
102
{ACAD_REACTORS
330
7094C
102
}
330
7094C
100
AcDbXrecord
280
     1
 40
105288.0
  1
\pxqc;PROCTER FENCING SYSTEMS\PDOUBLE LEAF GATES-WELDED MESH 
  0
ACDBDETAILVIEWSTYLE
  5
70969
102
{ACAD_XDICTIONARY
360
709C7
102
}
102
{ACAD_REACTORS
330
70968
102
}
330
70968
100
AcDbModelDocViewStyle
 70
     0
  3
Imperial24
290
     0
100
AcDbDetailViewStyle
 70
     0
 71
     0
 90
        3
 71
     1
340
F
 62
   256
 40
0.24
340
0
 62
   256
 40
0.24
300

 40
0.36
280
     3
 71
     2
340
14
 90
       25
 62
   256
 71
     3
340
F
 62
   256
 40
0.24
 90
        1
 40
0.75
 90
        1
300
%<\AcVar ViewType \f "%tc1">% %<\AcVar ViewDetailId>%\PSCALE %<\AcVar ViewScale \f "%sn">%
 71
     4
340
14
 90
       25
 62
   256
340
14
 90
       25
 62
   256
280
     0
  0
LAYOUT
  5
1DD6
102
{ACAD_XDICTIONARY
360
552ED
102
}
102
{ACAD_REACTORS
330
1DD3
102
}
330
1DD3
100
AcDbPlotSettings
  1

  2
HP Deskjet 5900 Series
  4
User158
  6

 40
3.174999952316283
 41
3.174999952316283
 42
3.175003051757812
 43
3.17498779296875
 44
215.9000091552734
 45
279.3999938964844
 46
0.0
 47
0.0
 48
0.0
 49
0.0
140
0.0
141
0.0
142
1.0
143
0.0393700787401575
 70
   672
 72
     1
 73
     1
 74
     5
  7
aclt.ctb
 75
     0
147
1.0
 76
     0
 77
     2
 78
   300
148
0.0
149
0.0
100
AcDbLayout
  1
Layout1
 70
     1
 71
     1
 10
-0.1249995194082185
 20
-0.1249999981226884
 11
10.87500024029589
 21
8.375000362321147
 12
0.0
 22
0.0
 32
0.0
 14
1.049591546364645
 24
0.7994995736664699
 34
-0.0015258207003583
 15
9.45031767818352
 25
7.200180384636592
 35
0.0000000349246037
146
0.0
 13
0.0
 23
0.0
 33
0.0
 16
1.0
 26
0.0
 36
0.0
 17
0.0
 27
1.0
 37
0.0
 76
     0
330
15
331
20FE
  0
LAYOUT
  5
1DD5
102
{ACAD_REACTORS
330
1DD3
102
}
330
1DD3
100
AcDbPlotSettings
  1

  2
HP DesignJet 750C Plus (E / A0)
  4
User1644
  6

 40
3.174999952316283
 41
3.174999952316283
 42
3.17498779296875
 43
3.17498779296875
 44
594.0
 45
420.0
 46
0.0
 47
0.0
 48
-55977.76838540039
 49
13192.02544939592
140
-33618.06006876288
141
29253.22453414446
142
1.0
143
38.82799131856053
 70
 11952
 72
     1
 73
     0
 74
     4
  7

 75
     0
147
0.025754615833603
 76
     0
 77
     2
 78
   300
148
55977.76838540039
149
-13192.02544939592
100
AcDbLayout
  1
Model
 70
     1
 71
     0
 10
0.0
 20
0.0
 11
12.0
 21
9.0
 12
0.0
 22
0.0
 32
0.0
 14
0.0
 24
0.0
 34
0.0
 15
0.0
 25
0.0
 35
0.0
146
0.0
 13
0.0
 23
0.0
 33
0.0
 16
1.0
 26
0.0
 36
0.0
 17
0.0
 27
1.0
 37
0.0
 76
     0
330
18
331
70825
  0
MATERIAL
  5
7082F
102
{ACAD_XDICTIONARY
360
70830
102
}
102
{ACAD_REACTORS
330
3C45E
102
}
330
3C45E
100
AcDbMaterial
  1
ByBlock
 72
     0
 43
0.0208333333333333
 43
0.0
 43
0.0
 43
0.0
 43
0.0
 43
0.0208333333333333
 43
0.0
 43
0.0
 43
0.0
 43
0.0
 43
1.0
 43
0.0
 43
0.0
 43
0.0
 43
0.0
 43
1.0
 77
     0
 47
0.0208333333333333
 47
0.0
 47
0.0
 47
0.0
 47
0.0
 47
0.0208333333333333
 47
0.0
 47
0.0
 47
0.0
 47
0.0
 47
1.0
 47
0.0
 47
0.0
 47
0.0
 47
0.0
 47
1.0
171
     0
 49
0.0208333333333333
 49
0.0
 49
0.0
 49
0.0
 49
0.0
 49
0.0208333333333333
 49
0.0
 49
0.0
 49
0.0
 49
0.0
 49
1.0
 49
0.0
 49
0.0
 49
0.0
 49
0.0
 49
1.0
175
     0
142
0.0208333333333333
142
0.0
142
0.0
142
0.0
142
0.0
142
0.0208333333333333
142
0.0
142
0.0
142
0.0
142
0.0
142
1.0
142
0.0
142
0.0
142
0.0
142
0.0
142
1.0
179
     0
144
0.0208333333333333
144
0.0
144
0.0
144
0.0
144
0.0
144
0.0208333333333333
144
0.0
144
0.0
144
0.0
144
0.0
144
1.0
144
0.0
144
0.0
144
0.0
144
0.0
144
1.0
147
0.0208333333333333
147
0.0
147
0.0
147
0.0
147
0.0
147
0.0208333333333333
147
0.0
147
0.0
147
0.0
147
0.0
147
1.0
147
0.0
147
0.0
147
0.0
147
0.0
147
1.0
  0
MATERIAL
  5
70827
102
{ACAD_XDICTIONARY
360
70828
102
}
102
{ACAD_REACTORS
330
3C45E
102
}
330
3C45E
100
AcDbMaterial
  1
ByLayer
 72
     0
 43
0.0208333333333333
 43
0.0
 43
0.0
 43
0.0
 43
0.0
 43
0.0208333333333333
 43
0.0
 43
0.0
 43
0.0
 43
0.0
 43
1.0
 43
0.0
 43
0.0
 43
0.0
 43
0.0
 43
1.0
 77
     0
 47
0.0208333333333333
 47
0.0
 47
0.0
 47
0.0
 47
0.0
 47
0.0208333333333333
 47
0.0
 47
0.0
 47
0.0
 47
0.0
 47
1.0
 47
0.0
 47
0.0
 47
0.0
 47
0.0
 47
1.0
171
     0
 49
0.0208333333333333
 49
0.0
 49
0.0
 49
0.0
 49
0.0
 49
0.0208333333333333
 49
0.0
 49
0.0
 49
0.0
 49
0.0
 49
1.0
 49
0.0
 49
0.0
 49
0.0
 49
0.0
 49
1.0
175
     0
142
0.0208333333333333
142
0.0
142
0.0
142
0.0
142
0.0
142
0.0208333333333333
142
0.0
142
0.0
142
0.0
142
0.0
142
1.0
142
0.0
142
0.0
142
0.0
142
0.0
142
1.0
179
     0
144
0.0208333333333333
144
0.0
144
0.0
144
0.0
144
0.0
144
0.0208333333333333
144
0.0
144
0.0
144
0.0
144
0.0
144
1.0
144
0.0
144
0.0
144
0.0
144
0.0
144
1.0
147
0.0208333333333333
147
0.0
147
0.0
147
0.0
147
0.0
147
0.0208333333333333
147
0.0
147
0.0
147
0.0
147
0.0
147
1.0
147
0.0
147
0.0
147
0.0
147
0.0
147
1.0
  0
MATERIAL
  5
70837
102
{ACAD_XDICTIONARY
360
70838
102
}
102
{ACAD_REACTORS
330
3C45E
102
}
330
3C45E
100
AcDbMaterial
  1
Global
 72
     0
 43
0.0208333333333333
 43
0.0
 43
0.0
 43
0.0
 43
0.0
 43
0.0208333333333333
 43
0.0
 43
0.0
 43
0.0
 43
0.0
 43
1.0
 43
0.0
 43
0.0
 43
0.0
 43
0.0
 43
1.0
 77
     0
 47
0.0208333333333333
 47
0.0
 47
0.0
 47
0.0
 47
0.0
 47
0.0208333333333333
 47
0.0
 47
0.0
 47
0.0
 47
0.0
 47
1.0
 47
0.0
 47
0.0
 47
0.0
 47
0.0
 47
1.0
171
     0
 49
0.0208333333333333
 49
0.0
 49
0.0
 49
0.0
 49
0.0
 49
0.0208333333333333
 49
0.0
 49
0.0
 49
0.0
 49
0.0
 49
1.0
 49
0.0
 49
0.0
 49
0.0
 49
0.0
 49
1.0
175
     0
142
0.0208333333333333
142
0.0
142
0.0
142
0.0
142
0.0
142
0.0208333333333333
142
0.0
142
0.0
142
0.0
142
0.0
142
1.0
142
0.0
142
0.0
142
0.0
142
0.0
142
1.0
179
     0
144
0.0208333333333333
144
0.0
144
0.0
144
0.0
144
0.0
144
0.0208333333333333
144
0.0
144
0.0
144
0.0
144
0.0
144
1.0
144
0.0
144
0.0
144
0.0
144
0.0
144
1.0
147
0.0208333333333333
147
0.0
147
0.0
147
0.0
147
0.0
147
0.0208333333333333
147
0.0
147
0.0
147
0.0
147
0.0
147
1.0
147
0.0
147
0.0
147
0.0
147
0.0
147
1.0
  0
MLEADERSTYLE
  5
70873
102
{ACAD_REACTORS
330
70872
102
}
330
70872
100
AcDbMLeaderStyle
179
     2
170
     2
171
     1
172
     0
 90
        2
 40
0.0
 41
0.0
173
     1
 91
-1056964608
340
12
 92
       -2
290
     1
 42
0.09
291
     1
 43
0.36
  3
Standard
 44
0.18
300

342
F
174
     1
178
     6
175
     1
176
     0
 93
-1056964608
 45
0.18
292
     0
297
     0
 46
0.18
 94
-1056964608
 47
1.0
 49
1.0
140
1.0
293
     1
141
0.0
294
     1
177
     0
142
1.0
295
     0
296
     0
143
0.125
271
     0
272
     9
273
     9
  0
MLINESTYLE
  5
1C
102
{ACAD_REACTORS
330
1B
102
}
330
1B
100
AcDbMlineStyle
  2
STANDARD
 70
     0
  3

 62
   256
 51
90.0
 52
90.0
 71
     2
 49
0.5
 62
   256
  6
BYLAYER
 49
-0.5
 62
   256
  6
BYLAYER
  0
ACDBPLACEHOLDER
  5
1DD2
102
{ACAD_REACTORS
330
1DD1
102
}
330
1DD1
  0
SCALE
  5
70851
102
{ACAD_REACTORS
330
70850
102
}
330
70850
100
AcDbScale
 70
     0
300
1:1
140
1.0
141
1.0
290
     1
  0
SCALE
  5
70852
102
{ACAD_REACTORS
330
70850
102
}
330
70850
100
AcDbScale
 70
     0
300
1:2
140
1.0
141
2.0
290
     0
  0
SCALE
  5
70853
102
{ACAD_REACTORS
330
70850
102
}
330
70850
100
AcDbScale
 70
     0
300
1:4
140
1.0
141
4.0
290
     0
  0
SCALE
  5
70854
102
{ACAD_REACTORS
330
70850
102
}
330
70850
100
AcDbScale
 70
     0
300
1:5
140
1.0
141
5.0
290
     0
  0
SCALE
  5
70855
102
{ACAD_REACTORS
330
70850
102
}
330
70850
100
AcDbScale
 70
     0
300
1:8
140
1.0
141
8.0
290
     0
  0
SCALE
  5
70856
102
{ACAD_REACTORS
330
70850
102
}
330
70850
100
AcDbScale
 70
     0
300
1:10
140
1.0
141
10.0
290
     0
  0
SCALE
  5
70857
102
{ACAD_REACTORS
330
70850
102
}
330
70850
100
AcDbScale
 70
     0
300
1:16
140
1.0
141
16.0
290
     0
  0
SCALE
  5
70858
102
{ACAD_REACTORS
330
70850
102
}
330
70850
100
AcDbScale
 70
     0
300
1:20
140
1.0
141
20.0
290
     0
  0
SCALE
  5
70859
102
{ACAD_REACTORS
330
70850
102
}
330
70850
100
AcDbScale
 70
     0
300
1:30
140
1.0
141
30.0
290
     0
  0
SCALE
  5
7085A
102
{ACAD_REACTORS
330
70850
102
}
330
70850
100
AcDbScale
 70
     0
300
1:40
140
1.0
141
40.0
290
     0
  0
SCALE
  5
7085B
102
{ACAD_REACTORS
330
70850
102
}
330
70850
100
AcDbScale
 70
     0
300
1:50
140
1.0
141
50.0
290
     0
  0
SCALE
  5
7085C
102
{ACAD_REACTORS
330
70850
102
}
330
70850
100
AcDbScale
 70
     0
300
1:100
140
1.0
141
100.0
290
     0
  0
SCALE
  5
7085D
102
{ACAD_REACTORS
330
70850
102
}
330
70850
100
AcDbScale
 70
     0
300
2:1
140
2.0
141
1.0
290
     0
  0
SCALE
  5
7085E
102
{ACAD_REACTORS
330
70850
102
}
330
70850
100
AcDbScale
 70
     0
300
4:1
140
4.0
141
1.0
290
     0
  0
SCALE
  5
7085F
102
{ACAD_REACTORS
330
70850
102
}
330
70850
100
AcDbScale
 70
     0
300
8:1
140
8.0
141
1.0
290
     0
  0
SCALE
  5
70860
102
{ACAD_REACTORS
330
70850
102
}
330
70850
100
AcDbScale
 70
     0
300
10:1
140
10.0
141
1.0
290
     0
  0
SCALE
  5
70861
102
{ACAD_REACTORS
330
70850
102
}
330
70850
100
AcDbScale
 70
     0
300
100:1
140
100.0
141
1.0
290
     0
  0
SCALE
  5
70862
102
{ACAD_REACTORS
330
70850
102
}
330
70850
100
AcDbScale
 70
     0
300
1/128" = 1'-0"
140
0.0078125
141
12.0
290
     0
  0
SCALE
  5
70863
102
{ACAD_REACTORS
330
70850
102
}
330
70850
100
AcDbScale
 70
     0
300
1/64" = 1'-0"
140
0.015625
141
12.0
290
     0
  0
SCALE
  5
70864
102
{ACAD_REACTORS
330
70850
102
}
330
70850
100
AcDbScale
 70
     0
300
1/32" = 1'-0"
140
0.03125
141
12.0
290
     0
  0
SCALE
  5
70865
102
{ACAD_REACTORS
330
70850
102
}
330
70850
100
AcDbScale
 70
     0
300
1/16" = 1'-0"
140
0.0625
141
12.0
290
     0
  0
SCALE
  5
70866
102
{ACAD_REACTORS
330
70850
102
}
330
70850
100
AcDbScale
 70
     0
300
3/32" = 1'-0"
140
0.09375
141
12.0
290
     0
  0
SCALE
  5
70867
102
{ACAD_REACTORS
330
70850
102
}
330
70850
100
AcDbScale
 70
     0
300
1/8" = 1'-0"
140
0.125
141
12.0
290
     0
  0
SCALE
  5
70868
102
{ACAD_REACTORS
330
70850
102
}
330
70850
100
AcDbScale
 70
     0
300
3/16" = 1'-0"
140
0.1875
141
12.0
290
     0
  0
SCALE
  5
70869
102
{ACAD_REACTORS
330
70850
102
}
330
70850
100
AcDbScale
 70
     0
300
1/4" = 1'-0"
140
0.25
141
12.0
290
     0
  0
SCALE
  5
7086A
102
{ACAD_REACTORS
330
70850
102
}
330
70850
100
AcDbScale
 70
     0
300
3/8" = 1'-0"
140
0.375
141
12.0
290
     0
  0
SCALE
  5
7086B
102
{ACAD_REACTORS
330
70850
102
}
330
70850
100
AcDbScale
 70
     0
300
1/2" = 1'-0"
140
0.5
141
12.0
290
     0
  0
SCALE
  5
7086C
102
{ACAD_REACTORS
330
70850
102
}
330
70850
100
AcDbScale
 70
     0
300
3/4" = 1'-0"
140
0.75
141
12.0
290
     0
  0
SCALE
  5
7086D
102
{ACAD_REACTORS
330
70850
102
}
330
70850
100
AcDbScale
 70
     0
300
1" = 1'-0"
140
1.0
141
12.0
290
     0
  0
SCALE
  5
7086E
102
{ACAD_REACTORS
330
70850
102
}
330
70850
100
AcDbScale
 70
     0
300
1-1/2" = 1'-0"
140
1.5
141
12.0
290
     0
  0
SCALE
  5
7086F
102
{ACAD_REACTORS
330
70850
102
}
330
70850
100
AcDbScale
 70
     0
300
3" = 1'-0"
140
3.0
141
12.0
290
     0
  0
SCALE
  5
70870
102
{ACAD_REACTORS
330
70850
102
}
330
70850
100
AcDbScale
 70
     0
300
6" = 1'-0"
140
6.0
141
12.0
290
     0
  0
SCALE
  5
70871
102
{ACAD_REACTORS
330
70850
102
}
330
70850
100
AcDbScale
 70
     0
300
1'-0" = 1'-0"
140
12.0
141
12.0
290
     0
  0
ACDBSECTIONVIEWSTYLE
  5
70967
102
{ACAD_XDICTIONARY
360
709C5
102
}
102
{ACAD_REACTORS
330
70966
102
}
330
70966
100
AcDbModelDocViewStyle
 70
     0
  3
Imperial24
290
     0
100
AcDbSectionViewStyle
 70
     0
 71
     0
 90
       78
 71
     1
340
F
 62
   256
 40
0.24
340
0
340
0
 62
   256
 40
0.24
300
I, O, Q, S, X, Z
 40
0.48
 90
        3
 40
0.18
 90
        1
 71
     2
340
14
 90
       25
 62
   256
340
14
 90
       50
 62
   256
 40
0.24
 40
0.0
 40
0.24
 71
     3
340
F
 62
   256
 40
0.24
 90
        1
 40
0.75
 90
        1
300
%<\AcVar ViewType \f "%tc1">% %<\AcVar ViewSectionStartId>%-%<\AcVar ViewSectionEndId>%\PSCALE %<\AcVar ViewScale \f "%sn">%
 71
     4
 62
   256
 62
   257
300
ANSI31
 40
1.0
 90
        0
290
     0
290
     0
 90
        6
 40
0.0
 40
1.570796326794896
 40
0.2617993877991494
 40
1.308996938995747
 40
-0.2617993877991494
 40
1.832595714594045
  0
TABLESTYLE
  5
3C461
102
{ACAD_XDICTIONARY
360
70927
102
}
102
{ACAD_REACTORS
330
3C460
102
}
330
3C460
100
AcDbTableStyle
280
     0
  3
Standard
 70
     0
 71
     0
 40
0.06
 41
0.06
280
     0
281
     0
  7
STANDARD
140
0.18
170
     2
 62
     0
 63
     7
283
     0
 90
        4
 91
        0
  1

274
    -2
284
     1
 64
     0
275
    -2
285
     1
 65
     0
276
    -2
286
     1
 66
     0
277
    -2
287
     1
 67
     0
278
    -2
288
     1
 68
     0
279
    -2
289
     1
 69
     0
  7
STANDARD
140
0.25
170
     5
 62
     0
 63
     7
283
     0
 90
        4
 91
        0
  1

274
    -2
284
     1
 64
     0
275
    -2
285
     1
 65
     0
276
    -2
286
     1
 66
     0
277
    -2
287
     1
 67
     0
278
    -2
288
     1
 68
     0
279
    -2
289
     1
 69
     0
  7
STANDARD
140
0.18
170
     5
 62
     0
 63
     7
283
     0
 90
        4
 91
        0
  1

274
    -2
284
     1
 64
     0
275
    -2
285
     1
 65
     0
276
    -2
286
     1
 66
     0
277
    -2
287
     1
 67
     0
278
    -2
288
     1
 68
     0
279
    -2
289
     1
 69
     0
  0
VISUALSTYLE
  5
70845
102
{ACAD_XDICTIONARY
360
7099B
102
}
102
{ACAD_REACTORS
330
7083F
102
}
330
7083F
100
AcDbVisualStyle
  2
2dWireframe
 70
     4
177
     2
291
     0
 71
     0
176
     1
 72
     2
176
     1
 73
     0
176
     1
 90
        0
176
     1
 40
0.6
176
     1
 41
30.0
176
     1
 63
     7
176
     1
 74
     1
176
     1
 91
        4
176
     1
 64
     7
176
     1
 65
   257
176
     1
 75
     1
176
     1
175
     1
176
     1
 42
1.0
176
     1
 92
        0
176
     1
 66
   257
176
     1
 43
1.0
176
     1
 76
     1
176
     1
 77
     6
176
     1
 78
     2
176
     1
 67
     7
176
     1
 79
     5
176
     1
170
     0
176
     1
171
     0
176
     1
290
     0
176
     1
 93
        1
176
     1
 44
0.0
176
     1
173
     0
176
     1
1001
ACAD
1000
AcDbSavedByObjectVersion
1070
     0
  0
VISUALSTYLE
  5
70847
102
{ACAD_XDICTIONARY
360
7099F
102
}
102
{ACAD_REACTORS
330
7083F
102
}
330
7083F
100
AcDbVisualStyle
  2
3D Hidden
 70
     6
177
     2
291
     0
 71
     1
176
     1
 72
     2
176
     1
 73
     2
176
     1
 90
        0
176
     1
 40
0.6
176
     1
 41
30.0
176
     1
 63
     7
176
     1
 74
     2
176
     1
 91
        2
176
     1
 64
     7
176
     1
 65
   257
176
     1
 75
     2
176
     1
175
     1
176
     1
 42
40.0
176
     1
 92
        0
176
     1
 66
   257
176
     1
 43
1.0
176
     1
 76
     1
176
     1
 77
     6
176
     1
 78
     2
176
     1
 67
     7
176
     1
 79
     3
176
     1
170
     0
176
     1
171
     0
176
     1
290
     0
176
     1
 93
        1
176
     1
 44
0.0
176
     1
173
     0
176
     1
1001
ACAD
1000
AcDbSavedByObjectVersion
1070
     0
  0
VISUALSTYLE
  5
70846
102
{ACAD_XDICTIONARY
360
7099D
102
}
102
{ACAD_REACTORS
330
7083F
102
}
330
7083F
100
AcDbVisualStyle
  2
3dWireframe
 70
     5
177
     2
291
     0
 71
     0
176
     1
 72
     2
176
     1
 73
     0
176
     1
 90
        0
176
     1
 40
0.6
176
     1
 41
30.0
176
     1
 63
     7
176
     1
 74
     1
176
     1
 91
        4
176
     1
 64
     7
176
     1
 65
   257
176
     1
 75
     1
176
     1
175
     1
176
     1
 42
1.0
176
     1
 92
        0
176
     1
 66
   257
176
     1
 43
1.0
176
     1
 76
     1
176
     1
 77
     6
176
     1
 78
     2
176
     1
 67
     7
176
     1
 79
     5
176
     1
170
     0
176
     1
171
     0
176
     1
290
     0
176
     1
 93
        1
176
     1
 44
0.0
176
     1
173
     0
176
     1
1001
ACAD
1000
AcDbSavedByObjectVersion
1070
     0
  0
VISUALSTYLE
  5
70844
102
{ACAD_XDICTIONARY
360
70999
102
}
102
{ACAD_REACTORS
330
7083F
102
}
330
7083F
100
AcDbVisualStyle
  2
Basic
 70
     7
177
     2
291
     1
 71
     1
176
     1
 72
     0
176
     1
 73
     1
176
     1
 90
        0
176
     1
 40
0.6
176
     1
 41
30.0
176
     1
 63
     7
176
     1
 74
     0
176
     1
 91
        4
176
     1
 64
     7
176
     1
 65
   257
176
     1
 75
     1
176
     1
175
     1
176
     1
 42
1.0
176
     1
 92
        8
176
     1
 66
     7
176
     1
 43
1.0
176
     1
 76
     1
176
     1
 77
     6
176
     1
 78
     2
176
     1
 67
     7
176
     1
 79
     5
176
     1
170
     0
176
     1
171
     0
176
     1
290
     0
176
     1
 93
        1
176
     1
 44
0.0
176
     1
173
     0
176
     1
1001
ACAD
1000
AcDbSavedByObjectVersion
1070
     0
  0
VISUALSTYLE
  5
7084B
102
{ACAD_XDICTIONARY
360
709A7
102
}
102
{ACAD_REACTORS
330
7083F
102
}
330
7083F
100
AcDbVisualStyle
  2
Brighten
 70
    12
177
     2
291
     1
 71
     2
176
     1
 72
     2
176
     1
 73
     0
176
     1
 90
        0
176
     1
 40
0.6
176
     1
 41
30.0
176
     1
 63
     7
176
     1
 74
     1
176
     1
 91
        4
176
     1
 64
     7
176
     1
 65
   257
176
     1
 75
     1
176
     1
175
     1
176
     1
 42
1.0
176
     1
 92
        8
176
     1
 66
     7
176
     1
 43
1.0
176
     1
 76
     1
176
     1
 77
     6
176
     1
 78
     2
176
     1
 67
     7
176
     1
 79
     5
176
     1
170
     0
176
     1
171
     0
176
     1
290
     0
176
     1
 93
        1
176
     1
 44
50.0
176
     1
173
     0
176
     1
1001
ACAD
1000
AcDbSavedByObjectVersion
1070
     0
  0
VISUALSTYLE
  5
7084F
102
{ACAD_XDICTIONARY
360
709AF
102
}
102
{ACAD_REACTORS
330
7083F
102
}
330
7083F
100
AcDbVisualStyle
  2
ColorChange
 70
    16
177
     2
291
     1
 71
     2
176
     1
 72
     2
176
     1
 73
     3
176
     1
 90
        0
176
     1
 40
0.6
176
     1
 41
30.0
176
     1
 63
     8
176
     1
 74
     1
176
     1
 91
        4
176
     1
 64
     7
176
     1
 65
   257
176
     1
 75
     1
176
     1
175
     1
176
     1
 42
1.0
176
     1
 92
        8
176
     1
 66
     8
176
     1
 43
1.0
176
     1
 76
     1
176
     1
 77
     6
176
     1
 78
     2
176
     1
 67
     7
176
     1
 79
     5
176
     1
170
     0
176
     1
171
     0
176
     1
290
     0
176
     1
 93
        1
176
     1
 44
0.0
176
     1
173
     0
176
     1
1001
ACAD
1000
AcDbSavedByObjectVersion
1070
     0
  0
VISUALSTYLE
  5
70848
102
{ACAD_XDICTIONARY
360
709A1
102
}
102
{ACAD_REACTORS
330
7083F
102
}
330
7083F
100
AcDbVisualStyle
  2
Conceptual
 70
     9
177
     2
291
     0
 71
     3
176
     1
 72
     2
176
     1
 73
     0
176
     1
 90
        0
176
     1
 40
0.6
176
     1
 41
30.0
176
     1
 63
     7
176
     1
 74
     2
176
     1
 91
        2
176
     1
 64
     7
176
     1
 65
   257
176
     1
 75
     1
176
     1
175
     1
176
     1
 42
40.0
176
     1
 92
        8
176
     1
 66
     7
176
     1
 43
1.0
176
     1
 76
     1
176
     1
 77
     6
176
     1
 78
     2
176
     1
 67
     7
176
     1
 79
     3
176
     1
170
     0
176
     1
171
     0
176
     1
290
     0
176
     1
 93
        1
176
     1
 44
0.0
176
     1
173
     0
176
     1
1001
ACAD
1000
AcDbSavedByObjectVersion
1070
     0
  0
VISUALSTYLE
  5
7084A
102
{ACAD_XDICTIONARY
360
709A5
102
}
102
{ACAD_REACTORS
330
7083F
102
}
330
7083F
100
AcDbVisualStyle
  2
Dim
 70
    11
177
     2
291
     1
 71
     2
176
     1
 72
     2
176
     1
 73
     0
176
     1
 90
        0
176
     1
 40
0.6
176
     1
 41
30.0
176
     1
 63
     7
176
     1
 74
     1
176
     1
 91
        4
176
     1
 64
     7
176
     1
 65
   257
176
     1
 75
     1
176
     1
175
     1
176
     1
 42
1.0
176
     1
 92
        8
176
     1
 66
     7
176
     1
 43
1.0
176
     1
 76
     1
176
     1
 77
     6
176
     1
 78
     2
176
     1
 67
     7
176
     1
 79
     5
176
     1
170
     0
176
     1
171
     0
176
     1
290
     0
176
     1
 93
        1
176
     1
 44
-50.0
176
     1
173
     0
176
     1
1001
ACAD
1000
AcDbSavedByObjectVersion
1070
     0
  0
VISUALSTYLE
  5
70965
102
{ACAD_XDICTIONARY
360
709C3
102
}
102
{ACAD_REACTORS
330
7083F
102
}
330
7083F
100
AcDbVisualStyle
  2
EdgeColorOff
 70
    22
177
     2
291
     1
 71
     2
176
     0
 72
     2
176
     0
 73
     0
176
     0
 90
        0
176
     0
 40
0.6
176
     0
 41
30.0
176
     0
 63
     7
421
 16777215
176
     0
 74
     1
176
     0
 91
        4
176
     0
 64
     7
176
     0
 65
   257
176
     0
 75
     1
176
     0
175
     1
176
     0
 42
1.0
176
     0
 92
        8
176
     2
 66
     7
176
     0
 43
1.0
176
     0
 76
     1
176
     0
 77
     6
176
     0
 78
     2
176
     0
 67
     7
176
     0
 79
     5
176
     0
170
     0
176
     0
171
     0
176
     0
290
     0
176
     0
 93
        1
176
     0
 44
0.0
176
     0
173
     0
176
     0
1001
ACAD
1000
AcDbSavedByObjectVersion
1070
     0
  0
VISUALSTYLE
  5
7084E
102
{ACAD_XDICTIONARY
360
709AD
102
}
102
{ACAD_REACTORS
330
7083F
102
}
330
7083F
100
AcDbVisualStyle
  2
Facepattern
 70
    15
177
     2
291
     1
 71
     2
176
     1
 72
     2
176
     1
 73
     0
176
     1
 90
        0
176
     1
 40
0.6
176
     1
 41
30.0
176
     1
 63
     7
176
     1
 74
     1
176
     1
 91
        4
176
     1
 64
     7
176
     1
 65
   257
176
     1
 75
     1
176
     1
175
     1
176
     1
 42
1.0
176
     1
 92
        8
176
     1
 66
     7
176
     1
 43
1.0
176
     1
 76
     1
176
     1
 77
     6
176
     1
 78
     2
176
     1
 67
     7
176
     1
 79
     5
176
     1
170
     0
176
     1
171
     0
176
     1
290
     0
176
     1
 93
        1
176
     1
 44
0.0
176
     1
173
     0
176
     1
1001
ACAD
1000
AcDbSavedByObjectVersion
1070
     0
  0
VISUALSTYLE
  5
70840
102
{ACAD_XDICTIONARY
360
70991
102
}
102
{ACAD_REACTORS
330
7083F
102
}
330
7083F
100
AcDbVisualStyle
  2
Flat
 70
     0
177
     2
291
     1
 71
     2
176
     1
 72
     1
176
     1
 73
     1
176
     1
 90
        2
176
     1
 40
0.6
176
     1
 41
30.0
176
     1
 63
     7
176
     1
 74
     0
176
     1
 91
        4
176
     1
 64
     7
176
     1
 65
   257
176
     1
 75
     1
176
     1
175
     1
176
     1
 42
1.0
176
     1
 92
        8
176
     1
 66
     7
176
     1
 43
1.0
176
     1
 76
     1
176
     1
 77
     6
176
     1
 78
     2
176
     1
 67
     7
176
     1
 79
     5
176
     1
170
     0
176
     1
171
     0
176
     1
290
     0
176
     1
 93
       13
176
     1
 44
0.0
176
     1
173
     0
176
     1
1001
ACAD
1000
AcDbSavedByObjectVersion
1070
     0
  0
VISUALSTYLE
  5
70841
102
{ACAD_XDICTIONARY
360
70993
102
}
102
{ACAD_REACTORS
330
7083F
102
}
330
7083F
100
AcDbVisualStyle
  2
FlatWithEdges
 70
     1
177
     2
291
     1
 71
     2
176
     1
 72
     1
176
     1
 73
     1
176
     1
 90
        2
176
     1
 40
0.6
176
     1
 41
30.0
176
     1
 63
     7
176
     1
 74
     1
176
     1
 91
        4
176
     1
 64
     7
176
     1
 65
   257
176
     1
 75
     1
176
     1
175
     1
176
     1
 42
1.0
176
     1
 92
        0
176
     1
 66
   257
176
     1
 43
1.0
176
     1
 76
     1
176
     1
 77
     6
176
     1
 78
     2
176
     1
 67
     7
176
     1
 79
     5
176
     1
170
     0
176
     1
171
     0
176
     1
290
     0
176
     1
 93
       13
176
     1
 44
0.0
176
     1
173
     0
176
     1
1001
ACAD
1000
AcDbSavedByObjectVersion
1070
     0
  0
VISUALSTYLE
  5
70842
102
{ACAD_XDICTIONARY
360
70995
102
}
102
{ACAD_REACTORS
330
7083F
102
}
330
7083F
100
AcDbVisualStyle
  2
Gouraud
 70
     2
177
     2
291
     1
 71
     2
176
     1
 72
     2
176
     1
 73
     1
176
     1
 90
        2
176
     1
 40
0.6
176
     1
 41
30.0
176
     1
 63
     7
176
     1
 74
     0
176
     1
 91
        4
176
     1
 64
     7
176
     1
 65
   257
176
     1
 75
     1
176
     1
175
     1
176
     1
 42
1.0
176
     1
 92
        0
176
     1
 66
     7
176
     1
 43
1.0
176
     1
 76
     1
176
     1
 77
     6
176
     1
 78
     2
176
     1
 67
     7
176
     1
 79
     5
176
     1
170
     0
176
     1
171
     0
176
     1
290
     0
176
     1
 93
       13
176
     1
 44
0.0
176
     1
173
     0
176
     1
1001
ACAD
1000
AcDbSavedByObjectVersion
1070
     0
  0
VISUALSTYLE
  5
70843
102
{ACAD_XDICTIONARY
360
70997
102
}
102
{ACAD_REACTORS
330
7083F
102
}
330
7083F
100
AcDbVisualStyle
  2
GouraudWithEdges
 70
     3
177
     2
291
     1
 71
     2
176
     1
 72
     2
176
     1
 73
     1
176
     1
 90
        2
176
     1
 40
0.6
176
     1
 41
30.0
176
     1
 63
     7
176
     1
 74
     1
176
     1
 91
        4
176
     1
 64
     7
176
     1
 65
   257
176
     1
 75
     1
176
     1
175
     1
176
     1
 42
1.0
176
     1
 92
        0
176
     1
 66
   257
176
     1
 43
1.0
176
     1
 76
     1
176
     1
 77
     6
176
     1
 78
     2
176
     1
 67
     7
176
     1
 79
     5
176
     1
170
     0
176
     1
171
     0
176
     1
290
     0
176
     1
 93
       13
176
     1
 44
0.0
176
     1
173
     0
176
     1
1001
ACAD
1000
AcDbSavedByObjectVersion
1070
     0
  0
VISUALSTYLE
  5
7095D
102
{ACAD_XDICTIONARY
360
709B3
102
}
102
{ACAD_REACTORS
330
7083F
102
}
330
7083F
100
AcDbVisualStyle
  2
Hidden
 70
     6
177
     2
291
     0
 71
     1
176
     1
 72
     2
176
     1
 73
     2
176
     1
 90
        0
176
     1
 40
0.6
176
     1
 41
30.0
176
     1
 63
     7
421
 16777215
176
     1
 74
     2
176
     1
 91
        2
176
     1
 64
     7
176
     1
 65
   257
176
     1
 75
     2
176
     1
175
     1
176
     1
 42
40.0
176
     1
 92
        0
176
     1
 66
   257
176
     1
 43
1.0
176
     1
 76
     1
176
     1
 77
     6
176
     1
 78
     2
176
     1
 67
     7
176
     1
 79
     3
176
     1
170
     0
176
     1
171
     0
176
     1
290
     0
176
     1
 93
        1
176
     1
 44
0.0
176
     1
173
     0
176
     1
1001
ACAD
1000
AcDbSavedByObjectVersion
1070
     0
  0
VISUALSTYLE
  5
70963
102
{ACAD_XDICTIONARY
360
709BF
102
}
102
{ACAD_REACTORS
330
7083F
102
}
330
7083F
100
AcDbVisualStyle
  2
JitterOff
 70
    20
177
     2
291
     1
 71
     2
176
     0
 72
     2
176
     0
 73
     0
176
     0
 90
        0
176
     0
 40
0.6
176
     0
 41
30.0
176
     0
 63
     7
421
 16777215
176
     0
 74
     1
176
     0
 91
        4
176
     0
 64
     7
176
     0
 65
   257
176
     0
 75
     1
176
     0
175
     1
176
     0
 42
1.0
176
     0
 92
       10
176
     2
 66
     7
176
     0
 43
1.0
176
     0
 76
     1
176
     0
 77
     6
176
     0
 78
     2
176
     0
 67
     7
176
     0
 79
     5
176
     0
170
     0
176
     0
171
     0
176
     0
290
     0
176
     0
 93
        1
176
     0
 44
0.0
176
     0
173
     0
176
     0
1001
ACAD
1000
AcDbSavedByObjectVersion
1070
     0
  0
VISUALSTYLE
  5
7084D
102
{ACAD_XDICTIONARY
360
709AB
102
}
102
{ACAD_REACTORS
330
7083F
102
}
330
7083F
100
AcDbVisualStyle
  2
Linepattern
 70
    14
177
     2
291
     1
 71
     2
176
     1
 72
     2
176
     1
 73
     0
176
     1
 90
        0
176
     1
 40
0.6
176
     1
 41
30.0
176
     1
 63
     7
176
     1
 74
     1
176
     1
 91
        4
176
     1
 64
     7
176
     1
 65
   257
176
     1
 75
     7
176
     1
175
     7
176
     1
 42
1.0
176
     1
 92
        8
176
     1
 66
     7
176
     1
 43
1.0
176
     1
 76
     1
176
     1
 77
     6
176
     1
 78
     2
176
     1
 67
     7
176
     1
 79
     5
176
     1
170
     0
176
     1
171
     0
176
     1
290
     0
176
     1
 93
        1
176
     1
 44
0.0
176
     1
173
     0
176
     1
1001
ACAD
1000
AcDbSavedByObjectVersion
1070
     0
  0
VISUALSTYLE
  5
70964
102
{ACAD_XDICTIONARY
360
709C1
102
}
102
{ACAD_REACTORS
330
7083F
102
}
330
7083F
100
AcDbVisualStyle
  2
OverhangOff
 70
    21
177
     2
291
     1
 71
     2
176
     0
 72
     2
176
     0
 73
     0
176
     0
 90
        0
176
     0
 40
0.6
176
     0
 41
30.0
176
     0
 63
     7
421
 16777215
176
     0
 74
     1
176
     0
 91
        4
176
     0
 64
     7
176
     0
 65
   257
176
     0
 75
     1
176
     0
175
     1
176
     0
 42
1.0
176
     0
 92
        9
176
     2
 66
     7
176
     0
 43
1.0
176
     0
 76
     1
176
     0
 77
     6
176
     0
 78
     2
176
     0
 67
     7
176
     0
 79
     5
176
     0
170
     0
176
     0
171
     0
176
     0
290
     0
176
     0
 93
        1
176
     0
 44
0.0
176
     0
173
     0
176
     0
1001
ACAD
1000
AcDbSavedByObjectVersion
1070
     0
  0
VISUALSTYLE
  5
70849
102
{ACAD_XDICTIONARY
360
709A3
102
}
102
{ACAD_REACTORS
330
7083F
102
}
330
7083F
100
AcDbVisualStyle
  2
Realistic
 70
     8
177
     2
291
     0
 71
     2
176
     1
 72
     2
176
     1
 73
     0
176
     1
 90
        0
176
     1
 40
0.6
176
     1
 41
30.0
176
     1
 63
     7
176
     1
 74
     1
176
     1
 91
        0
176
     1
 64
     7
176
     1
 65
   257
176
     1
 75
     1
176
     1
175
     1
176
     1
 42
1.0
176
     1
 92
        8
176
     1
 66
     8
176
     1
 43
1.0
176
     1
 76
     1
176
     1
 77
     6
176
     1
 78
     2
176
     1
 67
     7
176
     1
 79
     5
176
     1
170
     0
176
     1
171
     0
176
     1
290
     0
176
     1
 93
       13
176
     1
 44
0.0
176
     1
173
     0
176
     1
1001
ACAD
1000
AcDbSavedByObjectVersion
1070
     0
  0
VISUALSTYLE
  5
70962
102
{ACAD_XDICTIONARY
360
709BD
102
}
102
{ACAD_REACTORS
330
7083F
102
}
330
7083F
100
AcDbVisualStyle
  2
Shaded
 70
    27
177
     2
291
     0
 71
     2
176
     1
 72
     2
176
     1
 73
     1
176
     1
 90
        2
176
     1
 40
0.6
176
     1
 41
30.0
176
     1
 63
     7
421
 16777215
176
     1
 74
     0
176
     1
 91
        4
176
     1
 64
     7
176
     1
 65
   257
176
     1
 75
     1
176
     1
175
     1
176
     1
 42
1.0
176
     1
 92
        8
176
     1
 66
   257
176
     1
 43
1.0
176
     1
 76
     1
176
     1
 77
     6
176
     1
 78
     2
176
     1
 67
     8
425
  7895160
176
     1
 79
     3
176
     1
170
     0
176
     1
171
     0
176
     1
290
     0
176
     1
 93
        5
176
     1
 44
0.0
176
     1
173
     0
176
     1
1001
ACAD
1000
AcDbSavedByObjectVersion
1070
     0
  0
VISUALSTYLE
  5
70961
102
{ACAD_XDICTIONARY
360
709BB
102
}
102
{ACAD_REACTORS
330
7083F
102
}
330
7083F
100
AcDbVisualStyle
  2
Shaded with edges
 70
    26
177
     2
291
     0
 71
     2
176
     1
 72
     2
176
     1
 73
     1
176
     1
 90
        2
176
     1
 40
0.6
176
     1
 41
30.0
176
     1
 63
     7
421
 16777215
176
     1
 74
     1
176
     1
 91
        2
176
     1
 64
     7
176
     1
 65
   257
176
     1
 75
     2
176
     1
175
     1
176
     1
 42
1.0
176
     1
 92
        8
176
     1
 66
   257
176
     1
 43
1.0
176
     1
 76
     1
176
     1
 77
     6
176
     1
 78
     2
176
     1
 67
     7
176
     1
 79
     3
176
     1
170
     0
176
     1
171
     0
176
     1
290
     0
176
     1
 93
        5
176
     1
 44
0.0
176
     1
173
     0
176
     1
1001
ACAD
1000
AcDbSavedByObjectVersion
1070
     0
  0
VISUALSTYLE
  5
7095E
102
{ACAD_XDICTIONARY
360
709B5
102
}
102
{ACAD_REACTORS
330
7083F
102
}
330
7083F
100
AcDbVisualStyle
  2
Shades of Gray
 70
    23
177
     2
291
     0
 71
     2
176
     1
 72
     2
176
     1
 73
     3
176
     1
 90
        0
176
     1
 40
0.6
176
     1
 41
30.0
176
     1
 63
     7
421
 16777215
176
     1
 74
     2
176
     1
 91
        2
176
     1
 64
     7
176
     1
 65
     7
176
     1
 75
     1
176
     1
175
     1
176
     1
 42
40.0
176
     1
 92
        8
176
     1
 66
     7
176
     1
 43
1.0
176
     1
 76
     1
176
     1
 77
     6
176
     1
 78
     2
176
     1
 67
     7
176
     1
 79
     3
176
     1
170
     0
176
     1
171
     0
176
     1
290
     0
176
     1
 93
        1
176
     1
 44
0.0
176
     1
173
     0
176
     1
1001
ACAD
1000
AcDbSavedByObjectVersion
1070
     0
  0
VISUALSTYLE
  5
7095F
102
{ACAD_XDICTIONARY
360
709B7
102
}
102
{ACAD_REACTORS
330
7083F
102
}
330
7083F
100
AcDbVisualStyle
  2
Sketchy
 70
    24
177
     2
291
     0
 71
     1
176
     1
 72
     2
176
     1
 73
     2
176
     1
 90
        0
176
     1
 40
0.6
176
     1
 41
30.0
176
     1
 63
     7
421
 16777215
176
     1
 74
     2
176
     1
 91
        2
176
     1
 64
     7
176
     1
 65
     7
176
     1
 75
     1
176
     1
175
     1
176
     1
 42
40.0
176
     1
 92
       11
176
     1
 66
     7
176
     1
 43
1.0
176
     1
 76
     1
176
     1
 77
     6
176
     1
 78
     2
176
     1
 67
     7
176
     1
 79
     6
176
     1
170
     0
176
     1
171
     0
176
     1
290
     0
176
     1
 93
        1
176
     1
 44
0.0
176
     1
173
     0
176
     1
1001
ACAD
1000
AcDbSavedByObjectVersion
1070
     0
  0
VISUALSTYLE
  5
7084C
102
{ACAD_XDICTIONARY
360
709A9
102
}
102
{ACAD_REACTORS
330
7083F
102
}
330
7083F
100
AcDbVisualStyle
  2
Thicken
 70
    13
177
     2
291
     1
 71
     2
176
     1
 72
     2
176
     1
 73
     0
176
     1
 90
        0
176
     1
 40
0.6
176
     1
 41
30.0
176
     1
 63
     7
176
     1
 74
     1
176
     1
 91
        4
176
     1
 64
     7
176
     1
 65
   257
176
     1
 75
     1
176
     1
175
     1
176
     1
 42
1.0
176
     1
 92
       12
176
     1
 66
     7
176
     1
 43
1.0
176
     1
 76
     1
176
     1
 77
     6
176
     1
 78
     2
176
     1
 67
     7
176
     1
 79
     5
176
     1
170
     0
176
     1
171
     0
176
     1
290
     0
176
     1
 93
        1
176
     1
 44
0.0
176
     1
173
     0
176
     1
1001
ACAD
1000
AcDbSavedByObjectVersion
1070
     0
  0
VISUALSTYLE
  5
7095C
102
{ACAD_XDICTIONARY
360
709B1
102
}
102
{ACAD_REACTORS
330
7083F
102
}
330
7083F
100
AcDbVisualStyle
  2
Wireframe
 70
     5
177
     2
291
     0
 71
     0
176
     1
 72
     2
176
     1
 73
     0
176
     1
 90
        0
176
     1
 40
0.6
176
     1
 41
30.0
176
     1
 63
     7
421
 16777215
176
     1
 74
     1
176
     1
 91
        4
176
     1
 64
     7
176
     1
 65
   257
176
     1
 75
     1
176
     1
175
     1
176
     1
 42
1.0
176
     1
 92
        0
176
     1
 66
   257
176
     1
 43
1.0
176
     1
 76
     1
176
     1
 77
     6
176
     1
 78
     2
176
     1
 67
     7
176
     1
 79
     3
176
     1
170
     0
176
     1
171
     0
176
     1
290
     0
176
     1
 93
        1
176
     1
 44
0.0
176
     1
173
     0
176
     1
1001
ACAD
1000
AcDbSavedByObjectVersion
1070
     0
  0
VISUALSTYLE
  5
70960
102
{ACAD_XDICTIONARY
360
709B9
102
}
102
{ACAD_REACTORS
330
7083F
102
}
330
7083F
100
AcDbVisualStyle
  2
X-Ray
 70
    25
177
     2
291
     0
 71
     2
176
     1
 72
     2
176
     1
 73
     1
176
     1
 90
        1
176
     1
 40
0.5
176
     1
 41
30.0
176
     1
 63
     7
421
 16777215
176
     1
 74
     1
176
     1
 91
        0
176
     1
 64
     7
176
     1
 65
   257
176
     1
 75
     1
176
     1
175
     1
176
     1
 42
1.0
176
     1
 92
        8
176
     1
 66
     7
176
     1
 43
1.0
176
     1
 76
     1
176
     1
 77
     6
176
     1
 78
     2
176
     1
 67
     7
176
     1
 79
     3
176
     1
170
     0
176
     1
171
     0
176
     1
290
     0
176
     1
 93
       13
176
     1
 44
0.0
176
     1
173
     0
176
     1
1001
ACAD
1000
AcDbSavedByObjectVersion
1070
     0
  0
DICTIONARYVAR
  5
7093D
102
{ACAD_REACTORS
330
232
102
}
330
232
100
DictionaryVariables
280
     0
  1
1:1
  0
DICTIONARYVAR
  5
7093C
102
{ACAD_REACTORS
330
232
102
}
330
232
100
DictionaryVariables
280
     0
  1
STANDARD
  0
DICTIONARYVAR
  5
3C488
102
{ACAD_REACTORS
330
232
102
}
330
232
100
DictionaryVariables
280
     0
  1
STANDARD
  0
DICTIONARYVAR
  5
7096E
102
{ACAD_REACTORS
330
232
102
}
330
232
100
DictionaryVariables
280
     0
  1
Imperial24
  0
DICTIONARYVAR
  5
7096F
102
{ACAD_REACTORS
330
232
102
}
330
232
100
DictionaryVariables
280
     0
  1
Imperial24
  0
DICTIONARYVAR
  5
1578B
102
{ACAD_REACTORS
330
232
102
}
330
232
100
DictionaryVariables
280
     0
  1
1
  0
DICTIONARYVAR
  5
7093E
102
{ACAD_REACTORS
330
232
102
}
330
232
100
DictionaryVariables
280
     0
  1
0
  0
DICTIONARYVAR
  5
70972
102
{ACAD_REACTORS
330
232
102
}
330
232
100
DictionaryVariables
280
     0
  1
1
  0
DICTIONARYVAR
  5
70973
102
{ACAD_REACTORS
330
232
102
}
330
232
100
DictionaryVariables
280
     0
  1
15
  0
DICTIONARYVAR
  5
70971
102
{ACAD_REACTORS
330
232
102
}
330
232
100
DictionaryVariables
280
     0
  1
0
  0
DICTIONARYVAR
  5
70970
102
{ACAD_REACTORS
330
232
102
}
330
232
100
DictionaryVariables
280
     0
  1
0
  0
DICTIONARYVAR
  5
5F318
102
{ACAD_REACTORS
330
232
102
}
330
232
100
DictionaryVariables
280
     0
  1

  0
DICTIONARYVAR
  5
233
102
{ACAD_REACTORS
330
232
102
}
330
232
100
DictionaryVariables
280
     0
  1
1
  0
DICTIONARY
  5
70990
102
{ACAD_REACTORS
330
7098E
102
}
330
7098E
100
AcDbDictionary
281
     1
  0
DICTIONARY
  5
7098F
102
{ACAD_REACTORS
330
7098E
102
}
330
7098E
100
AcDbDictionary
281
     1
  3
2786925429392
350
70989
  3
2786925429408
350
7098A
  3
2786925429424
350
7098B
  3
2786925429440
350
7098C
  3
2786925429456
350
7098D
  0
XRECORD
  5
70912
102
{ACAD_REACTORS
330
70910
102
}
330
70910
100
AcDbXrecord
280
     1
  1
AM
  1
AM*
  1
*
  1
*
 70
     0
  1
*
  1
*
1001
ACAD
1000
( NAME== "AM*" )
  0
XRECORD
  5
7091C
102
{ACAD_REACTORS
330
70910
102
}
330
70910
100
AcDbXrecord
280
     1
  1
BOLLINI
  1
QUOTE
  1
*
  1
*
 70
     0
  1
*
  1
*
1001
ACAD
1000
( NAME== "QUOTE" )
  0
XRECORD
  5
7091E
102
{ACAD_REACTORS
330
70910
102
}
330
70910
100
AcDbXrecord
280
     1
  1
D
  1
*
  1
*
  1
*
 70
     4
  1
*
  1
*
1001
ACAD
1000
FROZEN == "TRUE"
  0
XRECORD
  5
70920
102
{ACAD_REACTORS
330
70910
102
}
330
70910
100
AcDbXrecord
280
     1
  1
gig
  1
*
  1
*
  1
*
 70
     0
  1
*
  1
*
1001
ACAD
1000
NAME=="*"
  0
XRECORD
  5
70922
102
{ACAD_REACTORS
330
70910
102
}
330
70910
100
AcDbXrecord
280
     1
  1
INVISIBLE
  1
*INVI*
  1
*
  1
*
 70
     0
  1
*
  1
*
1001
ACAD
1000
( NAME== "*INVI*" )
  0
XRECORD
  5
70924
102
{ACAD_REACTORS
330
70910
102
}
330
70910
100
AcDbXrecord
280
     1
  1
PRIMO
  1
*NASCOSTA
  1
*
  1
*
 70
     0
  1
*
  1
*
1001
ACAD
1000
( NAME== "*NASCOSTA" )
  0
XRECORD
  5
70926
102
{ACAD_REACTORS
330
70910
102
}
330
70910
100
AcDbXrecord
280
     1
  1
quote
  1
quote
  1
*
  1
*
 70
     0
  1
*
  1
*
1001
ACAD
1000
( NAME== "quote" )
  0
XRECORD
  5
70914
102
{ACAD_REACTORS
330
70910
102
}
330
70910
100
AcDbXrecord
280
     1
  1
tavola
  1
*
  1
*
  1
asse_n
 70
     3
  1
*
  1
*
1001
ACAD
1000
( LINETYPE== "asse_n" ) and OFF == "TRUE"
  0
XRECORD
  5
70916
102
{ACAD_REACTORS
330
70910
102
}
330
70910
100
AcDbXrecord
280
     1
  1
te
  1
*AM_HID
  1
*
  1
*
 70
     0
  1
*
  1
*
1001
ACAD
1000
( NAME== "*AM_HID" )
  0
XRECORD
  5
70918
102
{ACAD_REACTORS
330
70910
102
}
330
70910
100
AcDbXrecord
280
     1
  1
TRATTI_N
  1
ARRIVO
  1
*
  1
TRATTI_N
 70
     3
  1
*
  1
*
1001
ACAD
1000
( NAME== "ARRIVO" ) and ( LINETYPE== "TRATTI_N" ) and OFF == "TRUE"
  0
XRECORD
  5
7091A
102
{ACAD_REACTORS
330
70910
102
}
330
70910
100
AcDbXrecord
280
     1
  1
xx
  1
*-0
  1
*
  1
*
 70
     0
  1
*
  1
*
1001
ACAD
1000
( NAME== "*-0" )
  0
XRECORD
  5
70911
102
{ACAD_REACTORS
330
7090F
102
}
330
7090F
100
AcDbXrecord
280
     1
  1
AcLyLayerFilter
 90
        1
300
AM
301
( NAME== "AM*" )
  0
XRECORD
  5
70917
102
{ACAD_REACTORS
330
7090F
102
}
330
7090F
100
AcDbXrecord
280
     1
  1
AcLyLayerFilter
 90
        1
300
TRATTI_N
301
( NAME== "ARRIVO" ) and ( LINETYPE== "TRATTI_N" ) and OFF == "TRUE"
  0
XRECORD
  5
70919
102
{ACAD_REACTORS
330
7090F
102
}
330
7090F
100
AcDbXrecord
280
     1
  1
AcLyLayerFilter
 90
        1
300
xx
301
( NAME== "*-0" )
  0
XRECORD
  5
7091B
102
{ACAD_REACTORS
330
7090F
102
}
330
7090F
100
AcDbXrecord
280
     1
  1
AcLyLayerFilter
 90
        1
300
BOLLINI
301
( NAME== "QUOTE" )
  0
XRECORD
  5
7091D
102
{ACAD_REACTORS
330
7090F
102
}
330
7090F
100
AcDbXrecord
280
     1
  1
AcLyLayerFilter
 90
        1
300
D
301
FROZEN == "TRUE"
  0
XRECORD
  5
7091F
102
{ACAD_REACTORS
330
7090F
102
}
330
7090F
100
AcDbXrecord
280
     1
  1
AcLyLayerFilter
 90
        1
300
gig
301
NAME=="*"
  0
XRECORD
  5
70921
102
{ACAD_REACTORS
330
7090F
102
}
330
7090F
100
AcDbXrecord
280
     1
  1
AcLyLayerFilter
 90
        1
300
INVISIBLE
301
( NAME== "*INVI*" )
  0
XRECORD
  5
70923
102
{ACAD_REACTORS
330
7090F
102
}
330
7090F
100
AcDbXrecord
280
     1
  1
AcLyLayerFilter
 90
        1
300
PRIMO
301
( NAME== "*NASCOSTA" )
  0
XRECORD
  5
70925
102
{ACAD_REACTORS
330
7090F
102
}
330
7090F
100
AcDbXrecord
280
     1
  1
AcLyLayerFilter
 90
        1
300
quote
301
( NAME== "quote" )
  0
XRECORD
  5
70913
102
{ACAD_REACTORS
330
7090F
102
}
330
7090F
100
AcDbXrecord
280
     1
  1
AcLyLayerFilter
 90
        1
300
tavola
301
( LINETYPE== "asse_n" ) and OFF == "TRUE"
  0
XRECORD
  5
70915
102
{ACAD_REACTORS
330
7090F
102
}
330
7090F
100
AcDbXrecord
280
     1
  1
AcLyLayerFilter
 90
        1
300
te
301
( NAME== "*AM_HID" )
  0
DICTIONARY
  5
709C7
330
70969
100
AcDbDictionary
280
     1
281
     1
  3
ACAD_XREC_ROUNDTRIP
360
709C8
  0
DICTIONARY
  5
552ED
330
1DD6
100
AcDbDictionary
280
     1
281
     1
  0
DICTIONARY
  5
70830
330
7082F
100
AcDbDictionary
280
     1
281
     1
  3
BUMPTILE
360
70832
  3
DIFFUSETILE
360
70831
  3
OPACITYTILE
360
70835
  3
REFLECTIONTILE
360
70834
  3
REFRACTIONTILE
360
70836
  3
SPECULARTILE
360
70833
  0
DICTIONARY
  5
70828
330
70827
100
AcDbDictionary
280
     1
281
     1
  3
BUMPTILE
360
7082A
  3
DIFFUSETILE
360
70829
  3
OPACITYTILE
360
7082D
  3
REFLECTIONTILE
360
7082C
  3
REFRACTIONTILE
360
7082E
  3
SPECULARTILE
360
7082B
  0
DICTIONARY
  5
70838
330
70837
100
AcDbDictionary
280
     1
281
     1
  3
BUMPTILE
360
7083A
  3
DIFFUSETILE
360
70839
  3
OPACITYTILE
360
7083D
  3
REFLECTIONTILE
360
7083C
  3
REFRACTIONTILE
360
7083E
  3
SPECULARTILE
360
7083B
  0
DICTIONARY
  5
709C5
330
70967
100
AcDbDictionary
280
     1
281
     1
  3
ACAD_XREC_ROUNDTRIP
360
709C6
  0
DICTIONARY
  5
70927
330
3C461
100
AcDbDictionary
280
     1
281
     1
  3
ACAD_ROUNDTRIP_2008_TABLESTYLE_CELLSTYLEMAP
360
70986
  0
DICTIONARY
  5
7099B
330
70845
100
AcDbDictionary
280
     1
281
     1
  3
ACAD_XREC_ROUNDTRIP
360
7099C
  0
DICTIONARY
  5
7099F
330
70847
100
AcDbDictionary
280
     1
281
     1
  3
ACAD_XREC_ROUNDTRIP
360
709A0
  0
DICTIONARY
  5
7099D
330
70846
100
AcDbDictionary
280
     1
281
     1
  3
ACAD_XREC_ROUNDTRIP
360
7099E
  0
DICTIONARY
  5
70999
330
70844
100
AcDbDictionary
280
     1
281
     1
  3
ACAD_XREC_ROUNDTRIP
360
7099A
  0
DICTIONARY
  5
709A7
330
7084B
100
AcDbDictionary
280
     1
281
     1
  3
ACAD_XREC_ROUNDTRIP
360
709A8
  0
DICTIONARY
  5
709AF
330
7084F
100
AcDbDictionary
280
     1
281
     1
  3
ACAD_XREC_ROUNDTRIP
360
709B0
  0
DICTIONARY
  5
709A1
330
70848
100
AcDbDictionary
280
     1
281
     1
  3
ACAD_XREC_ROUNDTRIP
360
709A2
  0
DICTIONARY
  5
709A5
330
7084A
100
AcDbDictionary
280
     1
281
     1
  3
ACAD_XREC_ROUNDTRIP
360
709A6
  0
DICTIONARY
  5
709C3
330
70965
100
AcDbDictionary
280
     1
281
     1
  3
ACAD_XREC_ROUNDTRIP
360
709C4
  0
DICTIONARY
  5
709AD
330
7084E
100
AcDbDictionary
280
     1
281
     1
  3
ACAD_XREC_ROUNDTRIP
360
709AE
  0
DICTIONARY
  5
70991
330
70840
100
AcDbDictionary
280
     1
281
     1
  3
ACAD_XREC_ROUNDTRIP
360
70992
  0
DICTIONARY
  5
70993
330
70841
100
AcDbDictionary
280
     1
281
     1
  3
ACAD_XREC_ROUNDTRIP
360
70994
  0
DICTIONARY
  5
70995
330
70842
100
AcDbDictionary
280
     1
281
     1
  3
ACAD_XREC_ROUNDTRIP
360
70996
  0
DICTIONARY
  5
70997
330
70843
100
AcDbDictionary
280
     1
281
     1
  3
ACAD_XREC_ROUNDTRIP
360
70998
  0
DICTIONARY
  5
709B3
330
7095D
100
AcDbDictionary
280
     1
281
     1
  3
ACAD_XREC_ROUNDTRIP
360
709B4
  0
DICTIONARY
  5
709BF
330
70963
100
AcDbDictionary
280
     1
281
     1
  3
ACAD_XREC_ROUNDTRIP
360
709C0
  0
DICTIONARY
  5
709AB
330
7084D
100
AcDbDictionary
280
     1
281
     1
  3
ACAD_XREC_ROUNDTRIP
360
709AC
  0
DICTIONARY
  5
709C1
330
70964
100
AcDbDictionary
280
     1
281
     1
  3
ACAD_XREC_ROUNDTRIP
360
709C2
  0
DICTIONARY
  5
709A3
330
70849
100
AcDbDictionary
280
     1
281
     1
  3
ACAD_XREC_ROUNDTRIP
360
709A4
  0
DICTIONARY
  5
709BD
330
70962
100
AcDbDictionary
280
     1
281
     1
  3
ACAD_XREC_ROUNDTRIP
360
709BE
  0
DICTIONARY
  5
709BB
330
70961
100
AcDbDictionary
280
     1
281
     1
  3
ACAD_XREC_ROUNDTRIP
360
709BC
  0
DICTIONARY
  5
709B5
330
7095E
100
AcDbDictionary
280
     1
281
     1
  3
ACAD_XREC_ROUNDTRIP
360
709B6
  0
DICTIONARY
  5
709B7
330
7095F
100
AcDbDictionary
280
     1
281
     1
  3
ACAD_XREC_ROUNDTRIP
360
709B8
  0
DICTIONARY
  5
709A9
330
7084C
100
AcDbDictionary
280
     1
281
     1
  3
ACAD_XREC_ROUNDTRIP
360
709AA
  0
DICTIONARY
  5
709B1
330
7095C
100
AcDbDictionary
280
     1
281
     1
  3
ACAD_XREC_ROUNDTRIP
360
709B2
  0
DICTIONARY
  5
709B9
330
70960
100
AcDbDictionary
280
     1
281
     1
  3
ACAD_XREC_ROUNDTRIP
360
709BA
  0
XRECORD
  5
70989
102
{ACAD_REACTORS
330
7098F
102
}
330
7098F
100
AcDbXrecord
280
     1
  1
AcDb_Thumbnail_Schema
102
{ATTRRECORD
341
7098A
  2
AcDbDs::TreatedAsObjectData
280
     1
291
     1
102
ATTRRECORD}
102
{ATTRRECORD
341
7098B
  2
AcDbDs::Legacy
280
     1
291
     1
102
ATTRRECORD}
  2
AcDbDs::ID
280
    10
 91
        8
102
{ATTRRECORD
341
7098C
  2
AcDs:Indexable
280
     1
291
     1
102
ATTRRECORD}
102
{ATTRRECORD
341
7098D
  2
AcDbDs::HandleAttribute
280
     7
282
     1
102
ATTRRECORD}
  2
Thumbnail_Data
280
    15
 91
        0
  0
XRECORD
  5
7098A
102
{ACAD_REACTORS
330
7098F
102
}
330
7098F
100
AcDbXrecord
280
     1
  1
AcDbDs::TreatedAsObjectDataSchema
  2
AcDbDs::TreatedAsObjectData
280
     1
 91
        0
  0
XRECORD
  5
7098B
102
{ACAD_REACTORS
330
7098F
102
}
330
7098F
100
AcDbXrecord
280
     1
  1
AcDbDs::LegacySchema
  2
AcDbDs::Legacy
280
     1
 91
        0
  0
XRECORD
  5
7098C
102
{ACAD_REACTORS
330
7098F
102
}
330
7098F
100
AcDbXrecord
280
     1
  1
AcDbDs::IndexedPropertySchema
  2
AcDs:Indexable
280
     1
 91
        0
  0
XRECORD
  5
7098D
102
{ACAD_REACTORS
330
7098F
102
}
330
7098F
100
AcDbXrecord
280
     1
  1
AcDbDs::HandleAttributeSchema
  2
AcDbDs::HandleAttribute
280
     7
 91
        1
284
     1
  0
XRECORD
  5
709C8
102
{ACAD_REACTORS
330
709C7
102
}
330
709C7
100
AcDbXrecord
280
     1
102
DISPLAYNAME
  1
Imperial24
102
FLAGS
 90
        0
  0
XRECORD
  5
70832
102
{ACAD_REACTORS
330
70830
102
}
330
70830
100
AcDbXrecord
280
     1
270
     1
271
     1
  0
XRECORD
  5
70831
102
{ACAD_REACTORS
330
70830
102
}
330
70830
100
AcDbXrecord
280
     1
270
     1
271
     1
  0
XRECORD
  5
70835
102
{ACAD_REACTORS
330
70830
102
}
330
70830
100
AcDbXrecord
280
     1
270
     1
271
     1
  0
XRECORD
  5
70834
102
{ACAD_REACTORS
330
70830
102
}
330
70830
100
AcDbXrecord
280
     1
270
     1
271
     1
  0
XRECORD
  5
70836
102
{ACAD_REACTORS
330
70830
102
}
330
70830
100
AcDbXrecord
280
     1
270
     1
271
     1
  0
XRECORD
  5
70833
102
{ACAD_REACTORS
330
70830
102
}
330
70830
100
AcDbXrecord
280
     1
270
     1
271
     1
  0
XRECORD
  5
7082A
102
{ACAD_REACTORS
330
70828
102
}
330
70828
100
AcDbXrecord
280
     1
270
     1
271
     1
  0
XRECORD
  5
70829
102
{ACAD_REACTORS
330
70828
102
}
330
70828
100
AcDbXrecord
280
     1
270
     1
271
     1
  0
XRECORD
  5
7082D
102
{ACAD_REACTORS
330
70828
102
}
330
70828
100
AcDbXrecord
280
     1
270
     1
271
     1
  0
XRECORD
  5
7082C
102
{ACAD_REACTORS
330
70828
102
}
330
70828
100
AcDbXrecord
280
     1
270
     1
271
     1
  0
XRECORD
  5
7082E
102
{ACAD_REACTORS
330
70828
102
}
330
70828
100
AcDbXrecord
280
     1
270
     1
271
     1
  0
XRECORD
  5
7082B
102
{ACAD_REACTORS
330
70828
102
}
330
70828
100
AcDbXrecord
280
     1
270
     1
271
     1
  0
XRECORD
  5
7083A
102
{ACAD_REACTORS
330
70838
102
}
330
70838
100
AcDbXrecord
280
     1
270
     1
271
     1
  0
XRECORD
  5
70839
102
{ACAD_REACTORS
330
70838
102
}
330
70838
100
AcDbXrecord
280
     1
270
     1
271
     1
  0
XRECORD
  5
7083D
102
{ACAD_REACTORS
330
70838
102
}
330
70838
100
AcDbXrecord
280
     1
270
     1
271
     1
  0
XRECORD
  5
7083C
102
{ACAD_REACTORS
330
70838
102
}
330
70838
100
AcDbXrecord
280
     1
270
     1
271
     1
  0
XRECORD
  5
7083E
102
{ACAD_REACTORS
330
70838
102
}
330
70838
100
AcDbXrecord
280
     1
270
     1
271
     1
  0
XRECORD
  5
7083B
102
{ACAD_REACTORS
330
70838
102
}
330
70838
100
AcDbXrecord
280
     1
270
     1
271
     1
  0
XRECORD
  5
709C6
102
{ACAD_REACTORS
330
709C5
102
}
330
709C5
100
AcDbXrecord
280
     1
102
DISPLAYNAME
  1
Imperial24
102
FLAGS
 90
        0
  0
CELLSTYLEMAP
  5
70986
102
{ACAD_REACTORS
330
70927
102
}
330
70927
100
AcDbCellStyleMap
 90
        3
300
CELLSTYLE
  1
TABLEFORMAT_BEGIN
 90
        5
170
     1
 91
        0
 92
    32768
 62
   257
 93
        1
300
CONTENTFORMAT
  1
CONTENTFORMAT_BEGIN
 90
        0
 91
        0
 92
        4
 93
        0
300

 40
0.0
140
1.0
 94
        5
 62
     0
340
F
144
0.25
309
CONTENTFORMAT_END
171
     1
301
MARGIN
  1
CELLMARGIN_BEGIN
 40
0.06
 40
0.06
 40
0.06
 40
0.06
 40
0.18
 40
0.18
309
CELLMARGIN_END
 94
        6
 95
        1
302
GRIDFORMAT
  1
GRIDFORMAT_BEGIN
 90
        0
 91
        1
 62
     0
 92
       -2
340
0
 93
        0
 40
0.045
309
GRIDFORMAT_END
 95
        2
302
GRIDFORMAT
  1
GRIDFORMAT_BEGIN
 90
        0
 91
        1
 62
     0
 92
       -2
340
0
 93
        0
 40
0.045
309
GRIDFORMAT_END
 95
        4
302
GRIDFORMAT
  1
GRIDFORMAT_BEGIN
 90
        0
 91
        1
 62
     0
 92
       -2
340
0
 93
        0
 40
0.045
309
GRIDFORMAT_END
 95
        8
302
GRIDFORMAT
  1
GRIDFORMAT_BEGIN
 90
        0
 91
        1
 62
     0
 92
       -2
340
0
 93
        0
 40
0.045
309
GRIDFORMAT_END
 95
       16
302
GRIDFORMAT
  1
GRIDFORMAT_BEGIN
 90
        0
 91
        1
 62
     0
 92
       -2
340
0
 93
        0
 40
0.045
309
GRIDFORMAT_END
 95
       32
302
GRIDFORMAT
  1
GRIDFORMAT_BEGIN
 90
        0
 91
        1
 62
     0
 92
       -2
340
0
 93
        0
 40
0.045
309
GRIDFORMAT_END
309
TABLEFORMAT_END
  1
CELLSTYLE_BEGIN
 90
        1
 91
        1
300
_TITLE
309
CELLSTYLE_END
300
CELLSTYLE
  1
TABLEFORMAT_BEGIN
 90
        5
170
     1
 91
        0
 92
        0
 62
   257
 93
        1
300
CONTENTFORMAT
  1
CONTENTFORMAT_BEGIN
 90
        0
 91
        0
 92
        4
 93
        0
300

 40
0.0
140
1.0
 94
        5
 62
     0
340
F
144
0.18
309
CONTENTFORMAT_END
171
     1
301
MARGIN
  1
CELLMARGIN_BEGIN
 40
0.06
 40
0.06
 40
0.06
 40
0.06
 40
0.18
 40
0.18
309
CELLMARGIN_END
 94
        6
 95
        1
302
GRIDFORMAT
  1
GRIDFORMAT_BEGIN
 90
        0
 91
        1
 62
     0
 92
       -2
340
0
 93
        0
 40
0.045
309
GRIDFORMAT_END
 95
        2
302
GRIDFORMAT
  1
GRIDFORMAT_BEGIN
 90
        0
 91
        1
 62
     0
 92
       -2
340
0
 93
        0
 40
0.045
309
GRIDFORMAT_END
 95
        4
302
GRIDFORMAT
  1
GRIDFORMAT_BEGIN
 90
        0
 91
        1
 62
     0
 92
       -2
340
0
 93
        0
 40
0.045
309
GRIDFORMAT_END
 95
        8
302
GRIDFORMAT
  1
GRIDFORMAT_BEGIN
 90
        0
 91
        1
 62
     0
 92
       -2
340
0
 93
        0
 40
0.045
309
GRIDFORMAT_END
 95
       16
302
GRIDFORMAT
  1
GRIDFORMAT_BEGIN
 90
        0
 91
        1
 62
     0
 92
       -2
340
0
 93
        0
 40
0.045
309
GRIDFORMAT_END
 95
       32
302
GRIDFORMAT
  1
GRIDFORMAT_BEGIN
 90
        0
 91
        1
 62
     0
 92
       -2
340
0
 93
        0
 40
0.045
309
GRIDFORMAT_END
309
TABLEFORMAT_END
  1
CELLSTYLE_BEGIN
 90
        2
 91
        1
300
_HEADER
309
CELLSTYLE_END
300
CELLSTYLE
  1
TABLEFORMAT_BEGIN
 90
        5
170
     1
 91
        0
 92
        0
 62
   257
 93
        1
300
CONTENTFORMAT
  1
CONTENTFORMAT_BEGIN
 90
        0
 91
        0
 92
        4
 93
        0
300

 40
0.0
140
1.0
 94
        2
 62
     0
340
F
144
0.18
309
CONTENTFORMAT_END
171
     1
301
MARGIN
  1
CELLMARGIN_BEGIN
 40
0.06
 40
0.06
 40
0.06
 40
0.06
 40
0.18
 40
0.18
309
CELLMARGIN_END
 94
        6
 95
        1
302
GRIDFORMAT
  1
GRIDFORMAT_BEGIN
 90
        0
 91
        1
 62
     0
 92
       -2
340
0
 93
        0
 40
0.045
309
GRIDFORMAT_END
 95
        2
302
GRIDFORMAT
  1
GRIDFORMAT_BEGIN
 90
        0
 91
        1
 62
     0
 92
       -2
340
0
 93
        0
 40
0.045
309
GRIDFORMAT_END
 95
        4
302
GRIDFORMAT
  1
GRIDFORMAT_BEGIN
 90
        0
 91
        1
 62
     0
 92
       -2
340
0
 93
        0
 40
0.045
309
GRIDFORMAT_END
 95
        8
302
GRIDFORMAT
  1
GRIDFORMAT_BEGIN
 90
        0
 91
        1
 62
     0
 92
       -2
340
0
 93
        0
 40
0.045
309
GRIDFORMAT_END
 95
       16
302
GRIDFORMAT
  1
GRIDFORMAT_BEGIN
 90
        0
 91
        1
 62
     0
 92
       -2
340
0
 93
        0
 40
0.045
309
GRIDFORMAT_END
 95
       32
302
GRIDFORMAT
  1
GRIDFORMAT_BEGIN
 90
        0
 91
        1
 62
     0
 92
       -2
340
0
 93
        0
 40
0.045
309
GRIDFORMAT_END
309
TABLEFORMAT_END
  1
CELLSTYLE_BEGIN
 90
        3
 91
        2
300
_DATA
309
CELLSTYLE_END
  0
XRECORD
  5
7099C
102
{ACAD_REACTORS
330
7099B
102
}
330
7099B
100
AcDbXrecord
280
     1
102
RTVSPost2010Prop28
280
     1
102
RTVSPost2010PropOp28
 70
     1
102
RTVSPost2010Prop29
280
     1
102
RTVSPost2010PropOp29
 70
     1
102
RTVSPost2010Prop30
280
     0
102
RTVSPost2010PropOp30
 70
     1
102
RTVSPost2010Prop31
280
     0
102
RTVSPost2010PropOp31
 70
     1
102
RTVSPost2010Prop32
280
     0
102
RTVSPost2010PropOp32
 70
     1
102
RTVSPost2010Prop33
280
     0
102
RTVSPost2010PropOp33
 70
     1
102
RTVSPost2010Prop34
280
     0
102
RTVSPost2010PropOp34
 70
     1
102
RTVSPost2010Prop35
280
     0
102
RTVSPost2010PropOp35
 70
     1
102
RTVSPost2010Prop36
280
     0
102
RTVSPost2010PropOp36
 70
     1
102
RTVSPost2010Prop37
 90
       50
102
RTVSPost2010PropOp37
 70
     1
102
RTVSPost2010Prop38
140
0.0
102
RTVSPost2010PropOp38
 70
     1
102
RTVSPost2010Prop39
140
1.0
102
RTVSPost2010PropOp39
 70
     1
102
RTVSPost2010Prop40
 90
        0
102
RTVSPost2010PropOp40
 70
     1
102
RTVSPost2010Prop41ColorIndex
 90
       18
102
RTVSPost2010Prop41ColorRGB
 90
-16777216
102
RTVSPost2010PropOp41
 70
     1
102
RTVSPost2010Prop42
 90
       50
102
RTVSPost2010PropOp42
 70
     1
102
RTVSPost2010Prop43
 90
        3
102
RTVSPost2010PropOp43
 70
     1
102
RTVSPost2010Prop44ColorIndex
 90
        5
102
RTVSPost2010Prop44ColorRGB
 90
      255
102
RTVSPost2010PropOp44
 70
     1
102
RTVSPost2010Prop45
280
     0
102
RTVSPost2010PropOp45
 70
     1
102
RTVSPost2010Prop46
 90
       50
102
RTVSPost2010PropOp46
 70
     1
102
RTVSPost2010Prop47
 90
       50
102
RTVSPost2010PropOp47
 70
     1
102
RTVSPost2010Prop48
 90
       50
102
RTVSPost2010PropOp48
 70
     1
102
RTVSPost2010Prop49
280
     0
102
RTVSPost2010PropOp49
 70
     1
102
RTVSPost2010Prop50
 90
       50
102
RTVSPost2010PropOp50
 70
     1
102
RTVSPost2010Prop51ColorIndex
 90
      256
102
RTVSPost2010Prop51ColorRGB
 90
-16777216
102
RTVSPost2010PropOp51
 70
     0
102
RTVSPost2010Prop52
140
1.0
102
RTVSPost2010PropOp52
 70
     0
102
RTVSPost2010Prop53
 90
        2
102
RTVSPost2010PropOp53
 70
     1
102
RTVSPost2010Prop54
  1
strokes_ogs.tif
102
RTVSPost2010PropOp54
 70
     1
102
RTVSPost2010Prop55
280
     0
102
RTVSPost2010PropOp55
 70
     1
102
RTVSPost2010Prop56
140
1.0
102
RTVSPost2010PropOp56
 70
     1
102
RTVSPost2010Prop57
140
1.0
102
RTVSPost2010PropOp57
 70
     1
  0
XRECORD
  5
709A0
102
{ACAD_REACTORS
330
7099F
102
}
330
7099F
100
AcDbXrecord
280
     1
102
RTVSPost2010Prop28
280
     0
102
RTVSPost2010PropOp28
 70
     1
102
RTVSPost2010Prop29
280
     1
102
RTVSPost2010PropOp29
 70
     1
102
RTVSPost2010Prop30
280
     1
102
RTVSPost2010PropOp30
 70
     1
102
RTVSPost2010Prop31
280
     0
102
RTVSPost2010PropOp31
 70
     1
102
RTVSPost2010Prop32
280
     0
102
RTVSPost2010PropOp32
 70
     1
102
RTVSPost2010Prop33
280
     0
102
RTVSPost2010PropOp33
 70
     1
102
RTVSPost2010Prop34
280
     0
102
RTVSPost2010PropOp34
 70
     1
102
RTVSPost2010Prop35
280
     0
102
RTVSPost2010PropOp35
 70
     1
102
RTVSPost2010Prop36
280
     0
102
RTVSPost2010PropOp36
 70
     1
102
RTVSPost2010Prop37
 90
       50
102
RTVSPost2010PropOp37
 70
     1
102
RTVSPost2010Prop38
140
0.0
102
RTVSPost2010PropOp38
 70
     1
102
RTVSPost2010Prop39
140
1.0
102
RTVSPost2010PropOp39
 70
     1
102
RTVSPost2010Prop40
 90
        0
102
RTVSPost2010PropOp40
 70
     1
102
RTVSPost2010Prop41ColorIndex
 90
       18
102
RTVSPost2010Prop41ColorRGB
 90
-16777216
102
RTVSPost2010PropOp41
 70
     1
102
RTVSPost2010Prop42
 90
       50
102
RTVSPost2010PropOp42
 70
     1
102
RTVSPost2010Prop43
 90
        3
102
RTVSPost2010PropOp43
 70
     1
102
RTVSPost2010Prop44ColorIndex
 90
        5
102
RTVSPost2010Prop44ColorRGB
 90
      255
102
RTVSPost2010PropOp44
 70
     1
102
RTVSPost2010Prop45
280
     0
102
RTVSPost2010PropOp45
 70
     1
102
RTVSPost2010Prop46
 90
       50
102
RTVSPost2010PropOp46
 70
     1
102
RTVSPost2010Prop47
 90
       50
102
RTVSPost2010PropOp47
 70
     1
102
RTVSPost2010Prop48
 90
       50
102
RTVSPost2010PropOp48
 70
     1
102
RTVSPost2010Prop49
280
     0
102
RTVSPost2010PropOp49
 70
     1
102
RTVSPost2010Prop50
 90
       50
102
RTVSPost2010PropOp50
 70
     1
102
RTVSPost2010Prop51ColorIndex
 90
      256
102
RTVSPost2010Prop51ColorRGB
 90
-16777216
102
RTVSPost2010PropOp51
 70
     0
102
RTVSPost2010Prop52
140
1.0
102
RTVSPost2010PropOp52
 70
     0
102
RTVSPost2010Prop53
 90
        2
102
RTVSPost2010PropOp53
 70
     1
102
RTVSPost2010Prop54
  1
strokes_ogs.tif
102
RTVSPost2010PropOp54
 70
     1
102
RTVSPost2010Prop55
280
     0
102
RTVSPost2010PropOp55
 70
     1
102
RTVSPost2010Prop56
140
1.0
102
RTVSPost2010PropOp56
 70
     1
102
RTVSPost2010Prop57
140
1.0
102
RTVSPost2010PropOp57
 70
     1
  0
XRECORD
  5
7099E
102
{ACAD_REACTORS
330
7099D
102
}
330
7099D
100
AcDbXrecord
280
     1
102
RTVSPost2010Prop28
280
     0
102
RTVSPost2010PropOp28
 70
     1
102
RTVSPost2010Prop29
280
     1
102
RTVSPost2010PropOp29
 70
     1
102
RTVSPost2010Prop30
280
     1
102
RTVSPost2010PropOp30
 70
     1
102
RTVSPost2010Prop31
280
     0
102
RTVSPost2010PropOp31
 70
     1
102
RTVSPost2010Prop32
280
     0
102
RTVSPost2010PropOp32
 70
     1
102
RTVSPost2010Prop33
280
     0
102
RTVSPost2010PropOp33
 70
     1
102
RTVSPost2010Prop34
280
     0
102
RTVSPost2010PropOp34
 70
     1
102
RTVSPost2010Prop35
280
     0
102
RTVSPost2010PropOp35
 70
     1
102
RTVSPost2010Prop36
280
     0
102
RTVSPost2010PropOp36
 70
     1
102
RTVSPost2010Prop37
 90
       50
102
RTVSPost2010PropOp37
 70
     1
102
RTVSPost2010Prop38
140
0.0
102
RTVSPost2010PropOp38
 70
     1
102
RTVSPost2010Prop39
140
1.0
102
RTVSPost2010PropOp39
 70
     1
102
RTVSPost2010Prop40
 90
        0
102
RTVSPost2010PropOp40
 70
     1
102
RTVSPost2010Prop41ColorIndex
 90
       18
102
RTVSPost2010Prop41ColorRGB
 90
-16777216
102
RTVSPost2010PropOp41
 70
     1
102
RTVSPost2010Prop42
 90
       50
102
RTVSPost2010PropOp42
 70
     1
102
RTVSPost2010Prop43
 90
        3
102
RTVSPost2010PropOp43
 70
     1
102
RTVSPost2010Prop44ColorIndex
 90
        5
102
RTVSPost2010Prop44ColorRGB
 90
      255
102
RTVSPost2010PropOp44
 70
     1
102
RTVSPost2010Prop45
280
     0
102
RTVSPost2010PropOp45
 70
     1
102
RTVSPost2010Prop46
 90
       50
102
RTVSPost2010PropOp46
 70
     1
102
RTVSPost2010Prop47
 90
       50
102
RTVSPost2010PropOp47
 70
     1
102
RTVSPost2010Prop48
 90
       50
102
RTVSPost2010PropOp48
 70
     1
102
RTVSPost2010Prop49
280
     0
102
RTVSPost2010PropOp49
 70
     1
102
RTVSPost2010Prop50
 90
       50
102
RTVSPost2010PropOp50
 70
     1
102
RTVSPost2010Prop51ColorIndex
 90
      256
102
RTVSPost2010Prop51ColorRGB
 90
-16777216
102
RTVSPost2010PropOp51
 70
     0
102
RTVSPost2010Prop52
140
1.0
102
RTVSPost2010PropOp52
 70
     0
102
RTVSPost2010Prop53
 90
        2
102
RTVSPost2010PropOp53
 70
     1
102
RTVSPost2010Prop54
  1
strokes_ogs.tif
102
RTVSPost2010PropOp54
 70
     1
102
RTVSPost2010Prop55
280
     0
102
RTVSPost2010PropOp55
 70
     1
102
RTVSPost2010Prop56
140
1.0
102
RTVSPost2010PropOp56
 70
     1
102
RTVSPost2010Prop57
140
1.0
102
RTVSPost2010PropOp57
 70
     1
  0
XRECORD
  5
7099A
102
{ACAD_REACTORS
330
70999
102
}
330
70999
100
AcDbXrecord
280
     1
102
RTVSPost2010Prop28
280
     0
102
RTVSPost2010PropOp28
 70
     1
102
RTVSPost2010Prop29
280
     1
102
RTVSPost2010PropOp29
 70
     1
102
RTVSPost2010Prop30
280
     1
102
RTVSPost2010PropOp30
 70
     1
102
RTVSPost2010Prop31
280
     0
102
RTVSPost2010PropOp31
 70
     1
102
RTVSPost2010Prop32
280
     0
102
RTVSPost2010PropOp32
 70
     1
102
RTVSPost2010Prop33
280
     0
102
RTVSPost2010PropOp33
 70
     1
102
RTVSPost2010Prop34
280
     0
102
RTVSPost2010PropOp34
 70
     1
102
RTVSPost2010Prop35
280
     0
102
RTVSPost2010PropOp35
 70
     1
102
RTVSPost2010Prop36
280
     0
102
RTVSPost2010PropOp36
 70
     1
102
RTVSPost2010Prop37
 90
       50
102
RTVSPost2010PropOp37
 70
     1
102
RTVSPost2010Prop38
140
0.0
102
RTVSPost2010PropOp38
 70
     1
102
RTVSPost2010Prop39
140
1.0
102
RTVSPost2010PropOp39
 70
     1
102
RTVSPost2010Prop40
 90
        0
102
RTVSPost2010PropOp40
 70
     1
102
RTVSPost2010Prop41ColorIndex
 90
       18
102
RTVSPost2010Prop41ColorRGB
 90
-16777216
102
RTVSPost2010PropOp41
 70
     1
102
RTVSPost2010Prop42
 90
       50
102
RTVSPost2010PropOp42
 70
     1
102
RTVSPost2010Prop43
 90
        3
102
RTVSPost2010PropOp43
 70
     1
102
RTVSPost2010Prop44ColorIndex
 90
        5
102
RTVSPost2010Prop44ColorRGB
 90
      255
102
RTVSPost2010PropOp44
 70
     1
102
RTVSPost2010Prop45
280
     0
102
RTVSPost2010PropOp45
 70
     1
102
RTVSPost2010Prop46
 90
       50
102
RTVSPost2010PropOp46
 70
     1
102
RTVSPost2010Prop47
 90
       50
102
RTVSPost2010PropOp47
 70
     1
102
RTVSPost2010Prop48
 90
       50
102
RTVSPost2010PropOp48
 70
     1
102
RTVSPost2010Prop49
280
     0
102
RTVSPost2010PropOp49
 70
     1
102
RTVSPost2010Prop50
 90
       50
102
RTVSPost2010PropOp50
 70
     1
102
RTVSPost2010Prop51ColorIndex
 90
      256
102
RTVSPost2010Prop51ColorRGB
 90
-16777216
102
RTVSPost2010PropOp51
 70
     0
102
RTVSPost2010Prop52
140
1.0
102
RTVSPost2010PropOp52
 70
     0
102
RTVSPost2010Prop53
 90
        2
102
RTVSPost2010PropOp53
 70
     1
102
RTVSPost2010Prop54
  1
strokes_ogs.tif
102
RTVSPost2010PropOp54
 70
     1
102
RTVSPost2010Prop55
280
     0
102
RTVSPost2010PropOp55
 70
     1
102
RTVSPost2010Prop56
140
1.0
102
RTVSPost2010PropOp56
 70
     1
102
RTVSPost2010Prop57
140
1.0
102
RTVSPost2010PropOp57
 70
     1
  0
XRECORD
  5
709A8
102
{ACAD_REACTORS
330
709A7
102
}
330
709A7
100
AcDbXrecord
280
     1
102
RTVSPost2010Prop28
280
     0
102
RTVSPost2010PropOp28
 70
     1
102
RTVSPost2010Prop29
280
     1
102
RTVSPost2010PropOp29
 70
     1
102
RTVSPost2010Prop30
280
     1
102
RTVSPost2010PropOp30
 70
     1
102
RTVSPost2010Prop31
280
     0
102
RTVSPost2010PropOp31
 70
     1
102
RTVSPost2010Prop32
280
     0
102
RTVSPost2010PropOp32
 70
     1
102
RTVSPost2010Prop33
280
     0
102
RTVSPost2010PropOp33
 70
     1
102
RTVSPost2010Prop34
280
     0
102
RTVSPost2010PropOp34
 70
     1
102
RTVSPost2010Prop35
280
     0
102
RTVSPost2010PropOp35
 70
     1
102
RTVSPost2010Prop36
280
     0
102
RTVSPost2010PropOp36
 70
     1
102
RTVSPost2010Prop37
 90
       50
102
RTVSPost2010PropOp37
 70
     1
102
RTVSPost2010Prop38
140
0.0
102
RTVSPost2010PropOp38
 70
     1
102
RTVSPost2010Prop39
140
1.0
102
RTVSPost2010PropOp39
 70
     1
102
RTVSPost2010Prop40
 90
        0
102
RTVSPost2010PropOp40
 70
     1
102
RTVSPost2010Prop41ColorIndex
 90
       18
102
RTVSPost2010Prop41ColorRGB
 90
-16777216
102
RTVSPost2010PropOp41
 70
     1
102
RTVSPost2010Prop42
 90
       50
102
RTVSPost2010PropOp42
 70
     1
102
RTVSPost2010Prop43
 90
        3
102
RTVSPost2010PropOp43
 70
     1
102
RTVSPost2010Prop44ColorIndex
 90
        5
102
RTVSPost2010Prop44ColorRGB
 90
      255
102
RTVSPost2010PropOp44
 70
     1
102
RTVSPost2010Prop45
280
     0
102
RTVSPost2010PropOp45
 70
     1
102
RTVSPost2010Prop46
 90
       50
102
RTVSPost2010PropOp46
 70
     1
102
RTVSPost2010Prop47
 90
       50
102
RTVSPost2010PropOp47
 70
     1
102
RTVSPost2010Prop48
 90
       50
102
RTVSPost2010PropOp48
 70
     1
102
RTVSPost2010Prop49
280
     0
102
RTVSPost2010PropOp49
 70
     1
102
RTVSPost2010Prop50
 90
       50
102
RTVSPost2010PropOp50
 70
     1
102
RTVSPost2010Prop51ColorIndex
 90
      256
102
RTVSPost2010Prop51ColorRGB
 90
-16777216
102
RTVSPost2010PropOp51
 70
     0
102
RTVSPost2010Prop52
140
1.0
102
RTVSPost2010PropOp52
 70
     0
102
RTVSPost2010Prop53
 90
        2
102
RTVSPost2010PropOp53
 70
     1
102
RTVSPost2010Prop54
  1
strokes_ogs.tif
102
RTVSPost2010PropOp54
 70
     1
102
RTVSPost2010Prop55
280
     0
102
RTVSPost2010PropOp55
 70
     1
102
RTVSPost2010Prop56
140
1.0
102
RTVSPost2010PropOp56
 70
     1
102
RTVSPost2010Prop57
140
1.0
102
RTVSPost2010PropOp57
 70
     1
  0
XRECORD
  5
709B0
102
{ACAD_REACTORS
330
709AF
102
}
330
709AF
100
AcDbXrecord
280
     1
102
RTVSPost2010Prop28
280
     0
102
RTVSPost2010PropOp28
 70
     1
102
RTVSPost2010Prop29
280
     1
102
RTVSPost2010PropOp29
 70
     1
102
RTVSPost2010Prop30
280
     1
102
RTVSPost2010PropOp30
 70
     1
102
RTVSPost2010Prop31
280
     0
102
RTVSPost2010PropOp31
 70
     1
102
RTVSPost2010Prop32
280
     0
102
RTVSPost2010PropOp32
 70
     1
102
RTVSPost2010Prop33
280
     0
102
RTVSPost2010PropOp33
 70
     1
102
RTVSPost2010Prop34
280
     0
102
RTVSPost2010PropOp34
 70
     1
102
RTVSPost2010Prop35
280
     0
102
RTVSPost2010PropOp35
 70
     1
102
RTVSPost2010Prop36
280
     0
102
RTVSPost2010PropOp36
 70
     1
102
RTVSPost2010Prop37
 90
       50
102
RTVSPost2010PropOp37
 70
     1
102
RTVSPost2010Prop38
140
0.0
102
RTVSPost2010PropOp38
 70
     1
102
RTVSPost2010Prop39
140
1.0
102
RTVSPost2010PropOp39
 70
     1
102
RTVSPost2010Prop40
 90
        0
102
RTVSPost2010PropOp40
 70
     1
102
RTVSPost2010Prop41ColorIndex
 90
       18
102
RTVSPost2010Prop41ColorRGB
 90
-16777216
102
RTVSPost2010PropOp41
 70
     1
102
RTVSPost2010Prop42
 90
       50
102
RTVSPost2010PropOp42
 70
     1
102
RTVSPost2010Prop43
 90
        3
102
RTVSPost2010PropOp43
 70
     1
102
RTVSPost2010Prop44ColorIndex
 90
        5
102
RTVSPost2010Prop44ColorRGB
 90
      255
102
RTVSPost2010PropOp44
 70
     1
102
RTVSPost2010Prop45
280
     0
102
RTVSPost2010PropOp45
 70
     1
102
RTVSPost2010Prop46
 90
       50
102
RTVSPost2010PropOp46
 70
     1
102
RTVSPost2010Prop47
 90
       50
102
RTVSPost2010PropOp47
 70
     1
102
RTVSPost2010Prop48
 90
       50
102
RTVSPost2010PropOp48
 70
     1
102
RTVSPost2010Prop49
280
     0
102
RTVSPost2010PropOp49
 70
     1
102
RTVSPost2010Prop50
 90
       50
102
RTVSPost2010PropOp50
 70
     1
102
RTVSPost2010Prop51ColorIndex
 90
      256
102
RTVSPost2010Prop51ColorRGB
 90
-16777216
102
RTVSPost2010PropOp51
 70
     0
102
RTVSPost2010Prop52
140
1.0
102
RTVSPost2010PropOp52
 70
     0
102
RTVSPost2010Prop53
 90
        2
102
RTVSPost2010PropOp53
 70
     1
102
RTVSPost2010Prop54
  1
strokes_ogs.tif
102
RTVSPost2010PropOp54
 70
     1
102
RTVSPost2010Prop55
280
     0
102
RTVSPost2010PropOp55
 70
     1
102
RTVSPost2010Prop56
140
1.0
102
RTVSPost2010PropOp56
 70
     1
102
RTVSPost2010Prop57
140
1.0
102
RTVSPost2010PropOp57
 70
     1
  0
XRECORD
  5
709A2
102
{ACAD_REACTORS
330
709A1
102
}
330
709A1
100
AcDbXrecord
280
     1
102
RTVSPost2010Prop28
280
     0
102
RTVSPost2010PropOp28
 70
     1
102
RTVSPost2010Prop29
280
     1
102
RTVSPost2010PropOp29
 70
     1
102
RTVSPost2010Prop30
280
     1
102
RTVSPost2010PropOp30
 70
     1
102
RTVSPost2010Prop31
280
     0
102
RTVSPost2010PropOp31
 70
     1
102
RTVSPost2010Prop32
280
     0
102
RTVSPost2010PropOp32
 70
     1
102
RTVSPost2010Prop33
280
     0
102
RTVSPost2010PropOp33
 70
     1
102
RTVSPost2010Prop34
280
     0
102
RTVSPost2010PropOp34
 70
     1
102
RTVSPost2010Prop35
280
     0
102
RTVSPost2010PropOp35
 70
     1
102
RTVSPost2010Prop36
280
     0
102
RTVSPost2010PropOp36
 70
     1
102
RTVSPost2010Prop37
 90
       50
102
RTVSPost2010PropOp37
 70
     1
102
RTVSPost2010Prop38
140
0.0
102
RTVSPost2010PropOp38
 70
     1
102
RTVSPost2010Prop39
140
1.0
102
RTVSPost2010PropOp39
 70
     1
102
RTVSPost2010Prop40
 90
        0
102
RTVSPost2010PropOp40
 70
     1
102
RTVSPost2010Prop41ColorIndex
 90
       18
102
RTVSPost2010Prop41ColorRGB
 90
-16777216
102
RTVSPost2010PropOp41
 70
     1
102
RTVSPost2010Prop42
 90
       50
102
RTVSPost2010PropOp42
 70
     1
102
RTVSPost2010Prop43
 90
        3
102
RTVSPost2010PropOp43
 70
     1
102
RTVSPost2010Prop44ColorIndex
 90
        5
102
RTVSPost2010Prop44ColorRGB
 90
      255
102
RTVSPost2010PropOp44
 70
     1
102
RTVSPost2010Prop45
280
     0
102
RTVSPost2010PropOp45
 70
     1
102
RTVSPost2010Prop46
 90
       50
102
RTVSPost2010PropOp46
 70
     1
102
RTVSPost2010Prop47
 90
       50
102
RTVSPost2010PropOp47
 70
     1
102
RTVSPost2010Prop48
 90
       50
102
RTVSPost2010PropOp48
 70
     1
102
RTVSPost2010Prop49
280
     0
102
RTVSPost2010PropOp49
 70
     1
102
RTVSPost2010Prop50
 90
       50
102
RTVSPost2010PropOp50
 70
     1
102
RTVSPost2010Prop51ColorIndex
 90
      256
102
RTVSPost2010Prop51ColorRGB
 90
-16777216
102
RTVSPost2010PropOp51
 70
     0
102
RTVSPost2010Prop52
140
1.0
102
RTVSPost2010PropOp52
 70
     0
102
RTVSPost2010Prop53
 90
        2
102
RTVSPost2010PropOp53
 70
     1
102
RTVSPost2010Prop54
  1
strokes_ogs.tif
102
RTVSPost2010PropOp54
 70
     1
102
RTVSPost2010Prop55
280
     0
102
RTVSPost2010PropOp55
 70
     1
102
RTVSPost2010Prop56
140
1.0
102
RTVSPost2010PropOp56
 70
     1
102
RTVSPost2010Prop57
140
1.0
102
RTVSPost2010PropOp57
 70
     1
  0
XRECORD
  5
709A6
102
{ACAD_REACTORS
330
709A5
102
}
330
709A5
100
AcDbXrecord
280
     1
102
RTVSPost2010Prop28
280
     0
102
RTVSPost2010PropOp28
 70
     1
102
RTVSPost2010Prop29
280
     1
102
RTVSPost2010PropOp29
 70
     1
102
RTVSPost2010Prop30
280
     1
102
RTVSPost2010PropOp30
 70
     1
102
RTVSPost2010Prop31
280
     0
102
RTVSPost2010PropOp31
 70
     1
102
RTVSPost2010Prop32
280
     0
102
RTVSPost2010PropOp32
 70
     1
102
RTVSPost2010Prop33
280
     0
102
RTVSPost2010PropOp33
 70
     1
102
RTVSPost2010Prop34
280
     0
102
RTVSPost2010PropOp34
 70
     1
102
RTVSPost2010Prop35
280
     0
102
RTVSPost2010PropOp35
 70
     1
102
RTVSPost2010Prop36
280
     0
102
RTVSPost2010PropOp36
 70
     1
102
RTVSPost2010Prop37
 90
       50
102
RTVSPost2010PropOp37
 70
     1
102
RTVSPost2010Prop38
140
0.0
102
RTVSPost2010PropOp38
 70
     1
102
RTVSPost2010Prop39
140
1.0
102
RTVSPost2010PropOp39
 70
     1
102
RTVSPost2010Prop40
 90
        0
102
RTVSPost2010PropOp40
 70
     1
102
RTVSPost2010Prop41ColorIndex
 90
       18
102
RTVSPost2010Prop41ColorRGB
 90
-16777216
102
RTVSPost2010PropOp41
 70
     1
102
RTVSPost2010Prop42
 90
       50
102
RTVSPost2010PropOp42
 70
     1
102
RTVSPost2010Prop43
 90
        3
102
RTVSPost2010PropOp43
 70
     1
102
RTVSPost2010Prop44ColorIndex
 90
        5
102
RTVSPost2010Prop44ColorRGB
 90
      255
102
RTVSPost2010PropOp44
 70
     1
102
RTVSPost2010Prop45
280
     0
102
RTVSPost2010PropOp45
 70
     1
102
RTVSPost2010Prop46
 90
       50
102
RTVSPost2010PropOp46
 70
     1
102
RTVSPost2010Prop47
 90
       50
102
RTVSPost2010PropOp47
 70
     1
102
RTVSPost2010Prop48
 90
       50
102
RTVSPost2010PropOp48
 70
     1
102
RTVSPost2010Prop49
280
     0
102
RTVSPost2010PropOp49
 70
     1
102
RTVSPost2010Prop50
 90
       50
102
RTVSPost2010PropOp50
 70
     1
102
RTVSPost2010Prop51ColorIndex
 90
      256
102
RTVSPost2010Prop51ColorRGB
 90
-16777216
102
RTVSPost2010PropOp51
 70
     0
102
RTVSPost2010Prop52
140
1.0
102
RTVSPost2010PropOp52
 70
     0
102
RTVSPost2010Prop53
 90
        2
102
RTVSPost2010PropOp53
 70
     1
102
RTVSPost2010Prop54
  1
strokes_ogs.tif
102
RTVSPost2010PropOp54
 70
     1
102
RTVSPost2010Prop55
280
     0
102
RTVSPost2010PropOp55
 70
     1
102
RTVSPost2010Prop56
140
1.0
102
RTVSPost2010PropOp56
 70
     1
102
RTVSPost2010Prop57
140
1.0
102
RTVSPost2010PropOp57
 70
     1
  0
XRECORD
  5
709C4
102
{ACAD_REACTORS
330
709C3
102
}
330
709C3
100
AcDbXrecord
280
     1
102
RTVSPost2010Prop28
280
     0
102
RTVSPost2010PropOp28
 70
     0
102
RTVSPost2010Prop29
280
     1
102
RTVSPost2010PropOp29
 70
     0
102
RTVSPost2010Prop30
280
     1
102
RTVSPost2010PropOp30
 70
     0
102
RTVSPost2010Prop31
280
     0
102
RTVSPost2010PropOp31
 70
     0
102
RTVSPost2010Prop32
280
     0
102
RTVSPost2010PropOp32
 70
     0
102
RTVSPost2010Prop33
280
     0
102
RTVSPost2010PropOp33
 70
     0
102
RTVSPost2010Prop34
280
     0
102
RTVSPost2010PropOp34
 70
     0
102
RTVSPost2010Prop35
280
     0
102
RTVSPost2010PropOp35
 70
     0
102
RTVSPost2010Prop36
280
     0
102
RTVSPost2010PropOp36
 70
     0
102
RTVSPost2010Prop37
 90
       50
102
RTVSPost2010PropOp37
 70
     0
102
RTVSPost2010Prop38
140
0.0
102
RTVSPost2010PropOp38
 70
     0
102
RTVSPost2010Prop39
140
1.0
102
RTVSPost2010PropOp39
 70
     0
102
RTVSPost2010Prop40
 90
        0
102
RTVSPost2010PropOp40
 70
     0
102
RTVSPost2010Prop41ColorIndex
 90
       18
102
RTVSPost2010Prop41ColorRGB
 90
-16777216
102
RTVSPost2010PropOp41
 70
     0
102
RTVSPost2010Prop42
 90
       50
102
RTVSPost2010PropOp42
 70
     0
102
RTVSPost2010Prop43
 90
        3
102
RTVSPost2010PropOp43
 70
     0
102
RTVSPost2010Prop44ColorIndex
 90
        5
102
RTVSPost2010Prop44ColorRGB
 90
      255
102
RTVSPost2010PropOp44
 70
     0
102
RTVSPost2010Prop45
280
     0
102
RTVSPost2010PropOp45
 70
     0
102
RTVSPost2010Prop46
 90
       50
102
RTVSPost2010PropOp46
 70
     0
102
RTVSPost2010Prop47
 90
       50
102
RTVSPost2010PropOp47
 70
     0
102
RTVSPost2010Prop48
 90
       50
102
RTVSPost2010PropOp48
 70
     0
102
RTVSPost2010Prop49
280
     0
102
RTVSPost2010PropOp49
 70
     0
102
RTVSPost2010Prop50
 90
       50
102
RTVSPost2010PropOp50
 70
     0
102
RTVSPost2010Prop51ColorIndex
 90
      256
102
RTVSPost2010Prop51ColorRGB
 90
-16777216
102
RTVSPost2010PropOp51
 70
     0
102
RTVSPost2010Prop52
140
1.0
102
RTVSPost2010PropOp52
 70
     0
102
RTVSPost2010Prop53
 90
        2
102
RTVSPost2010PropOp53
 70
     0
102
RTVSPost2010Prop54
  1
strokes_ogs.tif
102
RTVSPost2010PropOp54
 70
     0
102
RTVSPost2010Prop55
280
     0
102
RTVSPost2010PropOp55
 70
     0
102
RTVSPost2010Prop56
140
1.0
102
RTVSPost2010PropOp56
 70
     0
102
RTVSPost2010Prop57
140
1.0
102
RTVSPost2010PropOp57
 70
     0
  0
XRECORD
  5
709AE
102
{ACAD_REACTORS
330
709AD
102
}
330
709AD
100
AcDbXrecord
280
     1
102
RTVSPost2010Prop28
280
     0
102
RTVSPost2010PropOp28
 70
     1
102
RTVSPost2010Prop29
280
     1
102
RTVSPost2010PropOp29
 70
     1
102
RTVSPost2010Prop30
280
     1
102
RTVSPost2010PropOp30
 70
     1
102
RTVSPost2010Prop31
280
     0
102
RTVSPost2010PropOp31
 70
     1
102
RTVSPost2010Prop32
280
     0
102
RTVSPost2010PropOp32
 70
     1
102
RTVSPost2010Prop33
280
     0
102
RTVSPost2010PropOp33
 70
     1
102
RTVSPost2010Prop34
280
     0
102
RTVSPost2010PropOp34
 70
     1
102
RTVSPost2010Prop35
280
     0
102
RTVSPost2010PropOp35
 70
     1
102
RTVSPost2010Prop36
280
     0
102
RTVSPost2010PropOp36
 70
     1
102
RTVSPost2010Prop37
 90
       50
102
RTVSPost2010PropOp37
 70
     1
102
RTVSPost2010Prop38
140
0.0
102
RTVSPost2010PropOp38
 70
     1
102
RTVSPost2010Prop39
140
1.0
102
RTVSPost2010PropOp39
 70
     1
102
RTVSPost2010Prop40
 90
        0
102
RTVSPost2010PropOp40
 70
     1
102
RTVSPost2010Prop41ColorIndex
 90
       18
102
RTVSPost2010Prop41ColorRGB
 90
-16777216
102
RTVSPost2010PropOp41
 70
     1
102
RTVSPost2010Prop42
 90
       50
102
RTVSPost2010PropOp42
 70
     1
102
RTVSPost2010Prop43
 90
        3
102
RTVSPost2010PropOp43
 70
     1
102
RTVSPost2010Prop44ColorIndex
 90
        5
102
RTVSPost2010Prop44ColorRGB
 90
      255
102
RTVSPost2010PropOp44
 70
     1
102
RTVSPost2010Prop45
280
     0
102
RTVSPost2010PropOp45
 70
     1
102
RTVSPost2010Prop46
 90
       50
102
RTVSPost2010PropOp46
 70
     1
102
RTVSPost2010Prop47
 90
       50
102
RTVSPost2010PropOp47
 70
     1
102
RTVSPost2010Prop48
 90
       50
102
RTVSPost2010PropOp48
 70
     1
102
RTVSPost2010Prop49
280
     0
102
RTVSPost2010PropOp49
 70
     1
102
RTVSPost2010Prop50
 90
       50
102
RTVSPost2010PropOp50
 70
     1
102
RTVSPost2010Prop51ColorIndex
 90
      256
102
RTVSPost2010Prop51ColorRGB
 90
-16777216
102
RTVSPost2010PropOp51
 70
     0
102
RTVSPost2010Prop52
140
1.0
102
RTVSPost2010PropOp52
 70
     0
102
RTVSPost2010Prop53
 90
        2
102
RTVSPost2010PropOp53
 70
     1
102
RTVSPost2010Prop54
  1
strokes_ogs.tif
102
RTVSPost2010PropOp54
 70
     1
102
RTVSPost2010Prop55
280
     0
102
RTVSPost2010PropOp55
 70
     1
102
RTVSPost2010Prop56
140
1.0
102
RTVSPost2010PropOp56
 70
     1
102
RTVSPost2010Prop57
140
1.0
102
RTVSPost2010PropOp57
 70
     1
  0
XRECORD
  5
70992
102
{ACAD_REACTORS
330
70991
102
}
330
70991
100
AcDbXrecord
280
     1
102
RTVSPost2010Prop28
280
     0
102
RTVSPost2010PropOp28
 70
     1
102
RTVSPost2010Prop29
280
     1
102
RTVSPost2010PropOp29
 70
     1
102
RTVSPost2010Prop30
280
     1
102
RTVSPost2010PropOp30
 70
     1
102
RTVSPost2010Prop31
280
     0
102
RTVSPost2010PropOp31
 70
     1
102
RTVSPost2010Prop32
280
     0
102
RTVSPost2010PropOp32
 70
     1
102
RTVSPost2010Prop33
280
     0
102
RTVSPost2010PropOp33
 70
     1
102
RTVSPost2010Prop34
280
     0
102
RTVSPost2010PropOp34
 70
     1
102
RTVSPost2010Prop35
280
     0
102
RTVSPost2010PropOp35
 70
     1
102
RTVSPost2010Prop36
280
     0
102
RTVSPost2010PropOp36
 70
     1
102
RTVSPost2010Prop37
 90
       50
102
RTVSPost2010PropOp37
 70
     1
102
RTVSPost2010Prop38
140
0.0
102
RTVSPost2010PropOp38
 70
     1
102
RTVSPost2010Prop39
140
1.0
102
RTVSPost2010PropOp39
 70
     1
102
RTVSPost2010Prop40
 90
        0
102
RTVSPost2010PropOp40
 70
     1
102
RTVSPost2010Prop41ColorIndex
 90
       18
102
RTVSPost2010Prop41ColorRGB
 90
-16777216
102
RTVSPost2010PropOp41
 70
     1
102
RTVSPost2010Prop42
 90
       50
102
RTVSPost2010PropOp42
 70
     1
102
RTVSPost2010Prop43
 90
        3
102
RTVSPost2010PropOp43
 70
     1
102
RTVSPost2010Prop44ColorIndex
 90
        5
102
RTVSPost2010Prop44ColorRGB
 90
      255
102
RTVSPost2010PropOp44
 70
     1
102
RTVSPost2010Prop45
280
     0
102
RTVSPost2010PropOp45
 70
     1
102
RTVSPost2010Prop46
 90
       50
102
RTVSPost2010PropOp46
 70
     1
102
RTVSPost2010Prop47
 90
       50
102
RTVSPost2010PropOp47
 70
     1
102
RTVSPost2010Prop48
 90
       50
102
RTVSPost2010PropOp48
 70
     1
102
RTVSPost2010Prop49
280
     0
102
RTVSPost2010PropOp49
 70
     1
102
RTVSPost2010Prop50
 90
       50
102
RTVSPost2010PropOp50
 70
     1
102
RTVSPost2010Prop51ColorIndex
 90
      256
102
RTVSPost2010Prop51ColorRGB
 90
-16777216
102
RTVSPost2010PropOp51
 70
     0
102
RTVSPost2010Prop52
140
1.0
102
RTVSPost2010PropOp52
 70
     0
102
RTVSPost2010Prop53
 90
        2
102
RTVSPost2010PropOp53
 70
     1
102
RTVSPost2010Prop54
  1
strokes_ogs.tif
102
RTVSPost2010PropOp54
 70
     1
102
RTVSPost2010Prop55
280
     0
102
RTVSPost2010PropOp55
 70
     1
102
RTVSPost2010Prop56
140
1.0
102
RTVSPost2010PropOp56
 70
     1
102
RTVSPost2010Prop57
140
1.0
102
RTVSPost2010PropOp57
 70
     1
  0
XRECORD
  5
70994
102
{ACAD_REACTORS
330
70993
102
}
330
70993
100
AcDbXrecord
280
     1
102
RTVSPost2010Prop28
280
     0
102
RTVSPost2010PropOp28
 70
     1
102
RTVSPost2010Prop29
280
     1
102
RTVSPost2010PropOp29
 70
     1
102
RTVSPost2010Prop30
280
     1
102
RTVSPost2010PropOp30
 70
     1
102
RTVSPost2010Prop31
280
     0
102
RTVSPost2010PropOp31
 70
     1
102
RTVSPost2010Prop32
280
     0
102
RTVSPost2010PropOp32
 70
     1
102
RTVSPost2010Prop33
280
     0
102
RTVSPost2010PropOp33
 70
     1
102
RTVSPost2010Prop34
280
     0
102
RTVSPost2010PropOp34
 70
     1
102
RTVSPost2010Prop35
280
     0
102
RTVSPost2010PropOp35
 70
     1
102
RTVSPost2010Prop36
280
     0
102
RTVSPost2010PropOp36
 70
     1
102
RTVSPost2010Prop37
 90
       50
102
RTVSPost2010PropOp37
 70
     1
102
RTVSPost2010Prop38
140
0.0
102
RTVSPost2010PropOp38
 70
     1
102
RTVSPost2010Prop39
140
1.0
102
RTVSPost2010PropOp39
 70
     1
102
RTVSPost2010Prop40
 90
        0
102
RTVSPost2010PropOp40
 70
     1
102
RTVSPost2010Prop41ColorIndex
 90
       18
102
RTVSPost2010Prop41ColorRGB
 90
-16777216
102
RTVSPost2010PropOp41
 70
     1
102
RTVSPost2010Prop42
 90
       50
102
RTVSPost2010PropOp42
 70
     1
102
RTVSPost2010Prop43
 90
        3
102
RTVSPost2010PropOp43
 70
     1
102
RTVSPost2010Prop44ColorIndex
 90
        5
102
RTVSPost2010Prop44ColorRGB
 90
      255
102
RTVSPost2010PropOp44
 70
     1
102
RTVSPost2010Prop45
280
     0
102
RTVSPost2010PropOp45
 70
     1
102
RTVSPost2010Prop46
 90
       50
102
RTVSPost2010PropOp46
 70
     1
102
RTVSPost2010Prop47
 90
       50
102
RTVSPost2010PropOp47
 70
     1
102
RTVSPost2010Prop48
 90
       50
102
RTVSPost2010PropOp48
 70
     1
102
RTVSPost2010Prop49
280
     0
102
RTVSPost2010PropOp49
 70
     1
102
RTVSPost2010Prop50
 90
       50
102
RTVSPost2010PropOp50
 70
     1
102
RTVSPost2010Prop51ColorIndex
 90
      256
102
RTVSPost2010Prop51ColorRGB
 90
-16777216
102
RTVSPost2010PropOp51
 70
     0
102
RTVSPost2010Prop52
140
1.0
102
RTVSPost2010PropOp52
 70
     0
102
RTVSPost2010Prop53
 90
        2
102
RTVSPost2010PropOp53
 70
     1
102
RTVSPost2010Prop54
  1
strokes_ogs.tif
102
RTVSPost2010PropOp54
 70
     1
102
RTVSPost2010Prop55
280
     0
102
RTVSPost2010PropOp55
 70
     1
102
RTVSPost2010Prop56
140
1.0
102
RTVSPost2010PropOp56
 70
     1
102
RTVSPost2010Prop57
140
1.0
102
RTVSPost2010PropOp57
 70
     1
  0
XRECORD
  5
70996
102
{ACAD_REACTORS
330
70995
102
}
330
70995
100
AcDbXrecord
280
     1
102
RTVSPost2010Prop28
280
     0
102
RTVSPost2010PropOp28
 70
     1
102
RTVSPost2010Prop29
280
     1
102
RTVSPost2010PropOp29
 70
     1
102
RTVSPost2010Prop30
280
     1
102
RTVSPost2010PropOp30
 70
     1
102
RTVSPost2010Prop31
280
     0
102
RTVSPost2010PropOp31
 70
     1
102
RTVSPost2010Prop32
280
     0
102
RTVSPost2010PropOp32
 70
     1
102
RTVSPost2010Prop33
280
     0
102
RTVSPost2010PropOp33
 70
     1
102
RTVSPost2010Prop34
280
     0
102
RTVSPost2010PropOp34
 70
     1
102
RTVSPost2010Prop35
280
     0
102
RTVSPost2010PropOp35
 70
     1
102
RTVSPost2010Prop36
280
     0
102
RTVSPost2010PropOp36
 70
     1
102
RTVSPost2010Prop37
 90
       50
102
RTVSPost2010PropOp37
 70
     1
102
RTVSPost2010Prop38
140
0.0
102
RTVSPost2010PropOp38
 70
     1
102
RTVSPost2010Prop39
140
1.0
102
RTVSPost2010PropOp39
 70
     1
102
RTVSPost2010Prop40
 90
        0
102
RTVSPost2010PropOp40
 70
     1
102
RTVSPost2010Prop41ColorIndex
 90
       18
102
RTVSPost2010Prop41ColorRGB
 90
-16777216
102
RTVSPost2010PropOp41
 70
     1
102
RTVSPost2010Prop42
 90
       50
102
RTVSPost2010PropOp42
 70
     1
102
RTVSPost2010Prop43
 90
        3
102
RTVSPost2010PropOp43
 70
     1
102
RTVSPost2010Prop44ColorIndex
 90
        5
102
RTVSPost2010Prop44ColorRGB
 90
      255
102
RTVSPost2010PropOp44
 70
     1
102
RTVSPost2010Prop45
280
     0
102
RTVSPost2010PropOp45
 70
     1
102
RTVSPost2010Prop46
 90
       50
102
RTVSPost2010PropOp46
 70
     1
102
RTVSPost2010Prop47
 90
       50
102
RTVSPost2010PropOp47
 70
     1
102
RTVSPost2010Prop48
 90
       50
102
RTVSPost2010PropOp48
 70
     1
102
RTVSPost2010Prop49
280
     0
102
RTVSPost2010PropOp49
 70
     1
102
RTVSPost2010Prop50
 90
       50
102
RTVSPost2010PropOp50
 70
     1
102
RTVSPost2010Prop51ColorIndex
 90
      256
102
RTVSPost2010Prop51ColorRGB
 90
-16777216
102
RTVSPost2010PropOp51
 70
     0
102
RTVSPost2010Prop52
140
1.0
102
RTVSPost2010PropOp52
 70
     0
102
RTVSPost2010Prop53
 90
        2
102
RTVSPost2010PropOp53
 70
     1
102
RTVSPost2010Prop54
  1
strokes_ogs.tif
102
RTVSPost2010PropOp54
 70
     1
102
RTVSPost2010Prop55
280
     0
102
RTVSPost2010PropOp55
 70
     1
102
RTVSPost2010Prop56
140
1.0
102
RTVSPost2010PropOp56
 70
     1
102
RTVSPost2010Prop57
140
1.0
102
RTVSPost2010PropOp57
 70
     1
  0
XRECORD
  5
70998
102
{ACAD_REACTORS
330
70997
102
}
330
70997
100
AcDbXrecord
280
     1
102
RTVSPost2010Prop28
280
     0
102
RTVSPost2010PropOp28
 70
     1
102
RTVSPost2010Prop29
280
     1
102
RTVSPost2010PropOp29
 70
     1
102
RTVSPost2010Prop30
280
     1
102
RTVSPost2010PropOp30
 70
     1
102
RTVSPost2010Prop31
280
     0
102
RTVSPost2010PropOp31
 70
     1
102
RTVSPost2010Prop32
280
     0
102
RTVSPost2010PropOp32
 70
     1
102
RTVSPost2010Prop33
280
     0
102
RTVSPost2010PropOp33
 70
     1
102
RTVSPost2010Prop34
280
     0
102
RTVSPost2010PropOp34
 70
     1
102
RTVSPost2010Prop35
280
     0
102
RTVSPost2010PropOp35
 70
     1
102
RTVSPost2010Prop36
280
     0
102
RTVSPost2010PropOp36
 70
     1
102
RTVSPost2010Prop37
 90
       50
102
RTVSPost2010PropOp37
 70
     1
102
RTVSPost2010Prop38
140
0.0
102
RTVSPost2010PropOp38
 70
     1
102
RTVSPost2010Prop39
140
1.0
102
RTVSPost2010PropOp39
 70
     1
102
RTVSPost2010Prop40
 90
        0
102
RTVSPost2010PropOp40
 70
     1
102
RTVSPost2010Prop41ColorIndex
 90
       18
102
RTVSPost2010Prop41ColorRGB
 90
-16777216
102
RTVSPost2010PropOp41
 70
     1
102
RTVSPost2010Prop42
 90
       50
102
RTVSPost2010PropOp42
 70
     1
102
RTVSPost2010Prop43
 90
        3
102
RTVSPost2010PropOp43
 70
     1
102
RTVSPost2010Prop44ColorIndex
 90
        5
102
RTVSPost2010Prop44ColorRGB
 90
      255
102
RTVSPost2010PropOp44
 70
     1
102
RTVSPost2010Prop45
280
     0
102
RTVSPost2010PropOp45
 70
     1
102
RTVSPost2010Prop46
 90
       50
102
RTVSPost2010PropOp46
 70
     1
102
RTVSPost2010Prop47
 90
       50
102
RTVSPost2010PropOp47
 70
     1
102
RTVSPost2010Prop48
 90
       50
102
RTVSPost2010PropOp48
 70
     1
102
RTVSPost2010Prop49
280
     0
102
RTVSPost2010PropOp49
 70
     1
102
RTVSPost2010Prop50
 90
       50
102
RTVSPost2010PropOp50
 70
     1
102
RTVSPost2010Prop51ColorIndex
 90
      256
102
RTVSPost2010Prop51ColorRGB
 90
-16777216
102
RTVSPost2010PropOp51
 70
     0
102
RTVSPost2010Prop52
140
1.0
102
RTVSPost2010PropOp52
 70
     0
102
RTVSPost2010Prop53
 90
        2
102
RTVSPost2010PropOp53
 70
     1
102
RTVSPost2010Prop54
  1
strokes_ogs.tif
102
RTVSPost2010PropOp54
 70
     1
102
RTVSPost2010Prop55
280
     0
102
RTVSPost2010PropOp55
 70
     1
102
RTVSPost2010Prop56
140
1.0
102
RTVSPost2010PropOp56
 70
     1
102
RTVSPost2010Prop57
140
1.0
102
RTVSPost2010PropOp57
 70
     1
  0
XRECORD
  5
709B4
102
{ACAD_REACTORS
330
709B3
102
}
330
709B3
100
AcDbXrecord
280
     1
102
RTVSPost2010Prop28
280
     0
102
RTVSPost2010PropOp28
 70
     1
102
RTVSPost2010Prop29
280
     1
102
RTVSPost2010PropOp29
 70
     1
102
RTVSPost2010Prop30
280
     1
102
RTVSPost2010PropOp30
 70
     1
102
RTVSPost2010Prop31
280
     0
102
RTVSPost2010PropOp31
 70
     1
102
RTVSPost2010Prop32
280
     0
102
RTVSPost2010PropOp32
 70
     1
102
RTVSPost2010Prop33
280
     0
102
RTVSPost2010PropOp33
 70
     1
102
RTVSPost2010Prop34
280
     0
102
RTVSPost2010PropOp34
 70
     1
102
RTVSPost2010Prop35
280
     0
102
RTVSPost2010PropOp35
 70
     1
102
RTVSPost2010Prop36
280
     0
102
RTVSPost2010PropOp36
 70
     1
102
RTVSPost2010Prop37
 90
       50
102
RTVSPost2010PropOp37
 70
     1
102
RTVSPost2010Prop38
140
0.0
102
RTVSPost2010PropOp38
 70
     1
102
RTVSPost2010Prop39
140
1.0
102
RTVSPost2010PropOp39
 70
     1
102
RTVSPost2010Prop40
 90
        0
102
RTVSPost2010PropOp40
 70
     1
102
RTVSPost2010Prop41ColorIndex
 90
       18
102
RTVSPost2010Prop41ColorRGB
 90
-16777216
102
RTVSPost2010PropOp41
 70
     1
102
RTVSPost2010Prop42
 90
       50
102
RTVSPost2010PropOp42
 70
     1
102
RTVSPost2010Prop43
 90
        3
102
RTVSPost2010PropOp43
 70
     1
102
RTVSPost2010Prop44ColorIndex
 90
        5
102
RTVSPost2010Prop44ColorRGB
 90
      255
102
RTVSPost2010PropOp44
 70
     1
102
RTVSPost2010Prop45
280
     0
102
RTVSPost2010PropOp45
 70
     1
102
RTVSPost2010Prop46
 90
       50
102
RTVSPost2010PropOp46
 70
     1
102
RTVSPost2010Prop47
 90
       50
102
RTVSPost2010PropOp47
 70
     1
102
RTVSPost2010Prop48
 90
       50
102
RTVSPost2010PropOp48
 70
     1
102
RTVSPost2010Prop49
280
     0
102
RTVSPost2010PropOp49
 70
     1
102
RTVSPost2010Prop50
 90
       50
102
RTVSPost2010PropOp50
 70
     1
102
RTVSPost2010Prop51ColorIndex
 90
      256
102
RTVSPost2010Prop51ColorRGB
 90
-16777216
102
RTVSPost2010PropOp51
 70
     0
102
RTVSPost2010Prop52
140
1.0
102
RTVSPost2010PropOp52
 70
     0
102
RTVSPost2010Prop53
 90
        2
102
RTVSPost2010PropOp53
 70
     1
102
RTVSPost2010Prop54
  1
strokes_ogs.tif
102
RTVSPost2010PropOp54
 70
     1
102
RTVSPost2010Prop55
280
     0
102
RTVSPost2010PropOp55
 70
     1
102
RTVSPost2010Prop56
140
1.0
102
RTVSPost2010PropOp56
 70
     1
102
RTVSPost2010Prop57
140
1.0
102
RTVSPost2010PropOp57
 70
     1
  0
XRECORD
  5
709C0
102
{ACAD_REACTORS
330
709BF
102
}
330
709BF
100
AcDbXrecord
280
     1
102
RTVSPost2010Prop28
280
     0
102
RTVSPost2010PropOp28
 70
     0
102
RTVSPost2010Prop29
280
     1
102
RTVSPost2010PropOp29
 70
     0
102
RTVSPost2010Prop30
280
     1
102
RTVSPost2010PropOp30
 70
     0
102
RTVSPost2010Prop31
280
     0
102
RTVSPost2010PropOp31
 70
     0
102
RTVSPost2010Prop32
280
     0
102
RTVSPost2010PropOp32
 70
     0
102
RTVSPost2010Prop33
280
     0
102
RTVSPost2010PropOp33
 70
     0
102
RTVSPost2010Prop34
280
     0
102
RTVSPost2010PropOp34
 70
     0
102
RTVSPost2010Prop35
280
     0
102
RTVSPost2010PropOp35
 70
     0
102
RTVSPost2010Prop36
280
     0
102
RTVSPost2010PropOp36
 70
     0
102
RTVSPost2010Prop37
 90
       50
102
RTVSPost2010PropOp37
 70
     0
102
RTVSPost2010Prop38
140
0.0
102
RTVSPost2010PropOp38
 70
     0
102
RTVSPost2010Prop39
140
1.0
102
RTVSPost2010PropOp39
 70
     0
102
RTVSPost2010Prop40
 90
        0
102
RTVSPost2010PropOp40
 70
     0
102
RTVSPost2010Prop41ColorIndex
 90
       18
102
RTVSPost2010Prop41ColorRGB
 90
-16777216
102
RTVSPost2010PropOp41
 70
     0
102
RTVSPost2010Prop42
 90
       50
102
RTVSPost2010PropOp42
 70
     0
102
RTVSPost2010Prop43
 90
        3
102
RTVSPost2010PropOp43
 70
     0
102
RTVSPost2010Prop44ColorIndex
 90
        5
102
RTVSPost2010Prop44ColorRGB
 90
      255
102
RTVSPost2010PropOp44
 70
     0
102
RTVSPost2010Prop45
280
     0
102
RTVSPost2010PropOp45
 70
     0
102
RTVSPost2010Prop46
 90
       50
102
RTVSPost2010PropOp46
 70
     0
102
RTVSPost2010Prop47
 90
       50
102
RTVSPost2010PropOp47
 70
     0
102
RTVSPost2010Prop48
 90
       50
102
RTVSPost2010PropOp48
 70
     0
102
RTVSPost2010Prop49
280
     0
102
RTVSPost2010PropOp49
 70
     0
102
RTVSPost2010Prop50
 90
       50
102
RTVSPost2010PropOp50
 70
     0
102
RTVSPost2010Prop51ColorIndex
 90
      256
102
RTVSPost2010Prop51ColorRGB
 90
-16777216
102
RTVSPost2010PropOp51
 70
     0
102
RTVSPost2010Prop52
140
1.0
102
RTVSPost2010PropOp52
 70
     0
102
RTVSPost2010Prop53
 90
        2
102
RTVSPost2010PropOp53
 70
     0
102
RTVSPost2010Prop54
  1
strokes_ogs.tif
102
RTVSPost2010PropOp54
 70
     0
102
RTVSPost2010Prop55
280
     0
102
RTVSPost2010PropOp55
 70
     0
102
RTVSPost2010Prop56
140
1.0
102
RTVSPost2010PropOp56
 70
     0
102
RTVSPost2010Prop57
140
1.0
102
RTVSPost2010PropOp57
 70
     0
  0
XRECORD
  5
709AC
102
{ACAD_REACTORS
330
709AB
102
}
330
709AB
100
AcDbXrecord
280
     1
102
RTVSPost2010Prop28
280
     0
102
RTVSPost2010PropOp28
 70
     1
102
RTVSPost2010Prop29
280
     1
102
RTVSPost2010PropOp29
 70
     1
102
RTVSPost2010Prop30
280
     1
102
RTVSPost2010PropOp30
 70
     1
102
RTVSPost2010Prop31
280
     0
102
RTVSPost2010PropOp31
 70
     1
102
RTVSPost2010Prop32
280
     0
102
RTVSPost2010PropOp32
 70
     1
102
RTVSPost2010Prop33
280
     0
102
RTVSPost2010PropOp33
 70
     1
102
RTVSPost2010Prop34
280
     0
102
RTVSPost2010PropOp34
 70
     1
102
RTVSPost2010Prop35
280
     0
102
RTVSPost2010PropOp35
 70
     1
102
RTVSPost2010Prop36
280
     0
102
RTVSPost2010PropOp36
 70
     1
102
RTVSPost2010Prop37
 90
       50
102
RTVSPost2010PropOp37
 70
     1
102
RTVSPost2010Prop38
140
0.0
102
RTVSPost2010PropOp38
 70
     1
102
RTVSPost2010Prop39
140
1.0
102
RTVSPost2010PropOp39
 70
     1
102
RTVSPost2010Prop40
 90
        0
102
RTVSPost2010PropOp40
 70
     1
102
RTVSPost2010Prop41ColorIndex
 90
       18
102
RTVSPost2010Prop41ColorRGB
 90
-16777216
102
RTVSPost2010PropOp41
 70
     1
102
RTVSPost2010Prop42
 90
       50
102
RTVSPost2010PropOp42
 70
     1
102
RTVSPost2010Prop43
 90
        3
102
RTVSPost2010PropOp43
 70
     1
102
RTVSPost2010Prop44ColorIndex
 90
        5
102
RTVSPost2010Prop44ColorRGB
 90
      255
102
RTVSPost2010PropOp44
 70
     1
102
RTVSPost2010Prop45
280
     0
102
RTVSPost2010PropOp45
 70
     1
102
RTVSPost2010Prop46
 90
       50
102
RTVSPost2010PropOp46
 70
     1
102
RTVSPost2010Prop47
 90
       50
102
RTVSPost2010PropOp47
 70
     1
102
RTVSPost2010Prop48
 90
       50
102
RTVSPost2010PropOp48
 70
     1
102
RTVSPost2010Prop49
280
     0
102
RTVSPost2010PropOp49
 70
     1
102
RTVSPost2010Prop50
 90
       50
102
RTVSPost2010PropOp50
 70
     1
102
RTVSPost2010Prop51ColorIndex
 90
      256
102
RTVSPost2010Prop51ColorRGB
 90
-16777216
102
RTVSPost2010PropOp51
 70
     0
102
RTVSPost2010Prop52
140
1.0
102
RTVSPost2010PropOp52
 70
     0
102
RTVSPost2010Prop53
 90
        2
102
RTVSPost2010PropOp53
 70
     1
102
RTVSPost2010Prop54
  1
strokes_ogs.tif
102
RTVSPost2010PropOp54
 70
     1
102
RTVSPost2010Prop55
280
     0
102
RTVSPost2010PropOp55
 70
     1
102
RTVSPost2010Prop56
140
1.0
102
RTVSPost2010PropOp56
 70
     1
102
RTVSPost2010Prop57
140
1.0
102
RTVSPost2010PropOp57
 70
     1
  0
XRECORD
  5
709C2
102
{ACAD_REACTORS
330
709C1
102
}
330
709C1
100
AcDbXrecord
280
     1
102
RTVSPost2010Prop28
280
     0
102
RTVSPost2010PropOp28
 70
     0
102
RTVSPost2010Prop29
280
     1
102
RTVSPost2010PropOp29
 70
     0
102
RTVSPost2010Prop30
280
     1
102
RTVSPost2010PropOp30
 70
     0
102
RTVSPost2010Prop31
280
     0
102
RTVSPost2010PropOp31
 70
     0
102
RTVSPost2010Prop32
280
     0
102
RTVSPost2010PropOp32
 70
     0
102
RTVSPost2010Prop33
280
     0
102
RTVSPost2010PropOp33
 70
     0
102
RTVSPost2010Prop34
280
     0
102
RTVSPost2010PropOp34
 70
     0
102
RTVSPost2010Prop35
280
     0
102
RTVSPost2010PropOp35
 70
     0
102
RTVSPost2010Prop36
280
     0
102
RTVSPost2010PropOp36
 70
     0
102
RTVSPost2010Prop37
 90
       50
102
RTVSPost2010PropOp37
 70
     0
102
RTVSPost2010Prop38
140
0.0
102
RTVSPost2010PropOp38
 70
     0
102
RTVSPost2010Prop39
140
1.0
102
RTVSPost2010PropOp39
 70
     0
102
RTVSPost2010Prop40
 90
        0
102
RTVSPost2010PropOp40
 70
     0
102
RTVSPost2010Prop41ColorIndex
 90
       18
102
RTVSPost2010Prop41ColorRGB
 90
-16777216
102
RTVSPost2010PropOp41
 70
     0
102
RTVSPost2010Prop42
 90
       50
102
RTVSPost2010PropOp42
 70
     0
102
RTVSPost2010Prop43
 90
        3
102
RTVSPost2010PropOp43
 70
     0
102
RTVSPost2010Prop44ColorIndex
 90
        5
102
RTVSPost2010Prop44ColorRGB
 90
      255
102
RTVSPost2010PropOp44
 70
     0
102
RTVSPost2010Prop45
280
     0
102
RTVSPost2010PropOp45
 70
     0
102
RTVSPost2010Prop46
 90
       50
102
RTVSPost2010PropOp46
 70
     0
102
RTVSPost2010Prop47
 90
       50
102
RTVSPost2010PropOp47
 70
     0
102
RTVSPost2010Prop48
 90
       50
102
RTVSPost2010PropOp48
 70
     0
102
RTVSPost2010Prop49
280
     0
102
RTVSPost2010PropOp49
 70
     0
102
RTVSPost2010Prop50
 90
       50
102
RTVSPost2010PropOp50
 70
     0
102
RTVSPost2010Prop51ColorIndex
 90
      256
102
RTVSPost2010Prop51ColorRGB
 90
-16777216
102
RTVSPost2010PropOp51
 70
     0
102
RTVSPost2010Prop52
140
1.0
102
RTVSPost2010PropOp52
 70
     0
102
RTVSPost2010Prop53
 90
        2
102
RTVSPost2010PropOp53
 70
     0
102
RTVSPost2010Prop54
  1
strokes_ogs.tif
102
RTVSPost2010PropOp54
 70
     0
102
RTVSPost2010Prop55
280
     0
102
RTVSPost2010PropOp55
 70
     0
102
RTVSPost2010Prop56
140
1.0
102
RTVSPost2010PropOp56
 70
     0
102
RTVSPost2010Prop57
140
1.0
102
RTVSPost2010PropOp57
 70
     0
  0
XRECORD
  5
709A4
102
{ACAD_REACTORS
330
709A3
102
}
330
709A3
100
AcDbXrecord
280
     1
102
RTVSPost2010Prop28
280
     0
102
RTVSPost2010PropOp28
 70
     1
102
RTVSPost2010Prop29
280
     1
102
RTVSPost2010PropOp29
 70
     1
102
RTVSPost2010Prop30
280
     1
102
RTVSPost2010PropOp30
 70
     1
102
RTVSPost2010Prop31
280
     0
102
RTVSPost2010PropOp31
 70
     1
102
RTVSPost2010Prop32
280
     0
102
RTVSPost2010PropOp32
 70
     1
102
RTVSPost2010Prop33
280
     0
102
RTVSPost2010PropOp33
 70
     1
102
RTVSPost2010Prop34
280
     0
102
RTVSPost2010PropOp34
 70
     1
102
RTVSPost2010Prop35
280
     0
102
RTVSPost2010PropOp35
 70
     1
102
RTVSPost2010Prop36
280
     0
102
RTVSPost2010PropOp36
 70
     1
102
RTVSPost2010Prop37
 90
       50
102
RTVSPost2010PropOp37
 70
     1
102
RTVSPost2010Prop38
140
0.0
102
RTVSPost2010PropOp38
 70
     1
102
RTVSPost2010Prop39
140
1.0
102
RTVSPost2010PropOp39
 70
     1
102
RTVSPost2010Prop40
 90
        0
102
RTVSPost2010PropOp40
 70
     1
102
RTVSPost2010Prop41ColorIndex
 90
       18
102
RTVSPost2010Prop41ColorRGB
 90
-16777216
102
RTVSPost2010PropOp41
 70
     1
102
RTVSPost2010Prop42
 90
       50
102
RTVSPost2010PropOp42
 70
     1
102
RTVSPost2010Prop43
 90
        3
102
RTVSPost2010PropOp43
 70
     1
102
RTVSPost2010Prop44ColorIndex
 90
        5
102
RTVSPost2010Prop44ColorRGB
 90
      255
102
RTVSPost2010PropOp44
 70
     1
102
RTVSPost2010Prop45
280
     0
102
RTVSPost2010PropOp45
 70
     1
102
RTVSPost2010Prop46
 90
       50
102
RTVSPost2010PropOp46
 70
     1
102
RTVSPost2010Prop47
 90
       50
102
RTVSPost2010PropOp47
 70
     1
102
RTVSPost2010Prop48
 90
       50
102
RTVSPost2010PropOp48
 70
     1
102
RTVSPost2010Prop49
280
     0
102
RTVSPost2010PropOp49
 70
     1
102
RTVSPost2010Prop50
 90
       50
102
RTVSPost2010PropOp50
 70
     1
102
RTVSPost2010Prop51ColorIndex
 90
      256
102
RTVSPost2010Prop51ColorRGB
 90
-16777216
102
RTVSPost2010PropOp51
 70
     0
102
RTVSPost2010Prop52
140
1.0
102
RTVSPost2010PropOp52
 70
     0
102
RTVSPost2010Prop53
 90
        2
102
RTVSPost2010PropOp53
 70
     1
102
RTVSPost2010Prop54
  1
strokes_ogs.tif
102
RTVSPost2010PropOp54
 70
     1
102
RTVSPost2010Prop55
280
     0
102
RTVSPost2010PropOp55
 70
     1
102
RTVSPost2010Prop56
140
1.0
102
RTVSPost2010PropOp56
 70
     1
102
RTVSPost2010Prop57
140
1.0
102
RTVSPost2010PropOp57
 70
     1
  0
XRECORD
  5
709BE
102
{ACAD_REACTORS
330
709BD
102
}
330
709BD
100
AcDbXrecord
280
     1
102
RTVSPost2010Prop28
280
     0
102
RTVSPost2010PropOp28
 70
     1
102
RTVSPost2010Prop29
280
     1
102
RTVSPost2010PropOp29
 70
     1
102
RTVSPost2010Prop30
280
     1
102
RTVSPost2010PropOp30
 70
     1
102
RTVSPost2010Prop31
280
     0
102
RTVSPost2010PropOp31
 70
     1
102
RTVSPost2010Prop32
280
     0
102
RTVSPost2010PropOp32
 70
     1
102
RTVSPost2010Prop33
280
     0
102
RTVSPost2010PropOp33
 70
     1
102
RTVSPost2010Prop34
280
     0
102
RTVSPost2010PropOp34
 70
     1
102
RTVSPost2010Prop35
280
     0
102
RTVSPost2010PropOp35
 70
     1
102
RTVSPost2010Prop36
280
     0
102
RTVSPost2010PropOp36
 70
     1
102
RTVSPost2010Prop37
 90
       50
102
RTVSPost2010PropOp37
 70
     1
102
RTVSPost2010Prop38
140
0.0
102
RTVSPost2010PropOp38
 70
     1
102
RTVSPost2010Prop39
140
1.0
102
RTVSPost2010PropOp39
 70
     1
102
RTVSPost2010Prop40
 90
        0
102
RTVSPost2010PropOp40
 70
     1
102
RTVSPost2010Prop41ColorIndex
 90
       18
102
RTVSPost2010Prop41ColorRGB
 90
-16777216
102
RTVSPost2010PropOp41
 70
     1
102
RTVSPost2010Prop42
 90
       50
102
RTVSPost2010PropOp42
 70
     1
102
RTVSPost2010Prop43
 90
        3
102
RTVSPost2010PropOp43
 70
     1
102
RTVSPost2010Prop44ColorIndex
 90
        5
102
RTVSPost2010Prop44ColorRGB
 90
      255
102
RTVSPost2010PropOp44
 70
     1
102
RTVSPost2010Prop45
280
     0
102
RTVSPost2010PropOp45
 70
     1
102
RTVSPost2010Prop46
 90
       50
102
RTVSPost2010PropOp46
 70
     1
102
RTVSPost2010Prop47
 90
       50
102
RTVSPost2010PropOp47
 70
     1
102
RTVSPost2010Prop48
 90
       50
102
RTVSPost2010PropOp48
 70
     1
102
RTVSPost2010Prop49
280
     0
102
RTVSPost2010PropOp49
 70
     1
102
RTVSPost2010Prop50
 90
       50
102
RTVSPost2010PropOp50
 70
     1
102
RTVSPost2010Prop51ColorIndex
 90
      256
102
RTVSPost2010Prop51ColorRGB
 90
-16777216
102
RTVSPost2010PropOp51
 70
     0
102
RTVSPost2010Prop52
140
1.0
102
RTVSPost2010PropOp52
 70
     0
102
RTVSPost2010Prop53
 90
        2
102
RTVSPost2010PropOp53
 70
     1
102
RTVSPost2010Prop54
  1
strokes_ogs.tif
102
RTVSPost2010PropOp54
 70
     1
102
RTVSPost2010Prop55
280
     0
102
RTVSPost2010PropOp55
 70
     1
102
RTVSPost2010Prop56
140
1.0
102
RTVSPost2010PropOp56
 70
     1
102
RTVSPost2010Prop57
140
1.0
102
RTVSPost2010PropOp57
 70
     1
  0
XRECORD
  5
709BC
102
{ACAD_REACTORS
330
709BB
102
}
330
709BB
100
AcDbXrecord
280
     1
102
RTVSPost2010Prop28
280
     0
102
RTVSPost2010PropOp28
 70
     1
102
RTVSPost2010Prop29
280
     1
102
RTVSPost2010PropOp29
 70
     1
102
RTVSPost2010Prop30
280
     1
102
RTVSPost2010PropOp30
 70
     1
102
RTVSPost2010Prop31
280
     0
102
RTVSPost2010PropOp31
 70
     1
102
RTVSPost2010Prop32
280
     0
102
RTVSPost2010PropOp32
 70
     1
102
RTVSPost2010Prop33
280
     0
102
RTVSPost2010PropOp33
 70
     1
102
RTVSPost2010Prop34
280
     0
102
RTVSPost2010PropOp34
 70
     1
102
RTVSPost2010Prop35
280
     0
102
RTVSPost2010PropOp35
 70
     1
102
RTVSPost2010Prop36
280
     0
102
RTVSPost2010PropOp36
 70
     1
102
RTVSPost2010Prop37
 90
       50
102
RTVSPost2010PropOp37
 70
     1
102
RTVSPost2010Prop38
140
0.0
102
RTVSPost2010PropOp38
 70
     1
102
RTVSPost2010Prop39
140
1.0
102
RTVSPost2010PropOp39
 70
     1
102
RTVSPost2010Prop40
 90
        0
102
RTVSPost2010PropOp40
 70
     1
102
RTVSPost2010Prop41ColorIndex
 90
       18
102
RTVSPost2010Prop41ColorRGB
 90
-16777216
102
RTVSPost2010PropOp41
 70
     1
102
RTVSPost2010Prop42
 90
       50
102
RTVSPost2010PropOp42
 70
     1
102
RTVSPost2010Prop43
 90
        3
102
RTVSPost2010PropOp43
 70
     1
102
RTVSPost2010Prop44ColorIndex
 90
        5
102
RTVSPost2010Prop44ColorRGB
 90
      255
102
RTVSPost2010PropOp44
 70
     1
102
RTVSPost2010Prop45
280
     0
102
RTVSPost2010PropOp45
 70
     1
102
RTVSPost2010Prop46
 90
       50
102
RTVSPost2010PropOp46
 70
     1
102
RTVSPost2010Prop47
 90
       50
102
RTVSPost2010PropOp47
 70
     1
102
RTVSPost2010Prop48
 90
       50
102
RTVSPost2010PropOp48
 70
     1
102
RTVSPost2010Prop49
280
     0
102
RTVSPost2010PropOp49
 70
     1
102
RTVSPost2010Prop50
 90
       50
102
RTVSPost2010PropOp50
 70
     1
102
RTVSPost2010Prop51ColorIndex
 90
      256
102
RTVSPost2010Prop51ColorRGB
 90
-16777216
102
RTVSPost2010PropOp51
 70
     0
102
RTVSPost2010Prop52
140
1.0
102
RTVSPost2010PropOp52
 70
     0
102
RTVSPost2010Prop53
 90
        2
102
RTVSPost2010PropOp53
 70
     1
102
RTVSPost2010Prop54
  1
strokes_ogs.tif
102
RTVSPost2010PropOp54
 70
     1
102
RTVSPost2010Prop55
280
     0
102
RTVSPost2010PropOp55
 70
     1
102
RTVSPost2010Prop56
140
1.0
102
RTVSPost2010PropOp56
 70
     1
102
RTVSPost2010Prop57
140
1.0
102
RTVSPost2010PropOp57
 70
     1
  0
XRECORD
  5
709B6
102
{ACAD_REACTORS
330
709B5
102
}
330
709B5
100
AcDbXrecord
280
     1
102
RTVSPost2010Prop28
280
     0
102
RTVSPost2010PropOp28
 70
     1
102
RTVSPost2010Prop29
280
     1
102
RTVSPost2010PropOp29
 70
     1
102
RTVSPost2010Prop30
280
     1
102
RTVSPost2010PropOp30
 70
     1
102
RTVSPost2010Prop31
280
     0
102
RTVSPost2010PropOp31
 70
     1
102
RTVSPost2010Prop32
280
     0
102
RTVSPost2010PropOp32
 70
     1
102
RTVSPost2010Prop33
280
     0
102
RTVSPost2010PropOp33
 70
     1
102
RTVSPost2010Prop34
280
     0
102
RTVSPost2010PropOp34
 70
     1
102
RTVSPost2010Prop35
280
     0
102
RTVSPost2010PropOp35
 70
     1
102
RTVSPost2010Prop36
280
     0
102
RTVSPost2010PropOp36
 70
     1
102
RTVSPost2010Prop37
 90
       50
102
RTVSPost2010PropOp37
 70
     1
102
RTVSPost2010Prop38
140
0.0
102
RTVSPost2010PropOp38
 70
     1
102
RTVSPost2010Prop39
140
1.0
102
RTVSPost2010PropOp39
 70
     1
102
RTVSPost2010Prop40
 90
        0
102
RTVSPost2010PropOp40
 70
     1
102
RTVSPost2010Prop41ColorIndex
 90
       18
102
RTVSPost2010Prop41ColorRGB
 90
-16777216
102
RTVSPost2010PropOp41
 70
     1
102
RTVSPost2010Prop42
 90
       50
102
RTVSPost2010PropOp42
 70
     1
102
RTVSPost2010Prop43
 90
        3
102
RTVSPost2010PropOp43
 70
     1
102
RTVSPost2010Prop44ColorIndex
 90
        5
102
RTVSPost2010Prop44ColorRGB
 90
      255
102
RTVSPost2010PropOp44
 70
     1
102
RTVSPost2010Prop45
280
     0
102
RTVSPost2010PropOp45
 70
     1
102
RTVSPost2010Prop46
 90
       50
102
RTVSPost2010PropOp46
 70
     1
102
RTVSPost2010Prop47
 90
       50
102
RTVSPost2010PropOp47
 70
     1
102
RTVSPost2010Prop48
 90
       50
102
RTVSPost2010PropOp48
 70
     1
102
RTVSPost2010Prop49
280
     0
102
RTVSPost2010PropOp49
 70
     1
102
RTVSPost2010Prop50
 90
       50
102
RTVSPost2010PropOp50
 70
     1
102
RTVSPost2010Prop51ColorIndex
 90
      256
102
RTVSPost2010Prop51ColorRGB
 90
-16777216
102
RTVSPost2010PropOp51
 70
     0
102
RTVSPost2010Prop52
140
1.0
102
RTVSPost2010PropOp52
 70
     0
102
RTVSPost2010Prop53
 90
        2
102
RTVSPost2010PropOp53
 70
     1
102
RTVSPost2010Prop54
  1
strokes_ogs.tif
102
RTVSPost2010PropOp54
 70
     1
102
RTVSPost2010Prop55
280
     0
102
RTVSPost2010PropOp55
 70
     1
102
RTVSPost2010Prop56
140
1.0
102
RTVSPost2010PropOp56
 70
     1
102
RTVSPost2010Prop57
140
1.0
102
RTVSPost2010PropOp57
 70
     1
  0
XRECORD
  5
709B8
102
{ACAD_REACTORS
330
709B7
102
}
330
709B7
100
AcDbXrecord
280
     1
102
RTVSPost2010Prop28
280
     0
102
RTVSPost2010PropOp28
 70
     1
102
RTVSPost2010Prop29
280
     1
102
RTVSPost2010PropOp29
 70
     1
102
RTVSPost2010Prop30
280
     1
102
RTVSPost2010PropOp30
 70
     1
102
RTVSPost2010Prop31
280
     0
102
RTVSPost2010PropOp31
 70
     1
102
RTVSPost2010Prop32
280
     0
102
RTVSPost2010PropOp32
 70
     1
102
RTVSPost2010Prop33
280
     0
102
RTVSPost2010PropOp33
 70
     1
102
RTVSPost2010Prop34
280
     0
102
RTVSPost2010PropOp34
 70
     1
102
RTVSPost2010Prop35
280
     0
102
RTVSPost2010PropOp35
 70
     1
102
RTVSPost2010Prop36
280
     0
102
RTVSPost2010PropOp36
 70
     1
102
RTVSPost2010Prop37
 90
       50
102
RTVSPost2010PropOp37
 70
     1
102
RTVSPost2010Prop38
140
0.0
102
RTVSPost2010PropOp38
 70
     1
102
RTVSPost2010Prop39
140
1.0
102
RTVSPost2010PropOp39
 70
     1
102
RTVSPost2010Prop40
 90
        0
102
RTVSPost2010PropOp40
 70
     1
102
RTVSPost2010Prop41ColorIndex
 90
       18
102
RTVSPost2010Prop41ColorRGB
 90
-16777216
102
RTVSPost2010PropOp41
 70
     1
102
RTVSPost2010Prop42
 90
       50
102
RTVSPost2010PropOp42
 70
     1
102
RTVSPost2010Prop43
 90
        3
102
RTVSPost2010PropOp43
 70
     1
102
RTVSPost2010Prop44ColorIndex
 90
        5
102
RTVSPost2010Prop44ColorRGB
 90
      255
102
RTVSPost2010PropOp44
 70
     1
102
RTVSPost2010Prop45
280
     0
102
RTVSPost2010PropOp45
 70
     1
102
RTVSPost2010Prop46
 90
       50
102
RTVSPost2010PropOp46
 70
     1
102
RTVSPost2010Prop47
 90
       50
102
RTVSPost2010PropOp47
 70
     1
102
RTVSPost2010Prop48
 90
       50
102
RTVSPost2010PropOp48
 70
     1
102
RTVSPost2010Prop49
280
     0
102
RTVSPost2010PropOp49
 70
     1
102
RTVSPost2010Prop50
 90
       50
102
RTVSPost2010PropOp50
 70
     1
102
RTVSPost2010Prop51ColorIndex
 90
      256
102
RTVSPost2010Prop51ColorRGB
 90
-16777216
102
RTVSPost2010PropOp51
 70
     0
102
RTVSPost2010Prop52
140
1.0
102
RTVSPost2010PropOp52
 70
     0
102
RTVSPost2010Prop53
 90
        2
102
RTVSPost2010PropOp53
 70
     1
102
RTVSPost2010Prop54
  1
strokes_ogs.tif
102
RTVSPost2010PropOp54
 70
     1
102
RTVSPost2010Prop55
280
     0
102
RTVSPost2010PropOp55
 70
     1
102
RTVSPost2010Prop56
140
1.0
102
RTVSPost2010PropOp56
 70
     1
102
RTVSPost2010Prop57
140
1.0
102
RTVSPost2010PropOp57
 70
     1
  0
XRECORD
  5
709AA
102
{ACAD_REACTORS
330
709A9
102
}
330
709A9
100
AcDbXrecord
280
     1
102
RTVSPost2010Prop28
280
     0
102
RTVSPost2010PropOp28
 70
     1
102
RTVSPost2010Prop29
280
     1
102
RTVSPost2010PropOp29
 70
     1
102
RTVSPost2010Prop30
280
     1
102
RTVSPost2010PropOp30
 70
     1
102
RTVSPost2010Prop31
280
     0
102
RTVSPost2010PropOp31
 70
     1
102
RTVSPost2010Prop32
280
     0
102
RTVSPost2010PropOp32
 70
     1
102
RTVSPost2010Prop33
280
     0
102
RTVSPost2010PropOp33
 70
     1
102
RTVSPost2010Prop34
280
     0
102
RTVSPost2010PropOp34
 70
     1
102
RTVSPost2010Prop35
280
     0
102
RTVSPost2010PropOp35
 70
     1
102
RTVSPost2010Prop36
280
     0
102
RTVSPost2010PropOp36
 70
     1
102
RTVSPost2010Prop37
 90
       50
102
RTVSPost2010PropOp37
 70
     1
102
RTVSPost2010Prop38
140
0.0
102
RTVSPost2010PropOp38
 70
     1
102
RTVSPost2010Prop39
140
1.0
102
RTVSPost2010PropOp39
 70
     1
102
RTVSPost2010Prop40
 90
        0
102
RTVSPost2010PropOp40
 70
     1
102
RTVSPost2010Prop41ColorIndex
 90
       18
102
RTVSPost2010Prop41ColorRGB
 90
-16777216
102
RTVSPost2010PropOp41
 70
     1
102
RTVSPost2010Prop42
 90
       50
102
RTVSPost2010PropOp42
 70
     1
102
RTVSPost2010Prop43
 90
        3
102
RTVSPost2010PropOp43
 70
     1
102
RTVSPost2010Prop44ColorIndex
 90
        5
102
RTVSPost2010Prop44ColorRGB
 90
      255
102
RTVSPost2010PropOp44
 70
     1
102
RTVSPost2010Prop45
280
     0
102
RTVSPost2010PropOp45
 70
     1
102
RTVSPost2010Prop46
 90
       50
102
RTVSPost2010PropOp46
 70
     1
102
RTVSPost2010Prop47
 90
       50
102
RTVSPost2010PropOp47
 70
     1
102
RTVSPost2010Prop48
 90
       50
102
RTVSPost2010PropOp48
 70
     1
102
RTVSPost2010Prop49
280
     0
102
RTVSPost2010PropOp49
 70
     1
102
RTVSPost2010Prop50
 90
       50
102
RTVSPost2010PropOp50
 70
     1
102
RTVSPost2010Prop51ColorIndex
 90
      256
102
RTVSPost2010Prop51ColorRGB
 90
-16777216
102
RTVSPost2010PropOp51
 70
     0
102
RTVSPost2010Prop52
140
1.0
102
RTVSPost2010PropOp52
 70
     0
102
RTVSPost2010Prop53
 90
        2
102
RTVSPost2010PropOp53
 70
     1
102
RTVSPost2010Prop54
  1
strokes_ogs.tif
102
RTVSPost2010PropOp54
 70
     1
102
RTVSPost2010Prop55
280
     0
102
RTVSPost2010PropOp55
 70
     1
102
RTVSPost2010Prop56
140
1.0
102
RTVSPost2010PropOp56
 70
     1
102
RTVSPost2010Prop57
140
1.0
102
RTVSPost2010PropOp57
 70
     1
  0
XRECORD
  5
709B2
102
{ACAD_REACTORS
330
709B1
102
}
330
709B1
100
AcDbXrecord
280
     1
102
RTVSPost2010Prop28
280
     0
102
RTVSPost2010PropOp28
 70
     1
102
RTVSPost2010Prop29
280
     1
102
RTVSPost2010PropOp29
 70
     1
102
RTVSPost2010Prop30
280
     1
102
RTVSPost2010PropOp30
 70
     1
102
RTVSPost2010Prop31
280
     0
102
RTVSPost2010PropOp31
 70
     1
102
RTVSPost2010Prop32
280
     0
102
RTVSPost2010PropOp32
 70
     1
102
RTVSPost2010Prop33
280
     0
102
RTVSPost2010PropOp33
 70
     1
102
RTVSPost2010Prop34
280
     0
102
RTVSPost2010PropOp34
 70
     1
102
RTVSPost2010Prop35
280
     0
102
RTVSPost2010PropOp35
 70
     1
102
RTVSPost2010Prop36
280
     0
102
RTVSPost2010PropOp36
 70
     1
102
RTVSPost2010Prop37
 90
       50
102
RTVSPost2010PropOp37
 70
     1
102
RTVSPost2010Prop38
140
0.0
102
RTVSPost2010PropOp38
 70
     1
102
RTVSPost2010Prop39
140
1.0
102
RTVSPost2010PropOp39
 70
     1
102
RTVSPost2010Prop40
 90
        0
102
RTVSPost2010PropOp40
 70
     1
102
RTVSPost2010Prop41ColorIndex
 90
       18
102
RTVSPost2010Prop41ColorRGB
 90
-16777216
102
RTVSPost2010PropOp41
 70
     1
102
RTVSPost2010Prop42
 90
       50
102
RTVSPost2010PropOp42
 70
     1
102
RTVSPost2010Prop43
 90
        3
102
RTVSPost2010PropOp43
 70
     1
102
RTVSPost2010Prop44ColorIndex
 90
        5
102
RTVSPost2010Prop44ColorRGB
 90
      255
102
RTVSPost2010PropOp44
 70
     1
102
RTVSPost2010Prop45
280
     0
102
RTVSPost2010PropOp45
 70
     1
102
RTVSPost2010Prop46
 90
       50
102
RTVSPost2010PropOp46
 70
     1
102
RTVSPost2010Prop47
 90
       50
102
RTVSPost2010PropOp47
 70
     1
102
RTVSPost2010Prop48
 90
       50
102
RTVSPost2010PropOp48
 70
     1
102
RTVSPost2010Prop49
280
     0
102
RTVSPost2010PropOp49
 70
     1
102
RTVSPost2010Prop50
 90
       50
102
RTVSPost2010PropOp50
 70
     1
102
RTVSPost2010Prop51ColorIndex
 90
      256
102
RTVSPost2010Prop51ColorRGB
 90
-16777216
102
RTVSPost2010PropOp51
 70
     0
102
RTVSPost2010Prop52
140
1.0
102
RTVSPost2010PropOp52
 70
     0
102
RTVSPost2010Prop53
 90
        2
102
RTVSPost2010PropOp53
 70
     1
102
RTVSPost2010Prop54
  1
strokes_ogs.tif
102
RTVSPost2010PropOp54
 70
     1
102
RTVSPost2010Prop55
280
     0
102
RTVSPost2010PropOp55
 70
     1
102
RTVSPost2010Prop56
140
1.0
102
RTVSPost2010PropOp56
 70
     1
102
RTVSPost2010Prop57
140
1.0
102
RTVSPost2010PropOp57
 70
     1
  0
XRECORD
  5
709BA
102
{ACAD_REACTORS
330
709B9
102
}
330
709B9
100
AcDbXrecord
280
     1
102
RTVSPost2010Prop28
280
     0
102
RTVSPost2010PropOp28
 70
     1
102
RTVSPost2010Prop29
280
     1
102
RTVSPost2010PropOp29
 70
     1
102
RTVSPost2010Prop30
280
     1
102
RTVSPost2010PropOp30
 70
     1
102
RTVSPost2010Prop31
280
     0
102
RTVSPost2010PropOp31
 70
     1
102
RTVSPost2010Prop32
280
     0
102
RTVSPost2010PropOp32
 70
     1
102
RTVSPost2010Prop33
280
     0
102
RTVSPost2010PropOp33
 70
     1
102
RTVSPost2010Prop34
280
     0
102
RTVSPost2010PropOp34
 70
     1
102
RTVSPost2010Prop35
280
     0
102
RTVSPost2010PropOp35
 70
     1
102
RTVSPost2010Prop36
280
     0
102
RTVSPost2010PropOp36
 70
     1
102
RTVSPost2010Prop37
 90
       50
102
RTVSPost2010PropOp37
 70
     1
102
RTVSPost2010Prop38
140
0.0
102
RTVSPost2010PropOp38
 70
     1
102
RTVSPost2010Prop39
140
1.0
102
RTVSPost2010PropOp39
 70
     1
102
RTVSPost2010Prop40
 90
        0
102
RTVSPost2010PropOp40
 70
     1
102
RTVSPost2010Prop41ColorIndex
 90
       18
102
RTVSPost2010Prop41ColorRGB
 90
-16777216
102
RTVSPost2010PropOp41
 70
     1
102
RTVSPost2010Prop42
 90
       50
102
RTVSPost2010PropOp42
 70
     1
102
RTVSPost2010Prop43
 90
        3
102
RTVSPost2010PropOp43
 70
     1
102
RTVSPost2010Prop44ColorIndex
 90
        5
102
RTVSPost2010Prop44ColorRGB
 90
      255
102
RTVSPost2010PropOp44
 70
     1
102
RTVSPost2010Prop45
280
     0
102
RTVSPost2010PropOp45
 70
     1
102
RTVSPost2010Prop46
 90
       50
102
RTVSPost2010PropOp46
 70
     1
102
RTVSPost2010Prop47
 90
       50
102
RTVSPost2010PropOp47
 70
     1
102
RTVSPost2010Prop48
 90
       50
102
RTVSPost2010PropOp48
 70
     1
102
RTVSPost2010Prop49
280
     0
102
RTVSPost2010PropOp49
 70
     1
102
RTVSPost2010Prop50
 90
       50
102
RTVSPost2010PropOp50
 70
     1
102
RTVSPost2010Prop51ColorIndex
 90
      256
102
RTVSPost2010Prop51ColorRGB
 90
-16777216
102
RTVSPost2010PropOp51
 70
     0
102
RTVSPost2010Prop52
140
1.0
102
RTVSPost2010PropOp52
 70
     0
102
RTVSPost2010Prop53
 90
        2
102
RTVSPost2010PropOp53
 70
     1
102
RTVSPost2010Prop54
  1
strokes_ogs.tif
102
RTVSPost2010PropOp54
 70
     1
102
RTVSPost2010Prop55
280
     0
102
RTVSPost2010PropOp55
 70
     1
102
RTVSPost2010Prop56
140
1.0
102
RTVSPost2010PropOp56
 70
     1
102
RTVSPost2010Prop57
140
1.0
102
RTVSPost2010PropOp57
 70
     1
  0
ENDSEC
  0
EOF
