  0
SECTION
  2
HEADER
  9
$ACADVER
  1
AC1024
  9
$ACADMAINTVER
 70
   226
  9
$DWGCODEPAGE
  3
ANSI_1252
  9
$LASTSAVEDBY
  1
mhumphreys
  9
$INSBASE
 10
0.0
 20
0.0
 30
0.0
  9
$EXTMIN
 10
5289.96155620904
 20
-3362.971211960785
 30
0.0
  9
$EXTMAX
 10
10826.21648060166
 20
517.3108987394388
 30
0.0
  9
$LIMMIN
 10
0.0
 20
0.0
  9
$LIMMAX
 10
12.0
 20
9.0
  9
$ORTHOMODE
 70
     0
  9
$REGENMODE
 70
     1
  9
$FILLMODE
 70
     1
  9
$QTEXTMODE
 70
     0
  9
$MIRRTEXT
 70
     0
  9
$LTSCALE
 40
1.0
  9
$ATTMODE
 70
     1
  9
$TEXTSIZE
 40
2.5
  9
$TRACEWID
 40
0.05
  9
$TEXTSTYLE
  7
fastrack
  9
$CLAYER
  8
0
  9
$CELTYPE
  6
ByLayer
  9
$CECOLOR
 62
   256
  9
$CELTSCALE
 40
1.0
  9
$DISPSILH
 70
     0
  9
$DIMSCALE
 40
1.0
  9
$DIMASZ
 40
0.18
  9
$DIMEXO
 40
0.0625
  9
$DIMDLI
 40
0.38
  9
$DIMRND
 40
0.0
  9
$DIMDLE
 40
0.0
  9
$DIMEXE
 40
0.18
  9
$DIMTP
 40
0.0
  9
$DIMTM
 40
0.0
  9
$DIMTXT
 40
0.18
  9
$DIMCEN
 40
0.09
  9
$DIMTSZ
 40
0.0
  9
$DIMTOL
 70
     0
  9
$DIMLIM
 70
     0
  9
$DIMTIH
 70
     1
  9
$DIMTOH
 70
     1
  9
$DIMSE1
 70
     0
  9
$DIMSE2
 70
     0
  9
$DIMTAD
 70
     0
  9
$DIMZIN
 70
     0
  9
$DIMBLK
  1

  9
$DIMASO
 70
     1
  9
$DIMSHO
 70
     1
  9
$DIMPOST
  1

  9
$DIMAPOST
  1

  9
$DIMALT
 70
     0
  9
$DIMALTD
 70
     2
  9
$DIMALTF
 40
25.4
  9
$DIMLFAC
 40
1.0
  9
$DIMTOFL
 70
     0
  9
$DIMTVP
 40
0.0
  9
$DIMTIX
 70
     0
  9
$DIMSOXD
 70
     0
  9
$DIMSAH
 70
     0
  9
$DIMBLK1
  1

  9
$DIMBLK2
  1

  9
$DIMSTYLE
  2
Standard
  9
$DIMCLRD
 70
     0
  9
$DIMCLRE
 70
     0
  9
$DIMCLRT
 70
     0
  9
$DIMTFAC
 40
1.0
  9
$DIMGAP
 40
0.09
  9
$DIMJUST
 70
     0
  9
$DIMSD1
 70
     0
  9
$DIMSD2
 70
     0
  9
$DIMTOLJ
 70
     1
  9
$DIMTZIN
 70
     0
  9
$DIMALTZ
 70
     0
  9
$DIMALTTZ
 70
     0
  9
$DIMUPT
 70
     0
  9
$DIMDEC
 70
     4
  9
$DIMTDEC
 70
     4
  9
$DIMALTU
 70
     2
  9
$DIMALTTD
 70
     2
  9
$DIMTXSTY
  7
Standard
  9
$DIMAUNIT
 70
     0
  9
$DIMADEC
 70
     0
  9
$DIMALTRND
 40
0.0
  9
$DIMAZIN
 70
     0
  9
$DIMDSEP
 70
    46
  9
$DIMATFIT
 70
     3
  9
$DIMFRAC
 70
     0
  9
$DIMLDRBLK
  1

  9
$DIMLUNIT
 70
     2
  9
$DIMLWD
 70
    -2
  9
$DIMLWE
 70
    -2
  9
$DIMTMOVE
 70
     0
  9
$DIMFXL
 40
1.0
  9
$DIMFXLON
 70
     0
  9
$DIMJOGANG
 40
0.7853981633974483
  9
$DIMTFILL
 70
     0
  9
$DIMTFILLCLR
 70
     0
  9
$DIMARCSYM
 70
     0
  9
$DIMLTYPE
  6

  9
$DIMLTEX1
  6

  9
$DIMLTEX2
  6

  9
$DIMTXTDIRECTION
 70
     0
  9
$LUNITS
 70
     2
  9
$LUPREC
 70
     4
  9
$SKETCHINC
 40
0.1
  9
$FILLETRAD
 40
0.0
  9
$AUNITS
 70
     0
  9
$AUPREC
 70
     0
  9
$MENU
  1
.
  9
$ELEVATION
 40
0.0
  9
$PELEVATION
 40
0.0
  9
$THICKNESS
 40
0.0
  9
$LIMCHECK
 70
     0
  9
$CHAMFERA
 40
0.0
  9
$CHAMFERB
 40
0.0
  9
$CHAMFERC
 40
0.0
  9
$CHAMFERD
 40
0.0
  9
$SKPOLY
 70
     0
  9
$TDCREATE
 40
2454481.571296296
  9
$TDUCREATE
 40
2454481.571297315
  9
$TDUPDATE
 40
2458815.575868056
  9
$TDUUPDATE
 40
2458815.575868056
  9
$TDINDWG
 40
0.6598759144
  9
$TDUSRTIMER
 40
0.6598758796
  9
$USRTIMER
 70
     1
  9
$ANGBASE
 50
0.0
  9
$ANGDIR
 70
     0
  9
$PDMODE
 70
     0
  9
$PDSIZE
 40
0.0
  9
$PLINEWID
 40
0.0
  9
$SPLFRAME
 70
     0
  9
$SPLINETYPE
 70
     6
  9
$SPLINESEGS
 70
     8
  9
$HANDSEED
  5
494E
  9
$SURFTAB1
 70
     6
  9
$SURFTAB2
 70
     6
  9
$SURFTYPE
 70
     6
  9
$SURFU
 70
     6
  9
$SURFV
 70
     6
  9
$UCSBASE
  2

  9
$UCSNAME
  2

  9
$UCSORG
 10
0.0
 20
0.0
 30
0.0
  9
$UCSXDIR
 10
1.0
 20
0.0
 30
0.0
  9
$UCSYDIR
 10
0.0
 20
1.0
 30
0.0
  9
$UCSORTHOREF
  2

  9
$UCSORTHOVIEW
 70
     0
  9
$UCSORGTOP
 10
0.0
 20
0.0
 30
0.0
  9
$UCSORGBOTTOM
 10
0.0
 20
0.0
 30
0.0
  9
$UCSORGLEFT
 10
0.0
 20
0.0
 30
0.0
  9
$UCSORGRIGHT
 10
0.0
 20
0.0
 30
0.0
  9
$UCSORGFRONT
 10
0.0
 20
0.0
 30
0.0
  9
$UCSORGBACK
 10
0.0
 20
0.0
 30
0.0
  9
$PUCSBASE
  2

  9
$PUCSNAME
  2

  9
$PUCSORG
 10
0.0
 20
0.0
 30
0.0
  9
$PUCSXDIR
 10
1.0
 20
0.0
 30
0.0
  9
$PUCSYDIR
 10
0.0
 20
1.0
 30
0.0
  9
$PUCSORTHOREF
  2

  9
$PUCSORTHOVIEW
 70
     0
  9
$PUCSORGTOP
 10
0.0
 20
0.0
 30
0.0
  9
$PUCSORGBOTTOM
 10
0.0
 20
0.0
 30
0.0
  9
$PUCSORGLEFT
 10
0.0
 20
0.0
 30
0.0
  9
$PUCSORGRIGHT
 10
0.0
 20
0.0
 30
0.0
  9
$PUCSORGFRONT
 10
0.0
 20
0.0
 30
0.0
  9
$PUCSORGBACK
 10
0.0
 20
0.0
 30
0.0
  9
$USERI1
 70
     0
  9
$USERI2
 70
     0
  9
$USERI3
 70
     0
  9
$USERI4
 70
     0
  9
$USERI5
 70
     0
  9
$USERR1
 40
0.0
  9
$USERR2
 40
0.0
  9
$USERR3
 40
0.0
  9
$USERR4
 40
0.0
  9
$USERR5
 40
0.0
  9
$WORLDVIEW
 70
     1
  9
$SHADEDGE
 70
     3
  9
$SHADEDIF
 70
    70
  9
$TILEMODE
 70
     0
  9
$MAXACTVP
 70
    64
  9
$PINSBASE
 10
0.0
 20
0.0
 30
0.0
  9
$PLIMCHECK
 70
     0
  9
$PEXTMIN
 10
27.81056882734663
 20
20.15281655211266
 30
-0.0015258207003583
  9
$PEXTMAX
 10
250.3691498573315
 20
181.455111110177
 30
0.0000000349246037
  9
$PLIMMIN
 10
-3.17498779296875
 20
-4.222749710083006
  9
$PLIMMAX
 10
293.7933349609375
 20
205.7505779266358
  9
$UNITMODE
 70
     0
  9
$VISRETAIN
 70
     1
  9
$PLINEGEN
 70
     0
  9
$PSLTSCALE
 70
     1
  9
$TREEDEPTH
 70
  3020
  9
$CMLSTYLE
  2
Standard
  9
$CMLJUST
 70
     0
  9
$CMLSCALE
 40
1.0
  9
$PROXYGRAPHICS
 70
     1
  9
$MEASUREMENT
 70
     0
  9
$CELWEIGHT
370
    -1
  9
$ENDCAPS
280
     0
  9
$JOINSTYLE
280
     0
  9
$LWDISPLAY
290
     0
  9
$INSUNITS
 70
     1
  9
$HYPERLINKBASE
  1

  9
$STYLESHEET
  1
.15MM.CTB
  9
$XEDIT
290
     1
  9
$CEPSNTYPE
380
     0
  9
$PSTYLEMODE
290
     1
  9
$FINGERPRINTGUID
  2
{DF1E48EA-4DA0-47D3-822C-A92F23B33EA5}
  9
$VERSIONGUID
  2
{D57F6D73-A76E-3244-8A00-4EC4F448BE9B}
  9
$EXTNAMES
290
     1
  9
$PSVPSCALE
 40
0.0
  9
$OLESTARTUP
290
     0
  9
$SORTENTS
280
   127
  9
$INDEXCTL
280
     0
  9
$HIDETEXT
280
     1
  9
$XCLIPFRAME
280
     2
  9
$HALOGAP
280
     0
  9
$OBSCOLOR
 70
   257
  9
$OBSLTYPE
280
     0
  9
$INTERSECTIONDISPLAY
280
     0
  9
$INTERSECTIONCOLOR
 70
   257
  9
$DIMASSOC
280
     2
  9
$PROJECTNAME
  1

  9
$CAMERADISPLAY
290
     0
  9
$LENSLENGTH
 40
50.0
  9
$CAMERAHEIGHT
 40
0.0
  9
$STEPSPERSEC
 40
2.0
  9
$STEPSIZE
 40
6.0
  9
$3DDWFPREC
 40
2.0
  9
$PSOLWIDTH
 40
0.25
  9
$PSOLHEIGHT
 40
4.0
  9
$LOFTANG1
 40
1.570796326794896
  9
$LOFTANG2
 40
1.570796326794896
  9
$LOFTMAG1
 40
0.0
  9
$LOFTMAG2
 40
0.0
  9
$LOFTPARAM
 70
     7
  9
$LOFTNORMALS
280
     1
  9
$LATITUDE
 40
37.795
  9
$LONGITUDE
 40
-122.394
  9
$NORTHDIRECTION
 40
0.0
  9
$TIMEZONE
 70
 -8000
  9
$LIGHTGLYPHDISPLAY
280
     1
  9
$TILEMODELIGHTSYNCH
280
     1
  9
$CMATERIAL
347
96
  9
$SOLIDHIST
280
     0
  9
$SHOWHIST
280
     1
  9
$DWFFRAME
280
     2
  9
$DGNFRAME
280
     0
  9
$REALWORLDSCALE
290
     1
  9
$INTERFERECOLOR
 62
     1
  9
$INTERFEREOBJVS
345
A3
  9
$INTERFEREVPVS
346
48E3
  9
$CSHADOW
280
     0
  9
$SHADOWPLANELOCATION
 40
0.0
  0
ENDSEC
  0
SECTION
  2
CLASSES
  0
CLASS
  1
ACDBDICTIONARYWDFLT
  2
AcDbDictionaryWithDefault
  3
ObjectDBX Classes
 90
        0
 91
        1
280
     0
281
     0
  0
CLASS
  1
DICTIONARYVAR
  2
AcDbDictionaryVar
  3
ObjectDBX Classes
 90
        0
 91
       13
280
     0
281
     0
  0
CLASS
  1
TABLESTYLE
  2
AcDbTableStyle
  3
ObjectDBX Classes
 90
     4095
 91
        1
280
     0
281
     0
  0
CLASS
  1
MATERIAL
  2
AcDbMaterial
  3
ObjectDBX Classes
 90
     1153
 91
        3
280
     0
281
     0
  0
CLASS
  1
VISUALSTYLE
  2
AcDbVisualStyle
  3
ObjectDBX Classes
 90
     4095
 91
       26
280
     0
281
     0
  0
CLASS
  1
DIMASSOC
  2
AcDbDimAssoc
  3
"AcDbDimAssoc|Product Desc:     AcDim ARX App For Dimension|Company:          Autodesk, Inc.|WEB Address:      www.autodesk.com"
 90
        0
 91
        4
280
     0
281
     0
  0
CLASS
  1
SORTENTSTABLE
  2
AcDbSortentsTable
  3
ObjectDBX Classes
 90
        0
 91
        1
280
     0
281
     0
  0
CLASS
  1
SCALE
  2
AcDbScale
  3
ObjectDBX Classes
 90
     1153
 91
       33
280
     0
281
     0
  0
CLASS
  1
MLEADERSTYLE
  2
AcDbMLeaderStyle
  3
ACDB_MLEADERSTYLE_CLASS
 90
     4095
 91
        1
280
     0
281
     0
  0
CLASS
  1
CELLSTYLEMAP
  2
AcDbCellStyleMap
  3
ObjectDBX Classes
 90
     1152
 91
        2
280
     0
281
     0
  0
CLASS
  1
ACDBSECTIONVIEWSTYLE
  2
AcDbSectionViewStyle
  3
ObjectDBX Classes
 90
     1025
 91
        1
280
     0
281
     0
  0
CLASS
  1
ACDBDETAILVIEWSTYLE
  2
AcDbDetailViewStyle
  3
ObjectDBX Classes
 90
     1025
 91
        1
280
     0
281
     0
  0
ENDSEC
  0
SECTION
  2
TABLES
  0
TABLE
  2
VPORT
  5
8
102
{ACAD_XDICTIONARY
360
3B5A
102
}
330
0
100
AcDbSymbolTable
 70
     1
  0
VPORT
  5
4777
330
8
100
AcDbSymbolTableRecord
100
AcDbViewportTableRecord
  2
*Active
 70
     0
 10
0.0
 20
0.0
 11
1.0
 21
1.0
 12
10369.16764515656
 22
-1061.081342762458
 13
0.0
 23
0.0
 14
0.5
 24
0.5
 15
0.5
 25
0.5
 16
0.0
 26
0.0
 36
1.0
 17
0.0
 27
0.0
 37
0.0
 40
4900.834451400172
 41
2.292712066905615
 42
50.0
 43
0.0
 44
0.0
 50
0.0
 51
0.0
 71
     0
 72
  1000
 73
     1
 74
     3
 75
     0
 76
     0
 77
     0
 78
     0
281
     0
 65
     1
110
0.0
120
0.0
130
0.0
111
1.0
121
0.0
131
0.0
112
0.0
122
1.0
132
0.0
 79
     0
146
0.0
348
9F
 60
     2
 61
     5
292
     1
282
     1
141
0.0
142
0.0
 63
   250
421
  3355443
1001
ACAD_NAV_VCDISPLAY
1070
     3
  0
ENDTAB
  0
TABLE
  2
LTYPE
  5
5
330
0
100
AcDbSymbolTable
 70
     1
  0
LTYPE
  5
14
330
5
100
AcDbSymbolTableRecord
100
AcDbLinetypeTableRecord
  2
ByBlock
 70
     0
  3

 72
    65
 73
     0
 40
0.0
  0
LTYPE
  5
15
330
5
100
AcDbSymbolTableRecord
100
AcDbLinetypeTableRecord
  2
ByLayer
 70
     0
  3

 72
    65
 73
     0
 40
0.0
  0
LTYPE
  5
16
330
5
100
AcDbSymbolTableRecord
100
AcDbLinetypeTableRecord
  2
Continuous
 70
     0
  3
Solid line
 72
    65
 73
     0
 40
0.0
  0
ENDTAB
  0
TABLE
  2
LAYER
  5
2
102
{ACAD_XDICTIONARY
360
158
102
}
330
0
100
AcDbSymbolTable
 70
     6
  0
LAYER
  5
10
102
{ACAD_XDICTIONARY
360
3BDA
102
}
330
2
100
AcDbSymbolTableRecord
100
AcDbLayerTableRecord
  2
0
 70
     0
 62
     7
  6
Continuous
370
    -3
390
F
347
98
  0
LAYER
  5
150
330
2
100
AcDbSymbolTableRecord
100
AcDbLayerTableRecord
  2
Defpoints
 70
     0
 62
     7
  6
Continuous
290
     0
370
    -3
390
F
347
98
  0
LAYER
  5
151
102
{ACAD_XDICTIONARY
360
3BDC
102
}
330
2
100
AcDbSymbolTableRecord
100
AcDbLayerTableRecord
  2
DIMS
 70
     0
 62
     7
  6
Continuous
370
    -3
390
F
347
98
  0
LAYER
  5
1066
102
{ACAD_XDICTIONARY
360
3BDE
102
}
330
2
100
AcDbSymbolTableRecord
100
AcDbLayerTableRecord
  2
DETAIL
 70
     0
 62
     2
  6
Continuous
370
    -3
390
F
347
98
1001
AcadStringInfo
1000
MIFCodePage
1070
     5
  0
LAYER
  5
1067
102
{ACAD_XDICTIONARY
360
3BE0
102
}
330
2
100
AcDbSymbolTableRecord
100
AcDbLayerTableRecord
  2
APPLICATION
 70
     0
 62
     3
  6
Continuous
370
    -3
390
F
347
98
  0
LAYER
  5
478C
102
{ACAD_XDICTIONARY
360
478D
102
}
330
2
100
AcDbSymbolTableRecord
100
AcDbLayerTableRecord
  2
TEXT
 70
     0
 62
     7
  6
Continuous
370
    -3
390
F
347
98
  0
ENDTAB
  0
TABLE
  2
STYLE
  5
3
330
0
100
AcDbSymbolTable
 70
     2
  0
STYLE
  5
11
330
3
100
AcDbSymbolTableRecord
100
AcDbTextStyleTableRecord
  2
Standard
 70
     0
 40
0.0
 41
1.0
 50
0.0
 71
     0
 42
0.2
  3
txt
  4

  0
STYLE
  5
478E
330
3
100
AcDbSymbolTableRecord
100
AcDbTextStyleTableRecord
  2
fastrack
 70
     0
 40
0.0
 41
1.0
 50
0.0
 71
     0
 42
2.5
  3
simplex.shx
  4

  0
ENDTAB
  0
TABLE
  2
VIEW
  5
6
330
0
100
AcDbSymbolTable
 70
     1
  0
ENDTAB
  0
TABLE
  2
UCS
  5
7
330
0
100
AcDbSymbolTable
 70
     0
  0
ENDTAB
  0
TABLE
  2
APPID
  5
9
330
0
100
AcDbSymbolTable
 70
     7
  0
APPID
  5
12
330
9
100
AcDbSymbolTableRecord
100
AcDbRegAppTableRecord
  2
ACAD
 70
     0
  0
APPID
  5
156
330
9
100
AcDbSymbolTableRecord
100
AcDbRegAppTableRecord
  2
ACAD_PSEXT
 70
     0
  0
APPID
  5
157
330
9
100
AcDbSymbolTableRecord
100
AcDbRegAppTableRecord
  2
AcadStringInfo
 70
     0
  0
APPID
  5
1681
330
9
100
AcDbSymbolTableRecord
100
AcDbRegAppTableRecord
  2
ACAD_EXEMPT_FROM_CAD_STANDARDS
 70
     0
  0
APPID
  5
3B76
330
9
100
AcDbSymbolTableRecord
100
AcDbRegAppTableRecord
  2
ACAD_DSTYLE_DIMTEXT_FILL
 70
     0
  0
APPID
  5
3BD3
330
9
100
AcDbSymbolTableRecord
100
AcDbRegAppTableRecord
  2
ACAD_MLEADERVER
 70
     0
  0
APPID
  5
48FA
330
9
100
AcDbSymbolTableRecord
100
AcDbRegAppTableRecord
  2
ACAD_NAV_VCDISPLAY
 70
     0
  0
ENDTAB
  0
TABLE
  2
DIMSTYLE
  5
A
330
0
100
AcDbSymbolTable
 70
     1
100
AcDbDimStyleTable
 71
     1
340
27
  0
DIMSTYLE
105
27
102
{ACAD_REACTORS
330
40C2
330
4140
330
4178
330
4232
330
4299
330
42D1
330
4381
330
4440
102
}
330
A
100
AcDbSymbolTableRecord
100
AcDbDimStyleTableRecord
  2
Standard
 70
     0
340
11
  0
ENDTAB
  0
TABLE
  2
BLOCK_RECORD
  5
1
330
0
100
AcDbSymbolTable
 70
     9
  0
BLOCK_RECORD
  5
1F
102
{ACAD_XDICTIONARY
360
350
102
}
330
1
100
AcDbSymbolTableRecord
100
AcDbBlockTableRecord
  2
*Model_Space
340
22
 70
     0
280
     1
281
     0
  0
BLOCK_RECORD
  5
58
330
1
100
AcDbSymbolTableRecord
100
AcDbBlockTableRecord
  2
*Paper_Space
340
59
 70
     0
280
     1
281
     0
  0
BLOCK_RECORD
  5
5D
330
1
100
AcDbSymbolTableRecord
100
AcDbBlockTableRecord
  2
*Paper_Space0
340
5E
 70
     0
280
     1
281
     0
  0
BLOCK_RECORD
  5
40C3
330
1
100
AcDbSymbolTableRecord
100
AcDbBlockTableRecord
  2
*D1
340
0
 70
     0
280
     1
281
     0
  0
BLOCK_RECORD
  5
4141
330
1
100
AcDbSymbolTableRecord
100
AcDbBlockTableRecord
  2
*D2
340
0
 70
     0
280
     1
281
     0
  0
BLOCK_RECORD
  5
4179
330
1
100
AcDbSymbolTableRecord
100
AcDbBlockTableRecord
  2
*D3
340
0
 70
     0
280
     1
281
     0
  0
BLOCK_RECORD
  5
4233
330
1
100
AcDbSymbolTableRecord
100
AcDbBlockTableRecord
  2
*D4
340
0
 70
     0
280
     1
281
     0
  0
BLOCK_RECORD
  5
429A
330
1
100
AcDbSymbolTableRecord
100
AcDbBlockTableRecord
  2
*D5
340
0
 70
     0
280
     1
281
     0
  0
BLOCK_RECORD
  5
42D4
330
1
100
AcDbSymbolTableRecord
100
AcDbBlockTableRecord
  2
*D6
340
0
 70
     0
280
     1
281
     0
  0
BLOCK_RECORD
  5
4382
330
1
100
AcDbSymbolTableRecord
100
AcDbBlockTableRecord
  2
*D7
340
0
 70
     0
280
     1
281
     0
  0
BLOCK_RECORD
  5
4441
330
1
100
AcDbSymbolTableRecord
100
AcDbBlockTableRecord
  2
*D8
340
0
 70
     0
280
     1
281
     0
  0
ENDTAB
  0
ENDSEC
  0
SECTION
  2
BLOCKS
  0
BLOCK
  5
20
330
1F
100
AcDbEntity
  8
0
100
AcDbBlockBegin
  2
*Model_Space
 70
     0
 10
0.0
 20
0.0
 30
0.0
  3
*Model_Space
  1

  0
ENDBLK
  5
21
330
1F
100
AcDbEntity
  8
0
100
AcDbBlockEnd
  0
BLOCK
  5
5A
330
58
100
AcDbEntity
 67
     1
  8
0
100
AcDbBlockBegin
  2
*Paper_Space
 70
     0
 10
0.0
 20
0.0
 30
0.0
  3
*Paper_Space
  1

  0
ENDBLK
  5
5B
330
58
100
AcDbEntity
 67
     1
  8
0
100
AcDbBlockEnd
  0
BLOCK
  5
5F
330
5D
100
AcDbEntity
 67
     1
  8
0
100
AcDbBlockBegin
  2
*Paper_Space0
 70
     0
 10
0.0
 20
0.0
 30
0.0
  3
*Paper_Space0
  1

  0
ENDBLK
  5
60
330
5D
100
AcDbEntity
 67
     1
  8
0
100
AcDbBlockEnd
  0
BLOCK
  5
40CE
330
40C3
100
AcDbEntity
  8
0
100
AcDbBlockBegin
  2
*D1
 70
     1
 10
0.0
 20
0.0
 30
0.0
  3
*D1
  1

  0
LINE
  5
4849
330
40C3
100
AcDbEntity
  8
DIMS
 62
     0
440
 16777216
370
    -2
100
AcDbLine
 10
8511.610967506008
 20
149.2424116135589
 30
0.0
 11
8967.680740794673
 21
149.2424116135588
 31
0.0
  0
LINE
  5
484A
330
40C3
100
AcDbEntity
  8
DIMS
 62
     0
440
 16777216
370
    -2
100
AcDbLine
 10
8511.610967506008
 20
-1050.757588386441
 30
0.0
 11
8967.680740794673
 21
-1050.757588386441
 31
0.0
  0
LINE
  5
484B
330
40C3
100
AcDbEntity
  8
DIMS
 62
     0
440
 16777216
370
    -2
100
AcDbLine
 10
8937.680740794673
 20
99.2424116135588
 30
0.0
 11
8937.680740794673
 21
-315.9956836245365
 31
0.0
  0
LINE
  5
484C
330
40C3
100
AcDbEntity
  8
DIMS
 62
     0
440
 16777216
370
    -2
100
AcDbLine
 10
8937.680740794673
 20
-1000.757588386441
 30
0.0
 11
8937.680740794673
 21
-585.519493148346
 31
0.0
  0
SOLID
  5
484D
330
40C3
100
AcDbEntity
  8
DIMS
 62
     0
440
 16777216
100
AcDbTrace
 10
8929.347407461339
 20
99.2424116135588
 30
0.0
 11
8946.014074128006
 21
99.2424116135588
 31
0.0
 12
8937.680740794673
 22
149.2424116135588
 32
0.0
 13
8937.680740794673
 23
149.2424116135588
 33
0.0
  0
SOLID
  5
484E
330
40C3
100
AcDbEntity
  8
DIMS
 62
     0
440
 16777216
100
AcDbTrace
 10
8929.347407461339
 20
-1000.757588386441
 30
0.0
 11
8946.014074128006
 21
-1000.757588386441
 31
0.0
 12
8937.680740794673
 22
-1050.757588386441
 32
0.0
 13
8937.680740794673
 23
-1050.757588386441
 33
0.0
  0
MTEXT
  5
484F
330
40C3
100
AcDbEntity
  8
DIMS
 62
     0
440
 16777216
100
AcDbMText
 10
8937.680740794673
 20
-450.7575883864396
 30
0.0
 40
50.0
 41
0.0
 46
0.0
 71
     5
 72
     1
  1
\A1;DIM A
  7
fastrack
 11
0.0000000000000001
 21
1.0
 31
0.0
 73
     1
 44
1.0
  0
POINT
  5
4850
330
40C3
100
AcDbEntity
  8
Defpoints
 62
     0
440
 16777216
100
AcDbPoint
 10
8481.610967506011
 20
149.2424116135589
 30
0.0
  0
POINT
  5
4851
330
40C3
100
AcDbEntity
  8
Defpoints
 62
     0
440
 16777216
100
AcDbPoint
 10
8481.610967506011
 20
-1050.757588386441
 30
0.0
  0
POINT
  5
4852
330
40C3
100
AcDbEntity
  8
Defpoints
 62
     0
440
 16777216
100
AcDbPoint
 10
8937.680740794673
 20
-1050.757588386441
 30
0.0
  0
ENDBLK
  5
40CF
330
40C3
100
AcDbEntity
  8
0
100
AcDbBlockEnd
  0
BLOCK
  5
414C
330
4141
100
AcDbEntity
  8
0
100
AcDbBlockBegin
  2
*D2
 70
     1
 10
0.0
 20
0.0
 30
0.0
  3
*D2
  1

  0
LINE
  5
483F
330
4141
100
AcDbEntity
  8
DIMS
 62
     0
440
 16777216
370
    -2
100
AcDbLine
 10
5706.61096750601
 20
179.2424116135589
 30
0.0
 11
5706.61096750601
 21
517.3108987394388
 31
0.0
  0
LINE
  5
4840
330
4141
100
AcDbEntity
  8
DIMS
 62
     0
440
 16777216
370
    -2
100
AcDbLine
 10
8456.610967506009
 20
179.2424116135589
 30
0.0
 11
8456.610967506009
 21
517.3108987394388
 31
0.0
  0
LINE
  5
4841
330
4141
100
AcDbEntity
  8
DIMS
 62
     0
440
 16777216
370
    -2
100
AcDbLine
 10
5756.61096750601
 20
487.3108987394388
 30
0.0
 11
6963.515729410771
 21
487.3108987394388
 31
0.0
  0
LINE
  5
4842
330
4141
100
AcDbEntity
  8
DIMS
 62
     0
440
 16777216
370
    -2
100
AcDbLine
 10
8406.61096750601
 20
487.3108987394388
 30
0.0
 11
7199.706205601249
 21
487.3108987394388
 31
0.0
  0
SOLID
  5
4843
330
4141
100
AcDbEntity
  8
DIMS
 62
     0
440
 16777216
100
AcDbTrace
 10
5756.61096750601
 20
495.6442320727722
 30
0.0
 11
5756.61096750601
 21
478.9775654061056
 31
0.0
 12
5706.61096750601
 22
487.3108987394388
 32
0.0
 13
5706.61096750601
 23
487.3108987394388
 33
0.0
  0
SOLID
  5
4844
330
4141
100
AcDbEntity
  8
DIMS
 62
     0
440
 16777216
100
AcDbTrace
 10
8406.61096750601
 20
495.6442320727722
 30
0.0
 11
8406.61096750601
 21
478.9775654061056
 31
0.0
 12
8456.610967506009
 22
487.3108987394388
 32
0.0
 13
8456.610967506009
 23
487.3108987394388
 33
0.0
  0
MTEXT
  5
4845
330
4141
100
AcDbEntity
  8
DIMS
 62
     0
440
 16777216
100
AcDbMText
 10
7081.61096750601
 20
487.3108987394388
 30
0.0
 40
50.0
 41
0.0
 46
0.0
 71
     5
 72
     1
  1
\A1;2750
  7
fastrack
 73
     1
 44
1.0
  0
POINT
  5
4846
330
4141
100
AcDbEntity
  8
Defpoints
 62
     0
440
 16777216
100
AcDbPoint
 10
5706.61096750601
 20
149.2424116135589
 30
0.0
  0
POINT
  5
4847
330
4141
100
AcDbEntity
  8
Defpoints
 62
     0
440
 16777216
100
AcDbPoint
 10
8456.610967506009
 20
149.2424116135589
 30
0.0
  0
POINT
  5
4848
330
4141
100
AcDbEntity
  8
Defpoints
 62
     0
440
 16777216
100
AcDbPoint
 10
8456.610967506009
 20
487.3108987394388
 30
0.0
  0
ENDBLK
  5
414D
330
4141
100
AcDbEntity
  8
0
100
AcDbBlockEnd
  0
BLOCK
  5
4184
330
4179
100
AcDbEntity
  8
0
100
AcDbBlockBegin
  2
*D3
 70
     1
 10
0.0
 20
0.0
 30
0.0
  3
*D3
  1

  0
LINE
  5
4835
330
4179
100
AcDbEntity
  8
DIMS
 62
     0
440
 16777216
370
    -2
100
AcDbLine
 10
7167.705646759222
 20
-30.18946826163154
 30
0.0
 11
7147.884218187795
 21
-30.18946826163154
 31
0.0
  0
LINE
  5
4836
330
4179
100
AcDbEntity
  8
DIMS
 62
     0
440
 16777216
370
    -2
100
AcDbLine
 10
7167.705646759222
 20
149.8105317383684
 30
0.0
 11
7147.884218187795
 21
149.8105317383684
 31
0.0
  0
LINE
  5
4837
330
4179
100
AcDbEntity
  8
DIMS
 62
     0
440
 16777216
370
    -2
100
AcDbLine
 10
7177.884218187795
 20
19.81053173836846
 30
0.0
 11
7177.884218187795
 21
99.81053173836844
 31
0.0
  0
LINE
  5
4838
330
4179
100
AcDbEntity
  8
DIMS
 62
     0
440
 16777216
370
    -2
100
AcDbLine
 10
7177.884218187795
 20
149.8105317383684
 30
0.0
 11
7177.884218187795
 21
264.0635553945665
 31
0.0
  0
SOLID
  5
4839
330
4179
100
AcDbEntity
  8
DIMS
 62
     0
440
 16777216
100
AcDbTrace
 10
7169.550884854462
 20
19.81053173836846
 30
0.0
 11
7186.217551521129
 21
19.81053173836846
 31
0.0
 12
7177.884218187795
 22
-30.18946826163154
 32
0.0
 13
7177.884218187795
 23
-30.18946826163154
 33
0.0
  0
SOLID
  5
483A
330
4179
100
AcDbEntity
  8
DIMS
 62
     0
440
 16777216
100
AcDbTrace
 10
7169.550884854462
 20
99.81053173836844
 30
0.0
 11
7186.217551521129
 21
99.81053173836844
 31
0.0
 12
7177.884218187795
 22
149.8105317383684
 32
0.0
 13
7177.884218187795
 23
149.8105317383684
 33
0.0
  0
MTEXT
  5
483B
330
4179
100
AcDbEntity
  8
DIMS
 62
     0
440
 16777216
100
AcDbMText
 10
7267.408027711606
 20
264.0635553945676
 30
0.0
 40
50.0
 41
0.0
 46
0.0
 71
     5
 72
     1
  1
\A1;150
  7
fastrack
 11
0.0000000000000001
 21
1.0
 31
0.0
 73
     1
 44
1.0
  0
POINT
  5
483C
330
4179
100
AcDbEntity
  8
Defpoints
 62
     0
440
 16777216
100
AcDbPoint
 10
7197.705646759222
 20
-30.18946826163155
 30
0.0
  0
POINT
  5
483D
330
4179
100
AcDbEntity
  8
Defpoints
 62
     0
440
 16777216
100
AcDbPoint
 10
7197.705646759222
 20
149.8105317383684
 30
0.0
  0
POINT
  5
483E
330
4179
100
AcDbEntity
  8
Defpoints
 62
     0
440
 16777216
100
AcDbPoint
 10
7177.884218187795
 20
149.8105317383684
 30
0.0
  0
ENDBLK
  5
4185
330
4179
100
AcDbEntity
  8
0
100
AcDbBlockEnd
  0
BLOCK
  5
423E
330
4233
100
AcDbEntity
  8
0
100
AcDbBlockBegin
  2
*D4
 70
     1
 10
0.0
 20
0.0
 30
0.0
  3
*D4
  1

  0
LINE
  5
482B
330
4233
100
AcDbEntity
  8
DIMS
 62
     0
440
 16777216
370
    -2
100
AcDbLine
 10
6451.61096750601
 20
-0.7575883864410855
 30
0.0
 11
6451.61096750601
 21
286.618821018772
 31
0.0
  0
LINE
  5
482C
330
4233
100
AcDbEntity
  8
DIMS
 62
     0
440
 16777216
370
    -2
100
AcDbLine
 10
6551.610967506011
 20
-0.7569643528604077
 30
0.0
 11
6551.610967506011
 21
286.618821018772
 31
0.0
  0
LINE
  5
482D
330
4233
100
AcDbEntity
  8
DIMS
 62
     0
440
 16777216
370
    -2
100
AcDbLine
 10
6401.610967506011
 20
256.618821018772
 30
0.0
 11
6351.610967506011
 21
256.618821018772
 31
0.0
  0
LINE
  5
482E
330
4233
100
AcDbEntity
  8
DIMS
 62
     0
440
 16777216
370
    -2
100
AcDbLine
 10
6601.610967506011
 20
256.618821018772
 30
0.0
 11
6651.610967506011
 21
256.618821018772
 31
0.0
  0
SOLID
  5
482F
330
4233
100
AcDbEntity
  8
DIMS
 62
     0
440
 16777216
100
AcDbTrace
 10
6401.610967506011
 20
264.9521543521053
 30
0.0
 11
6401.610967506011
 21
248.2854876854386
 31
0.0
 12
6451.61096750601
 22
256.618821018772
 32
0.0
 13
6451.61096750601
 23
256.618821018772
 33
0.0
  0
SOLID
  5
4830
330
4233
100
AcDbEntity
  8
DIMS
 62
     0
440
 16777216
100
AcDbTrace
 10
6601.610967506011
 20
264.9521543521053
 30
0.0
 11
6601.610967506011
 21
248.2854876854386
 31
0.0
 12
6551.610967506011
 22
256.618821018772
 32
0.0
 13
6551.610967506011
 23
256.618821018772
 33
0.0
  0
MTEXT
  5
4831
330
4233
100
AcDbEntity
  8
DIMS
 62
     0
440
 16777216
100
AcDbMText
 10
6842.325253220295
 20
256.618821018772
 30
0.0
 40
50.0
 41
0.0
 46
0.0
 71
     5
 72
     1
  1
\A1;100 MAX
  7
fastrack
 73
     1
 44
1.0
  0
POINT
  5
4832
330
4233
100
AcDbEntity
  8
Defpoints
 62
     0
440
 16777216
100
AcDbPoint
 10
6451.61096750601
 20
-30.75758838644109
 30
0.0
  0
POINT
  5
4833
330
4233
100
AcDbEntity
  8
Defpoints
 62
     0
440
 16777216
100
AcDbPoint
 10
6551.610967506011
 20
-30.75696435286041
 30
0.0
  0
POINT
  5
4834
330
4233
100
AcDbEntity
  8
Defpoints
 62
     0
440
 16777216
100
AcDbPoint
 10
6551.610967506011
 20
256.618821018772
 30
0.0
  0
ENDBLK
  5
423F
330
4233
100
AcDbEntity
  8
0
100
AcDbBlockEnd
  0
BLOCK
  5
42A5
330
429A
100
AcDbEntity
  8
0
100
AcDbBlockBegin
  2
*D5
 70
     1
 10
0.0
 20
0.0
 30
0.0
  3
*D5
  1

  0
LINE
  5
4821
330
429A
100
AcDbEntity
  8
DIMS
 62
     0
440
 16777216
370
    -2
100
AcDbLine
 10
5651.610967506011
 20
149.2424116135589
 30
0.0
 11
5463.727419172133
 21
149.2424116135589
 31
0.0
  0
LINE
  5
4822
330
429A
100
AcDbEntity
  8
DIMS
 62
     0
440
 16777216
370
    -2
100
AcDbLine
 10
5701.61096750601
 20
-30.75758838644107
 30
0.0
 11
5463.727419172133
 21
-30.75758838644101
 31
0.0
  0
LINE
  5
4823
330
429A
100
AcDbEntity
  8
DIMS
 62
     0
440
 16777216
370
    -2
100
AcDbLine
 10
5493.727419172134
 20
19.24241161355898
 30
0.0
 11
5493.727419172134
 21
99.24241161355896
 31
0.0
  0
LINE
  5
4824
330
429A
100
AcDbEntity
  8
DIMS
 62
     0
440
 16777216
370
    -2
100
AcDbLine
 10
5493.727419172134
 20
149.2424116135589
 30
0.0
 11
5493.727419172134
 21
199.2424116135589
 31
0.0
  0
SOLID
  5
4825
330
429A
100
AcDbEntity
  8
DIMS
 62
     0
440
 16777216
100
AcDbTrace
 10
5485.394085838802
 20
19.24241161355898
 30
0.0
 11
5502.060752505467
 21
19.24241161355898
 31
0.0
 12
5493.727419172134
 22
-30.75758838644102
 32
0.0
 13
5493.727419172134
 23
-30.75758838644102
 33
0.0
  0
SOLID
  5
4826
330
429A
100
AcDbEntity
  8
DIMS
 62
     0
440
 16777216
100
AcDbTrace
 10
5485.394085838802
 20
99.24241161355896
 30
0.0
 11
5502.060752505467
 21
99.24241161355896
 31
0.0
 12
5493.727419172134
 22
149.2424116135589
 32
0.0
 13
5493.727419172134
 23
149.2424116135589
 33
0.0
  0
MTEXT
  5
4827
330
429A
100
AcDbEntity
  8
DIMS
 62
     0
440
 16777216
100
AcDbMText
 10
5493.727419172134
 20
288.7662211373694
 30
0.0
 40
50.0
 41
0.0
 46
0.0
 71
     5
 72
     1
  1
\A1;150
  7
fastrack
 11
0.0000000000000001
 21
1.0
 31
0.0
 73
     1
 44
1.0
  0
POINT
  5
4828
330
429A
100
AcDbEntity
  8
Defpoints
 62
     0
440
 16777216
100
AcDbPoint
 10
5681.61096750601
 20
149.2424116135589
 30
0.0
  0
POINT
  5
4829
330
429A
100
AcDbEntity
  8
Defpoints
 62
     0
440
 16777216
100
AcDbPoint
 10
5731.610967506011
 20
-30.75758838644109
 30
0.0
  0
POINT
  5
482A
330
429A
100
AcDbEntity
  8
Defpoints
 62
     0
440
 16777216
100
AcDbPoint
 10
5493.727419172134
 20
-30.75758838644102
 30
0.0
  0
ENDBLK
  5
42A6
330
429A
100
AcDbEntity
  8
0
100
AcDbBlockEnd
  0
BLOCK
  5
42DF
330
42D4
100
AcDbEntity
  8
0
100
AcDbBlockBegin
  2
*D6
 70
     1
 10
0.0
 20
0.0
 30
0.0
  3
*D6
  1

  0
LINE
  5
4817
330
42D4
100
AcDbEntity
  8
DIMS
 62
     0
440
 16777216
370
    -2
100
AcDbLine
 10
5651.610967506011
 20
-1050.757588386441
 30
0.0
 11
5463.727419172133
 21
-1050.757588386441
 31
0.0
  0
LINE
  5
4818
330
42D4
100
AcDbEntity
  8
DIMS
 62
     0
440
 16777216
370
    -2
100
AcDbLine
 10
5701.61096750601
 20
-950.757588386441
 30
0.0
 11
5463.727419172133
 21
-950.757588386441
 31
0.0
  0
LINE
  5
4819
330
42D4
100
AcDbEntity
  8
DIMS
 62
     0
440
 16777216
370
    -2
100
AcDbLine
 10
5493.727419172134
 20
-1100.757588386441
 30
0.0
 11
5493.727419172134
 21
-1150.757588386441
 31
0.0
  0
LINE
  5
481A
330
42D4
100
AcDbEntity
  8
DIMS
 62
     0
440
 16777216
370
    -2
100
AcDbLine
 10
5493.727419172134
 20
-900.757588386441
 30
0.0
 11
5493.727419172134
 21
-850.757588386441
 31
0.0
  0
SOLID
  5
481B
330
42D4
100
AcDbEntity
  8
DIMS
 62
     0
440
 16777216
100
AcDbTrace
 10
5485.394085838802
 20
-1100.757588386441
 30
0.0
 11
5502.060752505467
 21
-1100.757588386441
 31
0.0
 12
5493.727419172134
 22
-1050.757588386441
 32
0.0
 13
5493.727419172134
 23
-1050.757588386441
 33
0.0
  0
SOLID
  5
481C
330
42D4
100
AcDbEntity
  8
DIMS
 62
     0
440
 16777216
100
AcDbTrace
 10
5485.394085838802
 20
-900.757588386441
 30
0.0
 11
5502.060752505467
 21
-900.757588386441
 31
0.0
 12
5493.727419172134
 22
-950.757588386441
 32
0.0
 13
5493.727419172134
 23
-950.757588386441
 33
0.0
  0
MTEXT
  5
481D
330
42D4
100
AcDbEntity
  8
DIMS
 62
     0
440
 16777216
100
AcDbMText
 10
5493.727419172134
 20
-761.2337788626306
 30
0.0
 40
50.0
 41
0.0
 46
0.0
 71
     5
 72
     1
  1
\A1;100
  7
fastrack
 11
0.0000000000000001
 21
1.0
 31
0.0
 73
     1
 44
1.0
  0
POINT
  5
481E
330
42D4
100
AcDbEntity
  8
Defpoints
 62
     0
440
 16777216
100
AcDbPoint
 10
5681.61096750601
 20
-1050.757588386441
 30
0.0
  0
POINT
  5
481F
330
42D4
100
AcDbEntity
  8
Defpoints
 62
     0
440
 16777216
100
AcDbPoint
 10
5731.610967506011
 20
-950.757588386441
 30
0.0
  0
POINT
  5
4820
330
42D4
100
AcDbEntity
  8
Defpoints
 62
     0
440
 16777216
100
AcDbPoint
 10
5493.727419172134
 20
-950.757588386441
 30
0.0
  0
ENDBLK
  5
42E0
330
42D4
100
AcDbEntity
  8
0
100
AcDbBlockEnd
  0
BLOCK
  5
438D
330
4382
100
AcDbEntity
  8
0
100
AcDbBlockBegin
  2
*D7
 70
     1
 10
0.0
 20
0.0
 30
0.0
  3
*D7
  1

  0
LINE
  5
480D
330
4382
100
AcDbEntity
  8
DIMS
 62
     0
440
 16777216
370
    -2
100
AcDbLine
 10
8511.610967506008
 20
-1650.757588386441
 30
0.0
 11
8967.680740794673
 21
-1650.757588386441
 31
0.0
  0
LINE
  5
480E
330
4382
100
AcDbEntity
  8
DIMS
 62
     0
440
 16777216
370
    -2
100
AcDbLine
 10
8511.610967506008
 20
-1050.757588386441
 30
0.0
 11
8967.680740794673
 21
-1050.757588386441
 31
0.0
  0
LINE
  5
480F
330
4382
100
AcDbEntity
  8
DIMS
 62
     0
440
 16777216
370
    -2
100
AcDbLine
 10
8937.680740794673
 20
-1600.757588386441
 30
0.0
 11
8937.680740794673
 21
-1483.138540767393
 31
0.0
  0
LINE
  5
4810
330
4382
100
AcDbEntity
  8
DIMS
 62
     0
440
 16777216
370
    -2
100
AcDbLine
 10
8937.680740794673
 20
-1100.757588386441
 30
0.0
 11
8937.680740794673
 21
-1218.376636005489
 31
0.0
  0
SOLID
  5
4811
330
4382
100
AcDbEntity
  8
DIMS
 62
     0
440
 16777216
100
AcDbTrace
 10
8929.347407461339
 20
-1600.757588386441
 30
0.0
 11
8946.014074128006
 21
-1600.757588386441
 31
0.0
 12
8937.680740794673
 22
-1650.757588386441
 32
0.0
 13
8937.680740794673
 23
-1650.757588386441
 33
0.0
  0
SOLID
  5
4812
330
4382
100
AcDbEntity
  8
DIMS
 62
     0
440
 16777216
100
AcDbTrace
 10
8929.347407461339
 20
-1100.757588386441
 30
0.0
 11
8946.014074128006
 21
-1100.757588386441
 31
0.0
 12
8937.680740794673
 22
-1050.757588386441
 32
0.0
 13
8937.680740794673
 23
-1050.757588386441
 33
0.0
  0
MTEXT
  5
4813
330
4382
100
AcDbEntity
  8
DIMS
 62
     0
440
 16777216
100
AcDbMText
 10
8937.680740794673
 20
-1350.75758838644
 30
0.0
 40
50.0
 41
0.0
 46
0.0
 71
     5
 72
     1
  1
\A1;DIM B
  7
fastrack
 11
0.0000000000000001
 21
1.0
 31
0.0
 73
     1
 44
1.0
  0
POINT
  5
4814
330
4382
100
AcDbEntity
  8
Defpoints
 62
     0
440
 16777216
100
AcDbPoint
 10
8481.610967506011
 20
-1650.757588386441
 30
0.0
  0
POINT
  5
4815
330
4382
100
AcDbEntity
  8
Defpoints
 62
     0
440
 16777216
100
AcDbPoint
 10
8481.610967506011
 20
-1050.757588386441
 30
0.0
  0
POINT
  5
4816
330
4382
100
AcDbEntity
  8
Defpoints
 62
     0
440
 16777216
100
AcDbPoint
 10
8937.680740794673
 20
-1050.757588386441
 30
0.0
  0
ENDBLK
  5
438E
330
4382
100
AcDbEntity
  8
0
100
AcDbBlockEnd
  0
BLOCK
  5
444C
330
4441
100
AcDbEntity
  8
0
100
AcDbBlockBegin
  2
*D8
 70
     1
 10
0.0
 20
0.0
 30
0.0
  3
*D8
  1

  0
LINE
  5
4803
330
4441
100
AcDbEntity
  8
DIMS
 62
     0
440
 16777216
370
    -2
100
AcDbLine
 10
5706.61096750601
 20
-2104.751663488881
 30
0.0
 11
5706.61096750601
 21
-2388.830842093797
 31
0.0
  0
LINE
  5
4804
330
4441
100
AcDbEntity
  8
DIMS
 62
     0
440
 16777216
370
    -2
100
AcDbLine
 10
8456.610967506009
 20
-2104.751663488881
 30
0.0
 11
8456.610967506009
 21
-2388.830842093797
 31
0.0
  0
LINE
  5
4805
330
4441
100
AcDbEntity
  8
DIMS
 62
     0
440
 16777216
370
    -2
100
AcDbLine
 10
5756.61096750601
 20
-2358.830842093798
 30
0.0
 11
6963.515729410771
 21
-2358.830842093798
 31
0.0
  0
LINE
  5
4806
330
4441
100
AcDbEntity
  8
DIMS
 62
     0
440
 16777216
370
    -2
100
AcDbLine
 10
8406.61096750601
 20
-2358.830842093798
 30
0.0
 11
7199.706205601249
 21
-2358.830842093798
 31
0.0
  0
SOLID
  5
4807
330
4441
100
AcDbEntity
  8
DIMS
 62
     0
440
 16777216
100
AcDbTrace
 10
5756.61096750601
 20
-2350.497508760464
 30
0.0
 11
5756.61096750601
 21
-2367.164175427131
 31
0.0
 12
5706.61096750601
 22
-2358.830842093798
 32
0.0
 13
5706.61096750601
 23
-2358.830842093798
 33
0.0
  0
SOLID
  5
4808
330
4441
100
AcDbEntity
  8
DIMS
 62
     0
440
 16777216
100
AcDbTrace
 10
8406.61096750601
 20
-2350.497508760464
 30
0.0
 11
8406.61096750601
 21
-2367.164175427131
 31
0.0
 12
8456.610967506009
 22
-2358.830842093798
 32
0.0
 13
8456.610967506009
 23
-2358.830842093798
 33
0.0
  0
MTEXT
  5
4809
330
4441
100
AcDbEntity
  8
DIMS
 62
     0
440
 16777216
100
AcDbMText
 10
7081.61096750601
 20
-2358.830842093798
 30
0.0
 40
50.0
 41
0.0
 46
0.0
 71
     5
 72
     1
  1
\A1;2750
  7
fastrack
 73
     1
 44
1.0
  0
POINT
  5
480A
330
4441
100
AcDbEntity
  8
Defpoints
 62
     0
440
 16777216
100
AcDbPoint
 10
5706.61096750601
 20
-2074.751663488882
 30
0.0
  0
POINT
  5
480B
330
4441
100
AcDbEntity
  8
Defpoints
 62
     0
440
 16777216
100
AcDbPoint
 10
8456.610967506009
 20
-2074.751663488882
 30
0.0
  0
POINT
  5
480C
330
4441
100
AcDbEntity
  8
Defpoints
 62
     0
440
 16777216
100
AcDbPoint
 10
8456.610967506009
 20
-2358.830842093798
 30
0.0
  0
ENDBLK
  5
444D
330
4441
100
AcDbEntity
  8
0
100
AcDbBlockEnd
  0
ENDSEC
  0
SECTION
  2
ENTITIES
  0
LINE
  5
3D89
330
1F
100
AcDbEntity
  8
DETAIL
100
AcDbLine
 10
8431.610967506008
 20
-1050.757588386441
 30
0.0
 11
8431.610967506008
 21
149.2424116135589
 31
0.0
  0
LINE
  5
3D8A
330
1F
100
AcDbEntity
  8
DETAIL
100
AcDbLine
 10
8481.610967506011
 20
-1050.757588386441
 30
0.0
 11
8481.610967506011
 21
149.2424116135589
 31
0.0
  0
LINE
  5
3D8D
330
1F
100
AcDbEntity
  8
DETAIL
100
AcDbLine
 10
5731.610967506011
 20
-1050.757588386441
 30
0.0
 11
5731.610967506011
 21
149.2424116135589
 31
0.0
  0
LINE
  5
3D8E
330
1F
100
AcDbEntity
  8
DETAIL
100
AcDbLine
 10
5681.61096750601
 20
-1050.757588386441
 30
0.0
 11
5681.61096750601
 21
149.2424116135589
 31
0.0
  0
LINE
  5
3D90
330
1F
100
AcDbEntity
  8
APPLICATION
100
AcDbLine
 10
5681.61096750601
 20
-1050.757588386441
 30
0.0
 11
5731.610967506011
 21
-1050.757588386441
 31
0.0
  0
LINE
  5
3D91
102
{ACAD_REACTORS
330
40DB
102
}
330
1F
100
AcDbEntity
  8
APPLICATION
100
AcDbLine
 10
8431.610967506008
 20
-1050.757588386441
 30
0.0
 11
8481.610967506011
 21
-1050.757588386441
 31
0.0
  0
LINE
  5
3D92
102
{ACAD_REACTORS
330
4159
330
42B2
102
}
330
1F
100
AcDbEntity
  8
DETAIL
100
AcDbLine
 10
5681.61096750601
 20
149.2424116135589
 30
0.0
 11
5731.610967506011
 21
149.2424116135589
 31
0.0
  0
LINE
  5
3D93
102
{ACAD_REACTORS
330
40DB
330
4159
102
}
330
1F
100
AcDbEntity
  8
DETAIL
100
AcDbLine
 10
8431.610967506008
 20
149.2424116135589
 30
0.0
 11
8481.610967506011
 21
149.2424116135589
 31
0.0
  0
LINE
  5
3D94
330
1F
100
AcDbEntity
  8
DETAIL
100
AcDbLine
 10
5731.610967506011
 20
149.2424116135589
 30
0.0
 11
5731.610967506011
 21
-30.75758838644109
 31
0.0
  0
LINE
  5
3D95
102
{ACAD_REACTORS
330
42B2
102
}
330
1F
100
AcDbEntity
  8
DETAIL
100
AcDbLine
 10
5731.610967506011
 20
-30.75758838644109
 30
0.0
 11
8431.610967506008
 21
-30.75758838644106
 31
0.0
  0
LINE
  5
3D98
330
1F
100
AcDbEntity
  8
DETAIL
100
AcDbLine
 10
5731.610967506011
 20
-40.75758838644108
 30
0.0
 11
8431.610967506008
 21
-40.75758838644104
 31
0.0
  0
LINE
  5
3D99
330
1F
100
AcDbEntity
  8
DETAIL
100
AcDbLine
 10
5731.610967506011
 20
-1050.757588386441
 30
0.0
 11
5731.610967506011
 21
-870.7575883864411
 31
0.0
  0
LINE
  5
3D9A
330
1F
100
AcDbEntity
  8
DETAIL
100
AcDbLine
 10
5731.610967506011
 20
-950.757588386441
 30
0.0
 11
8431.610967506008
 21
-950.757588386441
 31
0.0
  0
LINE
  5
3D9B
330
1F
100
AcDbEntity
  8
DETAIL
100
AcDbLine
 10
5731.610967506011
 20
-940.757588386441
 30
0.0
 11
8431.610967506008
 21
-940.757588386441
 31
0.0
  0
LINE
  5
3D9C
330
1F
100
AcDbEntity
  8
DETAIL
100
AcDbLine
 10
8431.610967506008
 20
-40.75758838644104
 30
0.0
 11
8381.610967506011
 21
-40.75758838644104
 31
0.0
  0
LINE
  5
3D9D
330
1F
100
AcDbEntity
  8
DETAIL
100
AcDbLine
 10
8381.610967506011
 20
-40.75758838644104
 30
0.0
 11
8381.610967506011
 21
-50.75758838644105
 31
0.0
  0
LINE
  5
3D9E
330
1F
100
AcDbEntity
  8
DETAIL
100
AcDbLine
 10
8381.610967506011
 20
-50.75758838644105
 30
0.0
 11
8431.610967506008
 21
-50.75758838644105
 31
0.0
  0
LINE
  5
3D9F
330
1F
100
AcDbEntity
  8
DETAIL
100
AcDbLine
 10
8431.610967506008
 20
-950.757588386441
 30
0.0
 11
8381.610967506011
 21
-950.757588386441
 31
0.0
  0
LINE
  5
3DA0
330
1F
100
AcDbEntity
  8
DETAIL
100
AcDbLine
 10
8381.610967506011
 20
-950.757588386441
 30
0.0
 11
8381.610967506011
 21
-960.7575883864411
 31
0.0
  0
LINE
  5
3DA1
330
1F
100
AcDbEntity
  8
DETAIL
100
AcDbLine
 10
8381.610967506011
 20
-960.7575883864411
 30
0.0
 11
8431.610967506008
 21
-960.7575883864411
 31
0.0
  0
LINE
  5
3DA2
330
1F
100
AcDbEntity
  8
DETAIL
100
AcDbLine
 10
5731.610967506011
 20
-950.757588386441
 30
0.0
 11
5781.610967506011
 21
-950.757588386441
 31
0.0
  0
LINE
  5
3DA3
330
1F
100
AcDbEntity
  8
DETAIL
100
AcDbLine
 10
5781.610967506011
 20
-950.757588386441
 30
0.0
 11
5781.610967506011
 21
-960.7575883864411
 31
0.0
  0
LINE
  5
3DA4
330
1F
100
AcDbEntity
  8
DETAIL
100
AcDbLine
 10
5781.610967506011
 20
-960.7575883864411
 30
0.0
 11
5731.610967506011
 21
-960.7575883864411
 31
0.0
  0
LINE
  5
3DA5
330
1F
100
AcDbEntity
  8
DETAIL
100
AcDbLine
 10
5731.610967506011
 20
-40.75758838644108
 30
0.0
 11
5781.610967506011
 21
-40.75758838644108
 31
0.0
  0
LINE
  5
3DA6
330
1F
100
AcDbEntity
  8
DETAIL
100
AcDbLine
 10
5781.610967506011
 20
-40.75758838644108
 30
0.0
 11
5781.610967506011
 21
-50.7575883864411
 31
0.0
  0
LINE
  5
3DA7
330
1F
100
AcDbEntity
  8
DETAIL
100
AcDbLine
 10
5781.610967506011
 20
-50.7575883864411
 30
0.0
 11
5731.610967506011
 21
-50.7575883864411
 31
0.0
  0
LINE
  5
3DB4
330
1F
100
AcDbEntity
  8
DETAIL
100
AcDbLine
 10
6899.610967506011
 20
-30.75758838644107
 30
0.0
 11
7031.610967506011
 21
-30.75758838644107
 31
0.0
  0
LINE
  5
3DB6
330
1F
100
AcDbEntity
  8
DETAIL
100
AcDbLine
 10
7263.610967506011
 20
-30.75758838644107
 30
0.0
 11
7131.61096750601
 21
-30.75758838644107
 31
0.0
  0
LINE
  5
3DE7
330
1F
100
AcDbEntity
  8
DETAIL
100
AcDbLine
 10
5855.61096750601
 20
-40.75758838644108
 30
0.0
 11
5855.61096750601
 21
-860.7575883864411
 31
0.0
  0
LINE
  5
3DE9
330
1F
100
AcDbEntity
  8
DETAIL
100
AcDbLine
 10
5871.610967506011
 20
-40.75758838644108
 30
0.0
 11
5871.610967506011
 21
-860.7575883864411
 31
0.0
  0
LINE
  5
3DEA
330
1F
100
AcDbEntity
  8
DETAIL
100
AcDbLine
 10
5971.610967506011
 20
-40.75758838644108
 30
0.0
 11
5971.610967506011
 21
-860.7575883864411
 31
0.0
  0
LINE
  5
3DED
330
1F
100
AcDbEntity
  8
DETAIL
100
AcDbLine
 10
5987.610967506011
 20
-40.75758838644108
 30
0.0
 11
5987.610967506011
 21
-860.7575883864411
 31
0.0
  0
LINE
  5
3DF4
330
1F
100
AcDbEntity
  8
DETAIL
100
AcDbLine
 10
5987.610967506011
 20
-40.75758838644108
 30
0.0
 11
5987.610967506011
 21
-860.7575883864411
 31
0.0
  0
LINE
  5
3DF5
330
1F
100
AcDbEntity
  8
DETAIL
100
AcDbLine
 10
5971.610967506011
 20
-40.75758838644108
 30
0.0
 11
5971.610967506011
 21
-860.7575883864411
 31
0.0
  0
LINE
  5
3DF6
330
1F
100
AcDbEntity
  8
DETAIL
100
AcDbLine
 10
5871.610967506011
 20
-40.75758838644108
 30
0.0
 11
5871.610967506011
 21
-860.7575883864411
 31
0.0
  0
LINE
  5
3DF7
330
1F
100
AcDbEntity
  8
DETAIL
100
AcDbLine
 10
5855.61096750601
 20
-40.75758838644108
 30
0.0
 11
5855.61096750601
 21
-860.7575883864411
 31
0.0
  0
LINE
  5
3DFE
330
1F
100
AcDbEntity
  8
DETAIL
100
AcDbLine
 10
5987.610967506011
 20
-40.75758838644108
 30
0.0
 11
5987.610967506011
 21
-940.757588386441
 31
0.0
  0
LINE
  5
3DFF
330
1F
100
AcDbEntity
  8
DETAIL
100
AcDbLine
 10
6087.610967506011
 20
-40.75758838644108
 30
0.0
 11
6087.610967506011
 21
-860.7575883864411
 31
0.0
  0
LINE
  5
3E00
330
1F
100
AcDbEntity
  8
DETAIL
100
AcDbLine
 10
5971.610967506011
 20
-40.75758838644108
 30
0.0
 11
5971.610967506012
 21
-940.757588386441
 31
0.0
  0
LINE
  5
3E01
330
1F
100
AcDbEntity
  8
DETAIL
100
AcDbLine
 10
6103.610967506011
 20
-40.75758838644108
 30
0.0
 11
6103.610967506011
 21
-860.7575883864411
 31
0.0
  0
LINE
  5
3E02
330
1F
100
AcDbEntity
  8
DETAIL
100
AcDbLine
 10
6203.610967506011
 20
-40.75758838644108
 30
0.0
 11
6203.610967506011
 21
-860.7575883864411
 31
0.0
  0
LINE
  5
3E03
330
1F
100
AcDbEntity
  8
DETAIL
100
AcDbLine
 10
5871.610967506011
 20
-40.75758838644108
 30
0.0
 11
5871.610967506011
 21
-940.757588386441
 31
0.0
  0
LINE
  5
3E04
330
1F
100
AcDbEntity
  8
DETAIL
100
AcDbLine
 10
5855.61096750601
 20
-40.75758838644108
 30
0.0
 11
5855.61096750601
 21
-940.757588386441
 31
0.0
  0
LINE
  5
3E05
330
1F
100
AcDbEntity
  8
DETAIL
100
AcDbLine
 10
6219.61096750601
 20
-40.75758838644108
 30
0.0
 11
6219.61096750601
 21
-860.7575883864411
 31
0.0
  0
LINE
  5
3E0C
330
1F
100
AcDbEntity
  8
DETAIL
100
AcDbLine
 10
6219.61096750601
 20
-40.75758838644108
 30
0.0
 11
6219.61096750601
 21
-860.7575883864411
 31
0.0
  0
LINE
  5
3E0D
330
1F
100
AcDbEntity
  8
DETAIL
100
AcDbLine
 10
6203.610967506011
 20
-40.75758838644108
 30
0.0
 11
6203.610967506011
 21
-860.7575883864411
 31
0.0
  0
LINE
  5
3E0E
330
1F
100
AcDbEntity
  8
DETAIL
100
AcDbLine
 10
6103.610967506011
 20
-40.75758838644108
 30
0.0
 11
6103.610967506011
 21
-860.7575883864411
 31
0.0
  0
LINE
  5
3E0F
330
1F
100
AcDbEntity
  8
DETAIL
100
AcDbLine
 10
6087.610967506011
 20
-40.75758838644108
 30
0.0
 11
6087.610967506011
 21
-860.7575883864411
 31
0.0
  0
LINE
  5
3E16
330
1F
100
AcDbEntity
  8
DETAIL
100
AcDbLine
 10
6219.61096750601
 20
-40.75758838644108
 30
0.0
 11
6219.61096750601
 21
-940.757588386441
 31
0.0
  0
LINE
  5
3E17
330
1F
100
AcDbEntity
  8
DETAIL
100
AcDbLine
 10
6319.610967506011
 20
-40.75758838644108
 30
0.0
 11
6319.610967506011
 21
-860.7575883864411
 31
0.0
  0
LINE
  5
3E18
330
1F
100
AcDbEntity
  8
DETAIL
100
AcDbLine
 10
6203.610967506011
 20
-40.75758838644108
 30
0.0
 11
6203.610967506012
 21
-940.757588386441
 31
0.0
  0
LINE
  5
3E19
330
1F
100
AcDbEntity
  8
DETAIL
100
AcDbLine
 10
6335.610967506011
 20
-40.75758838644108
 30
0.0
 11
6335.610967506011
 21
-860.7575883864411
 31
0.0
  0
LINE
  5
3E1A
330
1F
100
AcDbEntity
  8
DETAIL
100
AcDbLine
 10
6435.610967506011
 20
-40.75758838644108
 30
0.0
 11
6435.610967506011
 21
-860.7575883864411
 31
0.0
  0
LINE
  5
3E1B
330
1F
100
AcDbEntity
  8
DETAIL
100
AcDbLine
 10
6103.610967506011
 20
-40.75758838644108
 30
0.0
 11
6103.610967506011
 21
-940.757588386441
 31
0.0
  0
LINE
  5
3E1C
330
1F
100
AcDbEntity
  8
DETAIL
100
AcDbLine
 10
6087.610967506011
 20
-40.75758838644108
 30
0.0
 11
6087.610967506011
 21
-940.757588386441
 31
0.0
  0
LINE
  5
3E1D
330
1F
100
AcDbEntity
  8
DETAIL
100
AcDbLine
 10
6451.61096750601
 20
-40.75758838644108
 30
0.0
 11
6451.61096750601
 21
-860.7575883864411
 31
0.0
  0
LINE
  5
3E24
330
1F
100
AcDbEntity
  8
DETAIL
100
AcDbLine
 10
6451.61096750601
 20
-40.75758838644108
 30
0.0
 11
6451.61096750601
 21
-860.7575883864411
 31
0.0
  0
LINE
  5
3E25
330
1F
100
AcDbEntity
  8
DETAIL
100
AcDbLine
 10
6435.610967506011
 20
-40.75758838644108
 30
0.0
 11
6435.610967506011
 21
-860.7575883864411
 31
0.0
  0
LINE
  5
3E26
330
1F
100
AcDbEntity
  8
DETAIL
100
AcDbLine
 10
6335.610967506011
 20
-40.75758838644108
 30
0.0
 11
6335.610967506011
 21
-860.7575883864411
 31
0.0
  0
LINE
  5
3E27
330
1F
100
AcDbEntity
  8
DETAIL
100
AcDbLine
 10
6319.610967506011
 20
-40.75758838644108
 30
0.0
 11
6319.610967506011
 21
-860.7575883864411
 31
0.0
  0
LINE
  5
3E54
330
1F
100
AcDbEntity
  8
DETAIL
100
AcDbLine
 10
6319.610967506011
 20
-40.75758838644108
 30
0.0
 11
6319.610967506011
 21
-860.7575883864411
 31
0.0
  0
LINE
  5
3E55
330
1F
100
AcDbEntity
  8
DETAIL
100
AcDbLine
 10
6335.610967506011
 20
-40.75758838644108
 30
0.0
 11
6335.610967506011
 21
-860.7575883864411
 31
0.0
  0
LINE
  5
3E56
330
1F
100
AcDbEntity
  8
DETAIL
100
AcDbLine
 10
6435.610967506011
 20
-40.75758838644108
 30
0.0
 11
6435.610967506011
 21
-860.7575883864411
 31
0.0
  0
LINE
  5
3E57
330
1F
100
AcDbEntity
  8
DETAIL
100
AcDbLine
 10
6451.61096750601
 20
-40.75758838644108
 30
0.0
 11
6451.61096750601
 21
-860.7575883864411
 31
0.0
  0
LINE
  5
3E58
330
1F
100
AcDbEntity
  8
DETAIL
100
AcDbLine
 10
6451.61096750601
 20
-40.75758838644108
 30
0.0
 11
6451.61096750601
 21
-860.7575883864411
 31
0.0
  0
LINE
  5
3E59
330
1F
100
AcDbEntity
  8
DETAIL
100
AcDbLine
 10
6435.610967506011
 20
-40.75758838644108
 30
0.0
 11
6435.610967506011
 21
-860.7575883864411
 31
0.0
  0
LINE
  5
3E5A
330
1F
100
AcDbEntity
  8
DETAIL
100
AcDbLine
 10
6335.610967506011
 20
-40.75758838644108
 30
0.0
 11
6335.610967506011
 21
-860.7575883864411
 31
0.0
  0
LINE
  5
3E5B
330
1F
100
AcDbEntity
  8
DETAIL
100
AcDbLine
 10
6319.610967506011
 20
-40.75758838644108
 30
0.0
 11
6319.610967506011
 21
-860.7575883864411
 31
0.0
  0
LINE
  5
3E62
330
1F
100
AcDbEntity
  8
DETAIL
100
AcDbLine
 10
6451.61096750601
 20
-40.75758838644108
 30
0.0
 11
6451.610967506012
 21
-940.757588386441
 31
0.0
  0
LINE
  5
3E63
330
1F
100
AcDbEntity
  8
DETAIL
100
AcDbLine
 10
6551.610967506011
 20
-40.75758838644108
 30
0.0
 11
6551.610967506011
 21
-860.7575883864411
 31
0.0
  0
LINE
  5
3E64
330
1F
100
AcDbEntity
  8
DETAIL
100
AcDbLine
 10
6435.610967506011
 20
-40.75758838644108
 30
0.0
 11
6435.610967506011
 21
-940.757588386441
 31
0.0
  0
LINE
  5
3E65
330
1F
100
AcDbEntity
  8
DETAIL
100
AcDbLine
 10
6567.61096750601
 20
-40.75758838644108
 30
0.0
 11
6567.61096750601
 21
-860.7575883864411
 31
0.0
  0
LINE
  5
3E66
330
1F
100
AcDbEntity
  8
DETAIL
100
AcDbLine
 10
6667.610967506011
 20
-40.75758838644107
 30
0.0
 11
6667.610967506011
 21
-860.7575883864411
 31
0.0
  0
LINE
  5
3E67
330
1F
100
AcDbEntity
  8
DETAIL
100
AcDbLine
 10
6335.610967506011
 20
-40.75758838644108
 30
0.0
 11
6335.610967506012
 21
-940.757588386441
 31
0.0
  0
LINE
  5
3E68
330
1F
100
AcDbEntity
  8
DETAIL
100
AcDbLine
 10
6319.610967506011
 20
-40.75758838644108
 30
0.0
 11
6319.610967506012
 21
-940.757588386441
 31
0.0
  0
LINE
  5
3E69
330
1F
100
AcDbEntity
  8
DETAIL
100
AcDbLine
 10
6683.61096750601
 20
-40.75758838644107
 30
0.0
 11
6683.61096750601
 21
-860.7575883864411
 31
0.0
  0
LINE
  5
3E70
330
1F
100
AcDbEntity
  8
DETAIL
100
AcDbLine
 10
6683.61096750601
 20
-40.75758838644107
 30
0.0
 11
6683.61096750601
 21
-860.7575883864411
 31
0.0
  0
LINE
  5
3E71
330
1F
100
AcDbEntity
  8
DETAIL
100
AcDbLine
 10
6667.610967506011
 20
-40.75758838644107
 30
0.0
 11
6667.610967506011
 21
-860.7575883864411
 31
0.0
  0
LINE
  5
3E72
330
1F
100
AcDbEntity
  8
DETAIL
100
AcDbLine
 10
6567.61096750601
 20
-40.75758838644108
 30
0.0
 11
6567.61096750601
 21
-860.7575883864411
 31
0.0
  0
LINE
  5
3E73
330
1F
100
AcDbEntity
  8
DETAIL
100
AcDbLine
 10
6551.610967506011
 20
-40.75758838644108
 30
0.0
 11
6551.610967506011
 21
-860.7575883864411
 31
0.0
  0
LINE
  5
3E7A
330
1F
100
AcDbEntity
  8
DETAIL
100
AcDbLine
 10
6551.610967506011
 20
-40.75758838644108
 30
0.0
 11
6551.610967506011
 21
-860.7575883864411
 31
0.0
  0
LINE
  5
3E7B
330
1F
100
AcDbEntity
  8
DETAIL
100
AcDbLine
 10
6567.61096750601
 20
-40.75758838644108
 30
0.0
 11
6567.61096750601
 21
-860.7575883864411
 31
0.0
  0
LINE
  5
3E7C
330
1F
100
AcDbEntity
  8
DETAIL
100
AcDbLine
 10
6667.610967506011
 20
-40.75758838644107
 30
0.0
 11
6667.610967506011
 21
-860.7575883864411
 31
0.0
  0
LINE
  5
3E7D
330
1F
100
AcDbEntity
  8
DETAIL
100
AcDbLine
 10
6683.61096750601
 20
-40.75758838644107
 30
0.0
 11
6683.61096750601
 21
-860.7575883864411
 31
0.0
  0
LINE
  5
3E7E
330
1F
100
AcDbEntity
  8
DETAIL
100
AcDbLine
 10
6683.61096750601
 20
-40.75758838644107
 30
0.0
 11
6683.61096750601
 21
-860.7575883864411
 31
0.0
  0
LINE
  5
3E7F
330
1F
100
AcDbEntity
  8
DETAIL
100
AcDbLine
 10
6667.610967506011
 20
-40.75758838644107
 30
0.0
 11
6667.610967506011
 21
-860.7575883864411
 31
0.0
  0
LINE
  5
3E80
330
1F
100
AcDbEntity
  8
DETAIL
100
AcDbLine
 10
6567.61096750601
 20
-40.75758838644108
 30
0.0
 11
6567.61096750601
 21
-860.7575883864411
 31
0.0
  0
LINE
  5
3E81
330
1F
100
AcDbEntity
  8
DETAIL
100
AcDbLine
 10
6551.610967506011
 20
-40.75758838644108
 30
0.0
 11
6551.610967506011
 21
-860.7575883864411
 31
0.0
  0
LINE
  5
3E88
330
1F
100
AcDbEntity
  8
DETAIL
100
AcDbLine
 10
6683.61096750601
 20
-40.75758838644107
 30
0.0
 11
6683.610967506012
 21
-940.757588386441
 31
0.0
  0
LINE
  5
3E89
330
1F
100
AcDbEntity
  8
DETAIL
100
AcDbLine
 10
6783.61096750601
 20
-40.75758838644107
 30
0.0
 11
6783.61096750601
 21
-860.7575883864411
 31
0.0
  0
LINE
  5
3E8A
330
1F
100
AcDbEntity
  8
DETAIL
100
AcDbLine
 10
6667.610967506011
 20
-40.75758838644107
 30
0.0
 11
6667.610967506012
 21
-940.757588386441
 31
0.0
  0
LINE
  5
3E8B
330
1F
100
AcDbEntity
  8
DETAIL
100
AcDbLine
 10
6799.610967506011
 20
-40.75758838644107
 30
0.0
 11
6799.610967506011
 21
-860.7575883864411
 31
0.0
  0
LINE
  5
3E8C
330
1F
100
AcDbEntity
  8
DETAIL
100
AcDbLine
 10
6899.610967506011
 20
-40.75758838644107
 30
0.0
 11
6899.610967506011
 21
-860.7575883864411
 31
0.0
  0
LINE
  5
3E8D
330
1F
100
AcDbEntity
  8
DETAIL
100
AcDbLine
 10
6567.61096750601
 20
-40.75758838644108
 30
0.0
 11
6567.610967506012
 21
-940.757588386441
 31
0.0
  0
LINE
  5
3E8E
330
1F
100
AcDbEntity
  8
DETAIL
100
AcDbLine
 10
6551.610967506011
 20
-40.75758838644108
 30
0.0
 11
6551.610967506012
 21
-940.757588386441
 31
0.0
  0
LINE
  5
3E8F
330
1F
100
AcDbEntity
  8
DETAIL
100
AcDbLine
 10
6915.610967506011
 20
-40.75758838644107
 30
0.0
 11
6915.610967506011
 21
-860.7575883864411
 31
0.0
  0
LINE
  5
3E96
330
1F
100
AcDbEntity
  8
DETAIL
100
AcDbLine
 10
6915.610967506011
 20
-40.75758838644107
 30
0.0
 11
6915.610967506011
 21
-860.7575883864411
 31
0.0
  0
LINE
  5
3E97
330
1F
100
AcDbEntity
  8
DETAIL
100
AcDbLine
 10
6899.610967506011
 20
-40.75758838644107
 30
0.0
 11
6899.610967506011
 21
-860.7575883864411
 31
0.0
  0
LINE
  5
3E98
330
1F
100
AcDbEntity
  8
DETAIL
100
AcDbLine
 10
6799.610967506011
 20
-40.75758838644107
 30
0.0
 11
6799.610967506011
 21
-860.7575883864411
 31
0.0
  0
LINE
  5
3E99
330
1F
100
AcDbEntity
  8
DETAIL
100
AcDbLine
 10
6783.61096750601
 20
-40.75758838644107
 30
0.0
 11
6783.61096750601
 21
-860.7575883864411
 31
0.0
  0
LINE
  5
3EA0
330
1F
100
AcDbEntity
  8
DETAIL
100
AcDbLine
 10
6783.61096750601
 20
-40.75758838644107
 30
0.0
 11
6783.61096750601
 21
-860.7575883864411
 31
0.0
  0
LINE
  5
3EA1
330
1F
100
AcDbEntity
  8
DETAIL
100
AcDbLine
 10
6799.610967506011
 20
-40.75758838644107
 30
0.0
 11
6799.610967506011
 21
-860.7575883864411
 31
0.0
  0
LINE
  5
3EA2
330
1F
100
AcDbEntity
  8
DETAIL
100
AcDbLine
 10
6899.610967506011
 20
-40.75758838644107
 30
0.0
 11
6899.610967506011
 21
-860.7575883864411
 31
0.0
  0
LINE
  5
3EA3
330
1F
100
AcDbEntity
  8
DETAIL
100
AcDbLine
 10
6915.610967506011
 20
-40.75758838644107
 30
0.0
 11
6915.610967506011
 21
-860.7575883864411
 31
0.0
  0
LINE
  5
3EA4
330
1F
100
AcDbEntity
  8
DETAIL
100
AcDbLine
 10
6915.610967506011
 20
-40.75758838644107
 30
0.0
 11
6915.610967506011
 21
-860.7575883864411
 31
0.0
  0
LINE
  5
3EA5
330
1F
100
AcDbEntity
  8
DETAIL
100
AcDbLine
 10
6899.610967506011
 20
-40.75758838644107
 30
0.0
 11
6899.610967506011
 21
-860.7575883864411
 31
0.0
  0
LINE
  5
3EA6
330
1F
100
AcDbEntity
  8
DETAIL
100
AcDbLine
 10
6799.610967506011
 20
-40.75758838644107
 30
0.0
 11
6799.610967506011
 21
-860.7575883864411
 31
0.0
  0
LINE
  5
3EA7
330
1F
100
AcDbEntity
  8
DETAIL
100
AcDbLine
 10
6783.61096750601
 20
-40.75758838644107
 30
0.0
 11
6783.61096750601
 21
-860.7575883864411
 31
0.0
  0
LINE
  5
3EAE
330
1F
100
AcDbEntity
  8
DETAIL
100
AcDbLine
 10
6915.610967506011
 20
-40.75758838644107
 30
0.0
 11
6915.610967506012
 21
-940.757588386441
 31
0.0
  0
LINE
  5
3EAF
330
1F
100
AcDbEntity
  8
DETAIL
100
AcDbLine
 10
7015.61096750601
 20
-40.75758838644107
 30
0.0
 11
7015.61096750601
 21
-860.7575883864411
 31
0.0
  0
LINE
  5
3EB0
330
1F
100
AcDbEntity
  8
DETAIL
100
AcDbLine
 10
6899.610967506011
 20
-40.75758838644107
 30
0.0
 11
6899.610967506011
 21
-940.757588386441
 31
0.0
  0
LINE
  5
3EB1
330
1F
100
AcDbEntity
  8
DETAIL
100
AcDbLine
 10
7031.610967506011
 20
-40.75758838644107
 30
0.0
 11
7031.610967506011
 21
-860.7575883864411
 31
0.0
  0
LINE
  5
3EB2
330
1F
100
AcDbEntity
  8
DETAIL
100
AcDbLine
 10
7131.61096750601
 20
-40.75758838644107
 30
0.0
 11
7131.61096750601
 21
-860.7575883864411
 31
0.0
  0
LINE
  5
3EB3
330
1F
100
AcDbEntity
  8
DETAIL
100
AcDbLine
 10
6799.610967506011
 20
-40.75758838644107
 30
0.0
 11
6799.610967506011
 21
-940.757588386441
 31
0.0
  0
LINE
  5
3EB4
330
1F
100
AcDbEntity
  8
DETAIL
100
AcDbLine
 10
6783.61096750601
 20
-40.75758838644107
 30
0.0
 11
6783.61096750601
 21
-940.757588386441
 31
0.0
  0
LINE
  5
3EB5
330
1F
100
AcDbEntity
  8
DETAIL
100
AcDbLine
 10
7147.61096750601
 20
-40.75758838644107
 30
0.0
 11
7147.61096750601
 21
-860.7575883864411
 31
0.0
  0
LINE
  5
3EBC
330
1F
100
AcDbEntity
  8
DETAIL
100
AcDbLine
 10
7147.61096750601
 20
-40.75758838644107
 30
0.0
 11
7147.61096750601
 21
-860.7575883864411
 31
0.0
  0
LINE
  5
3EBD
330
1F
100
AcDbEntity
  8
DETAIL
100
AcDbLine
 10
7131.61096750601
 20
-40.75758838644107
 30
0.0
 11
7131.61096750601
 21
-860.7575883864411
 31
0.0
  0
LINE
  5
3EBE
330
1F
100
AcDbEntity
  8
DETAIL
100
AcDbLine
 10
7031.610967506011
 20
-40.75758838644107
 30
0.0
 11
7031.610967506011
 21
-860.7575883864411
 31
0.0
  0
LINE
  5
3EBF
330
1F
100
AcDbEntity
  8
DETAIL
100
AcDbLine
 10
7015.61096750601
 20
-40.75758838644107
 30
0.0
 11
7015.61096750601
 21
-860.7575883864411
 31
0.0
  0
LINE
  5
3EC6
330
1F
100
AcDbEntity
  8
DETAIL
100
AcDbLine
 10
7015.61096750601
 20
-40.75758838644107
 30
0.0
 11
7015.61096750601
 21
-860.7575883864411
 31
0.0
  0
LINE
  5
3EC7
330
1F
100
AcDbEntity
  8
DETAIL
100
AcDbLine
 10
7031.610967506011
 20
-40.75758838644107
 30
0.0
 11
7031.610967506011
 21
-860.7575883864411
 31
0.0
  0
LINE
  5
3EC8
330
1F
100
AcDbEntity
  8
DETAIL
100
AcDbLine
 10
7131.61096750601
 20
-40.75758838644107
 30
0.0
 11
7131.61096750601
 21
-860.7575883864411
 31
0.0
  0
LINE
  5
3EC9
330
1F
100
AcDbEntity
  8
DETAIL
100
AcDbLine
 10
7147.61096750601
 20
-40.75758838644107
 30
0.0
 11
7147.61096750601
 21
-860.7575883864411
 31
0.0
  0
LINE
  5
3ECA
330
1F
100
AcDbEntity
  8
DETAIL
100
AcDbLine
 10
7147.61096750601
 20
-40.75758838644107
 30
0.0
 11
7147.61096750601
 21
-860.7575883864411
 31
0.0
  0
LINE
  5
3ECB
330
1F
100
AcDbEntity
  8
DETAIL
100
AcDbLine
 10
7131.61096750601
 20
-40.75758838644107
 30
0.0
 11
7131.61096750601
 21
-860.7575883864411
 31
0.0
  0
LINE
  5
3ECC
330
1F
100
AcDbEntity
  8
DETAIL
100
AcDbLine
 10
7031.610967506011
 20
-40.75758838644107
 30
0.0
 11
7031.610967506011
 21
-860.7575883864411
 31
0.0
  0
LINE
  5
3ECD
330
1F
100
AcDbEntity
  8
DETAIL
100
AcDbLine
 10
7015.61096750601
 20
-40.75758838644107
 30
0.0
 11
7015.61096750601
 21
-860.7575883864411
 31
0.0
  0
LINE
  5
3ED4
330
1F
100
AcDbEntity
  8
DETAIL
100
AcDbLine
 10
7147.61096750601
 20
-40.75758838644107
 30
0.0
 11
7147.61096750601
 21
-940.757588386441
 31
0.0
  0
LINE
  5
3ED5
330
1F
100
AcDbEntity
  8
DETAIL
100
AcDbLine
 10
7247.61096750601
 20
-40.75758838644107
 30
0.0
 11
7247.61096750601
 21
-860.7575883864411
 31
0.0
  0
LINE
  5
3ED6
330
1F
100
AcDbEntity
  8
DETAIL
100
AcDbLine
 10
7131.61096750601
 20
-40.75758838644107
 30
0.0
 11
7131.610967506012
 21
-940.757588386441
 31
0.0
  0
LINE
  5
3ED7
330
1F
100
AcDbEntity
  8
DETAIL
100
AcDbLine
 10
7263.610967506011
 20
-40.75758838644107
 30
0.0
 11
7263.610967506011
 21
-860.7575883864411
 31
0.0
  0
LINE
  5
3ED8
330
1F
100
AcDbEntity
  8
DETAIL
100
AcDbLine
 10
7363.610967506011
 20
-40.75758838644106
 30
0.0
 11
7363.610967506011
 21
-860.7575883864411
 31
0.0
  0
LINE
  5
3ED9
330
1F
100
AcDbEntity
  8
DETAIL
100
AcDbLine
 10
7031.610967506011
 20
-40.75758838644107
 30
0.0
 11
7031.610967506011
 21
-940.757588386441
 31
0.0
  0
LINE
  5
3EDA
330
1F
100
AcDbEntity
  8
DETAIL
100
AcDbLine
 10
7015.61096750601
 20
-40.75758838644107
 30
0.0
 11
7015.610967506012
 21
-940.757588386441
 31
0.0
  0
LINE
  5
3EDB
330
1F
100
AcDbEntity
  8
DETAIL
100
AcDbLine
 10
7379.610967506009
 20
-40.75758838644106
 30
0.0
 11
7379.610967506009
 21
-860.7575883864411
 31
0.0
  0
LINE
  5
3EE2
330
1F
100
AcDbEntity
  8
DETAIL
100
AcDbLine
 10
7379.610967506009
 20
-40.75758838644106
 30
0.0
 11
7379.610967506009
 21
-860.7575883864411
 31
0.0
  0
LINE
  5
3EE3
330
1F
100
AcDbEntity
  8
DETAIL
100
AcDbLine
 10
7363.610967506011
 20
-40.75758838644106
 30
0.0
 11
7363.610967506011
 21
-860.7575883864411
 31
0.0
  0
LINE
  5
3EE4
330
1F
100
AcDbEntity
  8
DETAIL
100
AcDbLine
 10
7263.610967506011
 20
-40.75758838644107
 30
0.0
 11
7263.610967506011
 21
-860.7575883864411
 31
0.0
  0
LINE
  5
3EE5
330
1F
100
AcDbEntity
  8
DETAIL
100
AcDbLine
 10
7247.61096750601
 20
-40.75758838644107
 30
0.0
 11
7247.61096750601
 21
-860.7575883864411
 31
0.0
  0
LINE
  5
3EEC
330
1F
100
AcDbEntity
  8
DETAIL
100
AcDbLine
 10
7247.61096750601
 20
-40.75758838644107
 30
0.0
 11
7247.61096750601
 21
-860.7575883864411
 31
0.0
  0
LINE
  5
3EED
330
1F
100
AcDbEntity
  8
DETAIL
100
AcDbLine
 10
7263.610967506011
 20
-40.75758838644107
 30
0.0
 11
7263.610967506011
 21
-860.7575883864411
 31
0.0
  0
LINE
  5
3EEE
330
1F
100
AcDbEntity
  8
DETAIL
100
AcDbLine
 10
7363.610967506011
 20
-40.75758838644106
 30
0.0
 11
7363.610967506011
 21
-860.7575883864411
 31
0.0
  0
LINE
  5
3EEF
330
1F
100
AcDbEntity
  8
DETAIL
100
AcDbLine
 10
7379.610967506009
 20
-40.75758838644106
 30
0.0
 11
7379.610967506009
 21
-860.7575883864411
 31
0.0
  0
LINE
  5
3EF0
330
1F
100
AcDbEntity
  8
DETAIL
100
AcDbLine
 10
7379.610967506009
 20
-40.75758838644106
 30
0.0
 11
7379.610967506009
 21
-860.7575883864411
 31
0.0
  0
LINE
  5
3EF1
330
1F
100
AcDbEntity
  8
DETAIL
100
AcDbLine
 10
7363.610967506011
 20
-40.75758838644106
 30
0.0
 11
7363.610967506011
 21
-860.7575883864411
 31
0.0
  0
LINE
  5
3EF2
330
1F
100
AcDbEntity
  8
DETAIL
100
AcDbLine
 10
7263.610967506011
 20
-40.75758838644107
 30
0.0
 11
7263.610967506011
 21
-860.7575883864411
 31
0.0
  0
LINE
  5
3EF3
330
1F
100
AcDbEntity
  8
DETAIL
100
AcDbLine
 10
7247.61096750601
 20
-40.75758838644107
 30
0.0
 11
7247.61096750601
 21
-860.7575883864411
 31
0.0
  0
LINE
  5
3EFA
330
1F
100
AcDbEntity
  8
DETAIL
100
AcDbLine
 10
7379.610967506009
 20
-40.75758838644106
 30
0.0
 11
7379.610967506012
 21
-940.757588386441
 31
0.0
  0
LINE
  5
3EFB
330
1F
100
AcDbEntity
  8
DETAIL
100
AcDbLine
 10
7479.610967506011
 20
-40.75758838644106
 30
0.0
 11
7479.610967506011
 21
-860.7575883864411
 31
0.0
  0
LINE
  5
3EFC
330
1F
100
AcDbEntity
  8
DETAIL
100
AcDbLine
 10
7363.610967506011
 20
-40.75758838644106
 30
0.0
 11
7363.610967506011
 21
-940.757588386441
 31
0.0
  0
LINE
  5
3EFD
330
1F
100
AcDbEntity
  8
DETAIL
100
AcDbLine
 10
7495.61096750601
 20
-40.75758838644106
 30
0.0
 11
7495.61096750601
 21
-860.7575883864411
 31
0.0
  0
LINE
  5
3EFE
330
1F
100
AcDbEntity
  8
DETAIL
100
AcDbLine
 10
7595.610967506011
 20
-40.75758838644106
 30
0.0
 11
7595.610967506011
 21
-860.7575883864411
 31
0.0
  0
LINE
  5
3EFF
330
1F
100
AcDbEntity
  8
DETAIL
100
AcDbLine
 10
7263.610967506011
 20
-40.75758838644107
 30
0.0
 11
7263.610967506011
 21
-940.757588386441
 31
0.0
  0
LINE
  5
3F00
330
1F
100
AcDbEntity
  8
DETAIL
100
AcDbLine
 10
7247.61096750601
 20
-40.75758838644107
 30
0.0
 11
7247.610967506012
 21
-940.757588386441
 31
0.0
  0
LINE
  5
3F01
330
1F
100
AcDbEntity
  8
DETAIL
100
AcDbLine
 10
7611.61096750601
 20
-40.75758838644106
 30
0.0
 11
7611.61096750601
 21
-860.7575883864411
 31
0.0
  0
LINE
  5
3F08
330
1F
100
AcDbEntity
  8
DETAIL
100
AcDbLine
 10
7611.61096750601
 20
-40.75758838644106
 30
0.0
 11
7611.61096750601
 21
-860.7575883864411
 31
0.0
  0
LINE
  5
3F09
330
1F
100
AcDbEntity
  8
DETAIL
100
AcDbLine
 10
7595.610967506011
 20
-40.75758838644106
 30
0.0
 11
7595.610967506011
 21
-860.7575883864411
 31
0.0
  0
LINE
  5
3F0A
330
1F
100
AcDbEntity
  8
DETAIL
100
AcDbLine
 10
7495.61096750601
 20
-40.75758838644106
 30
0.0
 11
7495.61096750601
 21
-860.7575883864411
 31
0.0
  0
LINE
  5
3F0B
330
1F
100
AcDbEntity
  8
DETAIL
100
AcDbLine
 10
7479.610967506011
 20
-40.75758838644106
 30
0.0
 11
7479.610967506011
 21
-860.7575883864411
 31
0.0
  0
LINE
  5
3F12
330
1F
100
AcDbEntity
  8
DETAIL
100
AcDbLine
 10
7479.610967506011
 20
-40.75758838644106
 30
0.0
 11
7479.610967506011
 21
-860.7575883864411
 31
0.0
  0
LINE
  5
3F13
330
1F
100
AcDbEntity
  8
DETAIL
100
AcDbLine
 10
7495.61096750601
 20
-40.75758838644106
 30
0.0
 11
7495.61096750601
 21
-860.7575883864411
 31
0.0
  0
LINE
  5
3F14
330
1F
100
AcDbEntity
  8
DETAIL
100
AcDbLine
 10
7595.610967506011
 20
-40.75758838644106
 30
0.0
 11
7595.610967506011
 21
-860.7575883864411
 31
0.0
  0
LINE
  5
3F15
330
1F
100
AcDbEntity
  8
DETAIL
100
AcDbLine
 10
7611.61096750601
 20
-40.75758838644106
 30
0.0
 11
7611.61096750601
 21
-860.7575883864411
 31
0.0
  0
LINE
  5
3F16
330
1F
100
AcDbEntity
  8
DETAIL
100
AcDbLine
 10
7611.61096750601
 20
-40.75758838644106
 30
0.0
 11
7611.61096750601
 21
-860.7575883864411
 31
0.0
  0
LINE
  5
3F17
330
1F
100
AcDbEntity
  8
DETAIL
100
AcDbLine
 10
7595.610967506011
 20
-40.75758838644106
 30
0.0
 11
7595.610967506011
 21
-860.7575883864411
 31
0.0
  0
LINE
  5
3F18
330
1F
100
AcDbEntity
  8
DETAIL
100
AcDbLine
 10
7495.61096750601
 20
-40.75758838644106
 30
0.0
 11
7495.61096750601
 21
-860.7575883864411
 31
0.0
  0
LINE
  5
3F19
330
1F
100
AcDbEntity
  8
DETAIL
100
AcDbLine
 10
7479.610967506011
 20
-40.75758838644106
 30
0.0
 11
7479.610967506011
 21
-860.7575883864411
 31
0.0
  0
LINE
  5
3F20
330
1F
100
AcDbEntity
  8
DETAIL
100
AcDbLine
 10
7611.61096750601
 20
-40.75758838644106
 30
0.0
 11
7611.61096750601
 21
-940.757588386441
 31
0.0
  0
LINE
  5
3F21
330
1F
100
AcDbEntity
  8
DETAIL
100
AcDbLine
 10
7711.61096750601
 20
-40.75758838644106
 30
0.0
 11
7711.61096750601
 21
-860.7575883864411
 31
0.0
  0
LINE
  5
3F22
330
1F
100
AcDbEntity
  8
DETAIL
100
AcDbLine
 10
7595.610967506011
 20
-40.75758838644106
 30
0.0
 11
7595.610967506011
 21
-940.757588386441
 31
0.0
  0
LINE
  5
3F23
330
1F
100
AcDbEntity
  8
DETAIL
100
AcDbLine
 10
7727.610967506011
 20
-40.75758838644106
 30
0.0
 11
7727.610967506011
 21
-860.7575883864411
 31
0.0
  0
LINE
  5
3F24
330
1F
100
AcDbEntity
  8
DETAIL
100
AcDbLine
 10
7827.610967506011
 20
-40.75758838644106
 30
0.0
 11
7827.610967506011
 21
-860.7575883864411
 31
0.0
  0
LINE
  5
3F25
330
1F
100
AcDbEntity
  8
DETAIL
100
AcDbLine
 10
7495.61096750601
 20
-40.75758838644106
 30
0.0
 11
7495.610967506012
 21
-940.757588386441
 31
0.0
  0
LINE
  5
3F26
330
1F
100
AcDbEntity
  8
DETAIL
100
AcDbLine
 10
7479.610967506011
 20
-40.75758838644106
 30
0.0
 11
7479.610967506012
 21
-940.757588386441
 31
0.0
  0
LINE
  5
3F27
330
1F
100
AcDbEntity
  8
DETAIL
100
AcDbLine
 10
7843.610967506011
 20
-40.75758838644106
 30
0.0
 11
7843.610967506011
 21
-860.7575883864411
 31
0.0
  0
LINE
  5
3F2E
330
1F
100
AcDbEntity
  8
DETAIL
100
AcDbLine
 10
7843.610967506011
 20
-40.75758838644106
 30
0.0
 11
7843.610967506011
 21
-860.7575883864411
 31
0.0
  0
LINE
  5
3F2F
330
1F
100
AcDbEntity
  8
DETAIL
100
AcDbLine
 10
7827.610967506011
 20
-40.75758838644106
 30
0.0
 11
7827.610967506011
 21
-860.7575883864411
 31
0.0
  0
LINE
  5
3F30
330
1F
100
AcDbEntity
  8
DETAIL
100
AcDbLine
 10
7727.610967506011
 20
-40.75758838644106
 30
0.0
 11
7727.610967506011
 21
-860.7575883864411
 31
0.0
  0
LINE
  5
3F31
330
1F
100
AcDbEntity
  8
DETAIL
100
AcDbLine
 10
7711.61096750601
 20
-40.75758838644106
 30
0.0
 11
7711.61096750601
 21
-860.7575883864411
 31
0.0
  0
LINE
  5
3F38
330
1F
100
AcDbEntity
  8
DETAIL
100
AcDbLine
 10
7711.61096750601
 20
-40.75758838644106
 30
0.0
 11
7711.61096750601
 21
-860.7575883864411
 31
0.0
  0
LINE
  5
3F39
330
1F
100
AcDbEntity
  8
DETAIL
100
AcDbLine
 10
7727.610967506011
 20
-40.75758838644106
 30
0.0
 11
7727.610967506011
 21
-860.7575883864411
 31
0.0
  0
LINE
  5
3F3A
330
1F
100
AcDbEntity
  8
DETAIL
100
AcDbLine
 10
7827.610967506011
 20
-40.75758838644106
 30
0.0
 11
7827.610967506011
 21
-860.7575883864411
 31
0.0
  0
LINE
  5
3F3B
330
1F
100
AcDbEntity
  8
DETAIL
100
AcDbLine
 10
7843.610967506011
 20
-40.75758838644106
 30
0.0
 11
7843.610967506011
 21
-860.7575883864411
 31
0.0
  0
LINE
  5
3F3C
330
1F
100
AcDbEntity
  8
DETAIL
100
AcDbLine
 10
7843.610967506011
 20
-40.75758838644106
 30
0.0
 11
7843.610967506011
 21
-860.7575883864411
 31
0.0
  0
LINE
  5
3F3D
330
1F
100
AcDbEntity
  8
DETAIL
100
AcDbLine
 10
7827.610967506011
 20
-40.75758838644106
 30
0.0
 11
7827.610967506011
 21
-860.7575883864411
 31
0.0
  0
LINE
  5
3F3E
330
1F
100
AcDbEntity
  8
DETAIL
100
AcDbLine
 10
7727.610967506011
 20
-40.75758838644106
 30
0.0
 11
7727.610967506011
 21
-860.7575883864411
 31
0.0
  0
LINE
  5
3F3F
330
1F
100
AcDbEntity
  8
DETAIL
100
AcDbLine
 10
7711.61096750601
 20
-40.75758838644106
 30
0.0
 11
7711.61096750601
 21
-860.7575883864411
 31
0.0
  0
LINE
  5
3F46
330
1F
100
AcDbEntity
  8
DETAIL
100
AcDbLine
 10
7843.610967506011
 20
-40.75758838644106
 30
0.0
 11
7843.610967506009
 21
-940.757588386441
 31
0.0
  0
LINE
  5
3F47
330
1F
100
AcDbEntity
  8
DETAIL
100
AcDbLine
 10
7943.61096750601
 20
-40.75758838644104
 30
0.0
 11
7943.61096750601
 21
-860.7575883864411
 31
0.0
  0
LINE
  5
3F48
330
1F
100
AcDbEntity
  8
DETAIL
100
AcDbLine
 10
7827.610967506011
 20
-40.75758838644106
 30
0.0
 11
7827.610967506008
 21
-940.757588386441
 31
0.0
  0
LINE
  5
3F49
330
1F
100
AcDbEntity
  8
DETAIL
100
AcDbLine
 10
7959.61096750601
 20
-40.75758838644104
 30
0.0
 11
7959.61096750601
 21
-860.7575883864411
 31
0.0
  0
LINE
  5
3F4A
330
1F
100
AcDbEntity
  8
DETAIL
100
AcDbLine
 10
8059.61096750601
 20
-40.75758838644104
 30
0.0
 11
8059.61096750601
 21
-860.7575883864411
 31
0.0
  0
LINE
  5
3F4B
330
1F
100
AcDbEntity
  8
DETAIL
100
AcDbLine
 10
7727.610967506011
 20
-40.75758838644106
 30
0.0
 11
7727.610967506009
 21
-940.757588386441
 31
0.0
  0
LINE
  5
3F4C
330
1F
100
AcDbEntity
  8
DETAIL
100
AcDbLine
 10
7711.61096750601
 20
-40.75758838644106
 30
0.0
 11
7711.61096750601
 21
-940.757588386441
 31
0.0
  0
LINE
  5
3F4D
330
1F
100
AcDbEntity
  8
DETAIL
100
AcDbLine
 10
8075.61096750601
 20
-40.75758838644104
 30
0.0
 11
8075.61096750601
 21
-860.7575883864411
 31
0.0
  0
LINE
  5
3F54
330
1F
100
AcDbEntity
  8
DETAIL
100
AcDbLine
 10
8075.61096750601
 20
-40.75758838644104
 30
0.0
 11
8075.61096750601
 21
-860.7575883864411
 31
0.0
  0
LINE
  5
3F55
330
1F
100
AcDbEntity
  8
DETAIL
100
AcDbLine
 10
8059.61096750601
 20
-40.75758838644104
 30
0.0
 11
8059.61096750601
 21
-860.7575883864411
 31
0.0
  0
LINE
  5
3F56
330
1F
100
AcDbEntity
  8
DETAIL
100
AcDbLine
 10
7959.61096750601
 20
-40.75758838644104
 30
0.0
 11
7959.61096750601
 21
-860.7575883864411
 31
0.0
  0
LINE
  5
3F57
330
1F
100
AcDbEntity
  8
DETAIL
100
AcDbLine
 10
7943.61096750601
 20
-40.75758838644104
 30
0.0
 11
7943.61096750601
 21
-860.7575883864411
 31
0.0
  0
LINE
  5
3F5E
330
1F
100
AcDbEntity
  8
DETAIL
100
AcDbLine
 10
7943.61096750601
 20
-40.75758838644104
 30
0.0
 11
7943.61096750601
 21
-860.7575883864411
 31
0.0
  0
LINE
  5
3F5F
330
1F
100
AcDbEntity
  8
DETAIL
100
AcDbLine
 10
7959.61096750601
 20
-40.75758838644104
 30
0.0
 11
7959.61096750601
 21
-860.7575883864411
 31
0.0
  0
LINE
  5
3F60
330
1F
100
AcDbEntity
  8
DETAIL
100
AcDbLine
 10
8059.61096750601
 20
-40.75758838644104
 30
0.0
 11
8059.61096750601
 21
-860.7575883864411
 31
0.0
  0
LINE
  5
3F61
330
1F
100
AcDbEntity
  8
DETAIL
100
AcDbLine
 10
8075.61096750601
 20
-40.75758838644104
 30
0.0
 11
8075.61096750601
 21
-860.7575883864411
 31
0.0
  0
LINE
  5
3F62
330
1F
100
AcDbEntity
  8
DETAIL
100
AcDbLine
 10
8075.61096750601
 20
-40.75758838644104
 30
0.0
 11
8075.61096750601
 21
-860.7575883864411
 31
0.0
  0
LINE
  5
3F63
330
1F
100
AcDbEntity
  8
DETAIL
100
AcDbLine
 10
8059.61096750601
 20
-40.75758838644104
 30
0.0
 11
8059.61096750601
 21
-860.7575883864411
 31
0.0
  0
LINE
  5
3F64
330
1F
100
AcDbEntity
  8
DETAIL
100
AcDbLine
 10
7959.61096750601
 20
-40.75758838644104
 30
0.0
 11
7959.61096750601
 21
-860.7575883864411
 31
0.0
  0
LINE
  5
3F65
330
1F
100
AcDbEntity
  8
DETAIL
100
AcDbLine
 10
7943.61096750601
 20
-40.75758838644104
 30
0.0
 11
7943.61096750601
 21
-860.7575883864411
 31
0.0
  0
LINE
  5
3F6C
330
1F
100
AcDbEntity
  8
DETAIL
100
AcDbLine
 10
8075.61096750601
 20
-40.75758838644104
 30
0.0
 11
8075.610967506007
 21
-940.757588386441
 31
0.0
  0
LINE
  5
3F6D
330
1F
100
AcDbEntity
  8
DETAIL
100
AcDbLine
 10
8175.61096750601
 20
-40.75758838644104
 30
0.0
 11
8175.61096750601
 21
-860.7575883864411
 31
0.0
  0
LINE
  5
3F6E
330
1F
100
AcDbEntity
  8
DETAIL
100
AcDbLine
 10
8059.61096750601
 20
-40.75758838644104
 30
0.0
 11
8059.610967506008
 21
-940.757588386441
 31
0.0
  0
LINE
  5
3F6F
330
1F
100
AcDbEntity
  8
DETAIL
100
AcDbLine
 10
8191.610967506012
 20
-40.75758838644104
 30
0.0
 11
8191.610967506012
 21
-860.7575883864411
 31
0.0
  0
LINE
  5
3F70
330
1F
100
AcDbEntity
  8
DETAIL
100
AcDbLine
 10
8291.610967506011
 20
-40.75758838644104
 30
0.0
 11
8291.610967506011
 21
-860.7575883864411
 31
0.0
  0
LINE
  5
3F71
330
1F
100
AcDbEntity
  8
DETAIL
100
AcDbLine
 10
7959.61096750601
 20
-40.75758838644104
 30
0.0
 11
7959.61096750601
 21
-940.757588386441
 31
0.0
  0
LINE
  5
3F72
330
1F
100
AcDbEntity
  8
DETAIL
100
AcDbLine
 10
7943.61096750601
 20
-40.75758838644104
 30
0.0
 11
7943.61096750601
 21
-940.757588386441
 31
0.0
  0
LINE
  5
3F73
330
1F
100
AcDbEntity
  8
DETAIL
100
AcDbLine
 10
8307.610967506011
 20
-40.75758838644104
 30
0.0
 11
8307.610967506011
 21
-860.7575883864411
 31
0.0
  0
LINE
  5
3F7A
330
1F
100
AcDbEntity
  8
DETAIL
100
AcDbLine
 10
8307.610967506011
 20
-40.75758838644104
 30
0.0
 11
8307.610967506011
 21
-860.7575883864411
 31
0.0
  0
LINE
  5
3F7B
330
1F
100
AcDbEntity
  8
DETAIL
100
AcDbLine
 10
8291.610967506011
 20
-40.75758838644104
 30
0.0
 11
8291.610967506011
 21
-860.7575883864411
 31
0.0
  0
LINE
  5
3F7C
330
1F
100
AcDbEntity
  8
DETAIL
100
AcDbLine
 10
8191.610967506012
 20
-40.75758838644104
 30
0.0
 11
8191.610967506012
 21
-860.7575883864411
 31
0.0
  0
LINE
  5
3F7D
330
1F
100
AcDbEntity
  8
DETAIL
100
AcDbLine
 10
8175.61096750601
 20
-40.75758838644104
 30
0.0
 11
8175.61096750601
 21
-860.7575883864411
 31
0.0
  0
LINE
  5
3F84
330
1F
100
AcDbEntity
  8
DETAIL
100
AcDbLine
 10
8175.610967506008
 20
-40.75758838644104
 30
0.0
 11
8175.610967506008
 21
-860.7575883864411
 31
0.0
  0
LINE
  5
3F85
330
1F
100
AcDbEntity
  8
DETAIL
100
AcDbLine
 10
8191.610967506008
 20
-40.75758838644104
 30
0.0
 11
8191.610967506008
 21
-860.7575883864411
 31
0.0
  0
LINE
  5
3F86
330
1F
100
AcDbEntity
  8
DETAIL
100
AcDbLine
 10
8291.610967506008
 20
-40.75758838644104
 30
0.0
 11
8291.610967506008
 21
-860.7575883864411
 31
0.0
  0
LINE
  5
3F87
330
1F
100
AcDbEntity
  8
DETAIL
100
AcDbLine
 10
8307.610967506009
 20
-40.75758838644104
 30
0.0
 11
8307.610967506009
 21
-860.7575883864411
 31
0.0
  0
LINE
  5
3F88
330
1F
100
AcDbEntity
  8
DETAIL
100
AcDbLine
 10
8307.610967506009
 20
-40.75758838644104
 30
0.0
 11
8307.610967506009
 21
-860.7575883864411
 31
0.0
  0
LINE
  5
3F89
330
1F
100
AcDbEntity
  8
DETAIL
100
AcDbLine
 10
8291.610967506008
 20
-40.75758838644104
 30
0.0
 11
8291.610967506008
 21
-860.7575883864411
 31
0.0
  0
LINE
  5
3F8A
330
1F
100
AcDbEntity
  8
DETAIL
100
AcDbLine
 10
8191.610967506008
 20
-40.75758838644104
 30
0.0
 11
8191.610967506008
 21
-860.7575883864411
 31
0.0
  0
LINE
  5
3F8B
330
1F
100
AcDbEntity
  8
DETAIL
100
AcDbLine
 10
8175.610967506008
 20
-40.75758838644104
 30
0.0
 11
8175.610967506008
 21
-860.7575883864411
 31
0.0
  0
LINE
  5
3F92
330
1F
100
AcDbEntity
  8
DETAIL
100
AcDbLine
 10
8307.610967506009
 20
-40.75758838644104
 30
0.0
 11
8307.610967506009
 21
-940.757588386441
 31
0.0
  0
LINE
  5
3F94
330
1F
100
AcDbEntity
  8
DETAIL
100
AcDbLine
 10
8291.610967506008
 20
-40.75758838644104
 30
0.0
 11
8291.610967506008
 21
-940.757588386441
 31
0.0
  0
LINE
  5
3F97
330
1F
100
AcDbEntity
  8
DETAIL
100
AcDbLine
 10
8191.610967506008
 20
-40.75758838644104
 30
0.0
 11
8191.610967506008
 21
-940.757588386441
 31
0.0
  0
LINE
  5
3F98
330
1F
100
AcDbEntity
  8
DETAIL
100
AcDbLine
 10
8175.610967506008
 20
-40.75758838644104
 30
0.0
 11
8175.610967506008
 21
-940.757588386441
 31
0.0
  0
LINE
  5
3FD6
330
1F
100
AcDbEntity
  8
APPLICATION
100
AcDbLine
 10
5855.61096750601
 20
-1050.757588386441
 30
0.0
 11
5871.610967506011
 21
-1050.757588386441
 31
0.0
  0
LINE
  5
3FD7
330
1F
100
AcDbEntity
  8
APPLICATION
100
AcDbLine
 10
5971.610967506011
 20
-1050.757588386441
 30
0.0
 11
5987.610967506011
 21
-1050.757588386441
 31
0.0
  0
LINE
  5
3FD8
330
1F
100
AcDbEntity
  8
APPLICATION
100
AcDbLine
 10
6087.610967506011
 20
-1050.757588386441
 30
0.0
 11
6103.610967506011
 21
-1050.757588386441
 31
0.0
  0
LINE
  5
3FD9
330
1F
100
AcDbEntity
  8
APPLICATION
100
AcDbLine
 10
6203.610967506011
 20
-1050.757588386441
 30
0.0
 11
6219.61096750601
 21
-1050.757588386441
 31
0.0
  0
LINE
  5
3FDA
330
1F
100
AcDbEntity
  8
APPLICATION
100
AcDbLine
 10
6319.610967506011
 20
-1050.757588386441
 30
0.0
 11
6335.610967506011
 21
-1050.757588386441
 31
0.0
  0
LINE
  5
3FDB
330
1F
100
AcDbEntity
  8
APPLICATION
100
AcDbLine
 10
6435.610967506011
 20
-1050.757588386441
 30
0.0
 11
6451.61096750601
 21
-1050.757588386441
 31
0.0
  0
LINE
  5
3FDC
330
1F
100
AcDbEntity
  8
APPLICATION
100
AcDbLine
 10
6551.610967506011
 20
-1050.757588386441
 30
0.0
 11
6567.61096750601
 21
-1050.757588386441
 31
0.0
  0
LINE
  5
3FDD
330
1F
100
AcDbEntity
  8
APPLICATION
100
AcDbLine
 10
6667.610967506011
 20
-1050.757588386441
 30
0.0
 11
6683.610967506012
 21
-1050.757588386441
 31
0.0
  0
LINE
  5
3FDE
330
1F
100
AcDbEntity
  8
APPLICATION
100
AcDbLine
 10
6783.61096750601
 20
-1050.757588386441
 30
0.0
 11
6799.610967506011
 21
-1050.757588386441
 31
0.0
  0
LINE
  5
3FDF
330
1F
100
AcDbEntity
  8
APPLICATION
100
AcDbLine
 10
6899.610967506011
 20
-1050.757588386441
 30
0.0
 11
6915.610967506011
 21
-1050.757588386441
 31
0.0
  0
LINE
  5
3FE0
330
1F
100
AcDbEntity
  8
APPLICATION
100
AcDbLine
 10
7015.61096750601
 20
-1050.757588386441
 30
0.0
 11
7031.610967506011
 21
-1050.757588386441
 31
0.0
  0
LINE
  5
3FE1
330
1F
100
AcDbEntity
  8
APPLICATION
100
AcDbLine
 10
7131.61096750601
 20
-1050.757588386441
 30
0.0
 11
7147.61096750601
 21
-1050.757588386441
 31
0.0
  0
LINE
  5
3FE2
330
1F
100
AcDbEntity
  8
APPLICATION
100
AcDbLine
 10
7247.61096750601
 20
-1050.757588386441
 30
0.0
 11
7263.610967506011
 21
-1050.757588386441
 31
0.0
  0
LINE
  5
3FE3
330
1F
100
AcDbEntity
  8
APPLICATION
100
AcDbLine
 10
7363.610967506011
 20
-1050.757588386441
 30
0.0
 11
7379.610967506012
 21
-1050.757588386441
 31
0.0
  0
LINE
  5
3FE4
330
1F
100
AcDbEntity
  8
APPLICATION
100
AcDbLine
 10
7479.610967506012
 20
-1050.757588386441
 30
0.0
 11
7495.61096750601
 21
-1050.757588386441
 31
0.0
  0
LINE
  5
3FE5
330
1F
100
AcDbEntity
  8
APPLICATION
100
AcDbLine
 10
7595.610967506011
 20
-1050.757588386441
 30
0.0
 11
7611.61096750601
 21
-1050.757588386441
 31
0.0
  0
LINE
  5
3FE6
330
1F
100
AcDbEntity
  8
APPLICATION
100
AcDbLine
 10
7711.61096750601
 20
-1050.757588386441
 30
0.0
 11
7727.610967506009
 21
-1050.757588386441
 31
0.0
  0
LINE
  5
3FE7
330
1F
100
AcDbEntity
  8
APPLICATION
100
AcDbLine
 10
7827.61096750601
 20
-1050.757588386441
 30
0.0
 11
7843.610967506009
 21
-1050.757588386441
 31
0.0
  0
LINE
  5
3FE8
330
1F
100
AcDbEntity
  8
APPLICATION
100
AcDbLine
 10
7943.61096750601
 20
-1050.757588386441
 30
0.0
 11
7959.61096750601
 21
-1050.757588386441
 31
0.0
  0
LINE
  5
3FE9
330
1F
100
AcDbEntity
  8
APPLICATION
100
AcDbLine
 10
8059.61096750601
 20
-1050.757588386441
 30
0.0
 11
8075.610967506007
 21
-1050.757588386441
 31
0.0
  0
LINE
  5
3FEA
330
1F
100
AcDbEntity
  8
APPLICATION
100
AcDbLine
 10
8175.610967506008
 20
-1050.757588386441
 30
0.0
 11
8191.610967506008
 21
-1050.757588386441
 31
0.0
  0
LINE
  5
3FEB
330
1F
100
AcDbEntity
  8
APPLICATION
100
AcDbLine
 10
8291.610967506008
 20
-1050.757588386441
 30
0.0
 11
8307.610967506006
 21
-1050.757588386441
 31
0.0
  0
LINE
  5
3FEC
330
1F
100
AcDbEntity
  8
DETAIL
100
AcDbLine
 10
8307.610967506009
 20
-870.7575883864411
 30
0.0
 11
8307.610967506009
 21
-940.757588386441
 31
0.0
  0
LINE
  5
3FED
330
1F
100
AcDbEntity
  8
DETAIL
100
AcDbLine
 10
8291.610967506008
 20
-870.7575883864411
 30
0.0
 11
8291.610967506008
 21
-940.757588386441
 31
0.0
  0
LINE
  5
3FEE
330
1F
100
AcDbEntity
  8
DETAIL
100
AcDbLine
 10
8191.610967506008
 20
-870.7575883864411
 30
0.0
 11
8191.61096750601
 21
-940.757588386441
 31
0.0
  0
LINE
  5
3FEF
330
1F
100
AcDbEntity
  8
DETAIL
100
AcDbLine
 10
8175.610967506008
 20
-870.7575883864411
 30
0.0
 11
8175.61096750601
 21
-940.757588386441
 31
0.0
  0
LINE
  5
3FF0
330
1F
100
AcDbEntity
  8
DETAIL
100
AcDbLine
 10
8075.61096750601
 20
-870.7575883864411
 30
0.0
 11
8075.61096750601
 21
-940.757588386441
 31
0.0
  0
LINE
  5
3FF1
330
1F
100
AcDbEntity
  8
DETAIL
100
AcDbLine
 10
8059.61096750601
 20
-870.7575883864411
 30
0.0
 11
8059.61096750601
 21
-940.757588386441
 31
0.0
  0
LINE
  5
3FF2
330
1F
100
AcDbEntity
  8
DETAIL
100
AcDbLine
 10
7959.61096750601
 20
-870.7575883864411
 30
0.0
 11
7959.61096750601
 21
-940.757588386441
 31
0.0
  0
LINE
  5
3FF3
330
1F
100
AcDbEntity
  8
DETAIL
100
AcDbLine
 10
7943.61096750601
 20
-870.7575883864411
 30
0.0
 11
7943.61096750601
 21
-940.757588386441
 31
0.0
  0
LINE
  5
3FF4
330
1F
100
AcDbEntity
  8
DETAIL
100
AcDbLine
 10
7843.610967506009
 20
-870.7575883864411
 30
0.0
 11
7843.610967506009
 21
-940.757588386441
 31
0.0
  0
LINE
  5
3FF5
330
1F
100
AcDbEntity
  8
DETAIL
100
AcDbLine
 10
7827.61096750601
 20
-870.7575883864411
 30
0.0
 11
7827.61096750601
 21
-940.757588386441
 31
0.0
  0
LINE
  5
3FF6
330
1F
100
AcDbEntity
  8
DETAIL
100
AcDbLine
 10
7727.610967506009
 20
-870.7575883864411
 30
0.0
 11
7727.610967506009
 21
-940.757588386441
 31
0.0
  0
LINE
  5
3FF7
330
1F
100
AcDbEntity
  8
DETAIL
100
AcDbLine
 10
7711.61096750601
 20
-870.7575883864411
 30
0.0
 11
7711.61096750601
 21
-940.757588386441
 31
0.0
  0
LINE
  5
3FF8
330
1F
100
AcDbEntity
  8
DETAIL
100
AcDbLine
 10
7611.61096750601
 20
-870.7575883864411
 30
0.0
 11
7611.61096750601
 21
-940.757588386441
 31
0.0
  0
LINE
  5
3FF9
330
1F
100
AcDbEntity
  8
DETAIL
100
AcDbLine
 10
7595.610967506011
 20
-870.7575883864411
 30
0.0
 11
7595.610967506011
 21
-940.757588386441
 31
0.0
  0
LINE
  5
3FFA
330
1F
100
AcDbEntity
  8
DETAIL
100
AcDbLine
 10
7495.610967506012
 20
-870.7575883864411
 30
0.0
 11
7495.61096750601
 21
-940.757588386441
 31
0.0
  0
LINE
  5
3FFB
330
1F
100
AcDbEntity
  8
DETAIL
100
AcDbLine
 10
7479.610967506012
 20
-870.7575883864411
 30
0.0
 11
7479.610967506011
 21
-940.757588386441
 31
0.0
  0
LINE
  5
3FFC
330
1F
100
AcDbEntity
  8
DETAIL
100
AcDbLine
 10
7379.610967506012
 20
-870.7575883864411
 30
0.0
 11
7379.610967506009
 21
-940.757588386441
 31
0.0
  0
LINE
  5
3FFD
330
1F
100
AcDbEntity
  8
DETAIL
100
AcDbLine
 10
7363.610967506011
 20
-870.7575883864411
 30
0.0
 11
7363.610967506011
 21
-940.757588386441
 31
0.0
  0
LINE
  5
3FFE
330
1F
100
AcDbEntity
  8
DETAIL
100
AcDbLine
 10
7263.610967506011
 20
-870.7575883864411
 30
0.0
 11
7263.610967506011
 21
-940.757588386441
 31
0.0
  0
LINE
  5
3FFF
330
1F
100
AcDbEntity
  8
DETAIL
100
AcDbLine
 10
7247.610967506012
 20
-870.7575883864411
 30
0.0
 11
7247.61096750601
 21
-940.757588386441
 31
0.0
  0
LINE
  5
4000
330
1F
100
AcDbEntity
  8
DETAIL
100
AcDbLine
 10
7147.61096750601
 20
-870.7575883864411
 30
0.0
 11
7147.61096750601
 21
-940.757588386441
 31
0.0
  0
LINE
  5
4001
330
1F
100
AcDbEntity
  8
DETAIL
100
AcDbLine
 10
7131.610967506012
 20
-870.7575883864411
 30
0.0
 11
7131.61096750601
 21
-940.757588386441
 31
0.0
  0
LINE
  5
4002
330
1F
100
AcDbEntity
  8
DETAIL
100
AcDbLine
 10
7031.610967506011
 20
-870.7575883864411
 30
0.0
 11
7031.610967506011
 21
-940.757588386441
 31
0.0
  0
LINE
  5
4003
330
1F
100
AcDbEntity
  8
DETAIL
100
AcDbLine
 10
7015.610967506012
 20
-870.7575883864411
 30
0.0
 11
7015.61096750601
 21
-940.757588386441
 31
0.0
  0
LINE
  5
4004
330
1F
100
AcDbEntity
  8
DETAIL
100
AcDbLine
 10
6915.610967506012
 20
-870.7575883864411
 30
0.0
 11
6915.610967506011
 21
-940.757588386441
 31
0.0
  0
LINE
  5
4005
330
1F
100
AcDbEntity
  8
DETAIL
100
AcDbLine
 10
6899.610967506011
 20
-870.7575883864411
 30
0.0
 11
6899.610967506011
 21
-940.757588386441
 31
0.0
  0
LINE
  5
4006
330
1F
100
AcDbEntity
  8
DETAIL
100
AcDbLine
 10
6799.610967506011
 20
-870.7575883864411
 30
0.0
 11
6799.610967506011
 21
-940.757588386441
 31
0.0
  0
LINE
  5
4007
330
1F
100
AcDbEntity
  8
DETAIL
100
AcDbLine
 10
6783.61096750601
 20
-870.7575883864411
 30
0.0
 11
6783.61096750601
 21
-940.757588386441
 31
0.0
  0
LINE
  5
4008
330
1F
100
AcDbEntity
  8
DETAIL
100
AcDbLine
 10
6683.610967506012
 20
-870.7575883864411
 30
0.0
 11
6683.61096750601
 21
-940.757588386441
 31
0.0
  0
LINE
  5
4009
330
1F
100
AcDbEntity
  8
DETAIL
100
AcDbLine
 10
6667.610967506012
 20
-870.7575883864411
 30
0.0
 11
6667.610967506011
 21
-940.757588386441
 31
0.0
  0
LINE
  5
400A
330
1F
100
AcDbEntity
  8
DETAIL
100
AcDbLine
 10
6567.610967506012
 20
-870.7575883864411
 30
0.0
 11
6567.61096750601
 21
-940.757588386441
 31
0.0
  0
LINE
  5
400B
330
1F
100
AcDbEntity
  8
DETAIL
100
AcDbLine
 10
6551.610967506012
 20
-870.7575883864411
 30
0.0
 11
6551.610967506011
 21
-940.757588386441
 31
0.0
  0
LINE
  5
400C
330
1F
100
AcDbEntity
  8
DETAIL
100
AcDbLine
 10
6451.610967506012
 20
-870.7575883864411
 30
0.0
 11
6451.61096750601
 21
-940.757588386441
 31
0.0
  0
LINE
  5
400D
330
1F
100
AcDbEntity
  8
DETAIL
100
AcDbLine
 10
6435.610967506011
 20
-870.7575883864411
 30
0.0
 11
6435.610967506011
 21
-940.757588386441
 31
0.0
  0
LINE
  5
400E
330
1F
100
AcDbEntity
  8
DETAIL
100
AcDbLine
 10
6335.610967506012
 20
-870.7575883864411
 30
0.0
 11
6335.610967506011
 21
-940.757588386441
 31
0.0
  0
LINE
  5
400F
330
1F
100
AcDbEntity
  8
DETAIL
100
AcDbLine
 10
6319.610967506012
 20
-870.7575883864411
 30
0.0
 11
6319.610967506011
 21
-940.757588386441
 31
0.0
  0
LINE
  5
4010
330
1F
100
AcDbEntity
  8
DETAIL
100
AcDbLine
 10
6219.61096750601
 20
-870.7575883864411
 30
0.0
 11
6219.61096750601
 21
-940.757588386441
 31
0.0
  0
LINE
  5
4011
330
1F
100
AcDbEntity
  8
DETAIL
100
AcDbLine
 10
6203.610967506012
 20
-870.7575883864411
 30
0.0
 11
6203.610967506011
 21
-940.757588386441
 31
0.0
  0
LINE
  5
4012
330
1F
100
AcDbEntity
  8
DETAIL
100
AcDbLine
 10
6103.610967506011
 20
-870.7575883864411
 30
0.0
 11
6103.610967506011
 21
-940.757588386441
 31
0.0
  0
LINE
  5
4013
330
1F
100
AcDbEntity
  8
DETAIL
100
AcDbLine
 10
6087.610967506011
 20
-870.7575883864411
 30
0.0
 11
6087.610967506011
 21
-940.757588386441
 31
0.0
  0
LINE
  5
4014
330
1F
100
AcDbEntity
  8
DETAIL
100
AcDbLine
 10
5987.610967506011
 20
-870.7575883864411
 30
0.0
 11
5987.610967506011
 21
-940.757588386441
 31
0.0
  0
LINE
  5
4015
330
1F
100
AcDbEntity
  8
DETAIL
100
AcDbLine
 10
5971.610967506012
 20
-870.7575883864411
 30
0.0
 11
5971.610967506011
 21
-940.757588386441
 31
0.0
  0
LINE
  5
4016
330
1F
100
AcDbEntity
  8
DETAIL
100
AcDbLine
 10
5871.610967506011
 20
-870.7575883864411
 30
0.0
 11
5871.610967506011
 21
-940.757588386441
 31
0.0
  0
LINE
  5
4017
330
1F
100
AcDbEntity
  8
DETAIL
100
AcDbLine
 10
5855.61096750601
 20
-870.7575883864411
 30
0.0
 11
5855.61096750601
 21
-940.757588386441
 31
0.0
  0
LINE
  5
4018
330
1F
100
AcDbEntity
  8
DETAIL
100
AcDbLine
 10
8406.61096750601
 20
-50.75758838644105
 30
0.0
 11
8406.61096750601
 21
-65.04253651601357
 31
0.0
  0
LINE
  5
4019
330
1F
100
AcDbEntity
  8
DETAIL
100
AcDbLine
 10
8406.61096750601
 20
-65.04253651601357
 30
0.0
 11
8406.61096750601
 21
-17.10303554987877
 31
0.0
  0
LINE
  5
401A
330
1F
100
AcDbEntity
  8
DETAIL
100
AcDbLine
 10
8406.61096750601
 20
-960.7575883864411
 30
0.0
 11
8406.61096750601
 21
-973.3148159377304
 31
0.0
  0
LINE
  5
401B
330
1F
100
AcDbEntity
  8
DETAIL
100
AcDbLine
 10
8406.61096750601
 20
-973.3148159377304
 30
0.0
 11
8406.61096750601
 21
-928.4927795133899
 31
0.0
  0
LINE
  5
401C
330
1F
100
AcDbEntity
  8
DETAIL
100
AcDbLine
 10
5756.61096750601
 20
-960.7575883864411
 30
0.0
 11
5756.61096750601
 21
-978.5883770288657
 31
0.0
  0
LINE
  5
401D
330
1F
100
AcDbEntity
  8
DETAIL
100
AcDbLine
 10
5756.61096750601
 20
-978.5883770288657
 30
0.0
 11
5756.61096750601
 21
-922.7883147825666
 31
0.0
  0
LINE
  5
401E
330
1F
100
AcDbEntity
  8
DETAIL
100
AcDbLine
 10
5756.61096750601
 20
-50.7575883864411
 30
0.0
 11
5756.61096750601
 21
-67.62145111799871
 31
0.0
  0
LINE
  5
401F
330
1F
100
AcDbEntity
  8
DETAIL
100
AcDbLine
 10
5756.61096750601
 20
-67.62145111799871
 30
0.0
 11
5756.61096750601
 21
-13.19650632173943
 31
0.0
  0
DIMENSION
  5
40C2
102
{ACAD_XDICTIONARY
360
40D0
102
}
102
{ACAD_REACTORS
330
40DB
102
}
330
1F
100
AcDbEntity
  8
DIMS
100
AcDbDimension
280
     0
  2
*D1
 10
8937.680740794673
 20
-1050.757588386441
 30
0.0
 11
8937.680740794673
 21
-450.7575883864396
 31
0.0
 70
    32
  1
DIM A
 71
     5
 42
1200.0
 73
     0
 74
     0
 75
     0
 53
90.0
  3
Standard
100
AcDbAlignedDimension
 13
8481.610967506011
 23
149.2424116135589
 33
0.0
 14
8481.610967506011
 24
-1050.757588386441
 34
0.0
 50
90.0
100
AcDbRotatedDimension
1001
ACAD
1000
DSTYLE
1002
{
1070
   340
1005
478E
1070
    74
1070
     0
1070
   147
1040
30.0
1070
   140
1040
50.0
1070
    42
1040
30.0
1070
    44
1040
30.0
1070
    41
1040
50.0
1002
}
  0
DIMENSION
  5
4140
102
{ACAD_XDICTIONARY
360
414E
102
}
102
{ACAD_REACTORS
330
4159
102
}
330
1F
100
AcDbEntity
  8
DIMS
100
AcDbDimension
280
     0
  2
*D2
 10
8456.610967506009
 20
487.3108987394388
 30
0.0
 11
7081.61096750601
 21
487.3108987394388
 31
0.0
 70
    32
  1
2750
 71
     5
 42
2750.0
 73
     0
 74
     0
 75
     0
  3
Standard
100
AcDbAlignedDimension
 13
5706.61096750601
 23
149.2424116135589
 33
0.0
 14
8456.610967506009
 24
149.2424116135589
 34
0.0
100
AcDbRotatedDimension
1001
ACAD
1000
DSTYLE
1002
{
1070
   340
1005
478E
1070
    41
1040
50.0
1070
    42
1040
30.0
1070
    44
1040
30.0
1070
    74
1070
     0
1070
   140
1040
50.0
1070
   147
1040
30.0
1002
}
  0
DIMENSION
  5
4178
330
1F
100
AcDbEntity
  8
DIMS
100
AcDbDimension
280
     0
  2
*D3
 10
7177.884218187795
 20
149.8105317383684
 30
0.0
 11
7267.408027711606
 21
264.0635553945676
 31
0.0
 70
   160
  1
150
 71
     5
 42
180.0
 73
     0
 74
     0
 75
     0
 53
90.0
  3
Standard
100
AcDbAlignedDimension
 13
7197.705646759222
 23
-30.18946826163155
 33
0.0
 14
7197.705646759222
 24
149.8105317383684
 34
0.0
 50
90.0
100
AcDbRotatedDimension
1001
ACAD
1000
DSTYLE
1002
{
1070
   340
1005
478E
1070
    41
1040
50.0
1070
    42
1040
30.0
1070
    44
1040
30.0
1070
    74
1070
     0
1070
   140
1040
50.0
1070
   147
1040
30.0
1002
}
  0
DIMENSION
  5
4232
330
1F
100
AcDbEntity
  8
DIMS
100
AcDbDimension
280
     0
  2
*D4
 10
6551.610967506011
 20
256.618821018772
 30
0.0
 11
6842.325253220295
 21
256.618821018772
 31
0.0
 70
    32
  1
100 MAX
 71
     5
 42
100.0
 73
     0
 74
     0
 75
     0
  3
Standard
100
AcDbAlignedDimension
 13
6451.61096750601
 23
-30.75758838644109
 33
0.0
 14
6551.610967506011
 24
-30.75696435286041
 34
0.0
100
AcDbRotatedDimension
1001
ACAD
1000
DSTYLE
1002
{
1070
   340
1005
478E
1070
    41
1040
50.0
1070
    42
1040
30.0
1070
    44
1040
30.0
1070
    74
1070
     0
1070
   140
1040
50.0
1070
   147
1040
30.0
1002
}
  0
DIMENSION
  5
4299
102
{ACAD_XDICTIONARY
360
42A7
102
}
102
{ACAD_REACTORS
330
42B2
102
}
330
1F
100
AcDbEntity
  8
DIMS
100
AcDbDimension
280
     0
  2
*D5
 10
5493.727419172134
 20
-30.75758838644102
 30
0.0
 11
5493.727419172134
 21
288.7662211373694
 31
0.0
 70
   160
  1
150
 71
     5
 42
180.0
 73
     0
 74
     0
 75
     0
  3
Standard
100
AcDbAlignedDimension
 13
5681.61096750601
 23
149.2424116135589
 33
0.0
 14
5731.610967506011
 24
-30.75758838644109
 34
0.0
 50
90.0
100
AcDbRotatedDimension
1001
ACAD
1000
DSTYLE
1002
{
1070
   340
1005
478E
1070
    41
1040
50.0
1070
    42
1040
30.0
1070
    44
1040
30.0
1070
    74
1070
     0
1070
   140
1040
50.0
1070
   147
1040
30.0
1002
}
  0
DIMENSION
  5
42D1
330
1F
100
AcDbEntity
  8
DIMS
100
AcDbDimension
280
     0
  2
*D6
 10
5493.727419172134
 20
-950.757588386441
 30
0.0
 11
5493.727419172134
 21
-761.2337788626306
 31
0.0
 70
   160
  1
100
 71
     5
 42
99.99999999999987
 73
     0
 74
     0
 75
     0
  3
Standard
100
AcDbAlignedDimension
 13
5681.61096750601
 23
-1050.757588386441
 33
0.0
 14
5731.610967506011
 24
-950.757588386441
 34
0.0
 50
270.0
100
AcDbRotatedDimension
1001
ACAD
1000
DSTYLE
1002
{
1070
   340
1005
478E
1070
    41
1040
50.0
1070
    42
1040
30.0
1070
    44
1040
30.0
1070
    74
1070
     0
1070
   140
1040
50.0
1070
   147
1040
30.0
1002
}
  0
LINE
  5
4319
330
1F
100
AcDbEntity
  8
DETAIL
100
AcDbLine
 10
5731.610967506011
 20
-1050.757588386441
 30
0.0
 11
5731.610967506011
 21
-950.757588386441
 31
0.0
  0
LINE
  5
431A
330
1F
100
AcDbEntity
  8
DETAIL
100
AcDbLine
 10
5731.610967506011
 20
-950.757588386441
 30
0.0
 11
5755.904954408858
 21
-950.757588386441
 31
0.0
  0
LINE
  5
435B
330
1F
100
AcDbEntity
  8
APPLICATION
100
AcDbLine
 10
5731.610967506011
 20
-1050.757588386441
 30
0.0
 11
8431.610967506008
 21
-1050.757588386441
 31
0.0
  0
LINE
  5
435C
330
1F
100
AcDbEntity
  8
APPLICATION
100
AcDbLine
 10
5681.61096750601
 20
-1050.757588386441
 30
0.0
 11
5289.96155620904
 21
-1050.757588386441
 31
0.0
  0
LINE
  5
435D
330
1F
100
AcDbEntity
  8
APPLICATION
100
AcDbLine
 10
8481.610967506011
 20
-1050.757588386441
 30
0.0
 11
8848.678127900432
 21
-1050.757588386441
 31
0.0
  0
LINE
  5
435E
330
1F
100
AcDbEntity
  8
DETAIL
100
AcDbLine
 10
5681.61096750601
 20
-1050.757588386441
 30
0.0
 11
5681.61096750601
 21
-1650.757588386441
 31
0.0
  0
LINE
  5
435F
330
1F
100
AcDbEntity
  8
DETAIL
100
AcDbLine
 10
5681.61096750601
 20
-1650.757588386441
 30
0.0
 11
5731.610967506011
 21
-1650.757588386441
 31
0.0
  0
LINE
  5
4360
330
1F
100
AcDbEntity
  8
DETAIL
100
AcDbLine
 10
5731.610967506011
 20
-1650.757588386441
 30
0.0
 11
5731.610967506011
 21
-1050.757588386441
 31
0.0
  0
LINE
  5
4361
330
1F
100
AcDbEntity
  8
DETAIL
100
AcDbLine
 10
8431.610967506008
 20
-1050.757588386441
 30
0.0
 11
8431.610967506008
 21
-1650.757588386441
 31
0.0
  0
LINE
  5
4362
330
1F
100
AcDbEntity
  8
DETAIL
100
AcDbLine
 10
8431.610967506008
 20
-1650.757588386441
 30
0.0
 11
8481.610967506011
 21
-1650.757588386441
 31
0.0
  0
LINE
  5
4363
102
{ACAD_REACTORS
330
439A
102
}
330
1F
100
AcDbEntity
  8
DETAIL
100
AcDbLine
 10
8481.610967506011
 20
-1650.757588386441
 30
0.0
 11
8481.610967506011
 21
-1050.757588386441
 31
0.0
  0
HATCH
  5
437F
330
1F
100
AcDbEntity
  8
APPLICATION
100
AcDbHatch
 10
0.0
 20
0.0
 30
0.0
210
0.0
220
0.0
230
1.0
  2
ANSI31
 70
     0
 71
     0
 91
        3
 92
        7
 72
     0
 73
     1
 93
        5
 10
5681.61096750601
 20
-1050.757588386441
 10
5289.96155620904
 20
-1050.757588386441
 10
5289.96155620904
 20
-1150.757588386441
 10
5289.96155620904
 20
-1250.757588386441
 10
5681.61096750601
 20
-1250.757588386441
 97
        0
 92
        7
 72
     0
 73
     1
 93
        4
 10
8431.610967506008
 20
-1050.757588386441
 10
5731.610967506011
 20
-1050.757588386441
 10
5731.610967506011
 20
-1250.757588386441
 10
8431.610967506008
 20
-1250.757588386441
 97
        0
 92
        7
 72
     0
 73
     1
 93
        4
 10
8848.678127900432
 20
-1050.757588386441
 10
8481.610967506011
 20
-1050.757588386441
 10
8481.610967506011
 20
-1250.757588386441
 10
8848.678127900432
 20
-1250.757588386441
 97
        0
 75
     0
 76
     1
 52
0.0
 41
800.0
 77
     0
 78
     1
 53
45.0
 43
0.0
 44
0.0
 45
-70.71067811865474
 46
70.71067811865474
 79
     0
 47
5.106650900506648
 98
        3
 10
5467.451445506649
 20
-1172.305500933977
 10
5942.962146776845
 20
-1192.73210505829
 10
8647.748863162041
 20
-1162.092198871818
  0
DIMENSION
  5
4381
102
{ACAD_XDICTIONARY
360
438F
102
}
102
{ACAD_REACTORS
330
439A
102
}
330
1F
100
AcDbEntity
  8
DIMS
100
AcDbDimension
280
     0
  2
*D7
 10
8937.680740794673
 20
-1050.757588386441
 30
0.0
 11
8937.680740794673
 21
-1350.75758838644
 31
0.0
 70
    32
  1
DIM B
 71
     5
 42
600.0
 73
     0
 74
     0
 75
     0
 53
90.0
  3
Standard
100
AcDbAlignedDimension
 13
8481.610967506011
 23
-1650.757588386441
 33
0.0
 14
8481.610967506011
 24
-1050.757588386441
 34
0.0
 50
90.0
100
AcDbRotatedDimension
1001
ACAD
1000
DSTYLE
1002
{
1070
   340
1005
478E
1070
    41
1040
50.0
1070
    42
1040
30.0
1070
    44
1040
30.0
1070
    74
1070
     0
1070
   140
1040
50.0
1070
   147
1040
30.0
1002
}
  0
LINE
  5
43AF
330
1F
100
AcDbEntity
  8
DETAIL
100
AcDbLine
 10
7086.61096750601
 20
-950.757588386441
 30
0.0
 11
7086.61096750601
 21
-1050.757588386441
 31
0.0
  0
LINE
  5
43B0
330
1F
100
AcDbEntity
  8
DETAIL
100
AcDbLine
 10
7081.61096750601
 20
-950.757588386441
 30
0.0
 11
7031.610967506011
 21
-950.757588386441
 31
0.0
  0
LINE
  5
43B1
330
1F
100
AcDbEntity
  8
DETAIL
100
AcDbLine
 10
7036.61096750601
 20
-950.757588386441
 30
0.0
 11
7036.61096750601
 21
-960.7575883864411
 31
0.0
  0
LINE
  5
43B2
330
1F
100
AcDbEntity
  8
DETAIL
100
AcDbLine
 10
7036.61096750601
 20
-960.7575883864411
 30
0.0
 11
7076.61096750601
 21
-960.7575883864411
 31
0.0
  0
LINE
  5
43B3
330
1F
100
AcDbEntity
  8
DETAIL
100
AcDbLine
 10
7076.61096750601
 20
-960.7575883864411
 30
0.0
 11
7076.61096750601
 21
-1050.757588386441
 31
0.0
  0
LINE
  5
43B4
330
1F
100
AcDbEntity
  8
DETAIL
100
AcDbLine
 10
7076.61096750601
 20
-950.757588386441
 30
0.0
 11
7086.61096750601
 21
-950.757588386441
 31
0.0
  0
LINE
  5
43B5
330
1F
100
AcDbEntity
  8
DETAIL
100
AcDbLine
 10
7076.61096750601
 20
-1050.757588386441
 30
0.0
 11
7076.61096750601
 21
-1146.371015179864
 31
0.0
  0
LINE
  5
43B6
330
1F
100
AcDbEntity
  8
DETAIL
100
AcDbLine
 10
7076.61096750601
 20
-1146.371015179864
 30
0.0
 11
7126.610967506009
 21
-1146.371015179864
 31
0.0
  0
LINE
  5
43B7
330
1F
100
AcDbEntity
  8
DETAIL
100
AcDbLine
 10
7126.610967506009
 20
-1146.371015179864
 30
0.0
 11
7126.610967506009
 21
-1136.371015179864
 31
0.0
  0
LINE
  5
43B8
330
1F
100
AcDbEntity
  8
DETAIL
100
AcDbLine
 10
7126.610967506009
 20
-1136.371015179864
 30
0.0
 11
7086.61096750601
 21
-1136.371015179864
 31
0.0
  0
LINE
  5
43B9
330
1F
100
AcDbEntity
  8
DETAIL
100
AcDbLine
 10
7086.61096750601
 20
-1050.757588386441
 30
0.0
 11
7086.61096750601
 21
-1136.371015179864
 31
0.0
  0
LINE
  5
43BA
330
1F
100
AcDbEntity
  8
DETAIL
100
AcDbLine
 10
7056.61096750601
 20
-960.7575883864411
 30
0.0
 11
7056.61096750601
 21
-940.757588386441
 31
0.0
  0
LINE
  5
43BB
330
1F
100
AcDbEntity
  8
DETAIL
100
AcDbLine
 10
7056.61096750601
 20
-940.757588386441
 30
0.0
 11
7056.61096750601
 21
-927.2805404421431
 31
0.0
  0
LINE
  5
43BC
330
1F
100
AcDbEntity
  8
DETAIL
100
AcDbLine
 10
7056.61096750601
 20
-927.2805404421431
 30
0.0
 11
7056.61096750601
 21
-960.7575883864411
 31
0.0
  0
LINE
  5
43BD
330
1F
100
AcDbEntity
  8
DETAIL
100
AcDbLine
 10
7056.61096750601
 20
-960.7575883864411
 30
0.0
 11
7056.61096750601
 21
-972.4477184328188
 31
0.0
  0
LINE
  5
440B
330
1F
100
AcDbEntity
  8
DETAIL
100
AcDbLine
 10
5681.61096750601
 20
-2024.751663488882
 30
0.0
 11
5731.610967506011
 21
-2024.751663488882
 31
0.0
  0
LINE
  5
440C
330
1F
100
AcDbEntity
  8
DETAIL
100
AcDbLine
 10
5731.610967506011
 20
-2024.751663488882
 30
0.0
 11
5731.610967506011
 21
-2074.751663488882
 31
0.0
  0
LINE
  5
440D
330
1F
100
AcDbEntity
  8
DETAIL
100
AcDbLine
 10
5731.610967506011
 20
-2074.751663488882
 30
0.0
 11
5681.61096750601
 21
-2074.751663488882
 31
0.0
  0
LINE
  5
440E
330
1F
100
AcDbEntity
  8
DETAIL
100
AcDbLine
 10
5681.61096750601
 20
-2074.751663488882
 30
0.0
 11
5681.61096750601
 21
-2024.751663488882
 31
0.0
  0
LINE
  5
440F
330
1F
100
AcDbEntity
  8
DETAIL
100
AcDbLine
 10
8481.610967506011
 20
-2024.751663488882
 30
0.0
 11
8431.610967506008
 21
-2024.751663488882
 31
0.0
  0
LINE
  5
4410
330
1F
100
AcDbEntity
  8
DETAIL
100
AcDbLine
 10
8431.610967506008
 20
-2024.751663488882
 30
0.0
 11
8431.610967506008
 21
-2074.751663488882
 31
0.0
  0
LINE
  5
4411
330
1F
100
AcDbEntity
  8
DETAIL
100
AcDbLine
 10
8431.610967506008
 20
-2074.751663488882
 30
0.0
 11
8481.610967506011
 21
-2074.751663488882
 31
0.0
  0
LINE
  5
4412
330
1F
100
AcDbEntity
  8
DETAIL
100
AcDbLine
 10
8481.610967506011
 20
-2074.751663488882
 30
0.0
 11
8481.610967506011
 21
-2024.751663488881
 31
0.0
  0
LINE
  5
4413
330
1F
100
AcDbEntity
  8
DETAIL
100
AcDbLine
 10
5731.610967506011
 20
-2029.751663488882
 30
0.0
 11
8431.610967506008
 21
-2029.751663488882
 31
0.0
  0
LINE
  5
4414
330
1F
100
AcDbEntity
  8
DETAIL
100
AcDbLine
 10
5731.610967506011
 20
-2069.751663488882
 30
0.0
 11
8431.610967506008
 21
-2069.751663488882
 31
0.0
  0
ARC
  5
4416
330
1F
100
AcDbEntity
  8
DETAIL
100
AcDbCircle
 10
5979.610967506014
 20
-2040.751663488883
 30
0.0
 40
7.99999999999909
100
AcDbArc
 50
270.0
 51
90.0
  0
ARC
  5
4417
330
1F
100
AcDbEntity
  8
DETAIL
100
AcDbCircle
 10
5979.610967506014
 20
-2040.751663488883
 30
0.0
 40
8.000000000000909
100
AcDbArc
 50
270.0
 51
90.0
  0
ARC
  5
441A
330
1F
100
AcDbEntity
  8
DETAIL
100
AcDbCircle
 10
6211.610967506015
 20
-2058.751663488882
 30
0.0
 40
7.99999999999909
100
AcDbArc
 50
270.0
 51
90.0
  0
ARC
  5
441B
330
1F
100
AcDbEntity
  8
DETAIL
100
AcDbCircle
 10
6211.610967506015
 20
-2058.751663488882
 30
0.0
 40
8.000000000000909
100
AcDbArc
 50
270.0
 51
90.0
  0
DIMENSION
  5
4440
330
1F
100
AcDbEntity
  8
DIMS
100
AcDbDimension
280
     0
  2
*D8
 10
8456.610967506009
 20
-2358.830842093798
 30
0.0
 11
7081.61096750601
 21
-2358.830842093798
 31
0.0
 70
    32
  1
2750
 71
     5
 42
2750.0
 73
     0
 74
     0
 75
     0
  3
Standard
100
AcDbAlignedDimension
 13
5706.61096750601
 23
-2074.751663488882
 33
0.0
 14
8456.610967506009
 24
-2074.751663488882
 34
0.0
100
AcDbRotatedDimension
1001
ACAD
1000
DSTYLE
1002
{
1070
   340
1005
478E
1070
    41
1040
50.0
1070
    42
1040
30.0
1070
    44
1040
30.0
1070
    74
1070
     0
1070
   140
1040
50.0
1070
   147
1040
30.0
1002
}
  0
LINE
  5
4465
330
1F
100
AcDbEntity
  8
DETAIL
100
AcDbLine
 10
5855.610967506013
 20
-2032.751663488882
 30
0.0
 11
5979.610967506014
 21
-2032.751663488882
 31
0.0
  0
LINE
  5
4467
330
1F
100
AcDbEntity
  8
DETAIL
100
AcDbLine
 10
5855.610967506013
 20
-2048.751663488884
 30
0.0
 11
5979.610967506014
 21
-2048.751663488882
 31
0.0
  0
LINE
  5
446A
330
1F
100
AcDbEntity
  8
DETAIL
100
AcDbLine
 10
6095.610967506014
 20
-2050.751663488883
 30
0.0
 11
6211.610967506015
 21
-2050.751663488881
 31
0.0
  0
LINE
  5
446C
330
1F
100
AcDbEntity
  8
DETAIL
100
AcDbLine
 10
6095.610967506014
 20
-2066.751663488881
 30
0.0
 11
6211.610967506015
 21
-2066.751663488883
 31
0.0
  0
ARC
  5
446D
330
1F
100
AcDbEntity
  8
DETAIL
100
AcDbCircle
 10
5863.610967506014
 20
-2058.751663488887
 30
0.0
 40
8.000000000000909
100
AcDbArc
 50
90.0
 51
270.0
  0
ARC
  5
446E
330
1F
100
AcDbEntity
  8
DETAIL
100
AcDbCircle
 10
6211.610967506015
 20
-2058.751663488882
 30
0.0
 40
7.99999999999909
100
AcDbArc
 50
270.0
 51
90.0
  0
ARC
  5
446F
330
1F
100
AcDbEntity
  8
DETAIL
100
AcDbCircle
 10
6211.610967506015
 20
-2058.751663488882
 30
0.0
 40
8.000000000000909
100
AcDbArc
 50
270.0
 51
90.0
  0
LINE
  5
4474
330
1F
100
AcDbEntity
  8
DETAIL
100
AcDbLine
 10
5863.610967506014
 20
-2050.751663488881
 30
0.0
 11
6211.610967506015
 21
-2050.751663488881
 31
0.0
  0
LINE
  5
4475
330
1F
100
AcDbEntity
  8
DETAIL
100
AcDbLine
 10
5863.610967506014
 20
-2066.751663488886
 30
0.0
 11
6211.610967506015
 21
-2066.751663488881
 31
0.0
  0
MTEXT
  5
452E
330
1F
100
AcDbEntity
  8
TEXT
100
AcDbMText
 10
9594.713059240101
 20
-419.4683105717758
 30
0.0
 40
50.0
 41
724.3024
 46
0.0
 71
     1
 72
     5
  1
DIM B
  7
fastrack
 73
     1
 44
1.0
  0
LINE
  5
452F
330
1F
100
AcDbEntity
  8
TEXT
100
AcDbLine
 10
9550.359141422484
 20
-382.0056951730549
 30
0.0
 11
9869.323476217278
 21
-382.0056951730549
 31
0.0
  0
LINE
  5
4530
330
1F
100
AcDbEntity
  8
TEXT
100
AcDbLine
 10
9869.323476217278
 20
-382.0056951730549
 30
0.0
 11
9869.323476217278
 21
-496.7677964717368
 31
0.0
  0
LINE
  5
4531
330
1F
100
AcDbEntity
  8
TEXT
100
AcDbLine
 10
9869.323476217278
 20
-496.7677964717368
 30
0.0
 11
9550.359141422484
 21
-496.7677964717368
 31
0.0
  0
LINE
  5
4532
330
1F
100
AcDbEntity
  8
TEXT
100
AcDbLine
 10
9550.359141422484
 20
-382.0056951730549
 30
0.0
 11
9550.359141422484
 21
-496.7677964717368
 31
0.0
  0
MTEXT
  5
4533
330
1F
100
AcDbEntity
  8
TEXT
100
AcDbMText
 10
9903.727020078745
 20
-419.4683105717758
 30
0.0
 40
50.0
 41
724.3024
 46
0.0
 71
     1
 72
     5
  1
POSTS
  7
fastrack
 73
     1
 44
1.0
  0
LINE
  5
4534
330
1F
100
AcDbEntity
  8
TEXT
100
AcDbLine
 10
9869.323476217278
 20
-382.0056951730549
 30
0.0
 11
10188.28781101207
 21
-382.0056951730549
 31
0.0
  0
LINE
  5
4535
330
1F
100
AcDbEntity
  8
TEXT
100
AcDbLine
 10
10188.28781101207
 20
-382.0056951730549
 30
0.0
 11
10188.28781101207
 21
-496.7677964717368
 31
0.0
  0
LINE
  5
4536
330
1F
100
AcDbEntity
  8
TEXT
100
AcDbLine
 10
10188.28781101207
 20
-496.7677964717368
 30
0.0
 11
9869.323476217278
 21
-496.7677964717368
 31
0.0
  0
LINE
  5
4537
330
1F
100
AcDbEntity
  8
TEXT
100
AcDbLine
 10
9869.323476217278
 20
-382.0056951730549
 30
0.0
 11
9869.323476217278
 21
-496.7677964717368
 31
0.0
  0
MTEXT
  5
4538
330
1F
100
AcDbEntity
  8
TEXT
100
AcDbMText
 10
10233.27312171636
 20
-419.4683105717758
 30
0.0
 40
50.0
 41
724.3024
 46
0.0
 71
     1
 72
     5
  1
RAILS
  7
fastrack
 73
     1
 44
1.0
  0
LINE
  5
4539
330
1F
100
AcDbEntity
  8
TEXT
100
AcDbLine
 10
10188.28781101207
 20
-382.0056951730549
 30
0.0
 11
10507.25214580686
 21
-382.0056951730549
 31
0.0
  0
LINE
  5
453A
330
1F
100
AcDbEntity
  8
TEXT
100
AcDbLine
 10
10507.25214580686
 20
-382.0056951730549
 30
0.0
 11
10507.25214580686
 21
-496.7677964717368
 31
0.0
  0
LINE
  5
453B
330
1F
100
AcDbEntity
  8
TEXT
100
AcDbLine
 10
10507.25214580686
 20
-496.7677964717368
 30
0.0
 11
10188.28781101207
 21
-496.7677964717368
 31
0.0
  0
LINE
  5
453C
330
1F
100
AcDbEntity
  8
TEXT
100
AcDbLine
 10
10188.28781101207
 20
-382.0056951730549
 30
0.0
 11
10188.28781101207
 21
-496.7677964717368
 31
0.0
  0
MTEXT
  5
453D
330
1F
100
AcDbEntity
  8
TEXT
100
AcDbMText
 10
10573.33985036516
 20
-419.4683105717758
 30
0.0
 40
50.0
 41
724.3024
 46
0.0
 71
     1
 72
     5
  1
BARS
  7
fastrack
 73
     1
 44
1.0
  0
LINE
  5
453E
330
1F
100
AcDbEntity
  8
TEXT
100
AcDbLine
 10
10507.25214580686
 20
-382.0056951730549
 30
0.0
 11
10826.21648060166
 21
-382.0056951730549
 31
0.0
  0
LINE
  5
453F
330
1F
100
AcDbEntity
  8
TEXT
100
AcDbLine
 10
10826.21648060166
 20
-382.0056951730549
 30
0.0
 11
10826.21648060166
 21
-496.7677964717368
 31
0.0
  0
LINE
  5
4540
330
1F
100
AcDbEntity
  8
TEXT
100
AcDbLine
 10
10826.21648060166
 20
-496.7677964717368
 30
0.0
 11
10507.25214580686
 21
-496.7677964717368
 31
0.0
  0
LINE
  5
4541
330
1F
100
AcDbEntity
  8
TEXT
100
AcDbLine
 10
10507.25214580686
 20
-382.0056951730549
 30
0.0
 11
10507.25214580686
 21
-496.7677964717368
 31
0.0
  0
LINE
  5
4542
330
1F
100
AcDbEntity
  8
TEXT
100
AcDbLine
 10
9869.323476217278
 20
-596.7677964717368
 30
0.0
 11
9550.359141422484
 21
-596.7677964717368
 31
0.0
  0
LINE
  5
4543
330
1F
100
AcDbEntity
  8
TEXT
100
AcDbLine
 10
10188.28781101207
 20
-596.7677964717368
 30
0.0
 11
9869.323476217278
 21
-596.7677964717368
 31
0.0
  0
LINE
  5
4544
330
1F
100
AcDbEntity
  8
TEXT
100
AcDbLine
 10
10507.25214580686
 20
-596.7677964717368
 30
0.0
 11
10188.28781101207
 21
-596.7677964717368
 31
0.0
  0
LINE
  5
4545
330
1F
100
AcDbEntity
  8
TEXT
100
AcDbLine
 10
10826.21648060166
 20
-596.7677964717368
 30
0.0
 11
10507.25214580686
 21
-596.7677964717368
 31
0.0
  0
LINE
  5
4546
330
1F
100
AcDbEntity
  8
TEXT
100
AcDbLine
 10
9869.323476217278
 20
-696.7677964717368
 30
0.0
 11
9550.359141422484
 21
-696.7677964717368
 31
0.0
  0
LINE
  5
4547
330
1F
100
AcDbEntity
  8
TEXT
100
AcDbLine
 10
9869.323476217278
 20
-796.7677964717368
 30
0.0
 11
9550.359141422484
 21
-796.7677964717368
 31
0.0
  0
LINE
  5
4548
330
1F
100
AcDbEntity
  8
TEXT
100
AcDbLine
 10
9869.323476217278
 20
-896.7677964717367
 30
0.0
 11
9550.359141422484
 21
-896.7677964717367
 31
0.0
  0
LINE
  5
4549
330
1F
100
AcDbEntity
  8
TEXT
100
AcDbLine
 10
9869.323476217278
 20
-996.7677964717367
 30
0.0
 11
9550.359141422484
 21
-996.7677964717367
 31
0.0
  0
LINE
  5
454A
330
1F
100
AcDbEntity
  8
TEXT
100
AcDbLine
 10
10188.28781101207
 20
-696.7677964717368
 30
0.0
 11
9869.323476217278
 21
-696.7677964717368
 31
0.0
  0
LINE
  5
454B
330
1F
100
AcDbEntity
  8
TEXT
100
AcDbLine
 10
10188.28781101207
 20
-796.7677964717368
 30
0.0
 11
9869.323476217278
 21
-796.7677964717368
 31
0.0
  0
LINE
  5
454C
330
1F
100
AcDbEntity
  8
TEXT
100
AcDbLine
 10
10188.28781101207
 20
-896.7677964717367
 30
0.0
 11
9869.323476217278
 21
-896.7677964717367
 31
0.0
  0
LINE
  5
454D
330
1F
100
AcDbEntity
  8
TEXT
100
AcDbLine
 10
10188.28781101207
 20
-996.7677964717367
 30
0.0
 11
9869.323476217278
 21
-996.7677964717367
 31
0.0
  0
LINE
  5
454E
330
1F
100
AcDbEntity
  8
TEXT
100
AcDbLine
 10
10507.25214580686
 20
-696.7677964717368
 30
0.0
 11
10188.28781101207
 21
-696.7677964717368
 31
0.0
  0
LINE
  5
454F
330
1F
100
AcDbEntity
  8
TEXT
100
AcDbLine
 10
10507.25214580686
 20
-796.7677964717368
 30
0.0
 11
10188.28781101207
 21
-796.7677964717368
 31
0.0
  0
LINE
  5
4550
330
1F
100
AcDbEntity
  8
TEXT
100
AcDbLine
 10
10507.25214580686
 20
-896.7677964717367
 30
0.0
 11
10188.28781101207
 21
-896.7677964717367
 31
0.0
  0
LINE
  5
4551
330
1F
100
AcDbEntity
  8
TEXT
100
AcDbLine
 10
10507.25214580686
 20
-996.7677964717367
 30
0.0
 11
10188.28781101207
 21
-996.7677964717367
 31
0.0
  0
LINE
  5
4552
330
1F
100
AcDbEntity
  8
TEXT
100
AcDbLine
 10
10826.21648060166
 20
-696.7677964717368
 30
0.0
 11
10507.25214580686
 21
-696.7677964717368
 31
0.0
  0
LINE
  5
4553
330
1F
100
AcDbEntity
  8
TEXT
100
AcDbLine
 10
10826.21648060166
 20
-796.7677964717368
 30
0.0
 11
10507.25214580686
 21
-796.7677964717368
 31
0.0
  0
LINE
  5
4554
330
1F
100
AcDbEntity
  8
TEXT
100
AcDbLine
 10
10826.21648060166
 20
-896.7677964717367
 30
0.0
 11
10507.25214580686
 21
-896.7677964717367
 31
0.0
  0
LINE
  5
4555
330
1F
100
AcDbEntity
  8
TEXT
100
AcDbLine
 10
10826.21648060166
 20
-996.7677964717367
 30
0.0
 11
10507.25214580686
 21
-996.7677964717367
 31
0.0
  0
LINE
  5
4556
330
1F
100
AcDbEntity
  8
TEXT
100
AcDbLine
 10
9550.359141422484
 20
-496.7677964717368
 30
0.0
 11
9550.359141422484
 21
-996.7677964717367
 31
0.0
  0
LINE
  5
4557
330
1F
100
AcDbEntity
  8
TEXT
100
AcDbLine
 10
9869.323476217278
 20
-496.7677964717368
 30
0.0
 11
9869.323476217278
 21
-996.767796471737
 31
0.0
  0
LINE
  5
4558
330
1F
100
AcDbEntity
  8
TEXT
100
AcDbLine
 10
10188.28781101207
 20
-496.7677964717368
 30
0.0
 11
10188.28781101207
 21
-996.7677964717367
 31
0.0
  0
LINE
  5
4559
330
1F
100
AcDbEntity
  8
TEXT
100
AcDbLine
 10
10507.25214580686
 20
-496.7677964717368
 30
0.0
 11
10507.25214580686
 21
-996.7677964717367
 31
0.0
  0
LINE
  5
455A
330
1F
100
AcDbEntity
  8
TEXT
100
AcDbLine
 10
10826.21648060166
 20
-496.7677964717368
 30
0.0
 11
10826.21648060166
 21
-996.767796471737
 31
0.0
  0
MTEXT
  5
455B
330
1F
100
AcDbEntity
  8
TEXT
100
AcDbMText
 10
9636.822101927116
 20
-521.4998765922099
 30
0.0
 40
50.0
 41
724.3024
 46
0.0
 71
     1
 72
     5
  1
600
  7
fastrack
 73
     1
 44
1.0
  0
MTEXT
  5
455C
330
1F
100
AcDbEntity
  8
TEXT
100
AcDbMText
 10
9636.822101927116
 20
-621.4998765922099
 30
0.0
 40
50.0
 41
724.3024
 46
0.0
 71
     1
 72
     5
  1
600
  7
fastrack
 73
     1
 44
1.0
  0
MTEXT
  5
455D
330
1F
100
AcDbEntity
  8
TEXT
100
AcDbMText
 10
9636.822101927116
 20
-721.4998765922099
 30
0.0
 40
50.0
 41
724.3024
 46
0.0
 71
     1
 72
     5
  1
600
  7
fastrack
 73
     1
 44
1.0
  0
MTEXT
  5
455E
330
1F
100
AcDbEntity
  8
TEXT
100
AcDbMText
 10
9636.822101927116
 20
-821.49987659221
 30
0.0
 40
50.0
 41
724.3024
 46
0.0
 71
     1
 72
     5
  1
750
  7
fastrack
 73
     1
 44
1.0
  0
MTEXT
  5
455F
330
1F
100
AcDbEntity
  8
TEXT
100
AcDbMText
 10
9636.822101927116
 20
-921.49987659221
 30
0.0
 40
50.0
 41
724.3024
 46
0.0
 71
     1
 72
     5
  1
750
  7
fastrack
 73
     1
 44
1.0
  0
LINE
  5
4560
330
1F
100
AcDbEntity
  8
TEXT
100
AcDbLine
 10
9869.323476217278
 20
-496.7677964717368
 30
0.0
 11
9869.323476217278
 21
-996.7677964717367
 31
0.0
  0
MTEXT
  5
4561
330
1F
100
AcDbEntity
  8
TEXT
100
AcDbMText
 10
9918.479573499325
 20
-521.4998765922099
 30
0.0
 40
50.0
 41
724.3024
 46
0.0
 71
     1
 72
     5
  1
50x50
  7
fastrack
 73
     1
 44
1.0
  0
MTEXT
  5
4562
330
1F
100
AcDbEntity
  8
TEXT
100
AcDbMText
 10
9918.479573499325
 20
-621.4998765922099
 30
0.0
 40
50.0
 41
724.3024
 46
0.0
 71
     1
 72
     5
  1
50x50
  7
fastrack
 73
     1
 44
1.0
  0
MTEXT
  5
4563
330
1F
100
AcDbEntity
  8
TEXT
100
AcDbMText
 10
9918.479573499325
 20
-721.4998765922099
 30
0.0
 40
50.0
 41
724.3024
 46
0.0
 71
     1
 72
     5
  1
50x50
  7
fastrack
 73
     1
 44
1.0
  0
MTEXT
  5
4564
330
1F
100
AcDbEntity
  8
TEXT
100
AcDbMText
 10
9918.479573499325
 20
-821.49987659221
 30
0.0
 40
50.0
 41
724.3024
 46
0.0
 71
     1
 72
     5
  1
60x60
  7
fastrack
 73
     1
 44
1.0
  0
MTEXT
  5
4565
330
1F
100
AcDbEntity
  8
TEXT
100
AcDbMText
 10
9918.479573499325
 20
-921.49987659221
 30
0.0
 40
50.0
 41
724.3024
 46
0.0
 71
     1
 72
     5
  1
60x60
  7
fastrack
 73
     1
 44
1.0
  0
LINE
  5
4566
330
1F
100
AcDbEntity
  8
TEXT
100
AcDbLine
 10
10188.28781101207
 20
-496.7677964717368
 30
0.0
 11
10188.28781101207
 21
-996.7677964717367
 31
0.0
  0
MTEXT
  5
4567
330
1F
100
AcDbEntity
  8
TEXT
100
AcDbMText
 10
10254.77840377053
 20
-521.4998765922099
 30
0.0
 40
50.0
 41
724.3024
 46
0.0
 71
     1
 72
     5
  1
40x5
  7
fastrack
 73
     1
 44
1.0
  0
MTEXT
  5
4568
330
1F
100
AcDbEntity
  8
TEXT
100
AcDbMText
 10
10251.44968674739
 20
-621.4998765922099
 30
0.0
 40
50.0
 41
724.3024
 46
0.0
 71
     1
 72
     5
  1
40x8
  7
fastrack
 73
     1
 44
1.0
  0
MTEXT
  5
4569
330
1F
100
AcDbEntity
  8
TEXT
100
AcDbMText
 10
10251.44968674739
 20
-721.4998765922099
 30
0.0
 40
50.0
 41
724.3024
 46
0.0
 71
     1
 72
     5
  1
40x8
  7
fastrack
 73
     1
 44
1.0
  0
MTEXT
  5
456A
330
1F
100
AcDbEntity
  8
TEXT
100
AcDbMText
 10
10244.79221989745
 20
-821.49987659221
 30
0.0
 40
50.0
 41
724.3024
 46
0.0
 71
     1
 72
     5
  1
40x10
  7
fastrack
 73
     1
 44
1.0
  0
MTEXT
  5
456B
330
1F
100
AcDbEntity
  8
TEXT
100
AcDbMText
 10
10244.79221989745
 20
-921.49987659221
 30
0.0
 40
50.0
 41
724.3024
 46
0.0
 71
     1
 72
     5
  1
40x10
  7
fastrack
 73
     1
 44
1.0
  0
LINE
  5
456C
330
1F
100
AcDbEntity
  8
TEXT
100
AcDbLine
 10
10507.25214580686
 20
-496.7677964717368
 30
0.0
 11
10507.25214580686
 21
-996.7677964717367
 31
0.0
  0
MTEXT
  5
456D
330
1F
100
AcDbEntity
  8
TEXT
100
AcDbMText
 10
10593.71510631149
 20
-521.4998765922099
 30
0.0
 40
50.0
 41
724.3024
 46
0.0
 71
     1
 72
     5
  1
12mm
  7
fastrack
 73
     1
 44
1.0
  0
MTEXT
  5
456E
330
1F
100
AcDbEntity
  8
TEXT
100
AcDbMText
 10
10593.71510631149
 20
-621.4998765922099
 30
0.0
 40
50.0
 41
724.3024
 46
0.0
 71
     1
 72
     5
  1
16mm
  7
fastrack
 73
     1
 44
1.0
  0
MTEXT
  5
456F
330
1F
100
AcDbEntity
  8
TEXT
100
AcDbMText
 10
10593.71510631149
 20
-721.4998765922099
 30
0.0
 40
50.0
 41
724.3024
 46
0.0
 71
     1
 72
     5
  1
16mm
  7
fastrack
 73
     1
 44
1.0
  0
MTEXT
  5
4570
330
1F
100
AcDbEntity
  8
TEXT
100
AcDbMText
 10
10593.71510631149
 20
-821.49987659221
 30
0.0
 40
50.0
 41
724.3024
 46
0.0
 71
     1
 72
     5
  1
16mm
  7
fastrack
 73
     1
 44
1.0
  0
MTEXT
  5
4571
330
1F
100
AcDbEntity
  8
TEXT
100
AcDbMText
 10
10593.71510631149
 20
-921.49987659221
 30
0.0
 40
50.0
 41
724.3024
 46
0.0
 71
     1
 72
     5
  1
20mm
  7
fastrack
 73
     1
 44
1.0
  0
MTEXT
  5
4572
330
1F
100
AcDbEntity
  8
TEXT
100
AcDbMText
 10
9275.748724445305
 20
-419.4683105717758
 30
0.0
 40
50.0
 41
724.3024
 46
0.0
 71
     1
 72
     5
  1
DIM A
  7
fastrack
 73
     1
 44
1.0
  0
LINE
  5
4573
330
1F
100
AcDbEntity
  8
TEXT
100
AcDbLine
 10
9231.394806627692
 20
-382.0056951730549
 30
0.0
 11
9550.359141422484
 21
-382.0056951730549
 31
0.0
  0
LINE
  5
4574
330
1F
100
AcDbEntity
  8
TEXT
100
AcDbLine
 10
9550.359141422484
 20
-496.7677964717368
 30
0.0
 11
9231.394806627692
 21
-496.7677964717368
 31
0.0
  0
LINE
  5
4575
330
1F
100
AcDbEntity
  8
TEXT
100
AcDbLine
 10
9231.394806627692
 20
-382.0056951730549
 30
0.0
 11
9231.394806627692
 21
-496.7677964717368
 31
0.0
  0
LINE
  5
4576
330
1F
100
AcDbEntity
  8
TEXT
100
AcDbLine
 10
9550.359141422484
 20
-596.7677964717368
 30
0.0
 11
9231.394806627692
 21
-596.7677964717368
 31
0.0
  0
LINE
  5
4577
330
1F
100
AcDbEntity
  8
TEXT
100
AcDbLine
 10
9550.359141422484
 20
-696.7677964717368
 30
0.0
 11
9231.394806627692
 21
-696.7677964717368
 31
0.0
  0
LINE
  5
4578
330
1F
100
AcDbEntity
  8
TEXT
100
AcDbLine
 10
9550.359141422484
 20
-796.7677964717368
 30
0.0
 11
9231.394806627692
 21
-796.7677964717368
 31
0.0
  0
LINE
  5
4579
330
1F
100
AcDbEntity
  8
TEXT
100
AcDbLine
 10
9550.359141422484
 20
-896.7677964717367
 30
0.0
 11
9231.394806627692
 21
-896.7677964717367
 31
0.0
  0
LINE
  5
457A
330
1F
100
AcDbEntity
  8
TEXT
100
AcDbLine
 10
9550.359141422484
 20
-996.7677964717367
 30
0.0
 11
9231.394806627692
 21
-996.7677964717367
 31
0.0
  0
LINE
  5
457B
330
1F
100
AcDbEntity
  8
TEXT
100
AcDbLine
 10
9231.394806627692
 20
-496.7677964717368
 30
0.0
 11
9231.394806627692
 21
-996.7677964717367
 31
0.0
  0
MTEXT
  5
457C
330
1F
100
AcDbEntity
  8
TEXT
100
AcDbMText
 10
9317.85776713232
 20
-521.4998765922099
 30
0.0
 40
50.0
 41
724.3024
 46
0.0
 71
     1
 72
     5
  1
900
  7
fastrack
 73
     1
 44
1.0
  0
MTEXT
  5
457D
330
1F
100
AcDbEntity
  8
TEXT
100
AcDbMText
 10
9317.85776713232
 20
-621.4998765922099
 30
0.0
 40
50.0
 41
724.3024
 46
0.0
 71
     1
 72
     5
  1
1200
  7
fastrack
 73
     1
 44
1.0
  0
MTEXT
  5
457E
330
1F
100
AcDbEntity
  8
TEXT
100
AcDbMText
 10
9317.85776713232
 20
-721.4998765922099
 30
0.0
 40
50.0
 41
724.3024
 46
0.0
 71
     1
 72
     5
  1
1500
  7
fastrack
 73
     1
 44
1.0
  0
MTEXT
  5
457F
330
1F
100
AcDbEntity
  8
TEXT
100
AcDbMText
 10
9317.85776713232
 20
-821.49987659221
 30
0.0
 40
50.0
 41
724.3024
 46
0.0
 71
     1
 72
     5
  1
1800
  7
fastrack
 73
     1
 44
1.0
  0
MTEXT
  5
4580
330
1F
100
AcDbEntity
  8
TEXT
100
AcDbMText
 10
9317.85776713232
 20
-921.49987659221
 30
0.0
 40
50.0
 41
724.3024
 46
0.0
 71
     1
 72
     5
  1
2400
  7
fastrack
 73
     1
 44
1.0
  0
LINE
  5
45AF
330
1F
100
AcDbEntity
  8
DETAIL
100
AcDbLine
 10
5871.610967506011
 20
-30.75758838644106
 30
0.0
 11
5971.610967506011
 21
-30.75758838644096
 31
0.0
  0
LINE
  5
45B0
330
1F
100
AcDbEntity
  8
DETAIL
100
AcDbLine
 10
6087.610967506011
 20
-30.75758838644106
 30
0.0
 11
6103.610967506011
 21
-30.75758838644108
 31
0.0
  0
ARC
  5
45D2
330
1F
100
AcDbEntity
  8
DETAIL
100
AcDbCircle
 10
8125.610967506011
 20
-32.76869949755215
 30
0.0
 40
182.0111111111119
100
AcDbArc
 50
0.6330960945459907
 51
179.366903905454
  0
ARC
  5
45D4
330
1F
100
AcDbEntity
  8
DETAIL
100
AcDbCircle
 10
8125.610967506011
 20
-28.76949314834637
 30
0.0
 40
166.0119047619047
100
AcDbArc
 50
359.3138312009531
 51
180.6861687990468
  0
ARC
  5
45E9
330
1F
100
AcDbEntity
  8
DETAIL
100
AcDbCircle
 10
7893.610960647517
 20
-32.76869604298204
 30
0.0
 40
182.0111111111119
100
AcDbArc
 50
0.6330960945456488
 51
46.29199178238148
  0
ARC
  5
45EA
330
1F
100
AcDbEntity
  8
DETAIL
100
AcDbCircle
 10
7893.610960647517
 20
-28.76948969377627
 30
0.0
 40
166.0119047619047
100
AcDbArc
 50
359.3138312009531
 51
45.67359019608481
  0
ARC
  5
45F1
330
1F
100
AcDbEntity
  8
DETAIL
100
AcDbCircle
 10
7661.610960647519
 20
-32.76869604298204
 30
0.0
 40
182.0111111111119
100
AcDbArc
 50
0.6330960945456488
 51
179.3669039054544
  0
ARC
  5
45F2
330
1F
100
AcDbEntity
  8
DETAIL
100
AcDbCircle
 10
7661.610960647516
 20
-28.76948969377627
 30
0.0
 40
166.0119047619047
100
AcDbArc
 50
359.3138312009531
 51
180.6861687990466
  0
ARC
  5
45F9
330
1F
100
AcDbEntity
  8
DETAIL
100
AcDbCircle
 10
7429.610960647517
 20
-32.76869604298204
 30
0.0
 40
182.0111111111119
100
AcDbArc
 50
0.6330960945456488
 51
46.29199401399829
  0
ARC
  5
45FA
330
1F
100
AcDbEntity
  8
DETAIL
100
AcDbCircle
 10
7429.610960647517
 20
-28.76948969377627
 30
0.0
 40
166.0119047619047
100
AcDbArc
 50
359.3138312009531
 51
45.67359270368108
  0
ARC
  5
4601
330
1F
100
AcDbEntity
  8
DETAIL
100
AcDbCircle
 10
7197.610960647519
 20
-32.76869604298204
 30
0.0
 40
182.0111111111119
100
AcDbArc
 50
0.6330960945456488
 51
179.3669039054544
  0
ARC
  5
4602
330
1F
100
AcDbEntity
  8
DETAIL
100
AcDbCircle
 10
7197.610960647516
 20
-28.76948969377627
 30
0.0
 40
166.0119047619047
100
AcDbArc
 50
359.3138312009531
 51
180.6861687990466
  0
ARC
  5
4609
330
1F
100
AcDbEntity
  8
DETAIL
100
AcDbCircle
 10
6965.610960647516
 20
-32.76869604298204
 30
0.0
 40
182.0111111111119
100
AcDbArc
 50
0.6330960945456488
 51
46.29199401399829
  0
ARC
  5
460A
330
1F
100
AcDbEntity
  8
DETAIL
100
AcDbCircle
 10
6965.610960647516
 20
-28.76948969377627
 30
0.0
 40
166.0119047619047
100
AcDbArc
 50
359.3138312009531
 51
45.67359270368108
  0
ARC
  5
4611
330
1F
100
AcDbEntity
  8
DETAIL
100
AcDbCircle
 10
6733.610960647517
 20
-32.76869604298204
 30
0.0
 40
182.0111111111119
100
AcDbArc
 50
0.6330960945456488
 51
179.3669039054544
  0
ARC
  5
4612
330
1F
100
AcDbEntity
  8
DETAIL
100
AcDbCircle
 10
6733.610960647516
 20
-28.76948969377627
 30
0.0
 40
166.0119047619047
100
AcDbArc
 50
359.3138312009531
 51
180.6861687990466
  0
ARC
  5
4619
330
1F
100
AcDbEntity
  8
DETAIL
100
AcDbCircle
 10
6501.610960647517
 20
-32.76869604298204
 30
0.0
 40
182.0111111111119
100
AcDbArc
 50
0.6330960945456488
 51
46.29199401399829
  0
ARC
  5
461A
330
1F
100
AcDbEntity
  8
DETAIL
100
AcDbCircle
 10
6501.610960647517
 20
-28.76948969377627
 30
0.0
 40
166.0119047619047
100
AcDbArc
 50
359.3138312009531
 51
45.67359270368108
  0
ARC
  5
4621
330
1F
100
AcDbEntity
  8
DETAIL
100
AcDbCircle
 10
6269.610960647518
 20
-32.76869604298204
 30
0.0
 40
182.0111111111119
100
AcDbArc
 50
0.6330960945456488
 51
179.3669039054544
  0
ARC
  5
4622
330
1F
100
AcDbEntity
  8
DETAIL
100
AcDbCircle
 10
6269.610960647515
 20
-28.76948969377627
 30
0.0
 40
166.0119047619047
100
AcDbArc
 50
359.3138312009531
 51
180.6861687990466
  0
ARC
  5
4629
330
1F
100
AcDbEntity
  8
DETAIL
100
AcDbCircle
 10
6037.610960647517
 20
-32.76869604298204
 30
0.0
 40
182.0111111111119
100
AcDbArc
 50
0.6330960945456488
 51
46.29199401399835
  0
ARC
  5
462A
330
1F
100
AcDbEntity
  8
DETAIL
100
AcDbCircle
 10
6037.610960647517
 20
-28.76948969377627
 30
0.0
 40
166.0119047619047
100
AcDbArc
 50
359.3138312009531
 51
45.6735927036812
  0
ARC
  5
4631
330
1F
100
AcDbEntity
  8
DETAIL
100
AcDbCircle
 10
5805.610967506011
 20
-32.76869949754973
 30
0.0
 40
182.0111111111119
100
AcDbArc
 50
0.6330960945452416
 51
46.29199624561374
  0
ARC
  5
4632
330
1F
100
AcDbEntity
  8
DETAIL
100
AcDbCircle
 10
5805.61096750601
 20
-28.76949314834397
 30
0.0
 40
166.0119047619047
100
AcDbArc
 50
359.3138312009531
 51
45.67359521127634
  0
ARC
  5
4655
330
1F
100
AcDbEntity
  8
DETAIL
100
AcDbCircle
 10
8357.610960647518
 20
-28.76948969377627
 30
0.0
 40
166.0119047619047
100
AcDbArc
 50
134.3264064950356
 51
180.6861687990466
  0
ARC
  5
4656
330
1F
100
AcDbEntity
  8
DETAIL
100
AcDbCircle
 10
8357.610960647518
 20
-32.76869604298204
 30
0.0
 40
182.0111111111119
100
AcDbArc
 50
133.7080054365519
 51
179.3669039054544
  0
ARC
  5
4657
330
1F
100
AcDbEntity
  8
DETAIL
100
AcDbCircle
 10
7893.610960647517
 20
-28.76948969377627
 30
0.0
 40
166.0119047619047
100
AcDbArc
 50
50.21459183368921
 51
129.785405652647
  0
ARC
  5
4658
330
1F
100
AcDbEntity
  8
DETAIL
100
AcDbCircle
 10
7893.610960647517
 20
-32.76869604298204
 30
0.0
 40
182.0111111111119
100
AcDbArc
 50
50.40745280956656
 51
129.5925449364109
  0
ARC
  5
4659
330
1F
100
AcDbEntity
  8
DETAIL
100
AcDbCircle
 10
7893.610960647517
 20
-28.76948969377627
 30
0.0
 40
166.0119047619047
100
AcDbArc
 50
134.3264072963189
 51
180.6861687990466
  0
ARC
  5
465A
330
1F
100
AcDbEntity
  8
DETAIL
100
AcDbCircle
 10
7893.610960647517
 20
-32.76869604298204
 30
0.0
 40
182.0111111111119
100
AcDbArc
 50
133.7080059860021
 51
179.3669039054544
  0
ARC
  5
465B
330
1F
100
AcDbEntity
  8
DETAIL
100
AcDbCircle
 10
7429.610960647517
 20
-32.76869604298204
 30
0.0
 40
182.0111111111119
100
AcDbArc
 50
50.4074550635891
 51
129.5925449364109
  0
ARC
  5
465C
330
1F
100
AcDbEntity
  8
DETAIL
100
AcDbCircle
 10
7429.610960647517
 20
-28.76948969377627
 30
0.0
 40
166.0119047619047
100
AcDbArc
 50
50.21459434735255
 51
129.785405652647
  0
ARC
  5
465D
330
1F
100
AcDbEntity
  8
DETAIL
100
AcDbCircle
 10
7429.610960647517
 20
-28.76948969377627
 30
0.0
 40
166.0119047619047
100
AcDbArc
 50
134.3264072963189
 51
180.6861687990466
  0
ARC
  5
465E
330
1F
100
AcDbEntity
  8
DETAIL
100
AcDbCircle
 10
7429.610960647517
 20
-32.76869604298204
 30
0.0
 40
182.0111111111119
100
AcDbArc
 50
133.7080059860021
 51
179.3669039054544
  0
ARC
  5
465F
330
1F
100
AcDbEntity
  8
DETAIL
100
AcDbCircle
 10
6965.610960647516
 20
-32.76869604298204
 30
0.0
 40
182.0111111111119
100
AcDbArc
 50
50.4074550635891
 51
129.5925449364109
  0
ARC
  5
4660
330
1F
100
AcDbEntity
  8
DETAIL
100
AcDbCircle
 10
6965.610960647516
 20
-28.76948969377627
 30
0.0
 40
166.0119047619047
100
AcDbArc
 50
50.21459434735255
 51
129.785405652647
  0
ARC
  5
4661
330
1F
100
AcDbEntity
  8
DETAIL
100
AcDbCircle
 10
6965.610960647516
 20
-32.76869604298204
 30
0.0
 40
182.0111111111119
100
AcDbArc
 50
133.7080059860021
 51
179.3669039054544
  0
ARC
  5
4662
330
1F
100
AcDbEntity
  8
DETAIL
100
AcDbCircle
 10
6965.610960647516
 20
-28.76948969377627
 30
0.0
 40
166.0119047619047
100
AcDbArc
 50
134.3264072963189
 51
180.6861687990466
  0
ARC
  5
4663
330
1F
100
AcDbEntity
  8
DETAIL
100
AcDbCircle
 10
6501.610960647517
 20
-28.76948969377627
 30
0.0
 40
166.0119047619047
100
AcDbArc
 50
50.21459434735255
 51
129.7854056526471
  0
ARC
  5
4664
330
1F
100
AcDbEntity
  8
DETAIL
100
AcDbCircle
 10
6501.610960647517
 20
-32.76869604298204
 30
0.0
 40
182.0111111111119
100
AcDbArc
 50
50.4074550635891
 51
129.5925449364112
  0
ARC
  5
4665
330
1F
100
AcDbEntity
  8
DETAIL
100
AcDbCircle
 10
6501.610960647517
 20
-28.76948969377627
 30
0.0
 40
166.0119047619047
100
AcDbArc
 50
134.326407296319
 51
180.6861687990466
  0
ARC
  5
4666
330
1F
100
AcDbEntity
  8
DETAIL
100
AcDbCircle
 10
6501.610960647517
 20
-32.76869604298204
 30
0.0
 40
182.0111111111119
100
AcDbArc
 50
133.7080059860024
 51
179.3669039054544
  0
ARC
  5
4667
330
1F
100
AcDbEntity
  8
DETAIL
100
AcDbCircle
 10
6037.610960647517
 20
-28.76948969377627
 30
0.0
 40
166.0119047619047
100
AcDbArc
 50
50.21459434735288
 51
129.7854048738829
  0
ARC
  5
4668
330
1F
100
AcDbEntity
  8
DETAIL
100
AcDbCircle
 10
6037.610960647517
 20
-32.76869604298204
 30
0.0
 40
182.0111111111119
100
AcDbArc
 50
50.40745506358939
 51
129.5925443887009
  0
ARC
  5
4695
330
1F
100
AcDbEntity
  8
DETAIL
100
AcDbCircle
 10
6037.610960647517
 20
-32.76869604298204
 30
0.0
 40
182.0111111111119
100
AcDbArc
 50
133.7080054365512
 51
179.3669039054544
  0
ARC
  5
4696
330
1F
100
AcDbEntity
  8
DETAIL
100
AcDbCircle
 10
6037.610960647517
 20
-28.76948969377627
 30
0.0
 40
166.0119047619047
100
AcDbArc
 50
134.3264064950353
 51
180.6861687990466
  0
ARC
  5
46AD
330
1F
100
AcDbEntity
  8
DETAIL
100
AcDbCircle
 10
6095.610967506011
 20
-2040.751663488883
 30
0.0
 40
8.000000000000909
100
AcDbArc
 50
90.0
 51
270.0
  0
ARC
  5
46B2
330
1F
100
AcDbEntity
  8
DETAIL
100
AcDbCircle
 10
6443.610967506017
 20
-2040.751663488796
 30
0.0
 40
8.000000000000909
100
AcDbArc
 50
270.0
 51
90.0
  0
LINE
  5
46B6
330
1F
100
AcDbEntity
  8
DETAIL
100
AcDbLine
 10
6095.610967506011
 20
-2032.751663488882
 30
0.0
 11
6443.610967506017
 21
-2032.751663488882
 31
0.0
  0
LINE
  5
46B7
330
1F
100
AcDbEntity
  8
DETAIL
100
AcDbLine
 10
6443.610967506017
 20
-2048.751663488797
 30
0.0
 11
6095.610967506013
 21
-2048.751663488884
 31
0.0
  0
ARC
  5
46C0
330
1F
100
AcDbEntity
  8
DETAIL
100
AcDbCircle
 10
6443.610967506017
 20
-2040.751663488796
 30
0.0
 40
8.000000000000909
100
AcDbArc
 50
270.0
 51
90.0
  0
ARC
  5
46C1
330
1F
100
AcDbEntity
  8
DETAIL
100
AcDbCircle
 10
6559.610967506015
 20
-2040.751663488796
 30
0.0
 40
8.000000000000909
100
AcDbArc
 50
90.0
 51
270.0
  0
ARC
  5
46C8
330
1F
100
AcDbEntity
  8
DETAIL
100
AcDbCircle
 10
6211.610967506015
 20
-2058.751663488882
 30
0.0
 40
8.000000000000909
100
AcDbArc
 50
270.0
 51
90.0
  0
ARC
  5
46C9
330
1F
100
AcDbEntity
  8
DETAIL
100
AcDbCircle
 10
6327.610967506014
 20
-2058.751663488882
 30
0.0
 40
8.000000000000909
100
AcDbArc
 50
90.0
 51
270.0
  0
ARC
  5
46D3
330
1F
100
AcDbEntity
  8
DETAIL
100
AcDbCircle
 10
6327.610967506014
 20
-2058.751663488882
 30
0.0
 40
8.000000000000909
100
AcDbArc
 50
90.0
 51
270.0
  0
ARC
  5
46D4
330
1F
100
AcDbEntity
  8
DETAIL
100
AcDbCircle
 10
6675.610967506016
 20
-2058.751663488876
 30
0.0
 40
8.000000000000909
100
AcDbArc
 50
270.0
 51
90.0
  0
ARC
  5
46DB
330
1F
100
AcDbEntity
  8
DETAIL
100
AcDbCircle
 10
6559.610967506015
 20
-2040.751663488796
 30
0.0
 40
8.000000000000909
100
AcDbArc
 50
90.0
 51
270.0
  0
ARC
  5
46DC
330
1F
100
AcDbEntity
  8
DETAIL
100
AcDbCircle
 10
6907.610967506015
 20
-2040.751663488791
 30
0.0
 40
8.000000000000909
100
AcDbArc
 50
270.0
 51
90.0
  0
LINE
  5
46DD
330
1F
100
AcDbEntity
  8
DETAIL
100
AcDbLine
 10
6327.610967506014
 20
-2066.751663488883
 30
0.0
 11
6675.610967506016
 21
-2066.751663488883
 31
0.0
  0
LINE
  5
46DE
330
1F
100
AcDbEntity
  8
DETAIL
100
AcDbLine
 10
6675.610967506016
 20
-2050.751663488875
 30
0.0
 11
6327.610967506014
 21
-2050.751663488881
 31
0.0
  0
LINE
  5
46DF
330
1F
100
AcDbEntity
  8
DETAIL
100
AcDbLine
 10
6559.610967506015
 20
-2048.751663488797
 30
0.0
 11
6907.610967506015
 21
-2048.751663488792
 31
0.0
  0
LINE
  5
46E0
330
1F
100
AcDbEntity
  8
DETAIL
100
AcDbLine
 10
6907.610967506015
 20
-2032.75166348879
 30
0.0
 11
6559.610967506015
 21
-2032.751663488795
 31
0.0
  0
ARC
  5
46E9
330
1F
100
AcDbEntity
  8
DETAIL
100
AcDbCircle
 10
6675.610967506016
 20
-2058.751663488876
 30
0.0
 40
8.000000000000909
100
AcDbArc
 50
270.0
 51
90.0
  0
ARC
  5
46EA
330
1F
100
AcDbEntity
  8
DETAIL
100
AcDbCircle
 10
6791.610967506014
 20
-2058.751663488876
 30
0.0
 40
8.000000000000909
100
AcDbArc
 50
90.0
 51
270.0
  0
ARC
  5
46EB
330
1F
100
AcDbEntity
  8
DETAIL
100
AcDbCircle
 10
7139.610967506015
 20
-2058.751663488871
 30
0.0
 40
8.000000000000909
100
AcDbArc
 50
270.0
 51
90.0
  0
ARC
  5
46F3
330
1F
100
AcDbEntity
  8
DETAIL
100
AcDbCircle
 10
6907.610967506015
 20
-2040.751663488791
 30
0.0
 40
8.000000000000909
100
AcDbArc
 50
270.0
 51
90.0
  0
ARC
  5
46F4
330
1F
100
AcDbEntity
  8
DETAIL
100
AcDbCircle
 10
7023.610967506015
 20
-2040.751663488791
 30
0.0
 40
8.000000000000909
100
AcDbArc
 50
90.0
 51
270.0
  0
ARC
  5
46F5
330
1F
100
AcDbEntity
  8
DETAIL
100
AcDbCircle
 10
7371.610967506017
 20
-2040.751663488785
 30
0.0
 40
8.000000000000909
100
AcDbArc
 50
270.0
 51
90.0
  0
LINE
  5
46F6
330
1F
100
AcDbEntity
  8
DETAIL
100
AcDbLine
 10
7023.610967506015
 20
-2032.75166348879
 30
0.0
 11
7371.610967506017
 21
-2032.751663488784
 31
0.0
  0
LINE
  5
46F7
330
1F
100
AcDbEntity
  8
DETAIL
100
AcDbLine
 10
7371.610967506017
 20
-2048.751663488786
 30
0.0
 11
7023.610967506015
 21
-2048.751663488792
 31
0.0
  0
LINE
  5
46F8
330
1F
100
AcDbEntity
  8
DETAIL
100
AcDbLine
 10
7139.610967506015
 20
-2066.751663488872
 30
0.0
 11
6791.610967506014
 21
-2066.751663488877
 31
0.0
  0
LINE
  5
46F9
330
1F
100
AcDbEntity
  8
DETAIL
100
AcDbLine
 10
6791.610967506014
 20
-2050.751663488875
 30
0.0
 11
7139.610967506015
 21
-2050.75166348887
 31
0.0
  0
ARC
  5
4702
330
1F
100
AcDbEntity
  8
DETAIL
100
AcDbCircle
 10
7139.610967506015
 20
-2058.751663488871
 30
0.0
 40
8.000000000000909
100
AcDbArc
 50
270.0
 51
90.0
  0
ARC
  5
4703
330
1F
100
AcDbEntity
  8
DETAIL
100
AcDbCircle
 10
7255.610967506014
 20
-2058.751663488871
 30
0.0
 40
8.000000000000909
100
AcDbArc
 50
90.0
 51
270.0
  0
ARC
  5
4704
330
1F
100
AcDbEntity
  8
DETAIL
100
AcDbCircle
 10
7603.610967506016
 20
-2058.751663488866
 30
0.0
 40
8.000000000000909
100
AcDbArc
 50
270.0
 51
90.0
  0
ARC
  5
470C
330
1F
100
AcDbEntity
  8
DETAIL
100
AcDbCircle
 10
7371.610967506017
 20
-2040.751663488785
 30
0.0
 40
8.000000000000909
100
AcDbArc
 50
270.0
 51
90.0
  0
ARC
  5
470D
330
1F
100
AcDbEntity
  8
DETAIL
100
AcDbCircle
 10
7487.610967506014
 20
-2040.751663488785
 30
0.0
 40
8.000000000000909
100
AcDbArc
 50
90.0
 51
270.0
  0
ARC
  5
470E
330
1F
100
AcDbEntity
  8
DETAIL
100
AcDbCircle
 10
7835.610967506017
 20
-2040.75166348878
 30
0.0
 40
8.000000000000909
100
AcDbArc
 50
270.0
 51
90.0
  0
LINE
  5
470F
330
1F
100
AcDbEntity
  8
DETAIL
100
AcDbLine
 10
7255.610967506014
 20
-2066.751663488872
 30
0.0
 11
7603.610967506016
 21
-2066.751663488866
 31
0.0
  0
LINE
  5
4710
330
1F
100
AcDbEntity
  8
DETAIL
100
AcDbLine
 10
7603.610967506016
 20
-2050.751663488864
 30
0.0
 11
7255.610967506014
 21
-2050.75166348887
 31
0.0
  0
LINE
  5
4711
330
1F
100
AcDbEntity
  8
DETAIL
100
AcDbLine
 10
7487.610967506014
 20
-2048.751663488786
 30
0.0
 11
7835.610967506017
 21
-2048.751663488781
 31
0.0
  0
LINE
  5
4712
330
1F
100
AcDbEntity
  8
DETAIL
100
AcDbLine
 10
7835.610967506017
 20
-2032.751663488779
 30
0.0
 11
7487.610967506014
 21
-2032.751663488784
 31
0.0
  0
ARC
  5
471B
330
1F
100
AcDbEntity
  8
DETAIL
100
AcDbCircle
 10
7603.610967506016
 20
-2058.751663488866
 30
0.0
 40
8.000000000000909
100
AcDbArc
 50
270.0
 51
90.0
  0
ARC
  5
471C
330
1F
100
AcDbEntity
  8
DETAIL
100
AcDbCircle
 10
7719.610967506014
 20
-2058.751663488866
 30
0.0
 40
8.000000000000909
100
AcDbArc
 50
90.0
 51
270.0
  0
ARC
  5
471D
330
1F
100
AcDbEntity
  8
DETAIL
100
AcDbCircle
 10
8067.610967506015
 20
-2058.75166348886
 30
0.0
 40
8.000000000000909
100
AcDbArc
 50
270.0
 51
90.0
  0
ARC
  5
4725
330
1F
100
AcDbEntity
  8
DETAIL
100
AcDbCircle
 10
7835.610967506017
 20
-2040.75166348878
 30
0.0
 40
8.000000000000909
100
AcDbArc
 50
270.0
 51
90.0
  0
ARC
  5
4726
330
1F
100
AcDbEntity
  8
DETAIL
100
AcDbCircle
 10
7951.610967506015
 20
-2040.75166348878
 30
0.0
 40
8.000000000000909
100
AcDbArc
 50
90.0
 51
270.0
  0
ARC
  5
4727
330
1F
100
AcDbEntity
  8
DETAIL
100
AcDbCircle
 10
8299.610967506017
 20
-2040.751663488774
 30
0.0
 40
8.000000000000909
100
AcDbArc
 50
270.0
 51
90.0
  0
LINE
  5
4728
330
1F
100
AcDbEntity
  8
DETAIL
100
AcDbLine
 10
7719.610967506014
 20
-2066.751663488866
 30
0.0
 11
8067.610967506015
 21
-2066.751663488861
 31
0.0
  0
LINE
  5
4729
330
1F
100
AcDbEntity
  8
DETAIL
100
AcDbLine
 10
8067.610967506015
 20
-2050.751663488859
 30
0.0
 11
7719.610967506014
 21
-2050.751663488864
 31
0.0
  0
LINE
  5
472A
330
1F
100
AcDbEntity
  8
DETAIL
100
AcDbLine
 10
7951.610967506015
 20
-2048.751663488781
 30
0.0
 11
8299.610967506017
 21
-2048.751663488781
 31
0.0
  0
LINE
  5
472B
330
1F
100
AcDbEntity
  8
DETAIL
100
AcDbLine
 10
8299.610967506017
 20
-2032.751663488773
 30
0.0
 11
7951.610967506015
 21
-2032.751663488779
 31
0.0
  0
ARC
  5
4733
330
1F
100
AcDbEntity
  8
DETAIL
100
AcDbCircle
 10
8067.610967506015
 20
-2058.75166348886
 30
0.0
 40
8.000000000000909
100
AcDbArc
 50
270.0
 51
90.0
  0
ARC
  5
4734
330
1F
100
AcDbEntity
  8
DETAIL
100
AcDbCircle
 10
8183.610967506014
 20
-2058.75166348886
 30
0.0
 40
8.000000000000909
100
AcDbArc
 50
90.0
 51
270.0
  0
LINE
  5
4735
330
1F
100
AcDbEntity
  8
DETAIL
100
AcDbLine
 10
8183.610967506014
 20
-2066.751663488861
 30
0.0
 11
8307.610967506018
 21
-2066.751663488861
 31
0.0
  0
LINE
  5
4736
330
1F
100
AcDbEntity
  8
DETAIL
100
AcDbLine
 10
8183.610967506014
 20
-2050.751663488859
 30
0.0
 11
8307.610967506018
 21
-2050.751663488859
 31
0.0
  0
LINE
  5
4737
330
1F
100
AcDbEntity
  8
DETAIL
100
AcDbLine
 10
5911.844300943646
 20
98.80178649328801
 30
0.0
 11
5921.610961988272
 21
107.4883710836401
 31
0.0
  0
LINE
  5
473C
330
1F
100
AcDbEntity
  8
DETAIL
100
AcDbLine
 10
5921.61096230838
 20
89.99057475549953
 30
0.0
 11
5931.377623347072
 21
98.80178673115338
 31
0.0
  0
LINE
  5
473E
330
1F
100
AcDbEntity
  8
DETAIL
100
AcDbLine
 10
5855.610967506013
 20
-2048.751663488884
 30
0.0
 11
5855.610967506013
 21
-2032.751663488881
 31
0.0
  0
LINE
  5
4740
330
1F
100
AcDbEntity
  8
DETAIL
100
AcDbLine
 10
8307.610967506018
 20
-2050.751663488859
 30
0.0
 11
8307.610967506018
 21
-2066.751663488861
 31
0.0
  0
MTEXT
  5
4794
102
{ACAD_XDICTIONARY
360
48CE
102
}
330
1F
100
AcDbEntity
  8
TEXT
100
AcDbMText
 10
7992.879364887656
 20
-3043.923592913166
 30
0.0
 40
100.0
 41
3177.87997086287
 46
0.0
 71
     2
 72
     5
  1
PROCTER FENCING SYSTEMS\PBOW TOP RAILING (INTER-LACED)
  7
fastrack
 73
     1
 44
1.0
  0
VIEWPORT
  5
477A
330
58
100
AcDbEntity
 67
     1
  8
0
348
9F
100
AcDbViewport
 10
139.0898593423391
 20
100.8039638311448
 30
0.0
 40
372.4675910226675
 41
162.457203588313
 68
     1
 69
     1
 12
139.0898593423391
 22
100.8039638311448
 13
0.0
 23
0.0
 14
10.0
 24
10.0
 15
10.0
 25
10.0
 16
0.0
 26
0.0
 36
1.0
 17
0.0
 27
0.0
 37
0.0
 42
50.0
 43
0.0
 44
0.0
 45
162.457203588313
 50
0.0
 51
0.0
 72
  1000
 90
    32800
  1

281
     0
 71
     1
 74
     0
110
0.0
120
0.0
130
0.0
111
1.0
121
0.0
131
0.0
112
0.0
122
1.0
132
0.0
 79
     0
146
0.0
170
     0
 61
     5
348
9F
292
     1
282
     1
141
0.0
142
0.0
 63
   250
421
  3355443
  0
VIEWPORT
  5
477C
330
58
100
AcDbEntity
 67
     1
  8
0
348
9F
100
AcDbViewport
 10
139.0914602279663
 20
100.8062505722046
 30
0.0
 40
222.5463363647461
 41
161.2900009155273
 68
     2
 69
     2
 12
8058.089018405349
 22
-757.8527436697513
 13
0.0
 23
0.0
 14
0.5
 24
0.5
 15
0.5
 25
0.5
 16
0.0
 26
0.0
 36
1.0
 17
0.0
 27
0.0
 37
0.0
 42
50.0
 43
0.0
 44
0.0
 45
4057.137240742033
 50
0.0
 51
0.0
 72
  1000
 90
    32864
  1

281
     0
 71
     1
 74
     0
110
0.0
120
0.0
130
0.0
111
1.0
121
0.0
131
0.0
112
0.0
122
1.0
132
0.0
 79
     0
146
0.0
170
     0
 61
     5
292
     1
282
     1
141
0.0
142
0.0
 63
   250
421
  3355443
  0
ENDSEC
  0
SECTION
  2
OBJECTS
  0
DICTIONARY
  5
C
330
0
100
AcDbDictionary
281
     1
  3
ACAD_CIP_PREVIOUS_PRODUCT_INFO
350
48F3
  3
ACAD_COLOR
350
73
  3
ACAD_DETAILVIEWSTYLE
350
48EF
  3
ACAD_GROUP
350
D
  3
ACAD_LAYOUT
350
1A
  3
ACAD_MATERIAL
350
72
  3
ACAD_MLEADERSTYLE
350
3BD1
  3
ACAD_MLINESTYLE
350
17
  3
ACAD_PLOTSETTINGS
350
19
  3
ACAD_PLOTSTYLENAME
350
E
  3
ACAD_SCALELIST
350
3BAF
  3
ACAD_SECTIONVIEWSTYLE
350
48ED
  3
ACAD_TABLESTYLE
350
86
  3
ACAD_VISUALSTYLE
350
99
  3
ACDB_RECOMPOSE_DATA
350
490D
  3
AcDbVariableDictionary
350
66
  3
AcDsDecomposeData
350
4913
  0
DICTIONARY
  5
3B5A
330
8
100
AcDbDictionary
280
     1
281
     1
  0
DICTIONARY
  5
158
330
2
100
AcDbDictionary
280
     1
281
     1
  3
ACAD_LAYERFILTERS
360
4871
  3
ACAD_LAYERSTATES
360
159
  3
ACLYDICTIONARY
360
4870
  0
DICTIONARY
  5
3BDA
330
10
100
AcDbDictionary
280
     1
281
     1
  3
ADSK_XREC_LAYER_RECONCILED
360
3BDB
  0
DICTIONARY
  5
3BDC
330
151
100
AcDbDictionary
280
     1
281
     1
  3
ADSK_XREC_LAYER_RECONCILED
360
3BDD
  0
DICTIONARY
  5
3BDE
330
1066
100
AcDbDictionary
280
     1
281
     1
  3
ADSK_XREC_LAYER_RECONCILED
360
3BDF
  0
DICTIONARY
  5
3BE0
330
1067
100
AcDbDictionary
280
     1
281
     1
  3
ADSK_XREC_LAYER_RECONCILED
360
3BE1
  0
DICTIONARY
  5
478D
330
478C
100
AcDbDictionary
280
     1
281
     1
  0
DICTIONARY
  5
350
330
1F
100
AcDbDictionary
280
     1
281
     1
  3
ACAD_SORTENTS
360
351
  0
DICTIONARY
  5
40D0
330
40C2
100
AcDbDictionary
280
     1
281
     1
  3
ACAD_DIMASSOC
360
40DB
  0
DICTIONARY
  5
414E
330
4140
100
AcDbDictionary
280
     1
281
     1
  3
ACAD_DIMASSOC
360
4159
  0
DICTIONARY
  5
42A7
330
4299
100
AcDbDictionary
280
     1
281
     1
  3
ACAD_DIMASSOC
360
42B2
  0
DICTIONARY
  5
438F
330
4381
100
AcDbDictionary
280
     1
281
     1
  3
ACAD_DIMASSOC
360
439A
  0
DICTIONARY
  5
48CE
330
4794
100
AcDbDictionary
280
     1
281
     1
  3
ACAD_MTEXT_2008_RT
360
490C
  0
XRECORD
  5
48F3
102
{ACAD_REACTORS
330
C
102
}
330
C
100
AcDbXrecord
280
     1
300
ACDLT
300
2020
300
ACDLT_F_S
  0
DICTIONARY
  5
73
102
{ACAD_REACTORS
330
C
102
}
330
C
100
AcDbDictionary
281
     1
  0
DICTIONARY
  5
48EF
102
{ACAD_REACTORS
330
C
102
}
330
C
100
AcDbDictionary
281
     1
  3
Imperial24
350
48F0
  0
DICTIONARY
  5
D
102
{ACAD_REACTORS
330
C
102
}
330
C
100
AcDbDictionary
281
     1
  0
DICTIONARY
  5
1A
102
{ACAD_REACTORS
330
C
102
}
330
C
100
AcDbDictionary
281
     1
  3
Layout1
350
59
  3
Layout2
350
5E
  3
Model
350
22
  0
DICTIONARY
  5
72
102
{ACAD_REACTORS
330
C
102
}
330
C
100
AcDbDictionary
281
     1
  3
ByBlock
350
97
  3
ByLayer
350
96
  3
Global
350
98
  0
DICTIONARY
  5
3BD1
102
{ACAD_REACTORS
330
C
102
}
330
C
100
AcDbDictionary
281
     1
  3
Standard
350
3BD2
  0
DICTIONARY
  5
17
102
{ACAD_REACTORS
330
C
102
}
330
C
100
AcDbDictionary
281
     1
  3
Standard
350
18
  0
DICTIONARY
  5
19
102
{ACAD_REACTORS
330
C
102
}
330
C
100
AcDbDictionary
281
     1
  0
ACDBDICTIONARYWDFLT
  5
E
102
{ACAD_REACTORS
330
C
102
}
330
C
100
AcDbDictionary
281
     1
  3
Normal
350
F
100
AcDbDictionaryWithDefault
340
F
  0
DICTIONARY
  5
3BAF
102
{ACAD_REACTORS
330
C
102
}
330
C
100
AcDbDictionary
281
     1
  3
A0
350
3BB0
  3
A1
350
3BB1
  3
A2
350
3BB2
  3
A3
350
3BB3
  3
A4
350
3BB4
  3
A5
350
3BB5
  3
A6
350
3BB6
  3
A7
350
3BB7
  3
A8
350
3BB8
  3
A9
350
3BB9
  3
B0
350
3BBA
  3
B1
350
3BBB
  3
B2
350
3BBC
  3
B3
350
3BBD
  3
B4
350
3BBE
  3
B5
350
3BBF
  3
B6
350
3BC0
  3
B7
350
3BC1
  3
B8
350
3BC2
  3
B9
350
3BC3
  3
C0
350
3BC4
  3
C1
350
3BC5
  3
C2
350
3BC6
  3
C3
350
3BC7
  3
C4
350
3BC8
  3
C5
350
3BC9
  3
C6
350
3BCA
  3
C7
350
3BCB
  3
C8
350
3BCC
  3
C9
350
3BCD
  3
D0
350
3BCE
  3
D1
350
3BCF
  3
D2
350
3BD0
  0
DICTIONARY
  5
48ED
102
{ACAD_REACTORS
330
C
102
}
330
C
100
AcDbDictionary
281
     1
  3
Imperial24
350
48EE
  0
DICTIONARY
  5
86
102
{ACAD_REACTORS
330
C
102
}
330
C
100
AcDbDictionary
281
     1
  3
Standard
350
87
  0
DICTIONARY
  5
99
102
{ACAD_REACTORS
330
C
102
}
330
C
100
AcDbDictionary
281
     1
  3
2dWireframe
350
9F
  3
3D Hidden
350
A1
  3
3dWireframe
350
A0
  3
Basic
350
9E
  3
Brighten
350
A5
  3
ColorChange
350
A9
  3
Conceptual
350
A2
  3
Dim
350
A4
  3
EdgeColorOff
350
48EC
  3
Facepattern
350
A8
  3
Flat
350
9A
  3
FlatWithEdges
350
9B
  3
Gouraud
350
9C
  3
GouraudWithEdges
350
9D
  3
Hidden
350
48E4
  3
JitterOff
350
48EA
  3
Linepattern
350
A7
  3
OverhangOff
350
48EB
  3
Realistic
350
A3
  3
Shaded
350
48E9
  3
Shaded with edges
350
48E8
  3
Shades of Gray
350
48E5
  3
Sketchy
350
48E6
  3
Thicken
350
A6
  3
Wireframe
350
48E3
  3
X-Ray
350
48E7
  0
XRECORD
  5
490D
102
{ACAD_REACTORS
330
C
102
}
330
C
100
AcDbXrecord
280
     1
 90
        1
330
87
330
4794
  0
DICTIONARY
  5
66
102
{ACAD_REACTORS
330
C
102
}
330
C
100
AcDbDictionary
281
     1
  3
CANNOSCALE
350
3C12
  3
CMLEADERSTYLE
350
3C11
  3
CTABLESTYLE
350
89
  3
CVIEWDETAILSTYLE
350
48F4
  3
CVIEWSECTIONSTYLE
350
48F5
  3
DIMASSOC
350
67
  3
HIDETEXT
350
6B
  3
INDEXCTL
350
3B88
  3
LAYEREVAL
350
48F8
  3
LAYERNOTIFY
350
48F9
  3
LIGHTINGUNITS
350
48F7
  3
MSLTSCALE
350
48F6
  3
SORTENTS
350
3B87
  0
DICTIONARY
  5
4913
102
{ACAD_REACTORS
330
C
102
}
330
C
100
AcDbDictionary
281
     1
  3
AcDsRecords
350
4915
  3
AcDsSchemas
350
4914
1001
ACAD
1070
     2
  0
DICTIONARY
  5
4871
102
{ACAD_REACTORS
330
158
102
}
330
158
100
AcDbDictionary
281
     1
  3
te
350
4873
  0
DICTIONARY
  5
159
102
{ACAD_REACTORS
330
158
102
}
330
158
100
AcDbDictionary
281
     1
  0
DICTIONARY
  5
4870
102
{ACAD_REACTORS
330
158
102
}
330
158
100
AcDbDictionary
281
     1
  3
*A1
350
4872
1001
ACAD
1000
<All
  0
XRECORD
  5
3BDB
102
{ACAD_REACTORS
330
3BDA
102
}
330
3BDA
100
AcDbXrecord
280
     1
290
     1
  0
XRECORD
  5
3BDD
102
{ACAD_REACTORS
330
3BDC
102
}
330
3BDC
100
AcDbXrecord
280
     1
290
     1
  0
XRECORD
  5
3BDF
102
{ACAD_REACTORS
330
3BDE
102
}
330
3BDE
100
AcDbXrecord
280
     1
290
     1
  0
XRECORD
  5
3BE1
102
{ACAD_REACTORS
330
3BE0
102
}
330
3BE0
100
AcDbXrecord
280
     1
290
     1
  0
SORTENTSTABLE
  5
351
102
{ACAD_REACTORS
330
350
102
}
330
350
100
AcDbSortentsTable
330
1F
  0
DIMASSOC
  5
40DB
102
{ACAD_REACTORS
330
40D0
102
}
330
40D0
100
AcDbDimAssoc
330
40C2
 90
        3
 70
     0
 71
     0
  1
AcDbOsnapPointRef
 72
     1
331
3D93
 73
     2
 91
        0
 40
1.0
 10
8481.610967506011
 20
149.2424116135589
 30
0.0
 75
     0
  1
AcDbOsnapPointRef
 72
     1
331
3D91
 73
     2
 91
        0
 40
1.0
 10
8481.610967506011
 20
-1050.757588386441
 30
0.0
 75
     0
  0
DIMASSOC
  5
4159
102
{ACAD_REACTORS
330
414E
102
}
330
414E
100
AcDbDimAssoc
330
4140
 90
        3
 70
     0
 71
     0
  1
AcDbOsnapPointRef
 72
     2
331
3D92
 73
     2
 91
        0
 40
0.5
 10
5706.61096750601
 20
149.2424116135589
 30
0.0
 75
     0
  1
AcDbOsnapPointRef
 72
     2
331
3D93
 73
     2
 91
        0
 40
0.5
 10
8456.610967506009
 20
149.2424116135589
 30
0.0
 75
     0
  0
DIMASSOC
  5
42B2
102
{ACAD_REACTORS
330
42A7
102
}
330
42A7
100
AcDbDimAssoc
330
4299
 90
        3
 70
     0
 71
     0
  1
AcDbOsnapPointRef
 72
    13
331
3D92
 73
     2
 91
        0
 40
0.0
 10
5681.61096750601
 20
149.2424116135589
 30
0.0
 75
     0
  1
AcDbOsnapPointRef
 72
    13
331
3D95
 73
     2
 91
        0
 40
0.0
 10
5731.610967506011
 20
-30.75758838644109
 30
0.0
 75
     0
  0
DIMASSOC
  5
439A
102
{ACAD_REACTORS
330
438F
102
}
330
438F
100
AcDbDimAssoc
330
4381
 90
        3
 70
     0
 71
     0
  1
AcDbOsnapPointRef
 72
    13
331
4363
 73
     2
 91
        0
 40
0.0
 10
8481.610967506011
 20
-1650.757588386441
 30
0.0
 75
     0
  1
AcDbOsnapPointRef
 72
     1
331
4363
 73
     2
 91
        0
 40
1.0
 10
8481.610967506011
 20
-1050.757588386441
 30
0.0
 75
     0
  0
XRECORD
  5
490C
102
{ACAD_REACTORS
330
48CE
102
}
330
48CE
100
AcDbXrecord
280
     1
 40
101828.0
  1
\pxqc;PROCTER FENCING SYSTEMS\PBOW TOP RAILING (INTER-LACED)
  0
ACDBDETAILVIEWSTYLE
  5
48F0
102
{ACAD_XDICTIONARY
360
494C
102
}
102
{ACAD_REACTORS
330
48EF
102
}
330
48EF
100
AcDbModelDocViewStyle
 70
     0
  3
Imperial24
290
     0
100
AcDbDetailViewStyle
 70
     0
 71
     0
 90
        3
 71
     1
340
11
 62
   256
 40
0.24
340
0
 62
   256
 40
0.24
300

 40
0.36
280
     3
 71
     2
340
16
 90
       25
 62
   256
 71
     3
340
11
 62
   256
 40
0.24
 90
        1
 40
0.75
 90
        1
300
%<\AcVar ViewType \f "%tc1">% %<\AcVar ViewDetailId>%\PSCALE %<\AcVar ViewScale \f "%sn">%
 71
     4
340
16
 90
       25
 62
   256
340
16
 90
       25
 62
   256
280
     0
  0
LAYOUT
  5
59
102
{ACAD_XDICTIONARY
360
4789
102
}
102
{ACAD_REACTORS
330
1A
102
}
330
1A
100
AcDbPlotSettings
  1

  2
HP Deskjet 5900 Series
  4
A4
  6

 40
4.222749710083006
 41
15.61041450500488
 42
4.138076782226561
 43
3.17498779296875
 44
209.9733276367186
 45
296.9683227539062
 46
0.0
 47
0.0
 48
0.0
 49
0.0
140
0.0
141
0.0
142
1.0
143
1.0
 70
   688
 72
     1
 73
     1
 74
     5
  7

 75
    16
147
1.0
 76
     0
 77
     2
 78
   300
148
0.0
149
0.0
100
AcDbLayout
  1
Layout1
 70
     1
 71
     1
 10
-3.17498779296875
 20
-4.222749710083006
 11
293.7933349609375
 21
205.7505779266358
 12
0.0
 22
0.0
 32
0.0
 14
27.81056882734663
 24
20.15281655211266
 34
-0.0015258207003583
 15
250.3691498573315
 25
181.455111110177
 35
0.0000000349246037
146
0.0
 13
0.0
 23
0.0
 33
0.0
 16
1.0
 26
0.0
 36
0.0
 17
0.0
 27
1.0
 37
0.0
 76
     0
330
58
331
477A
  0
LAYOUT
  5
5E
102
{ACAD_REACTORS
330
1A
102
}
330
1A
100
AcDbPlotSettings
  1

  2
None
  4

  6

 40
0.0
 41
0.0
 42
0.0
 43
0.0
 44
0.0
 45
0.0
 46
0.0
 47
0.0
 48
0.0
 49
0.0
140
0.0
141
0.0
142
1.0
143
1.0
 70
   688
 72
     0
 73
     0
 74
     5
  7

 75
    16
147
1.0
 76
     0
 77
     2
 78
   300
148
0.0
149
0.0
100
AcDbLayout
  1
Layout2
 70
     1
 71
     2
 10
0.0
 20
0.0
 11
12.0
 21
9.0
 12
0.0
 22
0.0
 32
0.0
 14
0.0
 24
0.0
 34
0.0
 15
0.0
 25
0.0
 35
0.0
146
0.0
 13
0.0
 23
0.0
 33
0.0
 16
1.0
 26
0.0
 36
0.0
 17
0.0
 27
1.0
 37
0.0
 76
     0
330
5D
  0
LAYOUT
  5
22
102
{ACAD_REACTORS
330
1A
102
}
330
1A
100
AcDbPlotSettings
  1

  2
CutePDF Writer
  4
A4
  6

 40
3.174999952316283
 41
3.174999952316283
 42
3.175003051757812
 43
3.17498779296875
 44
209.8886566162109
 45
297.0530090332031
 46
0.0
 47
8.789999999999999
 48
0.0
 49
0.0
140
0.0
141
0.0
142
1.0
143
20.30508755360061
 70
 11956
 72
     1
 73
     0
 74
     1
  7

 75
     0
147
0.0492487411029496
 76
     0
 77
     2
 78
   300
148
-2094.038254151303
149
2299.50229960754
100
AcDbLayout
  1
Model
 70
     1
 71
     0
 10
0.0
 20
0.0
 11
12.0
 21
9.0
 12
0.0
 22
0.0
 32
0.0
 14
0.0
 24
0.0
 34
0.0
 15
0.0
 25
0.0
 35
0.0
146
0.0
 13
0.0
 23
0.0
 33
0.0
 16
1.0
 26
0.0
 36
0.0
 17
0.0
 27
1.0
 37
0.0
 76
     0
330
1F
331
4777
1001
ACAD_PSEXT
1000
HP Deskjet D2300 series.pc3
1000
HP Deskjet D2300 series
1000
USB001
1000

1070
     0
  0
MATERIAL
  5
97
102
{ACAD_REACTORS
330
72
102
}
330
72
100
AcDbMaterial
  1
ByBlock
 73
     1
 78
     1
172
     1
176
     1
270
     1
274
     1
 94
       63
  0
MATERIAL
  5
96
102
{ACAD_REACTORS
330
72
102
}
330
72
100
AcDbMaterial
  1
ByLayer
 73
     1
 78
     1
172
     1
176
     1
270
     1
274
     1
 94
       63
  0
MATERIAL
  5
98
102
{ACAD_REACTORS
330
72
102
}
330
72
100
AcDbMaterial
  1
Global
 73
     1
 78
     1
172
     1
176
     1
270
     1
274
     1
 94
       63
  0
MLEADERSTYLE
  5
3BD2
102
{ACAD_REACTORS
330
3BD1
102
}
330
3BD1
100
AcDbMLeaderStyle
179
     2
170
     2
171
     1
172
     0
 90
        2
 40
0.0
 41
0.0
173
     1
 91
-1056964608
340
14
 92
       -2
290
     1
 42
0.09
291
     1
 43
0.36
  3
Standard
 44
0.18
300

342
11
174
     1
178
     6
175
     1
176
     0
 93
-1056964608
 45
0.18
292
     0
297
     0
 46
0.18
 94
-1056964608
 47
1.0
 49
1.0
140
1.0
293
     1
141
0.0
294
     1
177
     0
142
1.0
295
     0
296
     0
143
0.125
271
     0
272
     9
273
     9
  0
MLINESTYLE
  5
18
102
{ACAD_REACTORS
330
17
102
}
330
17
100
AcDbMlineStyle
  2
STANDARD
 70
     0
  3

 62
   256
 51
90.0
 52
90.0
 71
     2
 49
0.5
 62
   256
  6
BYLAYER
 49
-0.5
 62
   256
  6
BYLAYER
  0
ACDBPLACEHOLDER
  5
F
102
{ACAD_REACTORS
330
E
102
}
330
E
  0
SCALE
  5
3BB0
102
{ACAD_REACTORS
330
3BAF
102
}
330
3BAF
100
AcDbScale
 70
     0
300
1:1
140
1.0
141
1.0
290
     1
  0
SCALE
  5
3BB1
102
{ACAD_REACTORS
330
3BAF
102
}
330
3BAF
100
AcDbScale
 70
     0
300
1:2
140
1.0
141
2.0
290
     0
  0
SCALE
  5
3BB2
102
{ACAD_REACTORS
330
3BAF
102
}
330
3BAF
100
AcDbScale
 70
     0
300
1:4
140
1.0
141
4.0
290
     0
  0
SCALE
  5
3BB3
102
{ACAD_REACTORS
330
3BAF
102
}
330
3BAF
100
AcDbScale
 70
     0
300
1:5
140
1.0
141
5.0
290
     0
  0
SCALE
  5
3BB4
102
{ACAD_REACTORS
330
3BAF
102
}
330
3BAF
100
AcDbScale
 70
     0
300
1:8
140
1.0
141
8.0
290
     0
  0
SCALE
  5
3BB5
102
{ACAD_REACTORS
330
3BAF
102
}
330
3BAF
100
AcDbScale
 70
     0
300
1:10
140
1.0
141
10.0
290
     0
  0
SCALE
  5
3BB6
102
{ACAD_REACTORS
330
3BAF
102
}
330
3BAF
100
AcDbScale
 70
     0
300
1:16
140
1.0
141
16.0
290
     0
  0
SCALE
  5
3BB7
102
{ACAD_REACTORS
330
3BAF
102
}
330
3BAF
100
AcDbScale
 70
     0
300
1:20
140
1.0
141
20.0
290
     0
  0
SCALE
  5
3BB8
102
{ACAD_REACTORS
330
3BAF
102
}
330
3BAF
100
AcDbScale
 70
     0
300
1:30
140
1.0
141
30.0
290
     0
  0
SCALE
  5
3BB9
102
{ACAD_REACTORS
330
3BAF
102
}
330
3BAF
100
AcDbScale
 70
     0
300
1:40
140
1.0
141
40.0
290
     0
  0
SCALE
  5
3BBA
102
{ACAD_REACTORS
330
3BAF
102
}
330
3BAF
100
AcDbScale
 70
     0
300
1:50
140
1.0
141
50.0
290
     0
  0
SCALE
  5
3BBB
102
{ACAD_REACTORS
330
3BAF
102
}
330
3BAF
100
AcDbScale
 70
     0
300
1:100
140
1.0
141
100.0
290
     0
  0
SCALE
  5
3BBC
102
{ACAD_REACTORS
330
3BAF
102
}
330
3BAF
100
AcDbScale
 70
     0
300
2:1
140
2.0
141
1.0
290
     0
  0
SCALE
  5
3BBD
102
{ACAD_REACTORS
330
3BAF
102
}
330
3BAF
100
AcDbScale
 70
     0
300
4:1
140
4.0
141
1.0
290
     0
  0
SCALE
  5
3BBE
102
{ACAD_REACTORS
330
3BAF
102
}
330
3BAF
100
AcDbScale
 70
     0
300
8:1
140
8.0
141
1.0
290
     0
  0
SCALE
  5
3BBF
102
{ACAD_REACTORS
330
3BAF
102
}
330
3BAF
100
AcDbScale
 70
     0
300
10:1
140
10.0
141
1.0
290
     0
  0
SCALE
  5
3BC0
102
{ACAD_REACTORS
330
3BAF
102
}
330
3BAF
100
AcDbScale
 70
     0
300
100:1
140
100.0
141
1.0
290
     0
  0
SCALE
  5
3BC1
102
{ACAD_REACTORS
330
3BAF
102
}
330
3BAF
100
AcDbScale
 70
     0
300
1/128" = 1'-0"
140
0.0078125
141
12.0
290
     0
  0
SCALE
  5
3BC2
102
{ACAD_REACTORS
330
3BAF
102
}
330
3BAF
100
AcDbScale
 70
     0
300
1/64" = 1'-0"
140
0.015625
141
12.0
290
     0
  0
SCALE
  5
3BC3
102
{ACAD_REACTORS
330
3BAF
102
}
330
3BAF
100
AcDbScale
 70
     0
300
1/32" = 1'-0"
140
0.03125
141
12.0
290
     0
  0
SCALE
  5
3BC4
102
{ACAD_REACTORS
330
3BAF
102
}
330
3BAF
100
AcDbScale
 70
     0
300
1/16" = 1'-0"
140
0.0625
141
12.0
290
     0
  0
SCALE
  5
3BC5
102
{ACAD_REACTORS
330
3BAF
102
}
330
3BAF
100
AcDbScale
 70
     0
300
3/32" = 1'-0"
140
0.09375
141
12.0
290
     0
  0
SCALE
  5
3BC6
102
{ACAD_REACTORS
330
3BAF
102
}
330
3BAF
100
AcDbScale
 70
     0
300
1/8" = 1'-0"
140
0.125
141
12.0
290
     0
  0
SCALE
  5
3BC7
102
{ACAD_REACTORS
330
3BAF
102
}
330
3BAF
100
AcDbScale
 70
     0
300
3/16" = 1'-0"
140
0.1875
141
12.0
290
     0
  0
SCALE
  5
3BC8
102
{ACAD_REACTORS
330
3BAF
102
}
330
3BAF
100
AcDbScale
 70
     0
300
1/4" = 1'-0"
140
0.25
141
12.0
290
     0
  0
SCALE
  5
3BC9
102
{ACAD_REACTORS
330
3BAF
102
}
330
3BAF
100
AcDbScale
 70
     0
300
3/8" = 1'-0"
140
0.375
141
12.0
290
     0
  0
SCALE
  5
3BCA
102
{ACAD_REACTORS
330
3BAF
102
}
330
3BAF
100
AcDbScale
 70
     0
300
1/2" = 1'-0"
140
0.5
141
12.0
290
     0
  0
SCALE
  5
3BCB
102
{ACAD_REACTORS
330
3BAF
102
}
330
3BAF
100
AcDbScale
 70
     0
300
3/4" = 1'-0"
140
0.75
141
12.0
290
     0
  0
SCALE
  5
3BCC
102
{ACAD_REACTORS
330
3BAF
102
}
330
3BAF
100
AcDbScale
 70
     0
300
1" = 1'-0"
140
1.0
141
12.0
290
     0
  0
SCALE
  5
3BCD
102
{ACAD_REACTORS
330
3BAF
102
}
330
3BAF
100
AcDbScale
 70
     0
300
1-1/2" = 1'-0"
140
1.5
141
12.0
290
     0
  0
SCALE
  5
3BCE
102
{ACAD_REACTORS
330
3BAF
102
}
330
3BAF
100
AcDbScale
 70
     0
300
3" = 1'-0"
140
3.0
141
12.0
290
     0
  0
SCALE
  5
3BCF
102
{ACAD_REACTORS
330
3BAF
102
}
330
3BAF
100
AcDbScale
 70
     0
300
6" = 1'-0"
140
6.0
141
12.0
290
     0
  0
SCALE
  5
3BD0
102
{ACAD_REACTORS
330
3BAF
102
}
330
3BAF
100
AcDbScale
 70
     0
300
1'-0" = 1'-0"
140
12.0
141
12.0
290
     0
  0
ACDBSECTIONVIEWSTYLE
  5
48EE
102
{ACAD_XDICTIONARY
360
494A
102
}
102
{ACAD_REACTORS
330
48ED
102
}
330
48ED
100
AcDbModelDocViewStyle
 70
     0
  3
Imperial24
290
     0
100
AcDbSectionViewStyle
 70
     0
 71
     0
 90
       78
 71
     1
340
11
 62
   256
 40
0.24
340
0
340
0
 62
   256
 40
0.24
300
I, O, Q, S, X, Z
 40
0.48
 90
        3
 40
0.18
 90
        1
 71
     2
340
16
 90
       25
 62
   256
340
16
 90
       50
 62
   256
 40
0.24
 40
0.0
 40
0.24
 71
     3
340
11
 62
   256
 40
0.24
 90
        1
 40
0.75
 90
        1
300
%<\AcVar ViewType \f "%tc1">% %<\AcVar ViewSectionStartId>%-%<\AcVar ViewSectionEndId>%\PSCALE %<\AcVar ViewScale \f "%sn">%
 71
     4
 62
   256
 62
   257
300
ANSI31
 40
1.0
 90
        0
290
     0
290
     0
 90
        6
 40
0.0
 40
1.570796326794896
 40
0.2617993877991494
 40
1.308996938995747
 40
-0.2617993877991494
 40
1.832595714594045
  0
TABLESTYLE
  5
87
102
{ACAD_XDICTIONARY
360
3BE4
102
}
102
{ACAD_REACTORS
330
86
102
}
330
86
100
AcDbTableStyle
280
     0
  3
Standard
 70
     0
 71
     0
 40
0.06
 41
0.06
280
     0
281
     0
  7
Standard
140
0.18
170
     2
 62
     0
 63
     7
283
     0
 90
      512
 91
        0
  1

274
    -2
284
     1
 64
     0
275
    -2
285
     1
 65
     0
276
    -2
286
     1
 66
     0
277
    -2
287
     1
 67
     0
278
    -2
288
     1
 68
     0
279
    -2
289
     1
 69
     0
  7
Standard
140
0.25
170
     5
 62
     0
 63
     7
283
     0
 90
      512
 91
        0
  1

274
    -2
284
     1
 64
     0
275
    -2
285
     1
 65
     0
276
    -2
286
     1
 66
     0
277
    -2
287
     1
 67
     0
278
    -2
288
     1
 68
     0
279
    -2
289
     1
 69
     0
  7
Standard
140
0.18
170
     5
 62
     0
 63
     7
283
     0
 90
      512
 91
        0
  1

274
    -2
284
     1
 64
     0
275
    -2
285
     1
 65
     0
276
    -2
286
     1
 66
     0
277
    -2
287
     1
 67
     0
278
    -2
288
     1
 68
     0
279
    -2
289
     1
 69
     0
  0
VISUALSTYLE
  5
9F
102
{ACAD_XDICTIONARY
360
4920
102
}
102
{ACAD_REACTORS
330
99
102
}
330
99
100
AcDbVisualStyle
  2
2dWireframe
 70
     4
177
     2
291
     0
 71
     0
176
     1
 72
     2
176
     1
 73
     1
176
     1
 90
        0
176
     1
 40
0.6
176
     1
 41
30.0
176
     1
 63
     7
176
     1
 74
     1
176
     1
 91
        4
176
     1
 64
     7
176
     1
 65
   257
176
     1
 75
     1
176
     1
175
     1
176
     1
 42
1.0
176
     1
 92
        0
176
     1
 66
   257
176
     1
 43
1.0
176
     1
 76
     1
176
     1
 77
     6
176
     1
 78
     2
176
     1
 67
     7
176
     1
 79
     5
176
     1
170
     0
176
     1
171
     0
176
     1
290
     0
176
     1
 93
        1
176
     1
 44
0.0
176
     1
173
     0
176
     1
1001
ACAD
1000
AcDbSavedByObjectVersion
1070
     0
  0
VISUALSTYLE
  5
A1
102
{ACAD_XDICTIONARY
360
4924
102
}
102
{ACAD_REACTORS
330
99
102
}
330
99
100
AcDbVisualStyle
  2
3D Hidden
 70
     6
177
     2
291
     0
 71
     1
176
     1
 72
     2
176
     1
 73
     2
176
     1
 90
        0
176
     1
 40
0.6
176
     1
 41
30.0
176
     1
 63
     7
176
     1
 74
     2
176
     1
 91
        2
176
     1
 64
     7
176
     1
 65
   257
176
     1
 75
     2
176
     1
175
     1
176
     1
 42
40.0
176
     1
 92
        0
176
     1
 66
   257
176
     1
 43
1.0
176
     1
 76
     1
176
     1
 77
     6
176
     1
 78
     2
176
     1
 67
     7
176
     1
 79
     3
176
     1
170
     0
176
     1
171
     0
176
     1
290
     0
176
     1
 93
        1
176
     1
 44
0.0
176
     1
173
     0
176
     1
1001
ACAD
1000
AcDbSavedByObjectVersion
1070
     0
  0
VISUALSTYLE
  5
A0
102
{ACAD_XDICTIONARY
360
4922
102
}
102
{ACAD_REACTORS
330
99
102
}
330
99
100
AcDbVisualStyle
  2
3dWireframe
 70
     5
177
     2
291
     0
 71
     0
176
     1
 72
     2
176
     1
 73
     1
176
     1
 90
        0
176
     1
 40
0.6
176
     1
 41
30.0
176
     1
 63
     7
176
     1
 74
     1
176
     1
 91
        4
176
     1
 64
     7
176
     1
 65
   257
176
     1
 75
     1
176
     1
175
     1
176
     1
 42
1.0
176
     1
 92
        0
176
     1
 66
   257
176
     1
 43
1.0
176
     1
 76
     1
176
     1
 77
     6
176
     1
 78
     2
176
     1
 67
     7
176
     1
 79
     5
176
     1
170
     0
176
     1
171
     0
176
     1
290
     0
176
     1
 93
        1
176
     1
 44
0.0
176
     1
173
     0
176
     1
1001
ACAD
1000
AcDbSavedByObjectVersion
1070
     0
  0
VISUALSTYLE
  5
9E
102
{ACAD_XDICTIONARY
360
491E
102
}
102
{ACAD_REACTORS
330
99
102
}
330
99
100
AcDbVisualStyle
  2
Basic
 70
     7
177
     2
291
     1
 71
     1
176
     1
 72
     0
176
     1
 73
     1
176
     1
 90
        0
176
     1
 40
0.6
176
     1
 41
30.0
176
     1
 63
     7
176
     1
 74
     0
176
     1
 91
        4
176
     1
 64
     7
176
     1
 65
   257
176
     1
 75
     1
176
     1
175
     1
176
     1
 42
1.0
176
     1
 92
        8
176
     1
 66
     7
176
     1
 43
1.0
176
     1
 76
     1
176
     1
 77
     6
176
     1
 78
     2
176
     1
 67
     7
176
     1
 79
     5
176
     1
170
     0
176
     1
171
     0
176
     1
290
     0
176
     1
 93
        1
176
     1
 44
0.0
176
     1
173
     0
176
     1
1001
ACAD
1000
AcDbSavedByObjectVersion
1070
     0
  0
VISUALSTYLE
  5
A5
102
{ACAD_XDICTIONARY
360
492C
102
}
102
{ACAD_REACTORS
330
99
102
}
330
99
100
AcDbVisualStyle
  2
Brighten
 70
    12
177
     2
291
     1
 71
     2
176
     1
 72
     2
176
     1
 73
     1
176
     1
 90
        0
176
     1
 40
0.6
176
     1
 41
30.0
176
     1
 63
     7
176
     1
 74
     1
176
     1
 91
        4
176
     1
 64
     7
176
     1
 65
   257
176
     1
 75
     1
176
     1
175
     1
176
     1
 42
1.0
176
     1
 92
        8
176
     1
 66
     7
176
     1
 43
1.0
176
     1
 76
     1
176
     1
 77
     6
176
     1
 78
     2
176
     1
 67
     7
176
     1
 79
     5
176
     1
170
     0
176
     1
171
     0
176
     1
290
     0
176
     1
 93
        1
176
     1
 44
50.0
176
     1
173
     0
176
     1
1001
ACAD
1000
AcDbSavedByObjectVersion
1070
     0
  0
VISUALSTYLE
  5
A9
102
{ACAD_XDICTIONARY
360
4934
102
}
102
{ACAD_REACTORS
330
99
102
}
330
99
100
AcDbVisualStyle
  2
ColorChange
 70
    16
177
     2
291
     1
 71
     2
176
     1
 72
     2
176
     1
 73
     3
176
     1
 90
        0
176
     1
 40
0.6
176
     1
 41
30.0
176
     1
 63
     8
176
     1
 74
     1
176
     1
 91
        4
176
     1
 64
     7
176
     1
 65
   257
176
     1
 75
     1
176
     1
175
     1
176
     1
 42
1.0
176
     1
 92
        8
176
     1
 66
     8
176
     1
 43
1.0
176
     1
 76
     1
176
     1
 77
     6
176
     1
 78
     2
176
     1
 67
     7
176
     1
 79
     5
176
     1
170
     0
176
     1
171
     0
176
     1
290
     0
176
     1
 93
        1
176
     1
 44
0.0
176
     1
173
     0
176
     1
1001
ACAD
1000
AcDbSavedByObjectVersion
1070
     0
  0
VISUALSTYLE
  5
A2
102
{ACAD_XDICTIONARY
360
4926
102
}
102
{ACAD_REACTORS
330
99
102
}
330
99
100
AcDbVisualStyle
  2
Conceptual
 70
     9
177
     2
291
     0
 71
     3
176
     1
 72
     2
176
     1
 73
     1
176
     1
 90
        0
176
     1
 40
0.6
176
     1
 41
30.0
176
     1
 63
     7
176
     1
 74
     2
176
     1
 91
        2
176
     1
 64
     7
176
     1
 65
   257
176
     1
 75
     1
176
     1
175
     1
176
     1
 42
40.0
176
     1
 92
        8
176
     1
 66
     7
176
     1
 43
1.0
176
     1
 76
     1
176
     1
 77
     6
176
     1
 78
     2
176
     1
 67
     7
176
     1
 79
     3
176
     1
170
     0
176
     1
171
     0
176
     1
290
     0
176
     1
 93
        1
176
     1
 44
0.0
176
     1
173
     0
176
     1
1001
ACAD
1000
AcDbSavedByObjectVersion
1070
     0
  0
VISUALSTYLE
  5
A4
102
{ACAD_XDICTIONARY
360
492A
102
}
102
{ACAD_REACTORS
330
99
102
}
330
99
100
AcDbVisualStyle
  2
Dim
 70
    11
177
     2
291
     1
 71
     2
176
     1
 72
     2
176
     1
 73
     1
176
     1
 90
        0
176
     1
 40
0.6
176
     1
 41
30.0
176
     1
 63
     7
176
     1
 74
     1
176
     1
 91
        4
176
     1
 64
     7
176
     1
 65
   257
176
     1
 75
     1
176
     1
175
     1
176
     1
 42
1.0
176
     1
 92
        8
176
     1
 66
     7
176
     1
 43
1.0
176
     1
 76
     1
176
     1
 77
     6
176
     1
 78
     2
176
     1
 67
     7
176
     1
 79
     5
176
     1
170
     0
176
     1
171
     0
176
     1
290
     0
176
     1
 93
        1
176
     1
 44
-50.0
176
     1
173
     0
176
     1
1001
ACAD
1000
AcDbSavedByObjectVersion
1070
     0
  0
VISUALSTYLE
  5
48EC
102
{ACAD_XDICTIONARY
360
4948
102
}
102
{ACAD_REACTORS
330
99
102
}
330
99
100
AcDbVisualStyle
  2
EdgeColorOff
 70
    22
177
     2
291
     1
 71
     2
176
     0
 72
     2
176
     0
 73
     0
176
     0
 90
        0
176
     0
 40
0.6
176
     0
 41
30.0
176
     0
 63
     7
421
 16777215
176
     0
 74
     1
176
     0
 91
        4
176
     0
 64
     7
176
     0
 65
   257
176
     0
 75
     1
176
     0
175
     1
176
     0
 42
1.0
176
     0
 92
        8
176
     2
 66
     7
176
     0
 43
1.0
176
     0
 76
     1
176
     0
 77
     6
176
     0
 78
     2
176
     0
 67
     7
176
     0
 79
     5
176
     0
170
     0
176
     0
171
     0
176
     0
290
     0
176
     0
 93
        1
176
     0
 44
0.0
176
     0
173
     0
176
     0
1001
ACAD
1000
AcDbSavedByObjectVersion
1070
     0
  0
VISUALSTYLE
  5
A8
102
{ACAD_XDICTIONARY
360
4932
102
}
102
{ACAD_REACTORS
330
99
102
}
330
99
100
AcDbVisualStyle
  2
Facepattern
 70
    15
177
     2
291
     1
 71
     2
176
     1
 72
     2
176
     1
 73
     1
176
     1
 90
        0
176
     1
 40
0.6
176
     1
 41
30.0
176
     1
 63
     7
176
     1
 74
     1
176
     1
 91
        4
176
     1
 64
     7
176
     1
 65
   257
176
     1
 75
     1
176
     1
175
     1
176
     1
 42
1.0
176
     1
 92
        8
176
     1
 66
     7
176
     1
 43
1.0
176
     1
 76
     1
176
     1
 77
     6
176
     1
 78
     2
176
     1
 67
     7
176
     1
 79
     5
176
     1
170
     0
176
     1
171
     0
176
     1
290
     0
176
     1
 93
        1
176
     1
 44
0.0
176
     1
173
     0
176
     1
1001
ACAD
1000
AcDbSavedByObjectVersion
1070
     0
  0
VISUALSTYLE
  5
9A
102
{ACAD_XDICTIONARY
360
4916
102
}
102
{ACAD_REACTORS
330
99
102
}
330
99
100
AcDbVisualStyle
  2
Flat
 70
     0
177
     2
291
     1
 71
     2
176
     1
 72
     1
176
     1
 73
     1
176
     1
 90
        2
176
     1
 40
0.6
176
     1
 41
30.0
176
     1
 63
     7
176
     1
 74
     0
176
     1
 91
        4
176
     1
 64
     7
176
     1
 65
   257
176
     1
 75
     1
176
     1
175
     1
176
     1
 42
1.0
176
     1
 92
        8
176
     1
 66
     7
176
     1
 43
1.0
176
     1
 76
     1
176
     1
 77
     6
176
     1
 78
     2
176
     1
 67
     7
176
     1
 79
     5
176
     1
170
     0
176
     1
171
     0
176
     1
290
     0
176
     1
 93
        1
176
     1
 44
0.0
176
     1
173
     0
176
     1
1001
ACAD
1000
AcDbSavedByObjectVersion
1070
     0
  0
VISUALSTYLE
  5
9B
102
{ACAD_XDICTIONARY
360
4918
102
}
102
{ACAD_REACTORS
330
99
102
}
330
99
100
AcDbVisualStyle
  2
FlatWithEdges
 70
     1
177
     2
291
     1
 71
     2
176
     1
 72
     1
176
     1
 73
     1
176
     1
 90
        2
176
     1
 40
0.6
176
     1
 41
30.0
176
     1
 63
     7
176
     1
 74
     1
176
     1
 91
        4
176
     1
 64
     7
176
     1
 65
   257
176
     1
 75
     1
176
     1
175
     1
176
     1
 42
1.0
176
     1
 92
        0
176
     1
 66
   257
176
     1
 43
1.0
176
     1
 76
     1
176
     1
 77
     6
176
     1
 78
     2
176
     1
 67
     7
176
     1
 79
     5
176
     1
170
     0
176
     1
171
     0
176
     1
290
     0
176
     1
 93
        1
176
     1
 44
0.0
176
     1
173
     0
176
     1
1001
ACAD
1000
AcDbSavedByObjectVersion
1070
     0
  0
VISUALSTYLE
  5
9C
102
{ACAD_XDICTIONARY
360
491A
102
}
102
{ACAD_REACTORS
330
99
102
}
330
99
100
AcDbVisualStyle
  2
Gouraud
 70
     2
177
     2
291
     1
 71
     2
176
     1
 72
     2
176
     1
 73
     1
176
     1
 90
        2
176
     1
 40
0.6
176
     1
 41
30.0
176
     1
 63
     7
176
     1
 74
     0
176
     1
 91
        4
176
     1
 64
     7
176
     1
 65
   257
176
     1
 75
     1
176
     1
175
     1
176
     1
 42
1.0
176
     1
 92
        0
176
     1
 66
     7
176
     1
 43
1.0
176
     1
 76
     1
176
     1
 77
     6
176
     1
 78
     2
176
     1
 67
     7
176
     1
 79
     5
176
     1
170
     0
176
     1
171
     0
176
     1
290
     0
176
     1
 93
        1
176
     1
 44
0.0
176
     1
173
     0
176
     1
1001
ACAD
1000
AcDbSavedByObjectVersion
1070
     0
  0
VISUALSTYLE
  5
9D
102
{ACAD_XDICTIONARY
360
491C
102
}
102
{ACAD_REACTORS
330
99
102
}
330
99
100
AcDbVisualStyle
  2
GouraudWithEdges
 70
     3
177
     2
291
     1
 71
     2
176
     1
 72
     2
176
     1
 73
     1
176
     1
 90
        2
176
     1
 40
0.6
176
     1
 41
30.0
176
     1
 63
     7
176
     1
 74
     1
176
     1
 91
        4
176
     1
 64
     7
176
     1
 65
   257
176
     1
 75
     1
176
     1
175
     1
176
     1
 42
1.0
176
     1
 92
        0
176
     1
 66
   257
176
     1
 43
1.0
176
     1
 76
     1
176
     1
 77
     6
176
     1
 78
     2
176
     1
 67
     7
176
     1
 79
     5
176
     1
170
     0
176
     1
171
     0
176
     1
290
     0
176
     1
 93
        1
176
     1
 44
0.0
176
     1
173
     0
176
     1
1001
ACAD
1000
AcDbSavedByObjectVersion
1070
     0
  0
VISUALSTYLE
  5
48E4
102
{ACAD_XDICTIONARY
360
4938
102
}
102
{ACAD_REACTORS
330
99
102
}
330
99
100
AcDbVisualStyle
  2
Hidden
 70
     6
177
     2
291
     0
 71
     1
176
     1
 72
     2
176
     1
 73
     2
176
     1
 90
        0
176
     1
 40
0.6
176
     1
 41
30.0
176
     1
 63
     7
421
 16777215
176
     1
 74
     2
176
     1
 91
        2
176
     1
 64
     7
176
     1
 65
   257
176
     1
 75
     2
176
     1
175
     1
176
     1
 42
40.0
176
     1
 92
        0
176
     1
 66
   257
176
     1
 43
1.0
176
     1
 76
     1
176
     1
 77
     6
176
     1
 78
     2
176
     1
 67
     7
176
     1
 79
     3
176
     1
170
     0
176
     1
171
     0
176
     1
290
     0
176
     1
 93
        1
176
     1
 44
0.0
176
     1
173
     0
176
     1
1001
ACAD
1000
AcDbSavedByObjectVersion
1070
     0
  0
VISUALSTYLE
  5
48EA
102
{ACAD_XDICTIONARY
360
4944
102
}
102
{ACAD_REACTORS
330
99
102
}
330
99
100
AcDbVisualStyle
  2
JitterOff
 70
    20
177
     2
291
     1
 71
     2
176
     0
 72
     2
176
     0
 73
     0
176
     0
 90
        0
176
     0
 40
0.6
176
     0
 41
30.0
176
     0
 63
     7
421
 16777215
176
     0
 74
     1
176
     0
 91
        4
176
     0
 64
     7
176
     0
 65
   257
176
     0
 75
     1
176
     0
175
     1
176
     0
 42
1.0
176
     0
 92
       10
176
     2
 66
     7
176
     0
 43
1.0
176
     0
 76
     1
176
     0
 77
     6
176
     0
 78
     2
176
     0
 67
     7
176
     0
 79
     5
176
     0
170
     0
176
     0
171
     0
176
     0
290
     0
176
     0
 93
        1
176
     0
 44
0.0
176
     0
173
     0
176
     0
1001
ACAD
1000
AcDbSavedByObjectVersion
1070
     0
  0
VISUALSTYLE
  5
A7
102
{ACAD_XDICTIONARY
360
4930
102
}
102
{ACAD_REACTORS
330
99
102
}
330
99
100
AcDbVisualStyle
  2
Linepattern
 70
    14
177
     2
291
     1
 71
     2
176
     1
 72
     2
176
     1
 73
     1
176
     1
 90
        0
176
     1
 40
0.6
176
     1
 41
30.0
176
     1
 63
     7
176
     1
 74
     1
176
     1
 91
        4
176
     1
 64
     7
176
     1
 65
   257
176
     1
 75
     7
176
     1
175
     7
176
     1
 42
1.0
176
     1
 92
        8
176
     1
 66
     7
176
     1
 43
1.0
176
     1
 76
     1
176
     1
 77
     6
176
     1
 78
     2
176
     1
 67
     7
176
     1
 79
     5
176
     1
170
     0
176
     1
171
     0
176
     1
290
     0
176
     1
 93
        1
176
     1
 44
0.0
176
     1
173
     0
176
     1
1001
ACAD
1000
AcDbSavedByObjectVersion
1070
     0
  0
VISUALSTYLE
  5
48EB
102
{ACAD_XDICTIONARY
360
4946
102
}
102
{ACAD_REACTORS
330
99
102
}
330
99
100
AcDbVisualStyle
  2
OverhangOff
 70
    21
177
     2
291
     1
 71
     2
176
     0
 72
     2
176
     0
 73
     0
176
     0
 90
        0
176
     0
 40
0.6
176
     0
 41
30.0
176
     0
 63
     7
421
 16777215
176
     0
 74
     1
176
     0
 91
        4
176
     0
 64
     7
176
     0
 65
   257
176
     0
 75
     1
176
     0
175
     1
176
     0
 42
1.0
176
     0
 92
        9
176
     2
 66
     7
176
     0
 43
1.0
176
     0
 76
     1
176
     0
 77
     6
176
     0
 78
     2
176
     0
 67
     7
176
     0
 79
     5
176
     0
170
     0
176
     0
171
     0
176
     0
290
     0
176
     0
 93
        1
176
     0
 44
0.0
176
     0
173
     0
176
     0
1001
ACAD
1000
AcDbSavedByObjectVersion
1070
     0
  0
VISUALSTYLE
  5
A3
102
{ACAD_XDICTIONARY
360
4928
102
}
102
{ACAD_REACTORS
330
99
102
}
330
99
100
AcDbVisualStyle
  2
Realistic
 70
     8
177
     2
291
     0
 71
     2
176
     1
 72
     2
176
     1
 73
     1
176
     1
 90
        0
176
     1
 40
0.6
176
     1
 41
30.0
176
     1
 63
     7
176
     1
 74
     1
176
     1
 91
        0
176
     1
 64
     7
176
     1
 65
   257
176
     1
 75
     1
176
     1
175
     1
176
     1
 42
1.0
176
     1
 92
        8
176
     1
 66
     8
176
     1
 43
1.0
176
     1
 76
     1
176
     1
 77
     6
176
     1
 78
     2
176
     1
 67
     7
176
     1
 79
     5
176
     1
170
     0
176
     1
171
     0
176
     1
290
     0
176
     1
 93
       13
176
     1
 44
0.0
176
     1
173
     0
176
     1
1001
ACAD
1000
AcDbSavedByObjectVersion
1070
     0
  0
VISUALSTYLE
  5
48E9
102
{ACAD_XDICTIONARY
360
4942
102
}
102
{ACAD_REACTORS
330
99
102
}
330
99
100
AcDbVisualStyle
  2
Shaded
 70
    27
177
     2
291
     0
 71
     2
176
     1
 72
     2
176
     1
 73
     1
176
     1
 90
        2
176
     1
 40
0.6
176
     1
 41
30.0
176
     1
 63
     7
421
 16777215
176
     1
 74
     0
176
     1
 91
        4
176
     1
 64
     7
176
     1
 65
   257
176
     1
 75
     1
176
     1
175
     1
176
     1
 42
1.0
176
     1
 92
        8
176
     1
 66
   257
176
     1
 43
1.0
176
     1
 76
     1
176
     1
 77
     6
176
     1
 78
     2
176
     1
 67
     8
425
  7895160
176
     1
 79
     3
176
     1
170
     0
176
     1
171
     0
176
     1
290
     0
176
     1
 93
        5
176
     1
 44
0.0
176
     1
173
     0
176
     1
1001
ACAD
1000
AcDbSavedByObjectVersion
1070
     0
  0
VISUALSTYLE
  5
48E8
102
{ACAD_XDICTIONARY
360
4940
102
}
102
{ACAD_REACTORS
330
99
102
}
330
99
100
AcDbVisualStyle
  2
Shaded with edges
 70
    26
177
     2
291
     0
 71
     2
176
     1
 72
     2
176
     1
 73
     1
176
     1
 90
        2
176
     1
 40
0.6
176
     1
 41
30.0
176
     1
 63
     7
421
 16777215
176
     1
 74
     1
176
     1
 91
        2
176
     1
 64
     7
176
     1
 65
   257
176
     1
 75
     2
176
     1
175
     1
176
     1
 42
1.0
176
     1
 92
        8
176
     1
 66
   257
176
     1
 43
1.0
176
     1
 76
     1
176
     1
 77
     6
176
     1
 78
     2
176
     1
 67
     7
176
     1
 79
     3
176
     1
170
     0
176
     1
171
     0
176
     1
290
     0
176
     1
 93
        5
176
     1
 44
0.0
176
     1
173
     0
176
     1
1001
ACAD
1000
AcDbSavedByObjectVersion
1070
     0
  0
VISUALSTYLE
  5
48E5
102
{ACAD_XDICTIONARY
360
493A
102
}
102
{ACAD_REACTORS
330
99
102
}
330
99
100
AcDbVisualStyle
  2
Shades of Gray
 70
    23
177
     2
291
     0
 71
     2
176
     1
 72
     2
176
     1
 73
     3
176
     1
 90
        0
176
     1
 40
0.6
176
     1
 41
30.0
176
     1
 63
     7
421
 16777215
176
     1
 74
     2
176
     1
 91
        2
176
     1
 64
     7
176
     1
 65
     7
176
     1
 75
     1
176
     1
175
     1
176
     1
 42
40.0
176
     1
 92
        8
176
     1
 66
     7
176
     1
 43
1.0
176
     1
 76
     1
176
     1
 77
     6
176
     1
 78
     2
176
     1
 67
     7
176
     1
 79
     3
176
     1
170
     0
176
     1
171
     0
176
     1
290
     0
176
     1
 93
        1
176
     1
 44
0.0
176
     1
173
     0
176
     1
1001
ACAD
1000
AcDbSavedByObjectVersion
1070
     0
  0
VISUALSTYLE
  5
48E6
102
{ACAD_XDICTIONARY
360
493C
102
}
102
{ACAD_REACTORS
330
99
102
}
330
99
100
AcDbVisualStyle
  2
Sketchy
 70
    24
177
     2
291
     0
 71
     1
176
     1
 72
     2
176
     1
 73
     2
176
     1
 90
        0
176
     1
 40
0.6
176
     1
 41
30.0
176
     1
 63
     7
421
 16777215
176
     1
 74
     2
176
     1
 91
        2
176
     1
 64
     7
176
     1
 65
     7
176
     1
 75
     1
176
     1
175
     1
176
     1
 42
40.0
176
     1
 92
       11
176
     1
 66
     7
176
     1
 43
1.0
176
     1
 76
     1
176
     1
 77
     6
176
     1
 78
     2
176
     1
 67
     7
176
     1
 79
     6
176
     1
170
     0
176
     1
171
     0
176
     1
290
     0
176
     1
 93
        1
176
     1
 44
0.0
176
     1
173
     0
176
     1
1001
ACAD
1000
AcDbSavedByObjectVersion
1070
     0
  0
VISUALSTYLE
  5
A6
102
{ACAD_XDICTIONARY
360
492E
102
}
102
{ACAD_REACTORS
330
99
102
}
330
99
100
AcDbVisualStyle
  2
Thicken
 70
    13
177
     2
291
     1
 71
     2
176
     1
 72
     2
176
     1
 73
     1
176
     1
 90
        0
176
     1
 40
0.6
176
     1
 41
30.0
176
     1
 63
     7
176
     1
 74
     1
176
     1
 91
        4
176
     1
 64
     7
176
     1
 65
   257
176
     1
 75
     1
176
     1
175
     1
176
     1
 42
1.0
176
     1
 92
       12
176
     1
 66
     7
176
     1
 43
1.0
176
     1
 76
     1
176
     1
 77
     6
176
     1
 78
     2
176
     1
 67
     7
176
     1
 79
     5
176
     1
170
     0
176
     1
171
     0
176
     1
290
     0
176
     1
 93
        1
176
     1
 44
0.0
176
     1
173
     0
176
     1
1001
ACAD
1000
AcDbSavedByObjectVersion
1070
     0
  0
VISUALSTYLE
  5
48E3
102
{ACAD_XDICTIONARY
360
4936
102
}
102
{ACAD_REACTORS
330
99
102
}
330
99
100
AcDbVisualStyle
  2
Wireframe
 70
     5
177
     2
291
     0
 71
     0
176
     1
 72
     2
176
     1
 73
     0
176
     1
 90
        0
176
     1
 40
0.6
176
     1
 41
30.0
176
     1
 63
     7
421
 16777215
176
     1
 74
     1
176
     1
 91
        4
176
     1
 64
     7
176
     1
 65
   257
176
     1
 75
     1
176
     1
175
     1
176
     1
 42
1.0
176
     1
 92
        0
176
     1
 66
   257
176
     1
 43
1.0
176
     1
 76
     1
176
     1
 77
     6
176
     1
 78
     2
176
     1
 67
     7
176
     1
 79
     3
176
     1
170
     0
176
     1
171
     0
176
     1
290
     0
176
     1
 93
        1
176
     1
 44
0.0
176
     1
173
     0
176
     1
1001
ACAD
1000
AcDbSavedByObjectVersion
1070
     0
  0
VISUALSTYLE
  5
48E7
102
{ACAD_XDICTIONARY
360
493E
102
}
102
{ACAD_REACTORS
330
99
102
}
330
99
100
AcDbVisualStyle
  2
X-Ray
 70
    25
177
     2
291
     0
 71
     2
176
     1
 72
     2
176
     1
 73
     1
176
     1
 90
        1
176
     1
 40
0.5
176
     1
 41
30.0
176
     1
 63
     7
421
 16777215
176
     1
 74
     1
176
     1
 91
        0
176
     1
 64
     7
176
     1
 65
   257
176
     1
 75
     1
176
     1
175
     1
176
     1
 42
1.0
176
     1
 92
        8
176
     1
 66
     7
176
     1
 43
1.0
176
     1
 76
     1
176
     1
 77
     6
176
     1
 78
     2
176
     1
 67
     7
176
     1
 79
     3
176
     1
170
     0
176
     1
171
     0
176
     1
290
     0
176
     1
 93
       13
176
     1
 44
0.0
176
     1
173
     0
176
     1
1001
ACAD
1000
AcDbSavedByObjectVersion
1070
     0
  0
DICTIONARYVAR
  5
3C12
102
{ACAD_REACTORS
330
66
102
}
330
66
100
DictionaryVariables
280
     0
  1
1:1
  0
DICTIONARYVAR
  5
3C11
102
{ACAD_REACTORS
330
66
102
}
330
66
100
DictionaryVariables
280
     0
  1
STANDARD
  0
DICTIONARYVAR
  5
89
102
{ACAD_REACTORS
330
66
102
}
330
66
100
DictionaryVariables
280
     0
  1
STANDARD
  0
DICTIONARYVAR
  5
48F4
102
{ACAD_REACTORS
330
66
102
}
330
66
100
DictionaryVariables
280
     0
  1
Imperial24
  0
DICTIONARYVAR
  5
48F5
102
{ACAD_REACTORS
330
66
102
}
330
66
100
DictionaryVariables
280
     0
  1
Imperial24
  0
DICTIONARYVAR
  5
67
102
{ACAD_REACTORS
330
66
102
}
330
66
100
DictionaryVariables
280
     0
  1
2
  0
DICTIONARYVAR
  5
6B
102
{ACAD_REACTORS
330
66
102
}
330
66
100
DictionaryVariables
280
     0
  1
1
  0
DICTIONARYVAR
  5
3B88
102
{ACAD_REACTORS
330
66
102
}
330
66
100
DictionaryVariables
280
     0
  1
0
  0
DICTIONARYVAR
  5
48F8
102
{ACAD_REACTORS
330
66
102
}
330
66
100
DictionaryVariables
280
     0
  1
1
  0
DICTIONARYVAR
  5
48F9
102
{ACAD_REACTORS
330
66
102
}
330
66
100
DictionaryVariables
280
     0
  1
15
  0
DICTIONARYVAR
  5
48F7
102
{ACAD_REACTORS
330
66
102
}
330
66
100
DictionaryVariables
280
     0
  1
0
  0
DICTIONARYVAR
  5
48F6
102
{ACAD_REACTORS
330
66
102
}
330
66
100
DictionaryVariables
280
     0
  1
0
  0
DICTIONARYVAR
  5
3B87
102
{ACAD_REACTORS
330
66
102
}
330
66
100
DictionaryVariables
280
     0
  1
127
  0
DICTIONARY
  5
4915
102
{ACAD_REACTORS
330
4913
102
}
330
4913
100
AcDbDictionary
281
     1
  0
DICTIONARY
  5
4914
102
{ACAD_REACTORS
330
4913
102
}
330
4913
100
AcDbDictionary
281
     1
  3
2785559756128
350
490E
  3
2785559756144
350
490F
  3
2785559756160
350
4910
  3
2785559756176
350
4911
  3
2785559756192
350
4912
  0
XRECORD
  5
4873
102
{ACAD_REACTORS
330
4871
102
}
330
4871
100
AcDbXrecord
280
     1
  1
te
  1
*AM_HID
  1
*
  1
*
 70
     0
  1
*
  1
*
1001
ACAD
1000
( NAME== "*AM_HID" )
  0
XRECORD
  5
4872
102
{ACAD_REACTORS
330
4870
102
}
330
4870
100
AcDbXrecord
280
     1
  1
AcLyLayerFilter
 90
        1
300
te
301
( NAME== "*AM_HID" )
  0
DICTIONARY
  5
494C
330
48F0
100
AcDbDictionary
280
     1
281
     1
  3
ACAD_XREC_ROUNDTRIP
360
494D
  0
DICTIONARY
  5
4789
330
59
100
AcDbDictionary
280
     1
281
     1
  0
DICTIONARY
  5
494A
330
48EE
100
AcDbDictionary
280
     1
281
     1
  3
ACAD_XREC_ROUNDTRIP
360
494B
  0
DICTIONARY
  5
3BE4
330
87
100
AcDbDictionary
280
     1
281
     1
  3
ACAD_ROUNDTRIP_2008_TABLESTYLE_CELLSTYLEMAP
360
490B
  0
DICTIONARY
  5
4920
330
9F
100
AcDbDictionary
280
     1
281
     1
  3
ACAD_XREC_ROUNDTRIP
360
4921
  0
DICTIONARY
  5
4924
330
A1
100
AcDbDictionary
280
     1
281
     1
  3
ACAD_XREC_ROUNDTRIP
360
4925
  0
DICTIONARY
  5
4922
330
A0
100
AcDbDictionary
280
     1
281
     1
  3
ACAD_XREC_ROUNDTRIP
360
4923
  0
DICTIONARY
  5
491E
330
9E
100
AcDbDictionary
280
     1
281
     1
  3
ACAD_XREC_ROUNDTRIP
360
491F
  0
DICTIONARY
  5
492C
330
A5
100
AcDbDictionary
280
     1
281
     1
  3
ACAD_XREC_ROUNDTRIP
360
492D
  0
DICTIONARY
  5
4934
330
A9
100
AcDbDictionary
280
     1
281
     1
  3
ACAD_XREC_ROUNDTRIP
360
4935
  0
DICTIONARY
  5
4926
330
A2
100
AcDbDictionary
280
     1
281
     1
  3
ACAD_XREC_ROUNDTRIP
360
4927
  0
DICTIONARY
  5
492A
330
A4
100
AcDbDictionary
280
     1
281
     1
  3
ACAD_XREC_ROUNDTRIP
360
492B
  0
DICTIONARY
  5
4948
330
48EC
100
AcDbDictionary
280
     1
281
     1
  3
ACAD_XREC_ROUNDTRIP
360
4949
  0
DICTIONARY
  5
4932
330
A8
100
AcDbDictionary
280
     1
281
     1
  3
ACAD_XREC_ROUNDTRIP
360
4933
  0
DICTIONARY
  5
4916
330
9A
100
AcDbDictionary
280
     1
281
     1
  3
ACAD_XREC_ROUNDTRIP
360
4917
  0
DICTIONARY
  5
4918
330
9B
100
AcDbDictionary
280
     1
281
     1
  3
ACAD_XREC_ROUNDTRIP
360
4919
  0
DICTIONARY
  5
491A
330
9C
100
AcDbDictionary
280
     1
281
     1
  3
ACAD_XREC_ROUNDTRIP
360
491B
  0
DICTIONARY
  5
491C
330
9D
100
AcDbDictionary
280
     1
281
     1
  3
ACAD_XREC_ROUNDTRIP
360
491D
  0
DICTIONARY
  5
4938
330
48E4
100
AcDbDictionary
280
     1
281
     1
  3
ACAD_XREC_ROUNDTRIP
360
4939
  0
DICTIONARY
  5
4944
330
48EA
100
AcDbDictionary
280
     1
281
     1
  3
ACAD_XREC_ROUNDTRIP
360
4945
  0
DICTIONARY
  5
4930
330
A7
100
AcDbDictionary
280
     1
281
     1
  3
ACAD_XREC_ROUNDTRIP
360
4931
  0
DICTIONARY
  5
4946
330
48EB
100
AcDbDictionary
280
     1
281
     1
  3
ACAD_XREC_ROUNDTRIP
360
4947
  0
DICTIONARY
  5
4928
330
A3
100
AcDbDictionary
280
     1
281
     1
  3
ACAD_XREC_ROUNDTRIP
360
4929
  0
DICTIONARY
  5
4942
330
48E9
100
AcDbDictionary
280
     1
281
     1
  3
ACAD_XREC_ROUNDTRIP
360
4943
  0
DICTIONARY
  5
4940
330
48E8
100
AcDbDictionary
280
     1
281
     1
  3
ACAD_XREC_ROUNDTRIP
360
4941
  0
DICTIONARY
  5
493A
330
48E5
100
AcDbDictionary
280
     1
281
     1
  3
ACAD_XREC_ROUNDTRIP
360
493B
  0
DICTIONARY
  5
493C
330
48E6
100
AcDbDictionary
280
     1
281
     1
  3
ACAD_XREC_ROUNDTRIP
360
493D
  0
DICTIONARY
  5
492E
330
A6
100
AcDbDictionary
280
     1
281
     1
  3
ACAD_XREC_ROUNDTRIP
360
492F
  0
DICTIONARY
  5
4936
330
48E3
100
AcDbDictionary
280
     1
281
     1
  3
ACAD_XREC_ROUNDTRIP
360
4937
  0
DICTIONARY
  5
493E
330
48E7
100
AcDbDictionary
280
     1
281
     1
  3
ACAD_XREC_ROUNDTRIP
360
493F
  0
XRECORD
  5
490E
102
{ACAD_REACTORS
330
4914
102
}
330
4914
100
AcDbXrecord
280
     1
  1
AcDb_Thumbnail_Schema
102
{ATTRRECORD
341
490F
  2
AcDbDs::TreatedAsObjectData
280
     1
291
     1
102
ATTRRECORD}
102
{ATTRRECORD
341
4910
  2
AcDbDs::Legacy
280
     1
291
     1
102
ATTRRECORD}
  2
AcDbDs::ID
280
    10
 91
        8
102
{ATTRRECORD
341
4911
  2
AcDs:Indexable
280
     1
291
     1
102
ATTRRECORD}
102
{ATTRRECORD
341
4912
  2
AcDbDs::HandleAttribute
280
     7
282
     1
102
ATTRRECORD}
  2
Thumbnail_Data
280
    15
 91
        0
  0
XRECORD
  5
490F
102
{ACAD_REACTORS
330
4914
102
}
330
4914
100
AcDbXrecord
280
     1
  1
AcDbDs::TreatedAsObjectDataSchema
  2
AcDbDs::TreatedAsObjectData
280
     1
 91
        0
  0
XRECORD
  5
4910
102
{ACAD_REACTORS
330
4914
102
}
330
4914
100
AcDbXrecord
280
     1
  1
AcDbDs::LegacySchema
  2
AcDbDs::Legacy
280
     1
 91
        0
  0
XRECORD
  5
4911
102
{ACAD_REACTORS
330
4914
102
}
330
4914
100
AcDbXrecord
280
     1
  1
AcDbDs::IndexedPropertySchema
  2
AcDs:Indexable
280
     1
 91
        0
  0
XRECORD
  5
4912
102
{ACAD_REACTORS
330
4914
102
}
330
4914
100
AcDbXrecord
280
     1
  1
AcDbDs::HandleAttributeSchema
  2
AcDbDs::HandleAttribute
280
     7
 91
        1
284
     1
  0
XRECORD
  5
494D
102
{ACAD_REACTORS
330
494C
102
}
330
494C
100
AcDbXrecord
280
     1
102
DISPLAYNAME
  1
Imperial24
102
FLAGS
 90
        0
  0
XRECORD
  5
494B
102
{ACAD_REACTORS
330
494A
102
}
330
494A
100
AcDbXrecord
280
     1
102
DISPLAYNAME
  1
Imperial24
102
FLAGS
 90
        0
  0
CELLSTYLEMAP
  5
490B
102
{ACAD_REACTORS
330
3BE4
102
}
330
3BE4
100
AcDbCellStyleMap
 90
        3
300
CELLSTYLE
  1
TABLEFORMAT_BEGIN
 90
        5
170
     1
 91
        0
 92
    32768
 62
   257
 93
        1
300
CONTENTFORMAT
  1
CONTENTFORMAT_BEGIN
 90
        0
 91
        0
 92
      512
 93
        0
300

 40
0.0
140
1.0
 94
        5
 62
     0
340
11
144
0.25
309
CONTENTFORMAT_END
171
     1
301
MARGIN
  1
CELLMARGIN_BEGIN
 40
0.06
 40
0.06
 40
0.06
 40
0.06
 40
0.18
 40
0.18
309
CELLMARGIN_END
 94
        6
 95
        1
302
GRIDFORMAT
  1
GRIDFORMAT_BEGIN
 90
        0
 91
        1
 62
     0
 92
       -2
340
0
 93
        0
 40
0.045
309
GRIDFORMAT_END
 95
        2
302
GRIDFORMAT
  1
GRIDFORMAT_BEGIN
 90
        0
 91
        1
 62
     0
 92
       -2
340
0
 93
        0
 40
0.045
309
GRIDFORMAT_END
 95
        4
302
GRIDFORMAT
  1
GRIDFORMAT_BEGIN
 90
        0
 91
        1
 62
     0
 92
       -2
340
0
 93
        0
 40
0.045
309
GRIDFORMAT_END
 95
        8
302
GRIDFORMAT
  1
GRIDFORMAT_BEGIN
 90
        0
 91
        1
 62
     0
 92
       -2
340
0
 93
        0
 40
0.045
309
GRIDFORMAT_END
 95
       16
302
GRIDFORMAT
  1
GRIDFORMAT_BEGIN
 90
        0
 91
        1
 62
     0
 92
       -2
340
0
 93
        0
 40
0.045
309
GRIDFORMAT_END
 95
       32
302
GRIDFORMAT
  1
GRIDFORMAT_BEGIN
 90
        0
 91
        1
 62
     0
 92
       -2
340
0
 93
        0
 40
0.045
309
GRIDFORMAT_END
309
TABLEFORMAT_END
  1
CELLSTYLE_BEGIN
 90
        1
 91
        1
300
_TITLE
309
CELLSTYLE_END
300
CELLSTYLE
  1
TABLEFORMAT_BEGIN
 90
        5
170
     1
 91
        0
 92
        0
 62
   257
 93
        1
300
CONTENTFORMAT
  1
CONTENTFORMAT_BEGIN
 90
        0
 91
        0
 92
      512
 93
        0
300

 40
0.0
140
1.0
 94
        5
 62
     0
340
11
144
0.18
309
CONTENTFORMAT_END
171
     1
301
MARGIN
  1
CELLMARGIN_BEGIN
 40
0.06
 40
0.06
 40
0.06
 40
0.06
 40
0.18
 40
0.18
309
CELLMARGIN_END
 94
        6
 95
        1
302
GRIDFORMAT
  1
GRIDFORMAT_BEGIN
 90
        0
 91
        1
 62
     0
 92
       -2
340
0
 93
        0
 40
0.045
309
GRIDFORMAT_END
 95
        2
302
GRIDFORMAT
  1
GRIDFORMAT_BEGIN
 90
        0
 91
        1
 62
     0
 92
       -2
340
0
 93
        0
 40
0.045
309
GRIDFORMAT_END
 95
        4
302
GRIDFORMAT
  1
GRIDFORMAT_BEGIN
 90
        0
 91
        1
 62
     0
 92
       -2
340
0
 93
        0
 40
0.045
309
GRIDFORMAT_END
 95
        8
302
GRIDFORMAT
  1
GRIDFORMAT_BEGIN
 90
        0
 91
        1
 62
     0
 92
       -2
340
0
 93
        0
 40
0.045
309
GRIDFORMAT_END
 95
       16
302
GRIDFORMAT
  1
GRIDFORMAT_BEGIN
 90
        0
 91
        1
 62
     0
 92
       -2
340
0
 93
        0
 40
0.045
309
GRIDFORMAT_END
 95
       32
302
GRIDFORMAT
  1
GRIDFORMAT_BEGIN
 90
        0
 91
        1
 62
     0
 92
       -2
340
0
 93
        0
 40
0.045
309
GRIDFORMAT_END
309
TABLEFORMAT_END
  1
CELLSTYLE_BEGIN
 90
        2
 91
        1
300
_HEADER
309
CELLSTYLE_END
300
CELLSTYLE
  1
TABLEFORMAT_BEGIN
 90
        5
170
     1
 91
        0
 92
        0
 62
   257
 93
        1
300
CONTENTFORMAT
  1
CONTENTFORMAT_BEGIN
 90
        0
 91
        0
 92
      512
 93
        0
300

 40
0.0
140
1.0
 94
        2
 62
     0
340
11
144
0.18
309
CONTENTFORMAT_END
171
     1
301
MARGIN
  1
CELLMARGIN_BEGIN
 40
0.06
 40
0.06
 40
0.06
 40
0.06
 40
0.18
 40
0.18
309
CELLMARGIN_END
 94
        6
 95
        1
302
GRIDFORMAT
  1
GRIDFORMAT_BEGIN
 90
        0
 91
        1
 62
     0
 92
       -2
340
0
 93
        0
 40
0.045
309
GRIDFORMAT_END
 95
        2
302
GRIDFORMAT
  1
GRIDFORMAT_BEGIN
 90
        0
 91
        1
 62
     0
 92
       -2
340
0
 93
        0
 40
0.045
309
GRIDFORMAT_END
 95
        4
302
GRIDFORMAT
  1
GRIDFORMAT_BEGIN
 90
        0
 91
        1
 62
     0
 92
       -2
340
0
 93
        0
 40
0.045
309
GRIDFORMAT_END
 95
        8
302
GRIDFORMAT
  1
GRIDFORMAT_BEGIN
 90
        0
 91
        1
 62
     0
 92
       -2
340
0
 93
        0
 40
0.045
309
GRIDFORMAT_END
 95
       16
302
GRIDFORMAT
  1
GRIDFORMAT_BEGIN
 90
        0
 91
        1
 62
     0
 92
       -2
340
0
 93
        0
 40
0.045
309
GRIDFORMAT_END
 95
       32
302
GRIDFORMAT
  1
GRIDFORMAT_BEGIN
 90
        0
 91
        1
 62
     0
 92
       -2
340
0
 93
        0
 40
0.045
309
GRIDFORMAT_END
309
TABLEFORMAT_END
  1
CELLSTYLE_BEGIN
 90
        3
 91
        2
300
_DATA
309
CELLSTYLE_END
  0
XRECORD
  5
4921
102
{ACAD_REACTORS
330
4920
102
}
330
4920
100
AcDbXrecord
280
     1
102
RTVSPost2010Prop28
280
     1
102
RTVSPost2010PropOp28
 70
     1
102
RTVSPost2010Prop29
280
     1
102
RTVSPost2010PropOp29
 70
     1
102
RTVSPost2010Prop30
280
     0
102
RTVSPost2010PropOp30
 70
     1
102
RTVSPost2010Prop31
280
     0
102
RTVSPost2010PropOp31
 70
     1
102
RTVSPost2010Prop32
280
     0
102
RTVSPost2010PropOp32
 70
     1
102
RTVSPost2010Prop33
280
     0
102
RTVSPost2010PropOp33
 70
     1
102
RTVSPost2010Prop34
280
     0
102
RTVSPost2010PropOp34
 70
     1
102
RTVSPost2010Prop35
280
     0
102
RTVSPost2010PropOp35
 70
     1
102
RTVSPost2010Prop36
280
     0
102
RTVSPost2010PropOp36
 70
     1
102
RTVSPost2010Prop37
 90
       50
102
RTVSPost2010PropOp37
 70
     1
102
RTVSPost2010Prop38
140
0.0
102
RTVSPost2010PropOp38
 70
     1
102
RTVSPost2010Prop39
140
1.0
102
RTVSPost2010PropOp39
 70
     1
102
RTVSPost2010Prop40
 90
        0
102
RTVSPost2010PropOp40
 70
     1
102
RTVSPost2010Prop41ColorIndex
 90
       18
102
RTVSPost2010Prop41ColorRGB
 90
-16777216
102
RTVSPost2010PropOp41
 70
     1
102
RTVSPost2010Prop42
 90
       50
102
RTVSPost2010PropOp42
 70
     1
102
RTVSPost2010Prop43
 90
        3
102
RTVSPost2010PropOp43
 70
     1
102
RTVSPost2010Prop44ColorIndex
 90
        5
102
RTVSPost2010Prop44ColorRGB
 90
      255
102
RTVSPost2010PropOp44
 70
     1
102
RTVSPost2010Prop45
280
     0
102
RTVSPost2010PropOp45
 70
     1
102
RTVSPost2010Prop46
 90
       50
102
RTVSPost2010PropOp46
 70
     1
102
RTVSPost2010Prop47
 90
       50
102
RTVSPost2010PropOp47
 70
     1
102
RTVSPost2010Prop48
 90
       50
102
RTVSPost2010PropOp48
 70
     1
102
RTVSPost2010Prop49
280
     0
102
RTVSPost2010PropOp49
 70
     1
102
RTVSPost2010Prop50
 90
       50
102
RTVSPost2010PropOp50
 70
     1
102
RTVSPost2010Prop51ColorIndex
 90
      256
102
RTVSPost2010Prop51ColorRGB
 90
-16777216
102
RTVSPost2010PropOp51
 70
     0
102
RTVSPost2010Prop52
140
1.0
102
RTVSPost2010PropOp52
 70
     0
102
RTVSPost2010Prop53
 90
        2
102
RTVSPost2010PropOp53
 70
     1
102
RTVSPost2010Prop54
  1
strokes_ogs.tif
102
RTVSPost2010PropOp54
 70
     1
102
RTVSPost2010Prop55
280
     0
102
RTVSPost2010PropOp55
 70
     1
102
RTVSPost2010Prop56
140
1.0
102
RTVSPost2010PropOp56
 70
     1
102
RTVSPost2010Prop57
140
1.0
102
RTVSPost2010PropOp57
 70
     1
  0
XRECORD
  5
4925
102
{ACAD_REACTORS
330
4924
102
}
330
4924
100
AcDbXrecord
280
     1
102
RTVSPost2010Prop28
280
     0
102
RTVSPost2010PropOp28
 70
     1
102
RTVSPost2010Prop29
280
     1
102
RTVSPost2010PropOp29
 70
     1
102
RTVSPost2010Prop30
280
     1
102
RTVSPost2010PropOp30
 70
     1
102
RTVSPost2010Prop31
280
     0
102
RTVSPost2010PropOp31
 70
     1
102
RTVSPost2010Prop32
280
     0
102
RTVSPost2010PropOp32
 70
     1
102
RTVSPost2010Prop33
280
     0
102
RTVSPost2010PropOp33
 70
     1
102
RTVSPost2010Prop34
280
     0
102
RTVSPost2010PropOp34
 70
     1
102
RTVSPost2010Prop35
280
     0
102
RTVSPost2010PropOp35
 70
     1
102
RTVSPost2010Prop36
280
     0
102
RTVSPost2010PropOp36
 70
     1
102
RTVSPost2010Prop37
 90
       50
102
RTVSPost2010PropOp37
 70
     1
102
RTVSPost2010Prop38
140
0.0
102
RTVSPost2010PropOp38
 70
     1
102
RTVSPost2010Prop39
140
1.0
102
RTVSPost2010PropOp39
 70
     1
102
RTVSPost2010Prop40
 90
        0
102
RTVSPost2010PropOp40
 70
     1
102
RTVSPost2010Prop41ColorIndex
 90
       18
102
RTVSPost2010Prop41ColorRGB
 90
-16777216
102
RTVSPost2010PropOp41
 70
     1
102
RTVSPost2010Prop42
 90
       50
102
RTVSPost2010PropOp42
 70
     1
102
RTVSPost2010Prop43
 90
        3
102
RTVSPost2010PropOp43
 70
     1
102
RTVSPost2010Prop44ColorIndex
 90
        5
102
RTVSPost2010Prop44ColorRGB
 90
      255
102
RTVSPost2010PropOp44
 70
     1
102
RTVSPost2010Prop45
280
     0
102
RTVSPost2010PropOp45
 70
     1
102
RTVSPost2010Prop46
 90
       50
102
RTVSPost2010PropOp46
 70
     1
102
RTVSPost2010Prop47
 90
       50
102
RTVSPost2010PropOp47
 70
     1
102
RTVSPost2010Prop48
 90
       50
102
RTVSPost2010PropOp48
 70
     1
102
RTVSPost2010Prop49
280
     0
102
RTVSPost2010PropOp49
 70
     1
102
RTVSPost2010Prop50
 90
       50
102
RTVSPost2010PropOp50
 70
     1
102
RTVSPost2010Prop51ColorIndex
 90
      256
102
RTVSPost2010Prop51ColorRGB
 90
-16777216
102
RTVSPost2010PropOp51
 70
     0
102
RTVSPost2010Prop52
140
1.0
102
RTVSPost2010PropOp52
 70
     0
102
RTVSPost2010Prop53
 90
        2
102
RTVSPost2010PropOp53
 70
     1
102
RTVSPost2010Prop54
  1
strokes_ogs.tif
102
RTVSPost2010PropOp54
 70
     1
102
RTVSPost2010Prop55
280
     0
102
RTVSPost2010PropOp55
 70
     1
102
RTVSPost2010Prop56
140
1.0
102
RTVSPost2010PropOp56
 70
     1
102
RTVSPost2010Prop57
140
1.0
102
RTVSPost2010PropOp57
 70
     1
  0
XRECORD
  5
4923
102
{ACAD_REACTORS
330
4922
102
}
330
4922
100
AcDbXrecord
280
     1
102
RTVSPost2010Prop28
280
     0
102
RTVSPost2010PropOp28
 70
     1
102
RTVSPost2010Prop29
280
     1
102
RTVSPost2010PropOp29
 70
     1
102
RTVSPost2010Prop30
280
     1
102
RTVSPost2010PropOp30
 70
     1
102
RTVSPost2010Prop31
280
     0
102
RTVSPost2010PropOp31
 70
     1
102
RTVSPost2010Prop32
280
     0
102
RTVSPost2010PropOp32
 70
     1
102
RTVSPost2010Prop33
280
     0
102
RTVSPost2010PropOp33
 70
     1
102
RTVSPost2010Prop34
280
     0
102
RTVSPost2010PropOp34
 70
     1
102
RTVSPost2010Prop35
280
     0
102
RTVSPost2010PropOp35
 70
     1
102
RTVSPost2010Prop36
280
     0
102
RTVSPost2010PropOp36
 70
     1
102
RTVSPost2010Prop37
 90
       50
102
RTVSPost2010PropOp37
 70
     1
102
RTVSPost2010Prop38
140
0.0
102
RTVSPost2010PropOp38
 70
     1
102
RTVSPost2010Prop39
140
1.0
102
RTVSPost2010PropOp39
 70
     1
102
RTVSPost2010Prop40
 90
        0
102
RTVSPost2010PropOp40
 70
     1
102
RTVSPost2010Prop41ColorIndex
 90
       18
102
RTVSPost2010Prop41ColorRGB
 90
-16777216
102
RTVSPost2010PropOp41
 70
     1
102
RTVSPost2010Prop42
 90
       50
102
RTVSPost2010PropOp42
 70
     1
102
RTVSPost2010Prop43
 90
        3
102
RTVSPost2010PropOp43
 70
     1
102
RTVSPost2010Prop44ColorIndex
 90
        5
102
RTVSPost2010Prop44ColorRGB
 90
      255
102
RTVSPost2010PropOp44
 70
     1
102
RTVSPost2010Prop45
280
     0
102
RTVSPost2010PropOp45
 70
     1
102
RTVSPost2010Prop46
 90
       50
102
RTVSPost2010PropOp46
 70
     1
102
RTVSPost2010Prop47
 90
       50
102
RTVSPost2010PropOp47
 70
     1
102
RTVSPost2010Prop48
 90
       50
102
RTVSPost2010PropOp48
 70
     1
102
RTVSPost2010Prop49
280
     0
102
RTVSPost2010PropOp49
 70
     1
102
RTVSPost2010Prop50
 90
       50
102
RTVSPost2010PropOp50
 70
     1
102
RTVSPost2010Prop51ColorIndex
 90
      256
102
RTVSPost2010Prop51ColorRGB
 90
-16777216
102
RTVSPost2010PropOp51
 70
     0
102
RTVSPost2010Prop52
140
1.0
102
RTVSPost2010PropOp52
 70
     0
102
RTVSPost2010Prop53
 90
        2
102
RTVSPost2010PropOp53
 70
     1
102
RTVSPost2010Prop54
  1
strokes_ogs.tif
102
RTVSPost2010PropOp54
 70
     1
102
RTVSPost2010Prop55
280
     0
102
RTVSPost2010PropOp55
 70
     1
102
RTVSPost2010Prop56
140
1.0
102
RTVSPost2010PropOp56
 70
     1
102
RTVSPost2010Prop57
140
1.0
102
RTVSPost2010PropOp57
 70
     1
  0
XRECORD
  5
491F
102
{ACAD_REACTORS
330
491E
102
}
330
491E
100
AcDbXrecord
280
     1
102
RTVSPost2010Prop28
280
     0
102
RTVSPost2010PropOp28
 70
     1
102
RTVSPost2010Prop29
280
     1
102
RTVSPost2010PropOp29
 70
     1
102
RTVSPost2010Prop30
280
     1
102
RTVSPost2010PropOp30
 70
     1
102
RTVSPost2010Prop31
280
     0
102
RTVSPost2010PropOp31
 70
     1
102
RTVSPost2010Prop32
280
     0
102
RTVSPost2010PropOp32
 70
     1
102
RTVSPost2010Prop33
280
     0
102
RTVSPost2010PropOp33
 70
     1
102
RTVSPost2010Prop34
280
     0
102
RTVSPost2010PropOp34
 70
     1
102
RTVSPost2010Prop35
280
     0
102
RTVSPost2010PropOp35
 70
     1
102
RTVSPost2010Prop36
280
     0
102
RTVSPost2010PropOp36
 70
     1
102
RTVSPost2010Prop37
 90
       50
102
RTVSPost2010PropOp37
 70
     1
102
RTVSPost2010Prop38
140
0.0
102
RTVSPost2010PropOp38
 70
     1
102
RTVSPost2010Prop39
140
1.0
102
RTVSPost2010PropOp39
 70
     1
102
RTVSPost2010Prop40
 90
        0
102
RTVSPost2010PropOp40
 70
     1
102
RTVSPost2010Prop41ColorIndex
 90
       18
102
RTVSPost2010Prop41ColorRGB
 90
-16777216
102
RTVSPost2010PropOp41
 70
     1
102
RTVSPost2010Prop42
 90
       50
102
RTVSPost2010PropOp42
 70
     1
102
RTVSPost2010Prop43
 90
        3
102
RTVSPost2010PropOp43
 70
     1
102
RTVSPost2010Prop44ColorIndex
 90
        5
102
RTVSPost2010Prop44ColorRGB
 90
      255
102
RTVSPost2010PropOp44
 70
     1
102
RTVSPost2010Prop45
280
     0
102
RTVSPost2010PropOp45
 70
     1
102
RTVSPost2010Prop46
 90
       50
102
RTVSPost2010PropOp46
 70
     1
102
RTVSPost2010Prop47
 90
       50
102
RTVSPost2010PropOp47
 70
     1
102
RTVSPost2010Prop48
 90
       50
102
RTVSPost2010PropOp48
 70
     1
102
RTVSPost2010Prop49
280
     0
102
RTVSPost2010PropOp49
 70
     1
102
RTVSPost2010Prop50
 90
       50
102
RTVSPost2010PropOp50
 70
     1
102
RTVSPost2010Prop51ColorIndex
 90
      256
102
RTVSPost2010Prop51ColorRGB
 90
-16777216
102
RTVSPost2010PropOp51
 70
     0
102
RTVSPost2010Prop52
140
1.0
102
RTVSPost2010PropOp52
 70
     0
102
RTVSPost2010Prop53
 90
        2
102
RTVSPost2010PropOp53
 70
     1
102
RTVSPost2010Prop54
  1
strokes_ogs.tif
102
RTVSPost2010PropOp54
 70
     1
102
RTVSPost2010Prop55
280
     0
102
RTVSPost2010PropOp55
 70
     1
102
RTVSPost2010Prop56
140
1.0
102
RTVSPost2010PropOp56
 70
     1
102
RTVSPost2010Prop57
140
1.0
102
RTVSPost2010PropOp57
 70
     1
  0
XRECORD
  5
492D
102
{ACAD_REACTORS
330
492C
102
}
330
492C
100
AcDbXrecord
280
     1
102
RTVSPost2010Prop28
280
     0
102
RTVSPost2010PropOp28
 70
     1
102
RTVSPost2010Prop29
280
     1
102
RTVSPost2010PropOp29
 70
     1
102
RTVSPost2010Prop30
280
     1
102
RTVSPost2010PropOp30
 70
     1
102
RTVSPost2010Prop31
280
     0
102
RTVSPost2010PropOp31
 70
     1
102
RTVSPost2010Prop32
280
     0
102
RTVSPost2010PropOp32
 70
     1
102
RTVSPost2010Prop33
280
     0
102
RTVSPost2010PropOp33
 70
     1
102
RTVSPost2010Prop34
280
     0
102
RTVSPost2010PropOp34
 70
     1
102
RTVSPost2010Prop35
280
     0
102
RTVSPost2010PropOp35
 70
     1
102
RTVSPost2010Prop36
280
     0
102
RTVSPost2010PropOp36
 70
     1
102
RTVSPost2010Prop37
 90
       50
102
RTVSPost2010PropOp37
 70
     1
102
RTVSPost2010Prop38
140
0.0
102
RTVSPost2010PropOp38
 70
     1
102
RTVSPost2010Prop39
140
1.0
102
RTVSPost2010PropOp39
 70
     1
102
RTVSPost2010Prop40
 90
        0
102
RTVSPost2010PropOp40
 70
     1
102
RTVSPost2010Prop41ColorIndex
 90
       18
102
RTVSPost2010Prop41ColorRGB
 90
-16777216
102
RTVSPost2010PropOp41
 70
     1
102
RTVSPost2010Prop42
 90
       50
102
RTVSPost2010PropOp42
 70
     1
102
RTVSPost2010Prop43
 90
        3
102
RTVSPost2010PropOp43
 70
     1
102
RTVSPost2010Prop44ColorIndex
 90
        5
102
RTVSPost2010Prop44ColorRGB
 90
      255
102
RTVSPost2010PropOp44
 70
     1
102
RTVSPost2010Prop45
280
     0
102
RTVSPost2010PropOp45
 70
     1
102
RTVSPost2010Prop46
 90
       50
102
RTVSPost2010PropOp46
 70
     1
102
RTVSPost2010Prop47
 90
       50
102
RTVSPost2010PropOp47
 70
     1
102
RTVSPost2010Prop48
 90
       50
102
RTVSPost2010PropOp48
 70
     1
102
RTVSPost2010Prop49
280
     0
102
RTVSPost2010PropOp49
 70
     1
102
RTVSPost2010Prop50
 90
       50
102
RTVSPost2010PropOp50
 70
     1
102
RTVSPost2010Prop51ColorIndex
 90
      256
102
RTVSPost2010Prop51ColorRGB
 90
-16777216
102
RTVSPost2010PropOp51
 70
     0
102
RTVSPost2010Prop52
140
1.0
102
RTVSPost2010PropOp52
 70
     0
102
RTVSPost2010Prop53
 90
        2
102
RTVSPost2010PropOp53
 70
     1
102
RTVSPost2010Prop54
  1
strokes_ogs.tif
102
RTVSPost2010PropOp54
 70
     1
102
RTVSPost2010Prop55
280
     0
102
RTVSPost2010PropOp55
 70
     1
102
RTVSPost2010Prop56
140
1.0
102
RTVSPost2010PropOp56
 70
     1
102
RTVSPost2010Prop57
140
1.0
102
RTVSPost2010PropOp57
 70
     1
  0
XRECORD
  5
4935
102
{ACAD_REACTORS
330
4934
102
}
330
4934
100
AcDbXrecord
280
     1
102
RTVSPost2010Prop28
280
     0
102
RTVSPost2010PropOp28
 70
     1
102
RTVSPost2010Prop29
280
     1
102
RTVSPost2010PropOp29
 70
     1
102
RTVSPost2010Prop30
280
     1
102
RTVSPost2010PropOp30
 70
     1
102
RTVSPost2010Prop31
280
     0
102
RTVSPost2010PropOp31
 70
     1
102
RTVSPost2010Prop32
280
     0
102
RTVSPost2010PropOp32
 70
     1
102
RTVSPost2010Prop33
280
     0
102
RTVSPost2010PropOp33
 70
     1
102
RTVSPost2010Prop34
280
     0
102
RTVSPost2010PropOp34
 70
     1
102
RTVSPost2010Prop35
280
     0
102
RTVSPost2010PropOp35
 70
     1
102
RTVSPost2010Prop36
280
     0
102
RTVSPost2010PropOp36
 70
     1
102
RTVSPost2010Prop37
 90
       50
102
RTVSPost2010PropOp37
 70
     1
102
RTVSPost2010Prop38
140
0.0
102
RTVSPost2010PropOp38
 70
     1
102
RTVSPost2010Prop39
140
1.0
102
RTVSPost2010PropOp39
 70
     1
102
RTVSPost2010Prop40
 90
        0
102
RTVSPost2010PropOp40
 70
     1
102
RTVSPost2010Prop41ColorIndex
 90
       18
102
RTVSPost2010Prop41ColorRGB
 90
-16777216
102
RTVSPost2010PropOp41
 70
     1
102
RTVSPost2010Prop42
 90
       50
102
RTVSPost2010PropOp42
 70
     1
102
RTVSPost2010Prop43
 90
        3
102
RTVSPost2010PropOp43
 70
     1
102
RTVSPost2010Prop44ColorIndex
 90
        5
102
RTVSPost2010Prop44ColorRGB
 90
      255
102
RTVSPost2010PropOp44
 70
     1
102
RTVSPost2010Prop45
280
     0
102
RTVSPost2010PropOp45
 70
     1
102
RTVSPost2010Prop46
 90
       50
102
RTVSPost2010PropOp46
 70
     1
102
RTVSPost2010Prop47
 90
       50
102
RTVSPost2010PropOp47
 70
     1
102
RTVSPost2010Prop48
 90
       50
102
RTVSPost2010PropOp48
 70
     1
102
RTVSPost2010Prop49
280
     0
102
RTVSPost2010PropOp49
 70
     1
102
RTVSPost2010Prop50
 90
       50
102
RTVSPost2010PropOp50
 70
     1
102
RTVSPost2010Prop51ColorIndex
 90
      256
102
RTVSPost2010Prop51ColorRGB
 90
-16777216
102
RTVSPost2010PropOp51
 70
     0
102
RTVSPost2010Prop52
140
1.0
102
RTVSPost2010PropOp52
 70
     0
102
RTVSPost2010Prop53
 90
        2
102
RTVSPost2010PropOp53
 70
     1
102
RTVSPost2010Prop54
  1
strokes_ogs.tif
102
RTVSPost2010PropOp54
 70
     1
102
RTVSPost2010Prop55
280
     0
102
RTVSPost2010PropOp55
 70
     1
102
RTVSPost2010Prop56
140
1.0
102
RTVSPost2010PropOp56
 70
     1
102
RTVSPost2010Prop57
140
1.0
102
RTVSPost2010PropOp57
 70
     1
  0
XRECORD
  5
4927
102
{ACAD_REACTORS
330
4926
102
}
330
4926
100
AcDbXrecord
280
     1
102
RTVSPost2010Prop28
280
     0
102
RTVSPost2010PropOp28
 70
     1
102
RTVSPost2010Prop29
280
     1
102
RTVSPost2010PropOp29
 70
     1
102
RTVSPost2010Prop30
280
     1
102
RTVSPost2010PropOp30
 70
     1
102
RTVSPost2010Prop31
280
     0
102
RTVSPost2010PropOp31
 70
     1
102
RTVSPost2010Prop32
280
     0
102
RTVSPost2010PropOp32
 70
     1
102
RTVSPost2010Prop33
280
     0
102
RTVSPost2010PropOp33
 70
     1
102
RTVSPost2010Prop34
280
     0
102
RTVSPost2010PropOp34
 70
     1
102
RTVSPost2010Prop35
280
     0
102
RTVSPost2010PropOp35
 70
     1
102
RTVSPost2010Prop36
280
     0
102
RTVSPost2010PropOp36
 70
     1
102
RTVSPost2010Prop37
 90
       50
102
RTVSPost2010PropOp37
 70
     1
102
RTVSPost2010Prop38
140
0.0
102
RTVSPost2010PropOp38
 70
     1
102
RTVSPost2010Prop39
140
1.0
102
RTVSPost2010PropOp39
 70
     1
102
RTVSPost2010Prop40
 90
        0
102
RTVSPost2010PropOp40
 70
     1
102
RTVSPost2010Prop41ColorIndex
 90
       18
102
RTVSPost2010Prop41ColorRGB
 90
-16777216
102
RTVSPost2010PropOp41
 70
     1
102
RTVSPost2010Prop42
 90
       50
102
RTVSPost2010PropOp42
 70
     1
102
RTVSPost2010Prop43
 90
        3
102
RTVSPost2010PropOp43
 70
     1
102
RTVSPost2010Prop44ColorIndex
 90
        5
102
RTVSPost2010Prop44ColorRGB
 90
      255
102
RTVSPost2010PropOp44
 70
     1
102
RTVSPost2010Prop45
280
     0
102
RTVSPost2010PropOp45
 70
     1
102
RTVSPost2010Prop46
 90
       50
102
RTVSPost2010PropOp46
 70
     1
102
RTVSPost2010Prop47
 90
       50
102
RTVSPost2010PropOp47
 70
     1
102
RTVSPost2010Prop48
 90
       50
102
RTVSPost2010PropOp48
 70
     1
102
RTVSPost2010Prop49
280
     0
102
RTVSPost2010PropOp49
 70
     1
102
RTVSPost2010Prop50
 90
       50
102
RTVSPost2010PropOp50
 70
     1
102
RTVSPost2010Prop51ColorIndex
 90
      256
102
RTVSPost2010Prop51ColorRGB
 90
-16777216
102
RTVSPost2010PropOp51
 70
     0
102
RTVSPost2010Prop52
140
1.0
102
RTVSPost2010PropOp52
 70
     0
102
RTVSPost2010Prop53
 90
        2
102
RTVSPost2010PropOp53
 70
     1
102
RTVSPost2010Prop54
  1
strokes_ogs.tif
102
RTVSPost2010PropOp54
 70
     1
102
RTVSPost2010Prop55
280
     0
102
RTVSPost2010PropOp55
 70
     1
102
RTVSPost2010Prop56
140
1.0
102
RTVSPost2010PropOp56
 70
     1
102
RTVSPost2010Prop57
140
1.0
102
RTVSPost2010PropOp57
 70
     1
  0
XRECORD
  5
492B
102
{ACAD_REACTORS
330
492A
102
}
330
492A
100
AcDbXrecord
280
     1
102
RTVSPost2010Prop28
280
     0
102
RTVSPost2010PropOp28
 70
     1
102
RTVSPost2010Prop29
280
     1
102
RTVSPost2010PropOp29
 70
     1
102
RTVSPost2010Prop30
280
     1
102
RTVSPost2010PropOp30
 70
     1
102
RTVSPost2010Prop31
280
     0
102
RTVSPost2010PropOp31
 70
     1
102
RTVSPost2010Prop32
280
     0
102
RTVSPost2010PropOp32
 70
     1
102
RTVSPost2010Prop33
280
     0
102
RTVSPost2010PropOp33
 70
     1
102
RTVSPost2010Prop34
280
     0
102
RTVSPost2010PropOp34
 70
     1
102
RTVSPost2010Prop35
280
     0
102
RTVSPost2010PropOp35
 70
     1
102
RTVSPost2010Prop36
280
     0
102
RTVSPost2010PropOp36
 70
     1
102
RTVSPost2010Prop37
 90
       50
102
RTVSPost2010PropOp37
 70
     1
102
RTVSPost2010Prop38
140
0.0
102
RTVSPost2010PropOp38
 70
     1
102
RTVSPost2010Prop39
140
1.0
102
RTVSPost2010PropOp39
 70
     1
102
RTVSPost2010Prop40
 90
        0
102
RTVSPost2010PropOp40
 70
     1
102
RTVSPost2010Prop41ColorIndex
 90
       18
102
RTVSPost2010Prop41ColorRGB
 90
-16777216
102
RTVSPost2010PropOp41
 70
     1
102
RTVSPost2010Prop42
 90
       50
102
RTVSPost2010PropOp42
 70
     1
102
RTVSPost2010Prop43
 90
        3
102
RTVSPost2010PropOp43
 70
     1
102
RTVSPost2010Prop44ColorIndex
 90
        5
102
RTVSPost2010Prop44ColorRGB
 90
      255
102
RTVSPost2010PropOp44
 70
     1
102
RTVSPost2010Prop45
280
     0
102
RTVSPost2010PropOp45
 70
     1
102
RTVSPost2010Prop46
 90
       50
102
RTVSPost2010PropOp46
 70
     1
102
RTVSPost2010Prop47
 90
       50
102
RTVSPost2010PropOp47
 70
     1
102
RTVSPost2010Prop48
 90
       50
102
RTVSPost2010PropOp48
 70
     1
102
RTVSPost2010Prop49
280
     0
102
RTVSPost2010PropOp49
 70
     1
102
RTVSPost2010Prop50
 90
       50
102
RTVSPost2010PropOp50
 70
     1
102
RTVSPost2010Prop51ColorIndex
 90
      256
102
RTVSPost2010Prop51ColorRGB
 90
-16777216
102
RTVSPost2010PropOp51
 70
     0
102
RTVSPost2010Prop52
140
1.0
102
RTVSPost2010PropOp52
 70
     0
102
RTVSPost2010Prop53
 90
        2
102
RTVSPost2010PropOp53
 70
     1
102
RTVSPost2010Prop54
  1
strokes_ogs.tif
102
RTVSPost2010PropOp54
 70
     1
102
RTVSPost2010Prop55
280
     0
102
RTVSPost2010PropOp55
 70
     1
102
RTVSPost2010Prop56
140
1.0
102
RTVSPost2010PropOp56
 70
     1
102
RTVSPost2010Prop57
140
1.0
102
RTVSPost2010PropOp57
 70
     1
  0
XRECORD
  5
4949
102
{ACAD_REACTORS
330
4948
102
}
330
4948
100
AcDbXrecord
280
     1
102
RTVSPost2010Prop28
280
     0
102
RTVSPost2010PropOp28
 70
     0
102
RTVSPost2010Prop29
280
     1
102
RTVSPost2010PropOp29
 70
     0
102
RTVSPost2010Prop30
280
     1
102
RTVSPost2010PropOp30
 70
     0
102
RTVSPost2010Prop31
280
     0
102
RTVSPost2010PropOp31
 70
     0
102
RTVSPost2010Prop32
280
     0
102
RTVSPost2010PropOp32
 70
     0
102
RTVSPost2010Prop33
280
     0
102
RTVSPost2010PropOp33
 70
     0
102
RTVSPost2010Prop34
280
     0
102
RTVSPost2010PropOp34
 70
     0
102
RTVSPost2010Prop35
280
     0
102
RTVSPost2010PropOp35
 70
     0
102
RTVSPost2010Prop36
280
     0
102
RTVSPost2010PropOp36
 70
     0
102
RTVSPost2010Prop37
 90
       50
102
RTVSPost2010PropOp37
 70
     0
102
RTVSPost2010Prop38
140
0.0
102
RTVSPost2010PropOp38
 70
     0
102
RTVSPost2010Prop39
140
1.0
102
RTVSPost2010PropOp39
 70
     0
102
RTVSPost2010Prop40
 90
        0
102
RTVSPost2010PropOp40
 70
     0
102
RTVSPost2010Prop41ColorIndex
 90
       18
102
RTVSPost2010Prop41ColorRGB
 90
-16777216
102
RTVSPost2010PropOp41
 70
     0
102
RTVSPost2010Prop42
 90
       50
102
RTVSPost2010PropOp42
 70
     0
102
RTVSPost2010Prop43
 90
        3
102
RTVSPost2010PropOp43
 70
     0
102
RTVSPost2010Prop44ColorIndex
 90
        5
102
RTVSPost2010Prop44ColorRGB
 90
      255
102
RTVSPost2010PropOp44
 70
     0
102
RTVSPost2010Prop45
280
     0
102
RTVSPost2010PropOp45
 70
     0
102
RTVSPost2010Prop46
 90
       50
102
RTVSPost2010PropOp46
 70
     0
102
RTVSPost2010Prop47
 90
       50
102
RTVSPost2010PropOp47
 70
     0
102
RTVSPost2010Prop48
 90
       50
102
RTVSPost2010PropOp48
 70
     0
102
RTVSPost2010Prop49
280
     0
102
RTVSPost2010PropOp49
 70
     0
102
RTVSPost2010Prop50
 90
       50
102
RTVSPost2010PropOp50
 70
     0
102
RTVSPost2010Prop51ColorIndex
 90
      256
102
RTVSPost2010Prop51ColorRGB
 90
-16777216
102
RTVSPost2010PropOp51
 70
     0
102
RTVSPost2010Prop52
140
1.0
102
RTVSPost2010PropOp52
 70
     0
102
RTVSPost2010Prop53
 90
        2
102
RTVSPost2010PropOp53
 70
     0
102
RTVSPost2010Prop54
  1
strokes_ogs.tif
102
RTVSPost2010PropOp54
 70
     0
102
RTVSPost2010Prop55
280
     0
102
RTVSPost2010PropOp55
 70
     0
102
RTVSPost2010Prop56
140
1.0
102
RTVSPost2010PropOp56
 70
     0
102
RTVSPost2010Prop57
140
1.0
102
RTVSPost2010PropOp57
 70
     0
  0
XRECORD
  5
4933
102
{ACAD_REACTORS
330
4932
102
}
330
4932
100
AcDbXrecord
280
     1
102
RTVSPost2010Prop28
280
     0
102
RTVSPost2010PropOp28
 70
     1
102
RTVSPost2010Prop29
280
     1
102
RTVSPost2010PropOp29
 70
     1
102
RTVSPost2010Prop30
280
     1
102
RTVSPost2010PropOp30
 70
     1
102
RTVSPost2010Prop31
280
     0
102
RTVSPost2010PropOp31
 70
     1
102
RTVSPost2010Prop32
280
     0
102
RTVSPost2010PropOp32
 70
     1
102
RTVSPost2010Prop33
280
     0
102
RTVSPost2010PropOp33
 70
     1
102
RTVSPost2010Prop34
280
     0
102
RTVSPost2010PropOp34
 70
     1
102
RTVSPost2010Prop35
280
     0
102
RTVSPost2010PropOp35
 70
     1
102
RTVSPost2010Prop36
280
     0
102
RTVSPost2010PropOp36
 70
     1
102
RTVSPost2010Prop37
 90
       50
102
RTVSPost2010PropOp37
 70
     1
102
RTVSPost2010Prop38
140
0.0
102
RTVSPost2010PropOp38
 70
     1
102
RTVSPost2010Prop39
140
1.0
102
RTVSPost2010PropOp39
 70
     1
102
RTVSPost2010Prop40
 90
        0
102
RTVSPost2010PropOp40
 70
     1
102
RTVSPost2010Prop41ColorIndex
 90
       18
102
RTVSPost2010Prop41ColorRGB
 90
-16777216
102
RTVSPost2010PropOp41
 70
     1
102
RTVSPost2010Prop42
 90
       50
102
RTVSPost2010PropOp42
 70
     1
102
RTVSPost2010Prop43
 90
        3
102
RTVSPost2010PropOp43
 70
     1
102
RTVSPost2010Prop44ColorIndex
 90
        5
102
RTVSPost2010Prop44ColorRGB
 90
      255
102
RTVSPost2010PropOp44
 70
     1
102
RTVSPost2010Prop45
280
     0
102
RTVSPost2010PropOp45
 70
     1
102
RTVSPost2010Prop46
 90
       50
102
RTVSPost2010PropOp46
 70
     1
102
RTVSPost2010Prop47
 90
       50
102
RTVSPost2010PropOp47
 70
     1
102
RTVSPost2010Prop48
 90
       50
102
RTVSPost2010PropOp48
 70
     1
102
RTVSPost2010Prop49
280
     0
102
RTVSPost2010PropOp49
 70
     1
102
RTVSPost2010Prop50
 90
       50
102
RTVSPost2010PropOp50
 70
     1
102
RTVSPost2010Prop51ColorIndex
 90
      256
102
RTVSPost2010Prop51ColorRGB
 90
-16777216
102
RTVSPost2010PropOp51
 70
     0
102
RTVSPost2010Prop52
140
1.0
102
RTVSPost2010PropOp52
 70
     0
102
RTVSPost2010Prop53
 90
        2
102
RTVSPost2010PropOp53
 70
     1
102
RTVSPost2010Prop54
  1
strokes_ogs.tif
102
RTVSPost2010PropOp54
 70
     1
102
RTVSPost2010Prop55
280
     0
102
RTVSPost2010PropOp55
 70
     1
102
RTVSPost2010Prop56
140
1.0
102
RTVSPost2010PropOp56
 70
     1
102
RTVSPost2010Prop57
140
1.0
102
RTVSPost2010PropOp57
 70
     1
  0
XRECORD
  5
4917
102
{ACAD_REACTORS
330
4916
102
}
330
4916
100
AcDbXrecord
280
     1
102
RTVSPost2010Prop28
280
     0
102
RTVSPost2010PropOp28
 70
     1
102
RTVSPost2010Prop29
280
     1
102
RTVSPost2010PropOp29
 70
     1
102
RTVSPost2010Prop30
280
     1
102
RTVSPost2010PropOp30
 70
     1
102
RTVSPost2010Prop31
280
     0
102
RTVSPost2010PropOp31
 70
     1
102
RTVSPost2010Prop32
280
     0
102
RTVSPost2010PropOp32
 70
     1
102
RTVSPost2010Prop33
280
     0
102
RTVSPost2010PropOp33
 70
     1
102
RTVSPost2010Prop34
280
     0
102
RTVSPost2010PropOp34
 70
     1
102
RTVSPost2010Prop35
280
     0
102
RTVSPost2010PropOp35
 70
     1
102
RTVSPost2010Prop36
280
     0
102
RTVSPost2010PropOp36
 70
     1
102
RTVSPost2010Prop37
 90
       50
102
RTVSPost2010PropOp37
 70
     1
102
RTVSPost2010Prop38
140
0.0
102
RTVSPost2010PropOp38
 70
     1
102
RTVSPost2010Prop39
140
1.0
102
RTVSPost2010PropOp39
 70
     1
102
RTVSPost2010Prop40
 90
        0
102
RTVSPost2010PropOp40
 70
     1
102
RTVSPost2010Prop41ColorIndex
 90
       18
102
RTVSPost2010Prop41ColorRGB
 90
-16777216
102
RTVSPost2010PropOp41
 70
     1
102
RTVSPost2010Prop42
 90
       50
102
RTVSPost2010PropOp42
 70
     1
102
RTVSPost2010Prop43
 90
        3
102
RTVSPost2010PropOp43
 70
     1
102
RTVSPost2010Prop44ColorIndex
 90
        5
102
RTVSPost2010Prop44ColorRGB
 90
      255
102
RTVSPost2010PropOp44
 70
     1
102
RTVSPost2010Prop45
280
     0
102
RTVSPost2010PropOp45
 70
     1
102
RTVSPost2010Prop46
 90
       50
102
RTVSPost2010PropOp46
 70
     1
102
RTVSPost2010Prop47
 90
       50
102
RTVSPost2010PropOp47
 70
     1
102
RTVSPost2010Prop48
 90
       50
102
RTVSPost2010PropOp48
 70
     1
102
RTVSPost2010Prop49
280
     0
102
RTVSPost2010PropOp49
 70
     1
102
RTVSPost2010Prop50
 90
       50
102
RTVSPost2010PropOp50
 70
     1
102
RTVSPost2010Prop51ColorIndex
 90
      256
102
RTVSPost2010Prop51ColorRGB
 90
-16777216
102
RTVSPost2010PropOp51
 70
     0
102
RTVSPost2010Prop52
140
1.0
102
RTVSPost2010PropOp52
 70
     0
102
RTVSPost2010Prop53
 90
        2
102
RTVSPost2010PropOp53
 70
     1
102
RTVSPost2010Prop54
  1
strokes_ogs.tif
102
RTVSPost2010PropOp54
 70
     1
102
RTVSPost2010Prop55
280
     0
102
RTVSPost2010PropOp55
 70
     1
102
RTVSPost2010Prop56
140
1.0
102
RTVSPost2010PropOp56
 70
     1
102
RTVSPost2010Prop57
140
1.0
102
RTVSPost2010PropOp57
 70
     1
  0
XRECORD
  5
4919
102
{ACAD_REACTORS
330
4918
102
}
330
4918
100
AcDbXrecord
280
     1
102
RTVSPost2010Prop28
280
     0
102
RTVSPost2010PropOp28
 70
     1
102
RTVSPost2010Prop29
280
     1
102
RTVSPost2010PropOp29
 70
     1
102
RTVSPost2010Prop30
280
     1
102
RTVSPost2010PropOp30
 70
     1
102
RTVSPost2010Prop31
280
     0
102
RTVSPost2010PropOp31
 70
     1
102
RTVSPost2010Prop32
280
     0
102
RTVSPost2010PropOp32
 70
     1
102
RTVSPost2010Prop33
280
     0
102
RTVSPost2010PropOp33
 70
     1
102
RTVSPost2010Prop34
280
     0
102
RTVSPost2010PropOp34
 70
     1
102
RTVSPost2010Prop35
280
     0
102
RTVSPost2010PropOp35
 70
     1
102
RTVSPost2010Prop36
280
     0
102
RTVSPost2010PropOp36
 70
     1
102
RTVSPost2010Prop37
 90
       50
102
RTVSPost2010PropOp37
 70
     1
102
RTVSPost2010Prop38
140
0.0
102
RTVSPost2010PropOp38
 70
     1
102
RTVSPost2010Prop39
140
1.0
102
RTVSPost2010PropOp39
 70
     1
102
RTVSPost2010Prop40
 90
        0
102
RTVSPost2010PropOp40
 70
     1
102
RTVSPost2010Prop41ColorIndex
 90
       18
102
RTVSPost2010Prop41ColorRGB
 90
-16777216
102
RTVSPost2010PropOp41
 70
     1
102
RTVSPost2010Prop42
 90
       50
102
RTVSPost2010PropOp42
 70
     1
102
RTVSPost2010Prop43
 90
        3
102
RTVSPost2010PropOp43
 70
     1
102
RTVSPost2010Prop44ColorIndex
 90
        5
102
RTVSPost2010Prop44ColorRGB
 90
      255
102
RTVSPost2010PropOp44
 70
     1
102
RTVSPost2010Prop45
280
     0
102
RTVSPost2010PropOp45
 70
     1
102
RTVSPost2010Prop46
 90
       50
102
RTVSPost2010PropOp46
 70
     1
102
RTVSPost2010Prop47
 90
       50
102
RTVSPost2010PropOp47
 70
     1
102
RTVSPost2010Prop48
 90
       50
102
RTVSPost2010PropOp48
 70
     1
102
RTVSPost2010Prop49
280
     0
102
RTVSPost2010PropOp49
 70
     1
102
RTVSPost2010Prop50
 90
       50
102
RTVSPost2010PropOp50
 70
     1
102
RTVSPost2010Prop51ColorIndex
 90
      256
102
RTVSPost2010Prop51ColorRGB
 90
-16777216
102
RTVSPost2010PropOp51
 70
     0
102
RTVSPost2010Prop52
140
1.0
102
RTVSPost2010PropOp52
 70
     0
102
RTVSPost2010Prop53
 90
        2
102
RTVSPost2010PropOp53
 70
     1
102
RTVSPost2010Prop54
  1
strokes_ogs.tif
102
RTVSPost2010PropOp54
 70
     1
102
RTVSPost2010Prop55
280
     0
102
RTVSPost2010PropOp55
 70
     1
102
RTVSPost2010Prop56
140
1.0
102
RTVSPost2010PropOp56
 70
     1
102
RTVSPost2010Prop57
140
1.0
102
RTVSPost2010PropOp57
 70
     1
  0
XRECORD
  5
491B
102
{ACAD_REACTORS
330
491A
102
}
330
491A
100
AcDbXrecord
280
     1
102
RTVSPost2010Prop28
280
     0
102
RTVSPost2010PropOp28
 70
     1
102
RTVSPost2010Prop29
280
     1
102
RTVSPost2010PropOp29
 70
     1
102
RTVSPost2010Prop30
280
     1
102
RTVSPost2010PropOp30
 70
     1
102
RTVSPost2010Prop31
280
     0
102
RTVSPost2010PropOp31
 70
     1
102
RTVSPost2010Prop32
280
     0
102
RTVSPost2010PropOp32
 70
     1
102
RTVSPost2010Prop33
280
     0
102
RTVSPost2010PropOp33
 70
     1
102
RTVSPost2010Prop34
280
     0
102
RTVSPost2010PropOp34
 70
     1
102
RTVSPost2010Prop35
280
     0
102
RTVSPost2010PropOp35
 70
     1
102
RTVSPost2010Prop36
280
     0
102
RTVSPost2010PropOp36
 70
     1
102
RTVSPost2010Prop37
 90
       50
102
RTVSPost2010PropOp37
 70
     1
102
RTVSPost2010Prop38
140
0.0
102
RTVSPost2010PropOp38
 70
     1
102
RTVSPost2010Prop39
140
1.0
102
RTVSPost2010PropOp39
 70
     1
102
RTVSPost2010Prop40
 90
        0
102
RTVSPost2010PropOp40
 70
     1
102
RTVSPost2010Prop41ColorIndex
 90
       18
102
RTVSPost2010Prop41ColorRGB
 90
-16777216
102
RTVSPost2010PropOp41
 70
     1
102
RTVSPost2010Prop42
 90
       50
102
RTVSPost2010PropOp42
 70
     1
102
RTVSPost2010Prop43
 90
        3
102
RTVSPost2010PropOp43
 70
     1
102
RTVSPost2010Prop44ColorIndex
 90
        5
102
RTVSPost2010Prop44ColorRGB
 90
      255
102
RTVSPost2010PropOp44
 70
     1
102
RTVSPost2010Prop45
280
     0
102
RTVSPost2010PropOp45
 70
     1
102
RTVSPost2010Prop46
 90
       50
102
RTVSPost2010PropOp46
 70
     1
102
RTVSPost2010Prop47
 90
       50
102
RTVSPost2010PropOp47
 70
     1
102
RTVSPost2010Prop48
 90
       50
102
RTVSPost2010PropOp48
 70
     1
102
RTVSPost2010Prop49
280
     0
102
RTVSPost2010PropOp49
 70
     1
102
RTVSPost2010Prop50
 90
       50
102
RTVSPost2010PropOp50
 70
     1
102
RTVSPost2010Prop51ColorIndex
 90
      256
102
RTVSPost2010Prop51ColorRGB
 90
-16777216
102
RTVSPost2010PropOp51
 70
     0
102
RTVSPost2010Prop52
140
1.0
102
RTVSPost2010PropOp52
 70
     0
102
RTVSPost2010Prop53
 90
        2
102
RTVSPost2010PropOp53
 70
     1
102
RTVSPost2010Prop54
  1
strokes_ogs.tif
102
RTVSPost2010PropOp54
 70
     1
102
RTVSPost2010Prop55
280
     0
102
RTVSPost2010PropOp55
 70
     1
102
RTVSPost2010Prop56
140
1.0
102
RTVSPost2010PropOp56
 70
     1
102
RTVSPost2010Prop57
140
1.0
102
RTVSPost2010PropOp57
 70
     1
  0
XRECORD
  5
491D
102
{ACAD_REACTORS
330
491C
102
}
330
491C
100
AcDbXrecord
280
     1
102
RTVSPost2010Prop28
280
     0
102
RTVSPost2010PropOp28
 70
     1
102
RTVSPost2010Prop29
280
     1
102
RTVSPost2010PropOp29
 70
     1
102
RTVSPost2010Prop30
280
     1
102
RTVSPost2010PropOp30
 70
     1
102
RTVSPost2010Prop31
280
     0
102
RTVSPost2010PropOp31
 70
     1
102
RTVSPost2010Prop32
280
     0
102
RTVSPost2010PropOp32
 70
     1
102
RTVSPost2010Prop33
280
     0
102
RTVSPost2010PropOp33
 70
     1
102
RTVSPost2010Prop34
280
     0
102
RTVSPost2010PropOp34
 70
     1
102
RTVSPost2010Prop35
280
     0
102
RTVSPost2010PropOp35
 70
     1
102
RTVSPost2010Prop36
280
     0
102
RTVSPost2010PropOp36
 70
     1
102
RTVSPost2010Prop37
 90
       50
102
RTVSPost2010PropOp37
 70
     1
102
RTVSPost2010Prop38
140
0.0
102
RTVSPost2010PropOp38
 70
     1
102
RTVSPost2010Prop39
140
1.0
102
RTVSPost2010PropOp39
 70
     1
102
RTVSPost2010Prop40
 90
        0
102
RTVSPost2010PropOp40
 70
     1
102
RTVSPost2010Prop41ColorIndex
 90
       18
102
RTVSPost2010Prop41ColorRGB
 90
-16777216
102
RTVSPost2010PropOp41
 70
     1
102
RTVSPost2010Prop42
 90
       50
102
RTVSPost2010PropOp42
 70
     1
102
RTVSPost2010Prop43
 90
        3
102
RTVSPost2010PropOp43
 70
     1
102
RTVSPost2010Prop44ColorIndex
 90
        5
102
RTVSPost2010Prop44ColorRGB
 90
      255
102
RTVSPost2010PropOp44
 70
     1
102
RTVSPost2010Prop45
280
     0
102
RTVSPost2010PropOp45
 70
     1
102
RTVSPost2010Prop46
 90
       50
102
RTVSPost2010PropOp46
 70
     1
102
RTVSPost2010Prop47
 90
       50
102
RTVSPost2010PropOp47
 70
     1
102
RTVSPost2010Prop48
 90
       50
102
RTVSPost2010PropOp48
 70
     1
102
RTVSPost2010Prop49
280
     0
102
RTVSPost2010PropOp49
 70
     1
102
RTVSPost2010Prop50
 90
       50
102
RTVSPost2010PropOp50
 70
     1
102
RTVSPost2010Prop51ColorIndex
 90
      256
102
RTVSPost2010Prop51ColorRGB
 90
-16777216
102
RTVSPost2010PropOp51
 70
     0
102
RTVSPost2010Prop52
140
1.0
102
RTVSPost2010PropOp52
 70
     0
102
RTVSPost2010Prop53
 90
        2
102
RTVSPost2010PropOp53
 70
     1
102
RTVSPost2010Prop54
  1
strokes_ogs.tif
102
RTVSPost2010PropOp54
 70
     1
102
RTVSPost2010Prop55
280
     0
102
RTVSPost2010PropOp55
 70
     1
102
RTVSPost2010Prop56
140
1.0
102
RTVSPost2010PropOp56
 70
     1
102
RTVSPost2010Prop57
140
1.0
102
RTVSPost2010PropOp57
 70
     1
  0
XRECORD
  5
4939
102
{ACAD_REACTORS
330
4938
102
}
330
4938
100
AcDbXrecord
280
     1
102
RTVSPost2010Prop28
280
     0
102
RTVSPost2010PropOp28
 70
     1
102
RTVSPost2010Prop29
280
     1
102
RTVSPost2010PropOp29
 70
     1
102
RTVSPost2010Prop30
280
     1
102
RTVSPost2010PropOp30
 70
     1
102
RTVSPost2010Prop31
280
     0
102
RTVSPost2010PropOp31
 70
     1
102
RTVSPost2010Prop32
280
     0
102
RTVSPost2010PropOp32
 70
     1
102
RTVSPost2010Prop33
280
     0
102
RTVSPost2010PropOp33
 70
     1
102
RTVSPost2010Prop34
280
     0
102
RTVSPost2010PropOp34
 70
     1
102
RTVSPost2010Prop35
280
     0
102
RTVSPost2010PropOp35
 70
     1
102
RTVSPost2010Prop36
280
     0
102
RTVSPost2010PropOp36
 70
     1
102
RTVSPost2010Prop37
 90
       50
102
RTVSPost2010PropOp37
 70
     1
102
RTVSPost2010Prop38
140
0.0
102
RTVSPost2010PropOp38
 70
     1
102
RTVSPost2010Prop39
140
1.0
102
RTVSPost2010PropOp39
 70
     1
102
RTVSPost2010Prop40
 90
        0
102
RTVSPost2010PropOp40
 70
     1
102
RTVSPost2010Prop41ColorIndex
 90
       18
102
RTVSPost2010Prop41ColorRGB
 90
-16777216
102
RTVSPost2010PropOp41
 70
     1
102
RTVSPost2010Prop42
 90
       50
102
RTVSPost2010PropOp42
 70
     1
102
RTVSPost2010Prop43
 90
        3
102
RTVSPost2010PropOp43
 70
     1
102
RTVSPost2010Prop44ColorIndex
 90
        5
102
RTVSPost2010Prop44ColorRGB
 90
      255
102
RTVSPost2010PropOp44
 70
     1
102
RTVSPost2010Prop45
280
     0
102
RTVSPost2010PropOp45
 70
     1
102
RTVSPost2010Prop46
 90
       50
102
RTVSPost2010PropOp46
 70
     1
102
RTVSPost2010Prop47
 90
       50
102
RTVSPost2010PropOp47
 70
     1
102
RTVSPost2010Prop48
 90
       50
102
RTVSPost2010PropOp48
 70
     1
102
RTVSPost2010Prop49
280
     0
102
RTVSPost2010PropOp49
 70
     1
102
RTVSPost2010Prop50
 90
       50
102
RTVSPost2010PropOp50
 70
     1
102
RTVSPost2010Prop51ColorIndex
 90
      256
102
RTVSPost2010Prop51ColorRGB
 90
-16777216
102
RTVSPost2010PropOp51
 70
     0
102
RTVSPost2010Prop52
140
1.0
102
RTVSPost2010PropOp52
 70
     0
102
RTVSPost2010Prop53
 90
        2
102
RTVSPost2010PropOp53
 70
     1
102
RTVSPost2010Prop54
  1
strokes_ogs.tif
102
RTVSPost2010PropOp54
 70
     1
102
RTVSPost2010Prop55
280
     0
102
RTVSPost2010PropOp55
 70
     1
102
RTVSPost2010Prop56
140
1.0
102
RTVSPost2010PropOp56
 70
     1
102
RTVSPost2010Prop57
140
1.0
102
RTVSPost2010PropOp57
 70
     1
  0
XRECORD
  5
4945
102
{ACAD_REACTORS
330
4944
102
}
330
4944
100
AcDbXrecord
280
     1
102
RTVSPost2010Prop28
280
     0
102
RTVSPost2010PropOp28
 70
     0
102
RTVSPost2010Prop29
280
     1
102
RTVSPost2010PropOp29
 70
     0
102
RTVSPost2010Prop30
280
     1
102
RTVSPost2010PropOp30
 70
     0
102
RTVSPost2010Prop31
280
     0
102
RTVSPost2010PropOp31
 70
     0
102
RTVSPost2010Prop32
280
     0
102
RTVSPost2010PropOp32
 70
     0
102
RTVSPost2010Prop33
280
     0
102
RTVSPost2010PropOp33
 70
     0
102
RTVSPost2010Prop34
280
     0
102
RTVSPost2010PropOp34
 70
     0
102
RTVSPost2010Prop35
280
     0
102
RTVSPost2010PropOp35
 70
     0
102
RTVSPost2010Prop36
280
     0
102
RTVSPost2010PropOp36
 70
     0
102
RTVSPost2010Prop37
 90
       50
102
RTVSPost2010PropOp37
 70
     0
102
RTVSPost2010Prop38
140
0.0
102
RTVSPost2010PropOp38
 70
     0
102
RTVSPost2010Prop39
140
1.0
102
RTVSPost2010PropOp39
 70
     0
102
RTVSPost2010Prop40
 90
        0
102
RTVSPost2010PropOp40
 70
     0
102
RTVSPost2010Prop41ColorIndex
 90
       18
102
RTVSPost2010Prop41ColorRGB
 90
-16777216
102
RTVSPost2010PropOp41
 70
     0
102
RTVSPost2010Prop42
 90
       50
102
RTVSPost2010PropOp42
 70
     0
102
RTVSPost2010Prop43
 90
        3
102
RTVSPost2010PropOp43
 70
     0
102
RTVSPost2010Prop44ColorIndex
 90
        5
102
RTVSPost2010Prop44ColorRGB
 90
      255
102
RTVSPost2010PropOp44
 70
     0
102
RTVSPost2010Prop45
280
     0
102
RTVSPost2010PropOp45
 70
     0
102
RTVSPost2010Prop46
 90
       50
102
RTVSPost2010PropOp46
 70
     0
102
RTVSPost2010Prop47
 90
       50
102
RTVSPost2010PropOp47
 70
     0
102
RTVSPost2010Prop48
 90
       50
102
RTVSPost2010PropOp48
 70
     0
102
RTVSPost2010Prop49
280
     0
102
RTVSPost2010PropOp49
 70
     0
102
RTVSPost2010Prop50
 90
       50
102
RTVSPost2010PropOp50
 70
     0
102
RTVSPost2010Prop51ColorIndex
 90
      256
102
RTVSPost2010Prop51ColorRGB
 90
-16777216
102
RTVSPost2010PropOp51
 70
     0
102
RTVSPost2010Prop52
140
1.0
102
RTVSPost2010PropOp52
 70
     0
102
RTVSPost2010Prop53
 90
        2
102
RTVSPost2010PropOp53
 70
     0
102
RTVSPost2010Prop54
  1
strokes_ogs.tif
102
RTVSPost2010PropOp54
 70
     0
102
RTVSPost2010Prop55
280
     0
102
RTVSPost2010PropOp55
 70
     0
102
RTVSPost2010Prop56
140
1.0
102
RTVSPost2010PropOp56
 70
     0
102
RTVSPost2010Prop57
140
1.0
102
RTVSPost2010PropOp57
 70
     0
  0
XRECORD
  5
4931
102
{ACAD_REACTORS
330
4930
102
}
330
4930
100
AcDbXrecord
280
     1
102
RTVSPost2010Prop28
280
     0
102
RTVSPost2010PropOp28
 70
     1
102
RTVSPost2010Prop29
280
     1
102
RTVSPost2010PropOp29
 70
     1
102
RTVSPost2010Prop30
280
     1
102
RTVSPost2010PropOp30
 70
     1
102
RTVSPost2010Prop31
280
     0
102
RTVSPost2010PropOp31
 70
     1
102
RTVSPost2010Prop32
280
     0
102
RTVSPost2010PropOp32
 70
     1
102
RTVSPost2010Prop33
280
     0
102
RTVSPost2010PropOp33
 70
     1
102
RTVSPost2010Prop34
280
     0
102
RTVSPost2010PropOp34
 70
     1
102
RTVSPost2010Prop35
280
     0
102
RTVSPost2010PropOp35
 70
     1
102
RTVSPost2010Prop36
280
     0
102
RTVSPost2010PropOp36
 70
     1
102
RTVSPost2010Prop37
 90
       50
102
RTVSPost2010PropOp37
 70
     1
102
RTVSPost2010Prop38
140
0.0
102
RTVSPost2010PropOp38
 70
     1
102
RTVSPost2010Prop39
140
1.0
102
RTVSPost2010PropOp39
 70
     1
102
RTVSPost2010Prop40
 90
        0
102
RTVSPost2010PropOp40
 70
     1
102
RTVSPost2010Prop41ColorIndex
 90
       18
102
RTVSPost2010Prop41ColorRGB
 90
-16777216
102
RTVSPost2010PropOp41
 70
     1
102
RTVSPost2010Prop42
 90
       50
102
RTVSPost2010PropOp42
 70
     1
102
RTVSPost2010Prop43
 90
        3
102
RTVSPost2010PropOp43
 70
     1
102
RTVSPost2010Prop44ColorIndex
 90
        5
102
RTVSPost2010Prop44ColorRGB
 90
      255
102
RTVSPost2010PropOp44
 70
     1
102
RTVSPost2010Prop45
280
     0
102
RTVSPost2010PropOp45
 70
     1
102
RTVSPost2010Prop46
 90
       50
102
RTVSPost2010PropOp46
 70
     1
102
RTVSPost2010Prop47
 90
       50
102
RTVSPost2010PropOp47
 70
     1
102
RTVSPost2010Prop48
 90
       50
102
RTVSPost2010PropOp48
 70
     1
102
RTVSPost2010Prop49
280
     0
102
RTVSPost2010PropOp49
 70
     1
102
RTVSPost2010Prop50
 90
       50
102
RTVSPost2010PropOp50
 70
     1
102
RTVSPost2010Prop51ColorIndex
 90
      256
102
RTVSPost2010Prop51ColorRGB
 90
-16777216
102
RTVSPost2010PropOp51
 70
     0
102
RTVSPost2010Prop52
140
1.0
102
RTVSPost2010PropOp52
 70
     0
102
RTVSPost2010Prop53
 90
        2
102
RTVSPost2010PropOp53
 70
     1
102
RTVSPost2010Prop54
  1
strokes_ogs.tif
102
RTVSPost2010PropOp54
 70
     1
102
RTVSPost2010Prop55
280
     0
102
RTVSPost2010PropOp55
 70
     1
102
RTVSPost2010Prop56
140
1.0
102
RTVSPost2010PropOp56
 70
     1
102
RTVSPost2010Prop57
140
1.0
102
RTVSPost2010PropOp57
 70
     1
  0
XRECORD
  5
4947
102
{ACAD_REACTORS
330
4946
102
}
330
4946
100
AcDbXrecord
280
     1
102
RTVSPost2010Prop28
280
     0
102
RTVSPost2010PropOp28
 70
     0
102
RTVSPost2010Prop29
280
     1
102
RTVSPost2010PropOp29
 70
     0
102
RTVSPost2010Prop30
280
     1
102
RTVSPost2010PropOp30
 70
     0
102
RTVSPost2010Prop31
280
     0
102
RTVSPost2010PropOp31
 70
     0
102
RTVSPost2010Prop32
280
     0
102
RTVSPost2010PropOp32
 70
     0
102
RTVSPost2010Prop33
280
     0
102
RTVSPost2010PropOp33
 70
     0
102
RTVSPost2010Prop34
280
     0
102
RTVSPost2010PropOp34
 70
     0
102
RTVSPost2010Prop35
280
     0
102
RTVSPost2010PropOp35
 70
     0
102
RTVSPost2010Prop36
280
     0
102
RTVSPost2010PropOp36
 70
     0
102
RTVSPost2010Prop37
 90
       50
102
RTVSPost2010PropOp37
 70
     0
102
RTVSPost2010Prop38
140
0.0
102
RTVSPost2010PropOp38
 70
     0
102
RTVSPost2010Prop39
140
1.0
102
RTVSPost2010PropOp39
 70
     0
102
RTVSPost2010Prop40
 90
        0
102
RTVSPost2010PropOp40
 70
     0
102
RTVSPost2010Prop41ColorIndex
 90
       18
102
RTVSPost2010Prop41ColorRGB
 90
-16777216
102
RTVSPost2010PropOp41
 70
     0
102
RTVSPost2010Prop42
 90
       50
102
RTVSPost2010PropOp42
 70
     0
102
RTVSPost2010Prop43
 90
        3
102
RTVSPost2010PropOp43
 70
     0
102
RTVSPost2010Prop44ColorIndex
 90
        5
102
RTVSPost2010Prop44ColorRGB
 90
      255
102
RTVSPost2010PropOp44
 70
     0
102
RTVSPost2010Prop45
280
     0
102
RTVSPost2010PropOp45
 70
     0
102
RTVSPost2010Prop46
 90
       50
102
RTVSPost2010PropOp46
 70
     0
102
RTVSPost2010Prop47
 90
       50
102
RTVSPost2010PropOp47
 70
     0
102
RTVSPost2010Prop48
 90
       50
102
RTVSPost2010PropOp48
 70
     0
102
RTVSPost2010Prop49
280
     0
102
RTVSPost2010PropOp49
 70
     0
102
RTVSPost2010Prop50
 90
       50
102
RTVSPost2010PropOp50
 70
     0
102
RTVSPost2010Prop51ColorIndex
 90
      256
102
RTVSPost2010Prop51ColorRGB
 90
-16777216
102
RTVSPost2010PropOp51
 70
     0
102
RTVSPost2010Prop52
140
1.0
102
RTVSPost2010PropOp52
 70
     0
102
RTVSPost2010Prop53
 90
        2
102
RTVSPost2010PropOp53
 70
     0
102
RTVSPost2010Prop54
  1
strokes_ogs.tif
102
RTVSPost2010PropOp54
 70
     0
102
RTVSPost2010Prop55
280
     0
102
RTVSPost2010PropOp55
 70
     0
102
RTVSPost2010Prop56
140
1.0
102
RTVSPost2010PropOp56
 70
     0
102
RTVSPost2010Prop57
140
1.0
102
RTVSPost2010PropOp57
 70
     0
  0
XRECORD
  5
4929
102
{ACAD_REACTORS
330
4928
102
}
330
4928
100
AcDbXrecord
280
     1
102
RTVSPost2010Prop28
280
     0
102
RTVSPost2010PropOp28
 70
     1
102
RTVSPost2010Prop29
280
     1
102
RTVSPost2010PropOp29
 70
     1
102
RTVSPost2010Prop30
280
     1
102
RTVSPost2010PropOp30
 70
     1
102
RTVSPost2010Prop31
280
     0
102
RTVSPost2010PropOp31
 70
     1
102
RTVSPost2010Prop32
280
     0
102
RTVSPost2010PropOp32
 70
     1
102
RTVSPost2010Prop33
280
     0
102
RTVSPost2010PropOp33
 70
     1
102
RTVSPost2010Prop34
280
     0
102
RTVSPost2010PropOp34
 70
     1
102
RTVSPost2010Prop35
280
     0
102
RTVSPost2010PropOp35
 70
     1
102
RTVSPost2010Prop36
280
     0
102
RTVSPost2010PropOp36
 70
     1
102
RTVSPost2010Prop37
 90
       50
102
RTVSPost2010PropOp37
 70
     1
102
RTVSPost2010Prop38
140
0.0
102
RTVSPost2010PropOp38
 70
     1
102
RTVSPost2010Prop39
140
1.0
102
RTVSPost2010PropOp39
 70
     1
102
RTVSPost2010Prop40
 90
        0
102
RTVSPost2010PropOp40
 70
     1
102
RTVSPost2010Prop41ColorIndex
 90
       18
102
RTVSPost2010Prop41ColorRGB
 90
-16777216
102
RTVSPost2010PropOp41
 70
     1
102
RTVSPost2010Prop42
 90
       50
102
RTVSPost2010PropOp42
 70
     1
102
RTVSPost2010Prop43
 90
        3
102
RTVSPost2010PropOp43
 70
     1
102
RTVSPost2010Prop44ColorIndex
 90
        5
102
RTVSPost2010Prop44ColorRGB
 90
      255
102
RTVSPost2010PropOp44
 70
     1
102
RTVSPost2010Prop45
280
     0
102
RTVSPost2010PropOp45
 70
     1
102
RTVSPost2010Prop46
 90
       50
102
RTVSPost2010PropOp46
 70
     1
102
RTVSPost2010Prop47
 90
       50
102
RTVSPost2010PropOp47
 70
     1
102
RTVSPost2010Prop48
 90
       50
102
RTVSPost2010PropOp48
 70
     1
102
RTVSPost2010Prop49
280
     0
102
RTVSPost2010PropOp49
 70
     1
102
RTVSPost2010Prop50
 90
       50
102
RTVSPost2010PropOp50
 70
     1
102
RTVSPost2010Prop51ColorIndex
 90
      256
102
RTVSPost2010Prop51ColorRGB
 90
-16777216
102
RTVSPost2010PropOp51
 70
     0
102
RTVSPost2010Prop52
140
1.0
102
RTVSPost2010PropOp52
 70
     0
102
RTVSPost2010Prop53
 90
        2
102
RTVSPost2010PropOp53
 70
     1
102
RTVSPost2010Prop54
  1
strokes_ogs.tif
102
RTVSPost2010PropOp54
 70
     1
102
RTVSPost2010Prop55
280
     0
102
RTVSPost2010PropOp55
 70
     1
102
RTVSPost2010Prop56
140
1.0
102
RTVSPost2010PropOp56
 70
     1
102
RTVSPost2010Prop57
140
1.0
102
RTVSPost2010PropOp57
 70
     1
  0
XRECORD
  5
4943
102
{ACAD_REACTORS
330
4942
102
}
330
4942
100
AcDbXrecord
280
     1
102
RTVSPost2010Prop28
280
     0
102
RTVSPost2010PropOp28
 70
     1
102
RTVSPost2010Prop29
280
     1
102
RTVSPost2010PropOp29
 70
     1
102
RTVSPost2010Prop30
280
     1
102
RTVSPost2010PropOp30
 70
     1
102
RTVSPost2010Prop31
280
     0
102
RTVSPost2010PropOp31
 70
     1
102
RTVSPost2010Prop32
280
     0
102
RTVSPost2010PropOp32
 70
     1
102
RTVSPost2010Prop33
280
     0
102
RTVSPost2010PropOp33
 70
     1
102
RTVSPost2010Prop34
280
     0
102
RTVSPost2010PropOp34
 70
     1
102
RTVSPost2010Prop35
280
     0
102
RTVSPost2010PropOp35
 70
     1
102
RTVSPost2010Prop36
280
     0
102
RTVSPost2010PropOp36
 70
     1
102
RTVSPost2010Prop37
 90
       50
102
RTVSPost2010PropOp37
 70
     1
102
RTVSPost2010Prop38
140
0.0
102
RTVSPost2010PropOp38
 70
     1
102
RTVSPost2010Prop39
140
1.0
102
RTVSPost2010PropOp39
 70
     1
102
RTVSPost2010Prop40
 90
        0
102
RTVSPost2010PropOp40
 70
     1
102
RTVSPost2010Prop41ColorIndex
 90
       18
102
RTVSPost2010Prop41ColorRGB
 90
-16777216
102
RTVSPost2010PropOp41
 70
     1
102
RTVSPost2010Prop42
 90
       50
102
RTVSPost2010PropOp42
 70
     1
102
RTVSPost2010Prop43
 90
        3
102
RTVSPost2010PropOp43
 70
     1
102
RTVSPost2010Prop44ColorIndex
 90
        5
102
RTVSPost2010Prop44ColorRGB
 90
      255
102
RTVSPost2010PropOp44
 70
     1
102
RTVSPost2010Prop45
280
     0
102
RTVSPost2010PropOp45
 70
     1
102
RTVSPost2010Prop46
 90
       50
102
RTVSPost2010PropOp46
 70
     1
102
RTVSPost2010Prop47
 90
       50
102
RTVSPost2010PropOp47
 70
     1
102
RTVSPost2010Prop48
 90
       50
102
RTVSPost2010PropOp48
 70
     1
102
RTVSPost2010Prop49
280
     0
102
RTVSPost2010PropOp49
 70
     1
102
RTVSPost2010Prop50
 90
       50
102
RTVSPost2010PropOp50
 70
     1
102
RTVSPost2010Prop51ColorIndex
 90
      256
102
RTVSPost2010Prop51ColorRGB
 90
-16777216
102
RTVSPost2010PropOp51
 70
     0
102
RTVSPost2010Prop52
140
1.0
102
RTVSPost2010PropOp52
 70
     0
102
RTVSPost2010Prop53
 90
        2
102
RTVSPost2010PropOp53
 70
     1
102
RTVSPost2010Prop54
  1
strokes_ogs.tif
102
RTVSPost2010PropOp54
 70
     1
102
RTVSPost2010Prop55
280
     0
102
RTVSPost2010PropOp55
 70
     1
102
RTVSPost2010Prop56
140
1.0
102
RTVSPost2010PropOp56
 70
     1
102
RTVSPost2010Prop57
140
1.0
102
RTVSPost2010PropOp57
 70
     1
  0
XRECORD
  5
4941
102
{ACAD_REACTORS
330
4940
102
}
330
4940
100
AcDbXrecord
280
     1
102
RTVSPost2010Prop28
280
     0
102
RTVSPost2010PropOp28
 70
     1
102
RTVSPost2010Prop29
280
     1
102
RTVSPost2010PropOp29
 70
     1
102
RTVSPost2010Prop30
280
     1
102
RTVSPost2010PropOp30
 70
     1
102
RTVSPost2010Prop31
280
     0
102
RTVSPost2010PropOp31
 70
     1
102
RTVSPost2010Prop32
280
     0
102
RTVSPost2010PropOp32
 70
     1
102
RTVSPost2010Prop33
280
     0
102
RTVSPost2010PropOp33
 70
     1
102
RTVSPost2010Prop34
280
     0
102
RTVSPost2010PropOp34
 70
     1
102
RTVSPost2010Prop35
280
     0
102
RTVSPost2010PropOp35
 70
     1
102
RTVSPost2010Prop36
280
     0
102
RTVSPost2010PropOp36
 70
     1
102
RTVSPost2010Prop37
 90
       50
102
RTVSPost2010PropOp37
 70
     1
102
RTVSPost2010Prop38
140
0.0
102
RTVSPost2010PropOp38
 70
     1
102
RTVSPost2010Prop39
140
1.0
102
RTVSPost2010PropOp39
 70
     1
102
RTVSPost2010Prop40
 90
        0
102
RTVSPost2010PropOp40
 70
     1
102
RTVSPost2010Prop41ColorIndex
 90
       18
102
RTVSPost2010Prop41ColorRGB
 90
-16777216
102
RTVSPost2010PropOp41
 70
     1
102
RTVSPost2010Prop42
 90
       50
102
RTVSPost2010PropOp42
 70
     1
102
RTVSPost2010Prop43
 90
        3
102
RTVSPost2010PropOp43
 70
     1
102
RTVSPost2010Prop44ColorIndex
 90
        5
102
RTVSPost2010Prop44ColorRGB
 90
      255
102
RTVSPost2010PropOp44
 70
     1
102
RTVSPost2010Prop45
280
     0
102
RTVSPost2010PropOp45
 70
     1
102
RTVSPost2010Prop46
 90
       50
102
RTVSPost2010PropOp46
 70
     1
102
RTVSPost2010Prop47
 90
       50
102
RTVSPost2010PropOp47
 70
     1
102
RTVSPost2010Prop48
 90
       50
102
RTVSPost2010PropOp48
 70
     1
102
RTVSPost2010Prop49
280
     0
102
RTVSPost2010PropOp49
 70
     1
102
RTVSPost2010Prop50
 90
       50
102
RTVSPost2010PropOp50
 70
     1
102
RTVSPost2010Prop51ColorIndex
 90
      256
102
RTVSPost2010Prop51ColorRGB
 90
-16777216
102
RTVSPost2010PropOp51
 70
     0
102
RTVSPost2010Prop52
140
1.0
102
RTVSPost2010PropOp52
 70
     0
102
RTVSPost2010Prop53
 90
        2
102
RTVSPost2010PropOp53
 70
     1
102
RTVSPost2010Prop54
  1
strokes_ogs.tif
102
RTVSPost2010PropOp54
 70
     1
102
RTVSPost2010Prop55
280
     0
102
RTVSPost2010PropOp55
 70
     1
102
RTVSPost2010Prop56
140
1.0
102
RTVSPost2010PropOp56
 70
     1
102
RTVSPost2010Prop57
140
1.0
102
RTVSPost2010PropOp57
 70
     1
  0
XRECORD
  5
493B
102
{ACAD_REACTORS
330
493A
102
}
330
493A
100
AcDbXrecord
280
     1
102
RTVSPost2010Prop28
280
     0
102
RTVSPost2010PropOp28
 70
     1
102
RTVSPost2010Prop29
280
     1
102
RTVSPost2010PropOp29
 70
     1
102
RTVSPost2010Prop30
280
     1
102
RTVSPost2010PropOp30
 70
     1
102
RTVSPost2010Prop31
280
     0
102
RTVSPost2010PropOp31
 70
     1
102
RTVSPost2010Prop32
280
     0
102
RTVSPost2010PropOp32
 70
     1
102
RTVSPost2010Prop33
280
     0
102
RTVSPost2010PropOp33
 70
     1
102
RTVSPost2010Prop34
280
     0
102
RTVSPost2010PropOp34
 70
     1
102
RTVSPost2010Prop35
280
     0
102
RTVSPost2010PropOp35
 70
     1
102
RTVSPost2010Prop36
280
     0
102
RTVSPost2010PropOp36
 70
     1
102
RTVSPost2010Prop37
 90
       50
102
RTVSPost2010PropOp37
 70
     1
102
RTVSPost2010Prop38
140
0.0
102
RTVSPost2010PropOp38
 70
     1
102
RTVSPost2010Prop39
140
1.0
102
RTVSPost2010PropOp39
 70
     1
102
RTVSPost2010Prop40
 90
        0
102
RTVSPost2010PropOp40
 70
     1
102
RTVSPost2010Prop41ColorIndex
 90
       18
102
RTVSPost2010Prop41ColorRGB
 90
-16777216
102
RTVSPost2010PropOp41
 70
     1
102
RTVSPost2010Prop42
 90
       50
102
RTVSPost2010PropOp42
 70
     1
102
RTVSPost2010Prop43
 90
        3
102
RTVSPost2010PropOp43
 70
     1
102
RTVSPost2010Prop44ColorIndex
 90
        5
102
RTVSPost2010Prop44ColorRGB
 90
      255
102
RTVSPost2010PropOp44
 70
     1
102
RTVSPost2010Prop45
280
     0
102
RTVSPost2010PropOp45
 70
     1
102
RTVSPost2010Prop46
 90
       50
102
RTVSPost2010PropOp46
 70
     1
102
RTVSPost2010Prop47
 90
       50
102
RTVSPost2010PropOp47
 70
     1
102
RTVSPost2010Prop48
 90
       50
102
RTVSPost2010PropOp48
 70
     1
102
RTVSPost2010Prop49
280
     0
102
RTVSPost2010PropOp49
 70
     1
102
RTVSPost2010Prop50
 90
       50
102
RTVSPost2010PropOp50
 70
     1
102
RTVSPost2010Prop51ColorIndex
 90
      256
102
RTVSPost2010Prop51ColorRGB
 90
-16777216
102
RTVSPost2010PropOp51
 70
     0
102
RTVSPost2010Prop52
140
1.0
102
RTVSPost2010PropOp52
 70
     0
102
RTVSPost2010Prop53
 90
        2
102
RTVSPost2010PropOp53
 70
     1
102
RTVSPost2010Prop54
  1
strokes_ogs.tif
102
RTVSPost2010PropOp54
 70
     1
102
RTVSPost2010Prop55
280
     0
102
RTVSPost2010PropOp55
 70
     1
102
RTVSPost2010Prop56
140
1.0
102
RTVSPost2010PropOp56
 70
     1
102
RTVSPost2010Prop57
140
1.0
102
RTVSPost2010PropOp57
 70
     1
  0
XRECORD
  5
493D
102
{ACAD_REACTORS
330
493C
102
}
330
493C
100
AcDbXrecord
280
     1
102
RTVSPost2010Prop28
280
     0
102
RTVSPost2010PropOp28
 70
     1
102
RTVSPost2010Prop29
280
     1
102
RTVSPost2010PropOp29
 70
     1
102
RTVSPost2010Prop30
280
     1
102
RTVSPost2010PropOp30
 70
     1
102
RTVSPost2010Prop31
280
     0
102
RTVSPost2010PropOp31
 70
     1
102
RTVSPost2010Prop32
280
     0
102
RTVSPost2010PropOp32
 70
     1
102
RTVSPost2010Prop33
280
     0
102
RTVSPost2010PropOp33
 70
     1
102
RTVSPost2010Prop34
280
     0
102
RTVSPost2010PropOp34
 70
     1
102
RTVSPost2010Prop35
280
     0
102
RTVSPost2010PropOp35
 70
     1
102
RTVSPost2010Prop36
280
     0
102
RTVSPost2010PropOp36
 70
     1
102
RTVSPost2010Prop37
 90
       50
102
RTVSPost2010PropOp37
 70
     1
102
RTVSPost2010Prop38
140
0.0
102
RTVSPost2010PropOp38
 70
     1
102
RTVSPost2010Prop39
140
1.0
102
RTVSPost2010PropOp39
 70
     1
102
RTVSPost2010Prop40
 90
        0
102
RTVSPost2010PropOp40
 70
     1
102
RTVSPost2010Prop41ColorIndex
 90
       18
102
RTVSPost2010Prop41ColorRGB
 90
-16777216
102
RTVSPost2010PropOp41
 70
     1
102
RTVSPost2010Prop42
 90
       50
102
RTVSPost2010PropOp42
 70
     1
102
RTVSPost2010Prop43
 90
        3
102
RTVSPost2010PropOp43
 70
     1
102
RTVSPost2010Prop44ColorIndex
 90
        5
102
RTVSPost2010Prop44ColorRGB
 90
      255
102
RTVSPost2010PropOp44
 70
     1
102
RTVSPost2010Prop45
280
     0
102
RTVSPost2010PropOp45
 70
     1
102
RTVSPost2010Prop46
 90
       50
102
RTVSPost2010PropOp46
 70
     1
102
RTVSPost2010Prop47
 90
       50
102
RTVSPost2010PropOp47
 70
     1
102
RTVSPost2010Prop48
 90
       50
102
RTVSPost2010PropOp48
 70
     1
102
RTVSPost2010Prop49
280
     0
102
RTVSPost2010PropOp49
 70
     1
102
RTVSPost2010Prop50
 90
       50
102
RTVSPost2010PropOp50
 70
     1
102
RTVSPost2010Prop51ColorIndex
 90
      256
102
RTVSPost2010Prop51ColorRGB
 90
-16777216
102
RTVSPost2010PropOp51
 70
     0
102
RTVSPost2010Prop52
140
1.0
102
RTVSPost2010PropOp52
 70
     0
102
RTVSPost2010Prop53
 90
        2
102
RTVSPost2010PropOp53
 70
     1
102
RTVSPost2010Prop54
  1
strokes_ogs.tif
102
RTVSPost2010PropOp54
 70
     1
102
RTVSPost2010Prop55
280
     0
102
RTVSPost2010PropOp55
 70
     1
102
RTVSPost2010Prop56
140
1.0
102
RTVSPost2010PropOp56
 70
     1
102
RTVSPost2010Prop57
140
1.0
102
RTVSPost2010PropOp57
 70
     1
  0
XRECORD
  5
492F
102
{ACAD_REACTORS
330
492E
102
}
330
492E
100
AcDbXrecord
280
     1
102
RTVSPost2010Prop28
280
     0
102
RTVSPost2010PropOp28
 70
     1
102
RTVSPost2010Prop29
280
     1
102
RTVSPost2010PropOp29
 70
     1
102
RTVSPost2010Prop30
280
     1
102
RTVSPost2010PropOp30
 70
     1
102
RTVSPost2010Prop31
280
     0
102
RTVSPost2010PropOp31
 70
     1
102
RTVSPost2010Prop32
280
     0
102
RTVSPost2010PropOp32
 70
     1
102
RTVSPost2010Prop33
280
     0
102
RTVSPost2010PropOp33
 70
     1
102
RTVSPost2010Prop34
280
     0
102
RTVSPost2010PropOp34
 70
     1
102
RTVSPost2010Prop35
280
     0
102
RTVSPost2010PropOp35
 70
     1
102
RTVSPost2010Prop36
280
     0
102
RTVSPost2010PropOp36
 70
     1
102
RTVSPost2010Prop37
 90
       50
102
RTVSPost2010PropOp37
 70
     1
102
RTVSPost2010Prop38
140
0.0
102
RTVSPost2010PropOp38
 70
     1
102
RTVSPost2010Prop39
140
1.0
102
RTVSPost2010PropOp39
 70
     1
102
RTVSPost2010Prop40
 90
        0
102
RTVSPost2010PropOp40
 70
     1
102
RTVSPost2010Prop41ColorIndex
 90
       18
102
RTVSPost2010Prop41ColorRGB
 90
-16777216
102
RTVSPost2010PropOp41
 70
     1
102
RTVSPost2010Prop42
 90
       50
102
RTVSPost2010PropOp42
 70
     1
102
RTVSPost2010Prop43
 90
        3
102
RTVSPost2010PropOp43
 70
     1
102
RTVSPost2010Prop44ColorIndex
 90
        5
102
RTVSPost2010Prop44ColorRGB
 90
      255
102
RTVSPost2010PropOp44
 70
     1
102
RTVSPost2010Prop45
280
     0
102
RTVSPost2010PropOp45
 70
     1
102
RTVSPost2010Prop46
 90
       50
102
RTVSPost2010PropOp46
 70
     1
102
RTVSPost2010Prop47
 90
       50
102
RTVSPost2010PropOp47
 70
     1
102
RTVSPost2010Prop48
 90
       50
102
RTVSPost2010PropOp48
 70
     1
102
RTVSPost2010Prop49
280
     0
102
RTVSPost2010PropOp49
 70
     1
102
RTVSPost2010Prop50
 90
       50
102
RTVSPost2010PropOp50
 70
     1
102
RTVSPost2010Prop51ColorIndex
 90
      256
102
RTVSPost2010Prop51ColorRGB
 90
-16777216
102
RTVSPost2010PropOp51
 70
     0
102
RTVSPost2010Prop52
140
1.0
102
RTVSPost2010PropOp52
 70
     0
102
RTVSPost2010Prop53
 90
        2
102
RTVSPost2010PropOp53
 70
     1
102
RTVSPost2010Prop54
  1
strokes_ogs.tif
102
RTVSPost2010PropOp54
 70
     1
102
RTVSPost2010Prop55
280
     0
102
RTVSPost2010PropOp55
 70
     1
102
RTVSPost2010Prop56
140
1.0
102
RTVSPost2010PropOp56
 70
     1
102
RTVSPost2010Prop57
140
1.0
102
RTVSPost2010PropOp57
 70
     1
  0
XRECORD
  5
4937
102
{ACAD_REACTORS
330
4936
102
}
330
4936
100
AcDbXrecord
280
     1
102
RTVSPost2010Prop28
280
     0
102
RTVSPost2010PropOp28
 70
     1
102
RTVSPost2010Prop29
280
     1
102
RTVSPost2010PropOp29
 70
     1
102
RTVSPost2010Prop30
280
     1
102
RTVSPost2010PropOp30
 70
     1
102
RTVSPost2010Prop31
280
     0
102
RTVSPost2010PropOp31
 70
     1
102
RTVSPost2010Prop32
280
     0
102
RTVSPost2010PropOp32
 70
     1
102
RTVSPost2010Prop33
280
     0
102
RTVSPost2010PropOp33
 70
     1
102
RTVSPost2010Prop34
280
     0
102
RTVSPost2010PropOp34
 70
     1
102
RTVSPost2010Prop35
280
     0
102
RTVSPost2010PropOp35
 70
     1
102
RTVSPost2010Prop36
280
     0
102
RTVSPost2010PropOp36
 70
     1
102
RTVSPost2010Prop37
 90
       50
102
RTVSPost2010PropOp37
 70
     1
102
RTVSPost2010Prop38
140
0.0
102
RTVSPost2010PropOp38
 70
     1
102
RTVSPost2010Prop39
140
1.0
102
RTVSPost2010PropOp39
 70
     1
102
RTVSPost2010Prop40
 90
        0
102
RTVSPost2010PropOp40
 70
     1
102
RTVSPost2010Prop41ColorIndex
 90
       18
102
RTVSPost2010Prop41ColorRGB
 90
-16777216
102
RTVSPost2010PropOp41
 70
     1
102
RTVSPost2010Prop42
 90
       50
102
RTVSPost2010PropOp42
 70
     1
102
RTVSPost2010Prop43
 90
        3
102
RTVSPost2010PropOp43
 70
     1
102
RTVSPost2010Prop44ColorIndex
 90
        5
102
RTVSPost2010Prop44ColorRGB
 90
      255
102
RTVSPost2010PropOp44
 70
     1
102
RTVSPost2010Prop45
280
     0
102
RTVSPost2010PropOp45
 70
     1
102
RTVSPost2010Prop46
 90
       50
102
RTVSPost2010PropOp46
 70
     1
102
RTVSPost2010Prop47
 90
       50
102
RTVSPost2010PropOp47
 70
     1
102
RTVSPost2010Prop48
 90
       50
102
RTVSPost2010PropOp48
 70
     1
102
RTVSPost2010Prop49
280
     0
102
RTVSPost2010PropOp49
 70
     1
102
RTVSPost2010Prop50
 90
       50
102
RTVSPost2010PropOp50
 70
     1
102
RTVSPost2010Prop51ColorIndex
 90
      256
102
RTVSPost2010Prop51ColorRGB
 90
-16777216
102
RTVSPost2010PropOp51
 70
     0
102
RTVSPost2010Prop52
140
1.0
102
RTVSPost2010PropOp52
 70
     0
102
RTVSPost2010Prop53
 90
        2
102
RTVSPost2010PropOp53
 70
     1
102
RTVSPost2010Prop54
  1
strokes_ogs.tif
102
RTVSPost2010PropOp54
 70
     1
102
RTVSPost2010Prop55
280
     0
102
RTVSPost2010PropOp55
 70
     1
102
RTVSPost2010Prop56
140
1.0
102
RTVSPost2010PropOp56
 70
     1
102
RTVSPost2010Prop57
140
1.0
102
RTVSPost2010PropOp57
 70
     1
  0
XRECORD
  5
493F
102
{ACAD_REACTORS
330
493E
102
}
330
493E
100
AcDbXrecord
280
     1
102
RTVSPost2010Prop28
280
     0
102
RTVSPost2010PropOp28
 70
     1
102
RTVSPost2010Prop29
280
     1
102
RTVSPost2010PropOp29
 70
     1
102
RTVSPost2010Prop30
280
     1
102
RTVSPost2010PropOp30
 70
     1
102
RTVSPost2010Prop31
280
     0
102
RTVSPost2010PropOp31
 70
     1
102
RTVSPost2010Prop32
280
     0
102
RTVSPost2010PropOp32
 70
     1
102
RTVSPost2010Prop33
280
     0
102
RTVSPost2010PropOp33
 70
     1
102
RTVSPost2010Prop34
280
     0
102
RTVSPost2010PropOp34
 70
     1
102
RTVSPost2010Prop35
280
     0
102
RTVSPost2010PropOp35
 70
     1
102
RTVSPost2010Prop36
280
     0
102
RTVSPost2010PropOp36
 70
     1
102
RTVSPost2010Prop37
 90
       50
102
RTVSPost2010PropOp37
 70
     1
102
RTVSPost2010Prop38
140
0.0
102
RTVSPost2010PropOp38
 70
     1
102
RTVSPost2010Prop39
140
1.0
102
RTVSPost2010PropOp39
 70
     1
102
RTVSPost2010Prop40
 90
        0
102
RTVSPost2010PropOp40
 70
     1
102
RTVSPost2010Prop41ColorIndex
 90
       18
102
RTVSPost2010Prop41ColorRGB
 90
-16777216
102
RTVSPost2010PropOp41
 70
     1
102
RTVSPost2010Prop42
 90
       50
102
RTVSPost2010PropOp42
 70
     1
102
RTVSPost2010Prop43
 90
        3
102
RTVSPost2010PropOp43
 70
     1
102
RTVSPost2010Prop44ColorIndex
 90
        5
102
RTVSPost2010Prop44ColorRGB
 90
      255
102
RTVSPost2010PropOp44
 70
     1
102
RTVSPost2010Prop45
280
     0
102
RTVSPost2010PropOp45
 70
     1
102
RTVSPost2010Prop46
 90
       50
102
RTVSPost2010PropOp46
 70
     1
102
RTVSPost2010Prop47
 90
       50
102
RTVSPost2010PropOp47
 70
     1
102
RTVSPost2010Prop48
 90
       50
102
RTVSPost2010PropOp48
 70
     1
102
RTVSPost2010Prop49
280
     0
102
RTVSPost2010PropOp49
 70
     1
102
RTVSPost2010Prop50
 90
       50
102
RTVSPost2010PropOp50
 70
     1
102
RTVSPost2010Prop51ColorIndex
 90
      256
102
RTVSPost2010Prop51ColorRGB
 90
-16777216
102
RTVSPost2010PropOp51
 70
     0
102
RTVSPost2010Prop52
140
1.0
102
RTVSPost2010PropOp52
 70
     0
102
RTVSPost2010Prop53
 90
        2
102
RTVSPost2010PropOp53
 70
     1
102
RTVSPost2010Prop54
  1
strokes_ogs.tif
102
RTVSPost2010PropOp54
 70
     1
102
RTVSPost2010Prop55
280
     0
102
RTVSPost2010PropOp55
 70
     1
102
RTVSPost2010Prop56
140
1.0
102
RTVSPost2010PropOp56
 70
     1
102
RTVSPost2010Prop57
140
1.0
102
RTVSPost2010PropOp57
 70
     1
  0
ENDSEC
  0
EOF
