  0
SECTION
  2
HEADER
  9
$ACADVER
  1
AC1024
  9
$ACADMAINTVER
 70
   226
  9
$DWGCODEPAGE
  3
ANSI_1252
  9
$LASTSAVEDBY
  1
mhumphreys
  9
$INSBASE
 10
0.0
 20
0.0
 30
0.0
  9
$EXTMIN
 10
3181499.20834651
 20
3868822.069432829
 30
-0.0015258207003583
  9
$EXTMAX
 10
3195149.941337482
 20
3876511.443403676
 30
0.0000000349246037
  9
$LIMMIN
 10
0.0
 20
0.0
  9
$LIMMAX
 10
420.0
 20
297.0
  9
$ORTHOMODE
 70
     0
  9
$REGENMODE
 70
     1
  9
$FILLMODE
 70
     1
  9
$QTEXTMODE
 70
     0
  9
$MIRRTEXT
 70
     0
  9
$LTSCALE
 40
1.0
  9
$ATTMODE
 70
     1
  9
$TEXTSIZE
 40
2.5
  9
$TRACEWID
 40
1.0
  9
$TEXTSTYLE
  7
fastrack
  9
$CLAYER
  8
0
  9
$CELTYPE
  6
ByLayer
  9
$CECOLOR
 62
   256
  9
$CELTSCALE
 40
1.0
  9
$DISPSILH
 70
     0
  9
$DIMSCALE
 40
1.0
  9
$DIMASZ
 40
2.5
  9
$DIMEXO
 40
0.625
  9
$DIMDLI
 40
3.75
  9
$DIMRND
 40
0.0
  9
$DIMDLE
 40
0.0
  9
$DIMEXE
 40
1.25
  9
$DIMTP
 40
0.0
  9
$DIMTM
 40
0.0
  9
$DIMTXT
 40
6.0
  9
$DIMCEN
 40
2.5
  9
$DIMTSZ
 40
0.0
  9
$DIMTOL
 70
     0
  9
$DIMLIM
 70
     0
  9
$DIMTIH
 70
     0
  9
$DIMTOH
 70
     0
  9
$DIMSE1
 70
     0
  9
$DIMSE2
 70
     0
  9
$DIMTAD
 70
     1
  9
$DIMZIN
 70
     8
  9
$DIMBLK
  1
ArchTick
  9
$DIMASO
 70
     1
  9
$DIMSHO
 70
     1
  9
$DIMPOST
  1

  9
$DIMAPOST
  1

  9
$DIMALT
 70
     0
  9
$DIMALTD
 70
     3
  9
$DIMALTF
 40
0.03937007874016
  9
$DIMLFAC
 40
1.0
  9
$DIMTOFL
 70
     1
  9
$DIMTVP
 40
0.0
  9
$DIMTIX
 70
     0
  9
$DIMSOXD
 70
     0
  9
$DIMSAH
 70
     0
  9
$DIMBLK1
  1

  9
$DIMBLK2
  1

  9
$DIMSTYLE
  2
ISO-25
  9
$DIMCLRD
 70
     0
  9
$DIMCLRE
 70
     0
  9
$DIMCLRT
 70
     0
  9
$DIMTFAC
 40
1.0
  9
$DIMGAP
 40
0.625
  9
$DIMJUST
 70
     0
  9
$DIMSD1
 70
     0
  9
$DIMSD2
 70
     0
  9
$DIMTOLJ
 70
     0
  9
$DIMTZIN
 70
     8
  9
$DIMALTZ
 70
     0
  9
$DIMALTTZ
 70
     0
  9
$DIMUPT
 70
     0
  9
$DIMDEC
 70
     0
  9
$DIMTDEC
 70
     0
  9
$DIMALTU
 70
     2
  9
$DIMALTTD
 70
     3
  9
$DIMTXSTY
  7
Standard
  9
$DIMAUNIT
 70
     0
  9
$DIMADEC
 70
     0
  9
$DIMALTRND
 40
0.0
  9
$DIMAZIN
 70
     0
  9
$DIMDSEP
 70
    44
  9
$DIMATFIT
 70
     3
  9
$DIMFRAC
 70
     0
  9
$DIMLDRBLK
  1

  9
$DIMLUNIT
 70
     2
  9
$DIMLWD
 70
    -2
  9
$DIMLWE
 70
    -2
  9
$DIMTMOVE
 70
     0
  9
$DIMFXL
 40
120.0
  9
$DIMFXLON
 70
     0
  9
$DIMJOGANG
 40
0.7853981633974483
  9
$DIMTFILL
 70
     0
  9
$DIMTFILLCLR
 70
     0
  9
$DIMARCSYM
 70
     0
  9
$DIMLTYPE
  6

  9
$DIMLTEX1
  6

  9
$DIMLTEX2
  6

  9
$DIMTXTDIRECTION
 70
     0
  9
$LUNITS
 70
     2
  9
$LUPREC
 70
     4
  9
$SKETCHINC
 40
1.0
  9
$FILLETRAD
 40
0.0
  9
$AUNITS
 70
     0
  9
$AUPREC
 70
     0
  9
$MENU
  1
.
  9
$ELEVATION
 40
0.0
  9
$PELEVATION
 40
0.0
  9
$THICKNESS
 40
0.0
  9
$LIMCHECK
 70
     0
  9
$CHAMFERA
 40
10.0
  9
$CHAMFERB
 40
10.0
  9
$CHAMFERC
 40
20.0
  9
$CHAMFERD
 40
0.0
  9
$SKPOLY
 70
     0
  9
$TDCREATE
 40
2454761.433460648
  9
$TDUCREATE
 40
2454761.391795914
  9
$TDUPDATE
 40
2458815.596157407
  9
$TDUUPDATE
 40
2458815.596157407
  9
$TDINDWG
 40
11.4565355324
  9
$TDUSRTIMER
 40
11.4565281134
  9
$USRTIMER
 70
     1
  9
$ANGBASE
 50
0.0
  9
$ANGDIR
 70
     0
  9
$PDMODE
 70
     0
  9
$PDSIZE
 40
0.0
  9
$PLINEWID
 40
0.0
  9
$SPLFRAME
 70
     0
  9
$SPLINETYPE
 70
     6
  9
$SPLINESEGS
 70
     8
  9
$HANDSEED
  5
40BEC
  9
$SURFTAB1
 70
     6
  9
$SURFTAB2
 70
     6
  9
$SURFTYPE
 70
     6
  9
$SURFU
 70
     6
  9
$SURFV
 70
     6
  9
$UCSBASE
  2

  9
$UCSNAME
  2

  9
$UCSORG
 10
0.0
 20
0.0
 30
0.0
  9
$UCSXDIR
 10
1.0
 20
0.0
 30
0.0
  9
$UCSYDIR
 10
0.0
 20
1.0
 30
0.0
  9
$UCSORTHOREF
  2

  9
$UCSORTHOVIEW
 70
     0
  9
$UCSORGTOP
 10
0.0
 20
0.0
 30
0.0
  9
$UCSORGBOTTOM
 10
0.0
 20
0.0
 30
0.0
  9
$UCSORGLEFT
 10
0.0
 20
0.0
 30
0.0
  9
$UCSORGRIGHT
 10
0.0
 20
0.0
 30
0.0
  9
$UCSORGFRONT
 10
0.0
 20
0.0
 30
0.0
  9
$UCSORGBACK
 10
0.0
 20
0.0
 30
0.0
  9
$PUCSBASE
  2

  9
$PUCSNAME
  2

  9
$PUCSORG
 10
0.0
 20
0.0
 30
0.0
  9
$PUCSXDIR
 10
1.0
 20
0.0
 30
0.0
  9
$PUCSYDIR
 10
0.0
 20
1.0
 30
0.0
  9
$PUCSORTHOREF
  2

  9
$PUCSORTHOVIEW
 70
     0
  9
$PUCSORGTOP
 10
0.0
 20
0.0
 30
0.0
  9
$PUCSORGBOTTOM
 10
0.0
 20
0.0
 30
0.0
  9
$PUCSORGLEFT
 10
0.0
 20
0.0
 30
0.0
  9
$PUCSORGRIGHT
 10
0.0
 20
0.0
 30
0.0
  9
$PUCSORGFRONT
 10
0.0
 20
0.0
 30
0.0
  9
$PUCSORGBACK
 10
0.0
 20
0.0
 30
0.0
  9
$USERI1
 70
     0
  9
$USERI2
 70
     0
  9
$USERI3
 70
     0
  9
$USERI4
 70
     0
  9
$USERI5
 70
     0
  9
$USERR1
 40
0.0
  9
$USERR2
 40
0.0
  9
$USERR3
 40
0.0
  9
$USERR4
 40
0.0
  9
$USERR5
 40
0.0
  9
$WORLDVIEW
 70
     1
  9
$SHADEDGE
 70
     3
  9
$SHADEDIF
 70
    70
  9
$TILEMODE
 70
     0
  9
$MAXACTVP
 70
    64
  9
$PINSBASE
 10
0.0
 20
0.0
 30
0.0
  9
$PLIMCHECK
 70
     0
  9
$PEXTMIN
 10
0.2649318323908574
 20
13.29592545370372
 30
0.0
  9
$PEXTMAX
 10
411.4172371123197
 20
293.5859991977645
 30
0.0
  9
$PLIMMIN
 10
-4.243344802985491
 20
-0.2392810716698293
  9
$PLIMMAX
 10
420.2572316000441
 20
299.9065317358239
  9
$UNITMODE
 70
     0
  9
$VISRETAIN
 70
     1
  9
$PLINEGEN
 70
     0
  9
$PSLTSCALE
 70
     1
  9
$TREEDEPTH
 70
  3020
  9
$CMLSTYLE
  2
Standard
  9
$CMLJUST
 70
     0
  9
$CMLSCALE
 40
20.0
  9
$PROXYGRAPHICS
 70
     1
  9
$MEASUREMENT
 70
     1
  9
$CELWEIGHT
370
     9
  9
$ENDCAPS
280
     0
  9
$JOINSTYLE
280
     0
  9
$LWDISPLAY
290
     1
  9
$INSUNITS
 70
     4
  9
$HYPERLINKBASE
  1

  9
$STYLESHEET
  1
.15MM.CTB
  9
$XEDIT
290
     1
  9
$CEPSNTYPE
380
     0
  9
$PSTYLEMODE
290
     1
  9
$FINGERPRINTGUID
  2
{524C90F3-A786-4345-9921-3B1287DDCEAC}
  9
$VERSIONGUID
  2
{38C0C4A8-98CE-CA4C-80F6-B2F64B7BEF3B}
  9
$EXTNAMES
290
     1
  9
$PSVPSCALE
 40
0.25
  9
$OLESTARTUP
290
     0
  9
$SORTENTS
280
   127
  9
$INDEXCTL
280
     0
  9
$HIDETEXT
280
     1
  9
$XCLIPFRAME
280
     2
  9
$HALOGAP
280
     0
  9
$OBSCOLOR
 70
   257
  9
$OBSLTYPE
280
     0
  9
$INTERSECTIONDISPLAY
280
     0
  9
$INTERSECTIONCOLOR
 70
   257
  9
$DIMASSOC
280
     2
  9
$PROJECTNAME
  1

  9
$CAMERADISPLAY
290
     0
  9
$LENSLENGTH
 40
50.0
  9
$CAMERAHEIGHT
 40
0.0
  9
$STEPSPERSEC
 40
2.0
  9
$STEPSIZE
 40
6.0
  9
$3DDWFPREC
 40
2.0
  9
$PSOLWIDTH
 40
0.25
  9
$PSOLHEIGHT
 40
4.0
  9
$LOFTANG1
 40
1.570796326794896
  9
$LOFTANG2
 40
1.570796326794896
  9
$LOFTMAG1
 40
0.0
  9
$LOFTMAG2
 40
0.0
  9
$LOFTPARAM
 70
     7
  9
$LOFTNORMALS
280
     1
  9
$LATITUDE
 40
37.795
  9
$LONGITUDE
 40
-122.394
  9
$NORTHDIRECTION
 40
0.0
  9
$TIMEZONE
 70
 -8000
  9
$LIGHTGLYPHDISPLAY
280
     1
  9
$TILEMODELIGHTSYNCH
280
     1
  9
$CMATERIAL
347
3497A
  9
$SOLIDHIST
280
     0
  9
$SHOWHIST
280
     1
  9
$DWFFRAME
280
     2
  9
$DGNFRAME
280
     0
  9
$REALWORLDSCALE
290
     1
  9
$INTERFERECOLOR
 62
     1
  9
$INTERFEREOBJVS
345
3499C
  9
$INTERFEREVPVS
346
40B7E
  9
$CSHADOW
280
     0
  9
$SHADOWPLANELOCATION
 40
0.0
  0
ENDSEC
  0
SECTION
  2
CLASSES
  0
CLASS
  1
ACDBDICTIONARYWDFLT
  2
AcDbDictionaryWithDefault
  3
ObjectDBX Classes
 90
        0
 91
        1
280
     0
281
     0
  0
CLASS
  1
DIMASSOC
  2
AcDbDimAssoc
  3
"AcDbDimAssoc|Product Desc:     AcDim ARX App For Dimension|Company:          Autodesk, Inc.|WEB Address:      www.autodesk.com"
 90
        0
 91
        3
280
     0
281
     0
  0
CLASS
  1
DICTIONARYVAR
  2
AcDbDictionaryVar
  3
ObjectDBX Classes
 90
        0
 91
       13
280
     0
281
     0
  0
CLASS
  1
PLOTSETTINGS
  2
AcDbPlotSettings
  3
ObjectDBX Classes
 90
        0
 91
        1
280
     0
281
     0
  0
CLASS
  1
MATERIAL
  2
AcDbMaterial
  3
ObjectDBX Classes
 90
     1153
 91
        3
280
     0
281
     0
  0
CLASS
  1
VISUALSTYLE
  2
AcDbVisualStyle
  3
ObjectDBX Classes
 90
     4095
 91
       26
280
     0
281
     0
  0
CLASS
  1
TABLESTYLE
  2
AcDbTableStyle
  3
ObjectDBX Classes
 90
     4095
 91
        1
280
     0
281
     0
  0
CLASS
  1
SCALE
  2
AcDbScale
  3
ObjectDBX Classes
 90
     1153
 91
       49
280
     0
281
     0
  0
CLASS
  1
MLEADERSTYLE
  2
AcDbMLeaderStyle
  3
ACDB_MLEADERSTYLE_CLASS
 90
     4095
 91
        1
280
     0
281
     0
  0
CLASS
  1
CELLSTYLEMAP
  2
AcDbCellStyleMap
  3
ObjectDBX Classes
 90
     1152
 91
        2
280
     0
281
     0
  0
CLASS
  1
SORTENTSTABLE
  2
AcDbSortentsTable
  3
ObjectDBX Classes
 90
        0
 91
        1
280
     0
281
     0
  0
CLASS
  1
SOLID_BACKGROUND
  2
AcDbSolidBackground
  3
SCENEOE
 90
     4095
 91
        0
280
     0
281
     0
  0
CLASS
  1
NPOCOLLECTION
  2
AcDbImpNonPersistentObjectsCollection
  3
ObjectDBX Classes
 90
     1153
 91
        0
280
     0
281
     0
  0
CLASS
  1
ACDBSECTIONVIEWSTYLE
  2
AcDbSectionViewStyle
  3
ObjectDBX Classes
 90
     1025
 91
        1
280
     0
281
     0
  0
CLASS
  1
ACDBDETAILVIEWSTYLE
  2
AcDbDetailViewStyle
  3
ObjectDBX Classes
 90
     1025
 91
        1
280
     0
281
     0
  0
ENDSEC
  0
SECTION
  2
TABLES
  0
TABLE
  2
VPORT
  5
8
102
{ACAD_XDICTIONARY
360
34A75
102
}
330
0
100
AcDbSymbolTable
 70
     1
  0
VPORT
  5
40A93
330
8
100
AcDbSymbolTableRecord
100
AcDbViewportTableRecord
  2
*Active
 70
     0
 10
0.0
 20
0.0
 11
1.0
 21
1.0
 12
3193061.561241106
 22
3873420.672981301
 13
0.0
 23
0.0
 14
10.0
 24
10.0
 15
10.0
 25
10.0
 16
0.0
 26
0.0
 36
1.0
 17
0.0
 27
0.0
 37
0.0
 40
10758.70994423884
 41
2.292712066905615
 42
50.0
 43
0.0
 44
0.0
 50
0.0
 51
0.0
 71
     0
 72
   100
 73
     1
 74
     3
 75
     0
 76
     0
 77
     0
 78
     0
281
     0
 65
     1
110
0.0
120
0.0
130
0.0
111
1.0
121
0.0
131
0.0
112
0.0
122
1.0
132
0.0
 79
     0
146
0.0
348
34998
 60
     3
 61
     5
292
     1
282
     1
141
0.0
142
0.0
 63
   250
421
  3355443
1001
ACAD_NAV_VCDISPLAY
1070
     3
  0
ENDTAB
  0
TABLE
  2
LTYPE
  5
5
330
0
100
AcDbSymbolTable
 70
     1
  0
LTYPE
  5
14
330
5
100
AcDbSymbolTableRecord
100
AcDbLinetypeTableRecord
  2
ByBlock
 70
     0
  3

 72
    65
 73
     0
 40
0.0
  0
LTYPE
  5
15
330
5
100
AcDbSymbolTableRecord
100
AcDbLinetypeTableRecord
  2
ByLayer
 70
     0
  3

 72
    65
 73
     0
 40
0.0
  0
LTYPE
  5
16
330
5
100
AcDbSymbolTableRecord
100
AcDbLinetypeTableRecord
  2
Continuous
 70
     0
  3
Solid line
 72
    65
 73
     0
 40
0.0
  0
ENDTAB
  0
TABLE
  2
LAYER
  5
2
102
{ACAD_XDICTIONARY
360
393
102
}
330
0
100
AcDbSymbolTable
 70
     7
  0
LAYER
  5
10
102
{ACAD_XDICTIONARY
360
349FE
102
}
330
2
100
AcDbSymbolTableRecord
100
AcDbLayerTableRecord
  2
0
 70
     0
 62
     7
  6
Continuous
370
    -3
390
F
347
3498A
  0
LAYER
  5
34
330
2
100
AcDbSymbolTableRecord
100
AcDbLayerTableRecord
  2
Defpoints
 70
     0
 62
     7
  6
Continuous
290
     0
370
    -3
390
F
347
3498A
  0
LAYER
  5
396
102
{ACAD_XDICTIONARY
360
397
102
}
330
2
100
AcDbSymbolTableRecord
100
AcDbLayerTableRecord
  2
APPLICATION
 70
     0
 62
     3
  6
Continuous
370
    -3
390
F
347
3498A
  0
LAYER
  5
24618
102
{ACAD_XDICTIONARY
360
34A02
102
}
330
2
100
AcDbSymbolTableRecord
100
AcDbLayerTableRecord
  2
DETAIL
 70
     0
 62
     2
  6
Continuous
370
    -3
390
F
347
3498A
  0
LAYER
  5
24ACC
102
{ACAD_XDICTIONARY
360
34A04
102
}
330
2
100
AcDbSymbolTableRecord
100
AcDbLayerTableRecord
  2
Hidden
 70
     0
 62
     7
  6
Continuous
370
    -3
390
F
347
3498A
  0
LAYER
  5
357F7
330
2
100
AcDbSymbolTableRecord
100
AcDbLayerTableRecord
  2
TEXT
 70
     0
 62
     7
  6
Continuous
370
    -3
390
F
347
3498A
  0
LAYER
  5
3959E
330
2
100
AcDbSymbolTableRecord
100
AcDbLayerTableRecord
  2
DIM
 70
     0
 62
     7
  6
Continuous
370
    -3
390
F
347
3498A
  0
ENDTAB
  0
TABLE
  2
STYLE
  5
3
330
0
100
AcDbSymbolTable
 70
     2
  0
STYLE
  5
11
330
3
100
AcDbSymbolTableRecord
100
AcDbTextStyleTableRecord
  2
Standard
 70
     0
 40
0.0
 41
1.0
 50
0.0
 71
     0
 42
2.5
  3
txt
  4

  0
STYLE
  5
40AB6
330
3
100
AcDbSymbolTableRecord
100
AcDbTextStyleTableRecord
  2
fastrack
 70
     0
 40
0.0
 41
1.0
 50
0.0
 71
     0
 42
2.5
  3
simplex.shx
  4

  0
ENDTAB
  0
TABLE
  2
VIEW
  5
6
330
0
100
AcDbSymbolTable
 70
     1
  0
ENDTAB
  0
TABLE
  2
UCS
  5
7
330
0
100
AcDbSymbolTable
 70
     0
  0
ENDTAB
  0
TABLE
  2
APPID
  5
9
330
0
100
AcDbSymbolTable
 70
     8
  0
APPID
  5
12
330
9
100
AcDbSymbolTableRecord
100
AcDbRegAppTableRecord
  2
ACAD
 70
     0
  0
APPID
  5
2D9CA
330
9
100
AcDbSymbolTableRecord
100
AcDbRegAppTableRecord
  2
ACAD_PSEXT
 70
     0
  0
APPID
  5
349CA
330
9
100
AcDbSymbolTableRecord
100
AcDbRegAppTableRecord
  2
ACAD_MLEADERVER
 70
     0
  0
APPID
  5
35295
330
9
100
AcDbSymbolTableRecord
100
AcDbRegAppTableRecord
  2
RAK
 70
     0
  0
APPID
  5
35296
330
9
100
AcDbSymbolTableRecord
100
AcDbRegAppTableRecord
  2
AcAecLayerStandard
 70
     0
  0
APPID
  5
35297
330
9
100
AcDbSymbolTableRecord
100
AcDbRegAppTableRecord
  2
ACAD_DSTYLE_DIMJOGGED_JOGANGLE_SYMBOL
 70
     0
  0
APPID
  5
35527
330
9
100
AcDbSymbolTableRecord
100
AcDbRegAppTableRecord
  2
ACAD_DSTYLE_DIMEXT_LENGTH
 70
     0
  0
APPID
  5
40B94
330
9
100
AcDbSymbolTableRecord
100
AcDbRegAppTableRecord
  2
ACAD_NAV_VCDISPLAY
 70
     0
  0
ENDTAB
  0
TABLE
  2
DIMSTYLE
  5
A
330
0
100
AcDbSymbolTable
 70
     2
100
AcDbDimStyleTable
 71
     2
340
27
340
39B
  0
DIMSTYLE
105
27
102
{ACAD_REACTORS
330
3FB4E
330
3FEB7
330
3FEE1
330
3FF1D
102
}
330
A
100
AcDbSymbolTableRecord
100
AcDbDimStyleTableRecord
  2
ISO-25
 70
     0
 41
2.5
 42
0.625
 43
3.75
 44
1.25
 73
     0
 74
     0
 77
     1
 78
     8
140
6.0
141
2.5
143
0.03937007874016
147
0.625
171
     3
172
     1
271
     0
272
     0
274
     3
278
    44
283
     0
284
     8
340
11
342
1A67
  0
DIMSTYLE
105
39B
330
A
100
AcDbSymbolTableRecord
100
AcDbDimStyleTableRecord
  2
Standard
 70
     0
271
     0
272
     0
340
11
  0
ENDTAB
  0
TABLE
  2
BLOCK_RECORD
  5
1
330
0
100
AcDbSymbolTable
 70
     5
  0
BLOCK_RECORD
  5
1F
102
{ACAD_XDICTIONARY
360
35450
102
}
330
1
100
AcDbSymbolTableRecord
100
AcDbBlockTableRecord
  2
*Model_Space
340
22
 70
     0
280
     1
281
     0
  0
BLOCK_RECORD
  5
348E5
330
1
100
AcDbSymbolTableRecord
100
AcDbBlockTableRecord
  2
*Paper_Space
340
3491A
 70
     0
280
     1
281
     0
  0
BLOCK_RECORD
  5
1A67
330
1
100
AcDbSymbolTableRecord
100
AcDbBlockTableRecord
  2
_ArchTick
340
0
 70
     0
280
     1
281
     0
  0
BLOCK_RECORD
  5
3FC67
330
1
100
AcDbSymbolTableRecord
100
AcDbBlockTableRecord
  2
*D1
340
0
 70
     0
280
     1
281
     0
  0
BLOCK_RECORD
  5
3FEB8
330
1
100
AcDbSymbolTableRecord
100
AcDbBlockTableRecord
  2
*D2
340
0
 70
     0
280
     1
281
     0
  0
BLOCK_RECORD
  5
3FEE2
330
1
100
AcDbSymbolTableRecord
100
AcDbBlockTableRecord
  2
*D3
340
0
 70
     0
280
     1
281
     0
  0
BLOCK_RECORD
  5
3FF1E
330
1
100
AcDbSymbolTableRecord
100
AcDbBlockTableRecord
  2
*D4
340
0
 70
     0
280
     1
281
     0
  0
ENDTAB
  0
ENDSEC
  0
SECTION
  2
BLOCKS
  0
BLOCK
  5
20
330
1F
100
AcDbEntity
  8
0
100
AcDbBlockBegin
  2
*Model_Space
 70
     0
 10
0.0
 20
0.0
 30
0.0
  3
*Model_Space
  1

  0
ENDBLK
  5
21
330
1F
100
AcDbEntity
  8
0
100
AcDbBlockEnd
  0
BLOCK
  5
34918
330
348E5
100
AcDbEntity
 67
     1
  8
0
100
AcDbBlockBegin
  2
*Paper_Space
 70
     0
 10
0.0
 20
0.0
 30
0.0
  3
*Paper_Space
  1

  0
ENDBLK
  5
34919
330
348E5
100
AcDbEntity
 67
     1
  8
0
100
AcDbBlockEnd
  0
BLOCK
  5
1A69
330
1A67
100
AcDbEntity
  8
0
100
AcDbBlockBegin
  2
_ArchTick
 70
     0
 10
0.0
 20
0.0
 30
0.0
  3
_ArchTick
  1

  0
LWPOLYLINE
  5
1A68
330
1A67
100
AcDbEntity
  8
0
  6
ByBlock
 62
     0
100
AcDbPolyline
 90
        2
 70
     0
 43
0.15
 10
-0.5
 20
-0.5
 10
0.5
 20
0.5
  0
ENDBLK
  5
1A6A
330
1A67
100
AcDbEntity
  8
0
100
AcDbBlockEnd
  0
BLOCK
  5
3FC70
330
3FC67
100
AcDbEntity
  8
0
 62
     7
370
     9
100
AcDbBlockBegin
  2
*D1
 70
     1
 10
0.0
 20
0.0
 30
0.0
  3
*D1
  1

  0
LINE
  5
40B02
330
3FC67
100
AcDbEntity
  8
DIM
 62
     0
440
 16777216
370
    -2
100
AcDbLine
 10
3183136.855143481
 20
3875589.435651918
 30
0.0
 11
3182410.176257323
 21
3875589.435651918
 31
0.0
  0
LINE
  5
40B03
330
3FC67
100
AcDbEntity
  8
DIM
 62
     0
440
 16777216
370
    -2
100
AcDbLine
 10
3182440.176257324
 20
3875509.435651918
 30
0.0
 11
3182440.176257324
 21
3873468.26778125
 31
0.0
  0
SOLID
  5
40B04
330
3FC67
100
AcDbEntity
  8
DIM
 62
     0
440
 16777216
370
     9
100
AcDbTrace
 10
3182426.842923988
 20
3875509.435651918
 30
0.0
 11
3182453.509590656
 21
3875509.435651918
 31
0.0
 12
3182440.176257324
 22
3875589.435651918
 32
0.0
 13
3182440.176257324
 23
3875589.435651918
 33
0.0
  0
SOLID
  5
40B05
330
3FC67
100
AcDbEntity
  8
DIM
 62
     0
440
 16777216
370
     9
100
AcDbTrace
 10
3182426.842923988
 20
3873468.26778125
 30
0.0
 11
3182453.509590656
 21
3873468.26778125
 31
0.0
 12
3182440.176257324
 22
3873388.267781251
 32
0.0
 13
3182440.176257324
 23
3873388.267781251
 33
0.0
  0
MTEXT
  5
40B06
330
3FC67
100
AcDbEntity
  8
DIM
440
 16777216
370
    25
100
AcDbMText
 10
3182356.842923989
 20
3874488.851716585
 30
0.0
 40
80.0
 41
0.0
 46
0.0
 71
     5
 72
     1
  1
to suit fence height
  7
fastrack
 11
0.0000000000000001
 21
1.0
 31
0.0
 73
     1
 44
1.0
  0
POINT
  5
40B07
330
3FC67
100
AcDbEntity
  8
Defpoints
 62
     0
440
 16777216
370
     9
100
AcDbPoint
 10
3183166.855143481
 20
3875589.435651918
 30
0.0
  0
POINT
  5
40B08
330
3FC67
100
AcDbEntity
  8
Defpoints
 62
     0
440
 16777216
370
     9
100
AcDbPoint
 10
3182440.176257324
 20
3873388.267781251
 30
0.0
  0
POINT
  5
40B09
330
3FC67
100
AcDbEntity
  8
Defpoints
 62
     0
440
 16777216
370
     9
100
AcDbPoint
 10
3182440.176257324
 20
3873388.267781251
 30
0.0
  0
ENDBLK
  5
3FC71
330
3FC67
100
AcDbEntity
  8
0
 62
     7
370
     9
100
AcDbBlockEnd
  0
BLOCK
  5
3FEC2
330
3FEB8
100
AcDbEntity
  8
0
 62
     7
370
     9
100
AcDbBlockBegin
  2
*D2
 70
     1
 10
0.0
 20
0.0
 30
0.0
  3
*D2
  1

  0
LINE
  5
40AF9
330
3FEB8
100
AcDbEntity
  8
DIM
 62
     0
440
 16777216
370
    -2
100
AcDbLine
 10
3181884.534647336
 20
3875768.267781251
 30
0.0
 11
3181884.534647336
 21
3876313.136247729
 31
0.0
  0
LINE
  5
40AFA
330
3FEB8
100
AcDbEntity
  8
DIM
 62
     0
440
 16777216
370
    -2
100
AcDbLine
 10
3187745.496352729
 20
3875450.961272962
 30
0.0
 11
3187745.496352729
 21
3876313.136247729
 31
0.0
  0
LINE
  5
40AFB
330
3FEB8
100
AcDbEntity
  8
DIM
 62
     0
440
 16777216
370
    -2
100
AcDbLine
 10
3181964.534647335
 20
3876283.136247729
 30
0.0
 11
3187665.496352729
 21
3876283.136247729
 31
0.0
  0
SOLID
  5
40AFC
330
3FEB8
100
AcDbEntity
  8
DIM
 62
     0
440
 16777216
370
     9
100
AcDbTrace
 10
3181964.534647335
 20
3876296.469581063
 30
0.0
 11
3181964.534647335
 21
3876269.802914397
 31
0.0
 12
3181884.534647336
 22
3876283.136247729
 32
0.0
 13
3181884.534647336
 23
3876283.136247729
 33
0.0
  0
SOLID
  5
40AFD
330
3FEB8
100
AcDbEntity
  8
DIM
 62
     0
440
 16777216
370
     9
100
AcDbTrace
 10
3187665.496352729
 20
3876296.469581063
 30
0.0
 11
3187665.496352729
 21
3876269.802914397
 31
0.0
 12
3187745.496352729
 22
3876283.136247729
 32
0.0
 13
3187745.496352729
 23
3876283.136247729
 33
0.0
  0
MTEXT
  5
40AFE
330
3FEB8
100
AcDbEntity
  8
DIM
440
 16777216
370
    25
100
AcDbMText
 10
3184815.015500033
 20
3876353.136247729
 30
0.0
 40
80.0
 41
0.0
 46
0.0
 71
     5
 72
     1
  1
DIMENSION A
  7
fastrack
 73
     1
 44
1.0
  0
POINT
  5
40AFF
330
3FEB8
100
AcDbEntity
  8
Defpoints
 62
     0
440
 16777216
370
     9
100
AcDbPoint
 10
3181884.534647336
 20
3875738.26778125
 30
0.0
  0
POINT
  5
40B00
330
3FEB8
100
AcDbEntity
  8
Defpoints
 62
     0
440
 16777216
370
     9
100
AcDbPoint
 10
3187745.496352729
 20
3875420.961272962
 30
0.0
  0
POINT
  5
40B01
330
3FEB8
100
AcDbEntity
  8
Defpoints
 62
     0
440
 16777216
370
     9
100
AcDbPoint
 10
3187745.496352729
 20
3876283.136247729
 30
0.0
  0
ENDBLK
  5
3FEC3
330
3FEB8
100
AcDbEntity
  8
0
 62
     7
370
     9
100
AcDbBlockEnd
  0
BLOCK
  5
3FEEC
330
3FEE2
100
AcDbEntity
  8
0
 62
     7
370
     9
100
AcDbBlockBegin
  2
*D3
 70
     1
 10
0.0
 20
0.0
 30
0.0
  3
*D3
  1

  0
LINE
  5
40B13
330
3FEE2
100
AcDbEntity
  8
DIM
 62
     0
440
 16777216
370
    -2
100
AcDbLine
 10
3181800.534647337
 20
3871384.526726829
 30
0.0
 11
3181800.534647337
 21
3871785.026076209
 31
0.0
  0
LINE
  5
40B14
330
3FEE2
100
AcDbEntity
  8
DIM
 62
     0
440
 16777216
370
    -2
100
AcDbLine
 10
3187844.64635273
 20
3871384.526726828
 30
0.0
 11
3187844.64635273
 21
3871785.026076209
 31
0.0
  0
LINE
  5
40B15
330
3FEE2
100
AcDbEntity
  8
DIM
 62
     0
440
 16777216
370
    -2
100
AcDbLine
 10
3181880.534647336
 20
3871755.026076209
 30
0.0
 11
3187764.646352729
 21
3871755.026076209
 31
0.0
  0
SOLID
  5
40B16
330
3FEE2
100
AcDbEntity
  8
DIM
 62
     0
440
 16777216
370
     9
100
AcDbTrace
 10
3181880.534647336
 20
3871768.359409542
 30
0.0
 11
3181880.534647336
 21
3871741.692742875
 31
0.0
 12
3181800.534647337
 22
3871755.026076209
 32
0.0
 13
3181800.534647337
 23
3871755.026076209
 33
0.0
  0
SOLID
  5
40B17
330
3FEE2
100
AcDbEntity
  8
DIM
 62
     0
440
 16777216
370
     9
100
AcDbTrace
 10
3187764.646352729
 20
3871768.359409542
 30
0.0
 11
3187764.646352729
 21
3871741.692742875
 31
0.0
 12
3187844.64635273
 22
3871755.026076209
 32
0.0
 13
3187844.64635273
 23
3871755.026076209
 33
0.0
  0
MTEXT
  5
40B18
330
3FEE2
100
AcDbEntity
  8
DIM
440
 16777216
370
    25
100
AcDbMText
 10
3184822.590500033
 20
3871825.026076209
 30
0.0
 40
80.0
 41
0.0
 46
0.0
 71
     5
 72
     1
  1
DIMENSION B
  7
fastrack
 73
     1
 44
1.0
  0
POINT
  5
40B19
330
3FEE2
100
AcDbEntity
  8
Defpoints
 62
     0
440
 16777216
370
     9
100
AcDbPoint
 10
3181800.534647337
 20
3871354.526726829
 30
0.0
  0
POINT
  5
40B1A
330
3FEE2
100
AcDbEntity
  8
Defpoints
 62
     0
440
 16777216
370
     9
100
AcDbPoint
 10
3187844.64635273
 20
3871354.526726828
 30
0.0
  0
POINT
  5
40B1B
330
3FEE2
100
AcDbEntity
  8
Defpoints
 62
     0
440
 16777216
370
     9
100
AcDbPoint
 10
3187844.64635273
 20
3871755.026076209
 30
0.0
  0
ENDBLK
  5
3FEED
330
3FEE2
100
AcDbEntity
  8
0
 62
     7
370
     9
100
AcDbBlockEnd
  0
BLOCK
  5
3FF28
330
3FF1E
100
AcDbEntity
  8
0
 62
     7
370
     9
100
AcDbBlockBegin
  2
*D4
 70
     1
 10
0.0
 20
0.0
 30
0.0
  3
*D4
  1

  0
LINE
  5
40B0A
330
3FF1E
100
AcDbEntity
  8
DIM
 62
     0
440
 16777216
370
    -2
100
AcDbLine
 10
3181550.534647336
 20
3871542.526726829
 30
0.0
 11
3181550.534647336
 21
3872127.468535186
 31
0.0
  0
LINE
  5
40B0B
330
3FF1E
100
AcDbEntity
  8
DIM
 62
     0
440
 16777216
370
    -2
100
AcDbLine
 10
3192999.794956989
 20
3871542.526726829
 30
0.0
 11
3192999.794956989
 21
3872127.468535186
 31
0.0
  0
LINE
  5
40B0C
330
3FF1E
100
AcDbEntity
  8
DIM
 62
     0
440
 16777216
370
    -2
100
AcDbLine
 10
3181630.534647336
 20
3872097.468535187
 30
0.0
 11
3192919.794956988
 21
3872097.468535187
 31
0.0
  0
SOLID
  5
40B0D
330
3FF1E
100
AcDbEntity
  8
DIM
 62
     0
440
 16777216
370
     9
100
AcDbTrace
 10
3181630.534647336
 20
3872110.80186852
 30
0.0
 11
3181630.534647336
 21
3872084.135201853
 31
0.0
 12
3181550.534647336
 22
3872097.468535187
 32
0.0
 13
3181550.534647336
 23
3872097.468535187
 33
0.0
  0
SOLID
  5
40B0E
330
3FF1E
100
AcDbEntity
  8
DIM
 62
     0
440
 16777216
370
     9
100
AcDbTrace
 10
3192919.794956988
 20
3872110.80186852
 30
0.0
 11
3192919.794956988
 21
3872084.135201853
 31
0.0
 12
3192999.794956989
 22
3872097.468535187
 32
0.0
 13
3192999.794956989
 23
3872097.468535187
 33
0.0
  0
MTEXT
  5
40B0F
330
3FF1E
100
AcDbEntity
  8
DIM
440
 16777216
370
    25
100
AcDbMText
 10
3187275.164802163
 20
3872167.468535187
 30
0.0
 40
80.0
 41
0.0
 46
0.0
 71
     5
 72
     1
  1
DIMENSION C
  7
fastrack
 73
     1
 44
1.0
  0
POINT
  5
40B10
330
3FF1E
100
AcDbEntity
  8
Defpoints
 62
     0
440
 16777216
370
     9
100
AcDbPoint
 10
3181550.534647336
 20
3871512.52672683
 30
0.0
  0
POINT
  5
40B11
330
3FF1E
100
AcDbEntity
  8
Defpoints
 62
     0
440
 16777216
370
     9
100
AcDbPoint
 10
3192999.794956989
 20
3871512.52672683
 30
0.0
  0
POINT
  5
40B12
330
3FF1E
100
AcDbEntity
  8
Defpoints
 62
     0
440
 16777216
370
     9
100
AcDbPoint
 10
3192999.794956989
 20
3872097.468535187
 30
0.0
  0
ENDBLK
  5
3FF29
330
3FF1E
100
AcDbEntity
  8
0
 62
     7
370
     9
100
AcDbBlockEnd
  0
ENDSEC
  0
SECTION
  2
ENTITIES
  0
MTEXT
  5
36196
330
1F
100
AcDbEntity
  8
Hidden
 62
     7
370
     9
100
AcDbMText
 10
3136954.996047986
 20
3849092.281482387
 30
0.0
 40
2.5
 41
20000.0
 46
0.0
 71
     1
 72
     5
  1

 73
     1
 44
1.0
  0
MTEXT
  5
374F7
330
1F
100
AcDbEntity
  8
Hidden
 62
     7
370
     9
100
AcDbMText
 10
3148510.346637102
 20
3886687.005290172
 30
0.0
 40
6.0
 41
0.0
 46
0.0
 71
     1
 72
     1
  1

 73
     1
 44
1.0
  0
MTEXT
  5
37502
330
1F
100
AcDbEntity
  8
Hidden
 62
     7
370
     9
100
AcDbMText
 10
3147791.731576389
 20
3887008.410204927
 30
0.0
 40
6.0
 41
0.0
 46
0.0
 71
     1
 72
     1
  1

 73
     1
 44
1.0
  0
MTEXT
  5
37519
330
1F
100
AcDbEntity
  8
Hidden
 62
     7
370
     9
100
AcDbMText
 10
3155450.833236922
 20
3885936.243704609
 30
0.0
 40
6.0
 41
0.0
 46
0.0
 71
     1
 72
     1
  1

 73
     1
 44
1.0
  0
MTEXT
  5
38173
330
1F
100
AcDbEntity
  8
Hidden
 62
     7
370
     9
100
AcDbMText
 10
3148129.457651334
 20
3893366.524185319
 30
0.0
 40
6.0
 41
0.0
 46
0.0
 71
     1
 72
     1
  1

 73
     1
 44
1.0
  0
MTEXT
  5
39300
330
1F
100
AcDbEntity
  8
Hidden
 62
     7
370
     9
100
AcDbMText
 10
3165523.565760746
 20
3887624.414654911
 30
0.0
 40
6.0
 41
0.0
 46
0.0
 71
     1
 72
     1
  1

 73
     1
 44
1.0
  0
MTEXT
  5
39D91
330
1F
100
AcDbEntity
  8
Hidden
 62
     7
370
     9
100
AcDbMText
 10
3145312.424499914
 20
3890438.83596013
 30
0.0
 40
6.0
 41
0.0
 46
0.0
 71
     1
 72
     1
  1

 73
     1
 44
1.0
  0
MTEXT
  5
3A508
330
1F
100
AcDbEntity
  8
Hidden
 62
     7
370
     9
100
AcDbMText
 10
3162528.012378292
 20
3899518.574858626
 30
0.0
 40
6.0
 41
0.0
 46
0.0
 71
     1
 72
     1
  1

 73
     1
 44
1.0
  0
MTEXT
  5
3A57B
330
1F
100
AcDbEntity
  8
Hidden
 62
     7
370
     9
100
AcDbMText
 10
3165265.629066562
 20
3898704.811514466
 30
0.0
 40
6.0
 41
0.0
 46
0.0
 71
     1
 72
     1
  1

 73
     1
 44
1.0
  0
MTEXT
  5
3AEAA
330
1F
100
AcDbEntity
  8
Hidden
 62
     7
370
     9
100
AcDbMText
 10
3175581.958030529
 20
3895108.815429272
 30
0.0
 40
6.0
 41
0.0
 46
0.0
 71
     1
 72
     1
  1

 73
     1
 44
1.0
  0
MTEXT
  5
3AEBA
330
1F
100
AcDbEntity
  8
Hidden
 62
     7
370
     9
100
AcDbMText
 10
3175787.952967703
 20
3895484.426044064
 30
0.0
 40
6.0
 41
0.0
 46
0.0
 71
     1
 72
     1
  1

 73
     1
 44
1.0
  0
MTEXT
  5
3AEF3
330
1F
100
AcDbEntity
  8
Hidden
 62
     7
370
     9
100
AcDbMText
 10
3175929.337497398
 20
3895061.191123565
 30
0.0
 40
6.0
 41
0.0
 46
0.0
 71
     1
 72
     1
  1

 73
     1
 44
1.0
  0
MTEXT
  5
3BD06
330
1F
100
AcDbEntity
  8
Hidden
 62
     7
370
     9
100
AcDbMText
 10
3170905.799539133
 20
3895922.849244287
 30
0.0
 40
6.0
 41
0.0
 46
0.0
 71
     1
 72
     1
  1

 73
     1
 44
1.0
  0
MTEXT
  5
3C12A
330
1F
100
AcDbEntity
  8
Hidden
 62
     7
370
     9
100
AcDbMText
 10
3171556.631959679
 20
3886409.388448102
 30
0.0
 40
6.0
 41
0.0
 46
0.0
 71
     1
 72
     1
  1

 73
     1
 44
1.0
  0
LINE
  5
3CF89
330
1F
100
AcDbEntity
  8
TEXT
370
    25
100
AcDbLine
 10
3188185.07598391
 20
3873603.135979784
 30
0.0
 11
3188185.07598391
 21
3873728.487857974
 31
0.0
  0
LINE
  5
3CF8A
330
1F
100
AcDbEntity
  8
TEXT
370
    25
100
AcDbLine
 10
3188199.278553386
 20
3873617.33854926
 30
0.0
 11
3188199.278553386
 21
3873714.285288499
 31
0.0
  0
LINE
  5
3CF8B
330
1F
100
AcDbEntity
  8
TEXT
370
    25
100
AcDbLine
 10
3188199.278553386
 20
3873617.33854926
 30
0.0
 11
3188256.088831287
 21
3873617.33854926
 31
0.0
  0
LINE
  5
3CF8C
330
1F
100
AcDbEntity
  8
TEXT
370
    25
100
AcDbLine
 10
3188256.088831287
 20
3873540.087816305
 30
0.0
 11
3188256.088831287
 21
3873588.933410309
 31
0.0
  0
LINE
  5
3CF8D
330
1F
100
AcDbEntity
  8
TEXT
370
    25
100
AcDbLine
 10
3188289.180818165
 20
3873588.933410309
 30
0.0
 11
3188289.180818165
 21
3873603.135979784
 31
0.0
  0
LINE
  5
3CF8E
330
1F
100
AcDbEntity
  8
TEXT
370
    25
100
AcDbLine
 10
3188256.088831287
 20
3873588.933410309
 30
0.0
 11
3188289.180818165
 21
3873588.933410309
 31
0.0
  0
LINE
  5
3CF8F
330
1F
100
AcDbEntity
  8
TEXT
370
    25
100
AcDbLine
 10
3188289.180818165
 20
3873603.135979784
 30
0.0
 11
3188256.088831287
 21
3873617.33854926
 31
0.0
  0
LINE
  5
3CF90
330
1F
100
AcDbEntity
  8
TEXT
370
    25
100
AcDbLine
 10
3188241.886261812
 20
3873540.087816305
 30
0.0
 11
3188241.886261812
 21
3873603.135979784
 31
0.0
  0
LINE
  5
3CF91
330
1F
100
AcDbEntity
  8
TEXT
370
    25
100
AcDbLine
 10
3188185.07598391
 20
3873603.135979784
 30
0.0
 11
3188241.886261812
 21
3873603.135979784
 31
0.0
  0
LINE
  5
3CF92
330
1F
100
AcDbEntity
  8
TEXT
370
    25
100
AcDbLine
 10
3188256.088831287
 20
3874069.037068855
 30
0.0
 11
3188256.088831287
 21
3874173.085092834
 31
0.0
  0
LINE
  5
3CF93
330
1F
100
AcDbEntity
  8
TEXT
370
    25
100
AcDbLine
 10
3188241.886261812
 20
3874083.239638332
 30
0.0
 11
3188241.886261812
 21
3874173.085092834
 31
0.0
  0
LINE
  5
3CF94
330
1F
100
AcDbEntity
  8
TEXT
370
    25
100
AcDbLine
 10
3188199.278553386
 20
3874083.239638332
 30
0.0
 11
3188199.278553386
 21
3874173.085092834
 31
0.0
  0
LINE
  5
3CF95
330
1F
100
AcDbEntity
  8
TEXT
370
    25
100
AcDbLine
 10
3188185.07598391
 20
3874083.239638332
 30
0.0
 11
3188185.07598391
 21
3874173.085092834
 31
0.0
  0
LINE
  5
3CF96
330
1F
100
AcDbEntity
  8
TEXT
370
    25
100
AcDbLine
 10
3188256.088831287
 20
3873875.143590377
 30
0.0
 11
3188256.088831287
 21
3873950.786475404
 31
0.0
  0
LINE
  5
3CF97
330
1F
100
AcDbEntity
  8
TEXT
370
    25
100
AcDbLine
 10
3188241.886261812
 20
3873875.143590377
 30
0.0
 11
3188241.886261812
 21
3873936.583905928
 31
0.0
  0
LINE
  5
3CF98
330
1F
100
AcDbEntity
  8
TEXT
370
    25
100
AcDbLine
 10
3188199.278553386
 20
3873860.941020902
 30
0.0
 11
3188199.278553386
 21
3873936.583905928
 31
0.0
  0
LINE
  5
3CF99
330
1F
100
AcDbEntity
  8
TEXT
370
    25
100
AcDbLine
 10
3188185.07598391
 20
3873846.738451426
 30
0.0
 11
3188185.07598391
 21
3873950.786475404
 31
0.0
  0
LINE
  5
3CF9A
330
1F
100
AcDbEntity
  8
TEXT
370
    25
100
AcDbLine
 10
3188241.886261812
 20
3873875.143590377
 30
0.0
 11
3188256.088831287
 21
3873875.143590377
 31
0.0
  0
LINE
  5
3CF9B
330
1F
100
AcDbEntity
  8
TEXT
370
    25
100
AcDbLine
 10
3188199.278553386
 20
3873860.941020902
 30
0.0
 11
3188256.088831287
 21
3873860.941020902
 31
0.0
  0
LINE
  5
3CF9C
330
1F
100
AcDbEntity
  8
TEXT
370
    25
100
AcDbLine
 10
3188185.07598391
 20
3873846.738451426
 30
0.0
 11
3188256.088831287
 21
3873846.738451426
 31
0.0
  0
LINE
  5
3CF9D
330
1F
100
AcDbEntity
  8
TEXT
370
    25
100
AcDbLine
 10
3188199.278553386
 20
3873749.791712187
 30
0.0
 11
3188256.088831287
 21
3873749.791712187
 31
0.0
  0
LINE
  5
3CF9E
330
1F
100
AcDbEntity
  8
TEXT
370
    25
100
AcDbLine
 10
3188185.07598391
 20
3873735.589142712
 30
0.0
 11
3188256.088831287
 21
3873735.589142712
 31
0.0
  0
LINE
  5
3CF9F
330
1F
100
AcDbEntity
  8
TEXT
370
    25
100
AcDbLine
 10
3188185.07598391
 20
3873728.487857974
 30
0.0
 11
3188256.088831287
 21
3873728.487857974
 31
0.0
  0
LINE
  5
3CFA0
330
1F
100
AcDbEntity
  8
TEXT
370
    25
100
AcDbLine
 10
3188241.886261812
 20
3873631.541118736
 30
0.0
 11
3188256.088831287
 21
3873631.541118736
 31
0.0
  0
LINE
  5
3CFA1
330
1F
100
AcDbEntity
  8
TEXT
370
    25
100
AcDbLine
 10
3188256.088831287
 20
3873631.541118736
 30
0.0
 11
3188256.088831287
 21
3873728.487857974
 31
0.0
  0
LINE
  5
3CFA2
330
1F
100
AcDbEntity
  8
TEXT
370
    25
100
AcDbLine
 10
3188256.088831287
 20
3873735.589142712
 30
0.0
 11
3188256.088831287
 21
3873749.791712187
 31
0.0
  0
LINE
  5
3CFA3
330
1F
100
AcDbEntity
  8
TEXT
370
    25
100
AcDbLine
 10
3188256.088831287
 20
3873846.738451426
 30
0.0
 11
3188256.088831287
 21
3873860.941020902
 31
0.0
  0
LINE
  5
3CFA4
330
1F
100
AcDbEntity
  8
TEXT
370
    25
100
AcDbLine
 10
3188199.278553386
 20
3873749.791712187
 30
0.0
 11
3188199.278553386
 21
3873839.637166689
 31
0.0
  0
LINE
  5
3CFA5
330
1F
100
AcDbEntity
  8
TEXT
370
    25
100
AcDbLine
 10
3188185.07598391
 20
3873735.589142712
 30
0.0
 11
3188185.07598391
 21
3873839.637166689
 31
0.0
  0
LINE
  5
3CFA6
330
1F
100
AcDbEntity
  8
TEXT
370
    25
100
AcDbLine
 10
3188241.886261812
 20
3873631.541118736
 30
0.0
 11
3188241.886261812
 21
3873714.285288499
 31
0.0
  0
LINE
  5
3CFA7
330
1F
100
AcDbEntity
  8
TEXT
370
    25
100
AcDbLine
 10
3188185.07598391
 20
3873735.589142712
 30
0.0
 11
3188241.886261812
 21
3873735.589142712
 31
0.0
  0
LINE
  5
3CFA8
330
1F
100
AcDbEntity
  8
TEXT
370
    25
100
AcDbLine
 10
3188199.278553386
 20
3873714.285288499
 30
0.0
 11
3188241.886261812
 21
3873714.285288499
 31
0.0
  0
LINE
  5
3CFA9
330
1F
100
AcDbEntity
  8
TEXT
370
    25
100
AcDbLine
 10
3188185.07598391
 20
3873839.637166689
 30
0.0
 11
3188199.278553386
 21
3873839.637166689
 31
0.0
  0
LINE
  5
3CFAA
330
1F
100
AcDbEntity
  8
TEXT
370
    25
100
AcDbLine
 10
3188156.670844959
 20
3874069.037068855
 30
0.0
 11
3188256.088831287
 21
3874069.037068855
 31
0.0
  0
LINE
  5
3CFAB
330
1F
100
AcDbEntity
  8
TEXT
370
    25
100
AcDbLine
 10
3188241.886261812
 20
3874061.935784118
 30
0.0
 11
3188256.088831287
 21
3874061.935784118
 31
0.0
  0
LINE
  5
3CFAC
330
1F
100
AcDbEntity
  8
TEXT
370
    25
100
AcDbLine
 10
3188185.07598391
 20
3873957.887760142
 30
0.0
 11
3188256.088831287
 21
3873957.887760142
 31
0.0
  0
LINE
  5
3CFAD
330
1F
100
AcDbEntity
  8
TEXT
370
    25
100
AcDbLine
 10
3188185.07598391
 20
3873950.786475404
 30
0.0
 11
3188256.088831287
 21
3873950.786475404
 31
0.0
  0
LINE
  5
3CFAE
330
1F
100
AcDbEntity
  8
TEXT
370
    25
100
AcDbLine
 10
3188256.088831287
 20
3873957.887760142
 30
0.0
 11
3188256.088831287
 21
3874061.935784118
 31
0.0
  0
LINE
  5
3CFAF
330
1F
100
AcDbEntity
  8
TEXT
370
    25
100
AcDbLine
 10
3188241.886261812
 20
3873972.090329616
 30
0.0
 11
3188241.886261812
 21
3874061.935784118
 31
0.0
  0
LINE
  5
3CFB0
330
1F
100
AcDbEntity
  8
TEXT
370
    25
100
AcDbLine
 10
3188199.278553386
 20
3873986.292899092
 30
0.0
 11
3188199.278553386
 21
3874061.935784118
 31
0.0
  0
LINE
  5
3CFB1
330
1F
100
AcDbEntity
  8
TEXT
370
    25
100
AcDbLine
 10
3188185.07598391
 20
3873957.887760142
 30
0.0
 11
3188185.07598391
 21
3874061.935784118
 31
0.0
  0
LINE
  5
3CFB2
330
1F
100
AcDbEntity
  8
TEXT
370
    25
100
AcDbLine
 10
3188199.278553386
 20
3873936.583905928
 30
0.0
 11
3188241.886261812
 21
3873936.583905928
 31
0.0
  0
LINE
  5
3CFB3
330
1F
100
AcDbEntity
  8
TEXT
370
    25
100
AcDbLine
 10
3188241.886261812
 20
3873972.090329616
 30
0.0
 11
3188199.278553386
 21
3873986.292899092
 31
0.0
  0
LINE
  5
3CFB4
330
1F
100
AcDbEntity
  8
TEXT
370
    25
100
AcDbLine
 10
3188156.670844959
 20
3874083.239638332
 30
0.0
 11
3188185.07598391
 21
3874083.239638332
 31
0.0
  0
LINE
  5
3CFB5
330
1F
100
AcDbEntity
  8
TEXT
370
    25
100
AcDbLine
 10
3188199.278553386
 20
3874083.239638332
 30
0.0
 11
3188241.886261812
 21
3874083.239638332
 31
0.0
  0
LINE
  5
3CFB6
330
1F
100
AcDbEntity
  8
TEXT
370
    25
100
AcDbLine
 10
3188185.07598391
 20
3874061.935784118
 30
0.0
 11
3188199.278553386
 21
3874061.935784118
 31
0.0
  0
LINE
  5
3CFB7
330
1F
100
AcDbEntity
  8
TEXT
370
    25
100
AcDbLine
 10
3188185.07598391
 20
3874291.335686284
 30
0.0
 11
3188185.07598391
 21
3874372.805842766
 31
0.0
  0
LINE
  5
3CFB8
330
1F
100
AcDbEntity
  8
TEXT
370
    25
100
AcDbLine
 10
3188199.278553386
 20
3874305.538255759
 30
0.0
 11
3188199.278553386
 21
3874372.805842766
 31
0.0
  0
LINE
  5
3CFB9
330
1F
100
AcDbEntity
  8
TEXT
370
    25
100
AcDbLine
 10
3188185.07598391
 20
3874291.335686284
 30
0.0
 11
3188256.088831287
 21
3874291.335686284
 31
0.0
  0
LINE
  5
3CFBA
330
1F
100
AcDbEntity
  8
TEXT
370
    25
100
AcDbLine
 10
3188199.278553386
 20
3874305.538255759
 30
0.0
 11
3188256.088831287
 21
3874305.538255759
 31
0.0
  0
LINE
  5
3CFBB
330
1F
100
AcDbEntity
  8
TEXT
370
    25
100
AcDbLine
 10
3188241.886261812
 20
3874284.234401547
 30
0.0
 11
3188256.088831287
 21
3874284.234401547
 31
0.0
  0
LINE
  5
3CFBC
330
1F
100
AcDbEntity
  8
TEXT
370
    25
100
AcDbLine
 10
3188185.07598391
 20
3874180.18637757
 30
0.0
 11
3188256.088831287
 21
3874180.18637757
 31
0.0
  0
LINE
  5
3CFBD
330
1F
100
AcDbEntity
  8
TEXT
370
    25
100
AcDbLine
 10
3188241.886261812
 20
3874173.085092834
 30
0.0
 11
3188256.088831287
 21
3874173.085092834
 31
0.0
  0
LINE
  5
3CFBE
330
1F
100
AcDbEntity
  8
TEXT
370
    25
100
AcDbLine
 10
3188256.088831287
 20
3874291.335686284
 30
0.0
 11
3188256.088831287
 21
3874305.538255759
 31
0.0
  0
LINE
  5
3CFBF
330
1F
100
AcDbEntity
  8
TEXT
370
    25
100
AcDbLine
 10
3188256.088831287
 20
3874180.18637757
 30
0.0
 11
3188256.088831287
 21
3874284.234401547
 31
0.0
  0
LINE
  5
3CFC0
330
1F
100
AcDbEntity
  8
TEXT
370
    25
100
AcDbLine
 10
3188213.481122861
 20
3874270.031832072
 30
0.0
 11
3188213.481122861
 21
3874208.591516522
 31
0.0
  0
LINE
  5
3CFC1
330
1F
100
AcDbEntity
  8
TEXT
370
    25
100
AcDbLine
 10
3188227.683692336
 20
3874284.234401547
 30
0.0
 11
3188227.683692336
 21
3874201.490231783
 31
0.0
  0
LINE
  5
3CFC2
330
1F
100
AcDbEntity
  8
TEXT
370
    25
100
AcDbLine
 10
3188241.886261812
 20
3874194.388947046
 30
0.0
 11
3188241.886261812
 21
3874284.234401547
 31
0.0
  0
LINE
  5
3CFC3
330
1F
100
AcDbEntity
  8
TEXT
370
    25
100
AcDbLine
 10
3188199.278553386
 20
3874194.388947046
 30
0.0
 11
3188199.278553386
 21
3874270.031832072
 31
0.0
  0
LINE
  5
3CFC4
330
1F
100
AcDbEntity
  8
TEXT
370
    25
100
AcDbLine
 10
3188185.07598391
 20
3874180.18637757
 30
0.0
 11
3188185.07598391
 21
3874284.234401547
 31
0.0
  0
LINE
  5
3CFC5
330
1F
100
AcDbEntity
  8
TEXT
370
    25
100
AcDbLine
 10
3188227.683692336
 20
3874201.490231783
 30
0.0
 11
3188213.481122861
 21
3874208.591516522
 31
0.0
  0
LINE
  5
3CFC6
330
1F
100
AcDbEntity
  8
TEXT
370
    25
100
AcDbLine
 10
3188199.278553386
 20
3874194.388947046
 30
0.0
 11
3188241.886261812
 21
3874194.388947046
 31
0.0
  0
LINE
  5
3CFC7
330
1F
100
AcDbEntity
  8
TEXT
370
    25
100
AcDbLine
 10
3188185.07598391
 20
3874173.085092834
 30
0.0
 11
3188199.278553386
 21
3874173.085092834
 31
0.0
  0
LINE
  5
3CFC8
330
1F
100
AcDbEntity
  8
TEXT
370
    25
100
AcDbLine
 10
3188185.07598391
 20
3874291.335686284
 30
0.0
 11
3188241.886261812
 21
3874291.335686284
 31
0.0
  0
LINE
  5
3CFC9
330
1F
100
AcDbEntity
  8
TEXT
370
    25
100
AcDbLine
 10
3188185.07598391
 20
3874284.234401547
 30
0.0
 11
3188227.683692336
 21
3874284.234401547
 31
0.0
  0
LINE
  5
3CFCA
330
1F
100
AcDbEntity
  8
TEXT
370
    25
100
AcDbLine
 10
3188199.278553386
 20
3874270.031832072
 30
0.0
 11
3188213.481122861
 21
3874270.031832072
 31
0.0
  0
LINE
  5
3CFCB
330
1F
100
AcDbEntity
  8
TEXT
  6
Continuous
 48
10.0
370
    25
100
AcDbLine
 10
3188241.886261812
 20
3873540.087816305
 30
0.0
 11
3188256.088831287
 21
3873540.087816305
 31
0.0
  0
LINE
  5
3CFCC
330
1F
100
AcDbEntity
  8
TEXT
  6
Continuous
 48
10.0
370
    25
100
AcDbLine
 10
3188185.07598391
 20
3874372.805842766
 30
0.0
 11
3188199.278553386
 21
3874372.805842766
 31
0.0
  0
LINE
  5
3CFCD
330
1F
100
AcDbEntity
  8
TEXT
370
    25
100
AcDbLine
 10
3188156.670844959
 20
3874069.037068855
 30
0.0
 11
3188156.670844959
 21
3874083.239638332
 31
0.0
  0
LINE
  5
3DBF2
330
1F
100
AcDbEntity
  8
APPLICATION
370
     9
100
AcDbLine
 10
3194007.971263341
 20
3873388.267781251
 30
0.0
 11
3194007.971263341
 21
3872888.267781251
 31
0.0
  0
LINE
  5
3DBF3
330
1F
100
AcDbEntity
  8
APPLICATION
370
     9
100
AcDbLine
 10
3194007.971263341
 20
3872888.267781251
 30
0.0
 11
3194757.971263342
 21
3872888.267781251
 31
0.0
  0
LINE
  5
3DBF4
330
1F
100
AcDbEntity
  8
APPLICATION
370
     9
100
AcDbLine
 10
3194757.971263342
 20
3872888.267781251
 30
0.0
 11
3194757.971263342
 21
3873388.267781251
 31
0.0
  0
LINE
  5
3DBFD
330
1F
100
AcDbEntity
  8
DETAIL
370
     9
100
AcDbLine
 10
3194032.971263341
 20
3873403.26778125
 30
0.0
 11
3194032.971263341
 21
3873388.267781251
 31
0.0
  0
LINE
  5
3DBFF
330
1F
100
AcDbEntity
  8
DETAIL
370
     9
100
AcDbLine
 10
3194732.971263341
 20
3873388.267781251
 30
0.0
 11
3194732.971263341
 21
3873403.26778125
 31
0.0
  0
LINE
  5
3DC00
330
1F
100
AcDbEntity
  8
DETAIL
370
     9
100
AcDbLine
 10
3194345.471263342
 20
3873438.267781251
 30
0.0
 11
3194372.971263343
 21
3873438.267781251
 31
0.0
  0
LINE
  5
3DC09
330
1F
100
AcDbEntity
  8
DETAIL
370
     9
100
AcDbLine
 10
3194345.471263342
 20
3875538.267781251
 30
0.0
 11
3194420.471263342
 21
3875538.267781251
 31
0.0
  0
LINE
  5
3DC12
330
1F
100
AcDbEntity
  8
DETAIL
370
     9
100
AcDbLine
 10
3194372.971263343
 20
3873431.267781251
 30
0.0
 11
3194372.971263343
 21
3873368.267781252
 31
0.0
  0
LINE
  5
3DC13
330
1F
100
AcDbEntity
  8
DETAIL
370
     9
100
AcDbLine
 10
3194392.971263344
 20
3873431.267781251
 30
0.0
 11
3194392.971263344
 21
3873368.267781252
 31
0.0
  0
LINE
  5
3DC1F
330
1F
100
AcDbEntity
  8
DETAIL
370
     9
100
AcDbLine
 10
3194392.971263344
 20
3873438.267781251
 30
0.0
 11
3194420.471263343
 21
3873438.267781251
 31
0.0
  0
LINE
  5
3DC20
330
1F
100
AcDbEntity
  8
DETAIL
370
     9
100
AcDbLine
 10
3194372.971263343
 20
3873431.267781251
 30
0.0
 11
3194372.971263343
 21
3873436.26778125
 31
0.0
  0
LINE
  5
3DC21
330
1F
100
AcDbEntity
  8
DETAIL
370
     9
100
AcDbLine
 10
3194392.971263344
 20
3873431.267781251
 30
0.0
 11
3194392.971263344
 21
3873436.267781249
 31
0.0
  0
LINE
  5
3DC2C
330
1F
100
AcDbEntity
  8
DETAIL
370
     9
100
AcDbLine
 10
3194370.471263344
 20
3873588.267781252
 30
0.0
 11
3194370.471263341
 21
3875538.26778125
 31
0.0
  0
LINE
  5
3DC2D
330
1F
100
AcDbEntity
  8
DETAIL
370
     9
100
AcDbLine
 10
3194395.471263343
 20
3873588.267781252
 30
0.0
 11
3194395.471263341
 21
3875538.26778125
 31
0.0
  0
LINE
  5
3DC6A
330
1F
100
AcDbEntity
  8
DETAIL
370
     9
100
AcDbLine
 10
3194057.971263341
 20
3873403.267781251
 30
0.0
 11
3194077.971263341
 21
3873403.267781251
 31
0.0
  0
LINE
  5
3DC6B
330
1F
100
AcDbEntity
  8
DETAIL
370
     9
100
AcDbLine
 10
3194052.971263341
 20
3873403.267781251
 30
0.0
 11
3194052.971263341
 21
3873413.267781251
 31
0.0
  0
LINE
  5
3DC6C
330
1F
100
AcDbEntity
  8
DETAIL
370
     9
100
AcDbLine
 10
3194052.971263341
 20
3873413.267781251
 30
0.0
 11
3194072.971263341
 21
3873413.267781251
 31
0.0
  0
LINE
  5
3DC6D
330
1F
100
AcDbEntity
  8
DETAIL
370
     9
100
AcDbLine
 10
3194072.971263341
 20
3873413.267781251
 30
0.0
 11
3194072.971263341
 21
3873403.267781251
 31
0.0
  0
LINE
  5
3DC6E
330
1F
100
AcDbEntity
  8
DETAIL
370
     9
100
AcDbLine
 10
3194707.971263341
 20
3873403.26778125
 30
0.0
 11
3194687.971263342
 21
3873403.26778125
 31
0.0
  0
LINE
  5
3DC6F
330
1F
100
AcDbEntity
  8
DETAIL
370
     9
100
AcDbLine
 10
3194712.971263342
 20
3873403.26778125
 30
0.0
 11
3194712.971263342
 21
3873413.267781251
 31
0.0
  0
LINE
  5
3DC70
330
1F
100
AcDbEntity
  8
DETAIL
370
     9
100
AcDbLine
 10
3194712.971263342
 20
3873413.267781251
 30
0.0
 11
3194692.971263342
 21
3873413.267781251
 31
0.0
  0
LINE
  5
3DC71
330
1F
100
AcDbEntity
  8
DETAIL
370
     9
100
AcDbLine
 10
3194692.971263342
 20
3873413.267781251
 30
0.0
 11
3194692.971263342
 21
3873403.26778125
 31
0.0
  0
LINE
  5
3DC72
330
1F
100
AcDbEntity
  8
DETAIL
370
     9
100
AcDbLine
 10
3194683.971263341
 20
3875553.267781251
 30
0.0
 11
3194683.971263341
 21
3875588.26778125
 31
0.0
  0
LINE
  5
3DC73
330
1F
100
AcDbEntity
  8
DETAIL
370
     9
100
AcDbLine
 10
3194081.971263341
 20
3875553.267781251
 30
0.0
 11
3194081.971263341
 21
3875588.26778125
 31
0.0
  0
LINE
  5
3DC74
330
1F
100
AcDbEntity
  8
DETAIL
370
     9
100
AcDbLine
 10
3194081.971263341
 20
3875738.26778125
 30
0.0
 11
3194081.971263341
 21
3873403.267781252
 31
0.0
  0
LINE
  5
3DC75
330
1F
100
AcDbEntity
  8
DETAIL
370
     9
100
AcDbLine
 10
3194683.971263342
 20
3875738.26778125
 30
0.0
 11
3194683.971263342
 21
3873413.267781252
 31
0.0
  0
LINE
  5
3DC78
330
1F
100
AcDbEntity
  8
DETAIL
370
     9
100
AcDbLine
 10
3194707.971263341
 20
3873403.26778125
 30
0.0
 11
3194732.971263341
 21
3873403.26778125
 31
0.0
  0
LINE
  5
3DC7B
330
1F
100
AcDbEntity
  8
DETAIL
370
     9
100
AcDbLine
 10
3194057.971263341
 20
3873403.267781251
 30
0.0
 11
3194032.971263341
 21
3873403.267781251
 31
0.0
  0
LINE
  5
3DC7E
330
1F
100
AcDbEntity
  8
DETAIL
370
     9
100
AcDbLine
 10
3194249.971263341
 20
3875738.26778125
 30
0.0
 11
3194249.971263341
 21
3873403.267781251
 31
0.0
  0
LINE
  5
3DC80
330
1F
100
AcDbEntity
  8
DETAIL
370
     9
100
AcDbLine
 10
3194145.471263341
 20
3875738.26778125
 30
0.0
 11
3194081.971263341
 21
3875738.26778125
 31
0.0
  0
LINE
  5
3DC81
330
1F
100
AcDbEntity
  8
DETAIL
370
     9
100
AcDbLine
 10
3194145.471263341
 20
3875738.26778125
 30
0.0
 11
3194249.971263341
 21
3875738.26778125
 31
0.0
  0
LINE
  5
3DC82
330
1F
100
AcDbEntity
  8
DETAIL
370
     9
100
AcDbLine
 10
3194620.471263342
 20
3875738.26778125
 30
0.0
 11
3194683.971263341
 21
3875738.26778125
 31
0.0
  0
LINE
  5
3DC83
330
1F
100
AcDbEntity
  8
DETAIL
370
     9
100
AcDbLine
 10
3194620.471263342
 20
3875738.26778125
 30
0.0
 11
3194515.971263342
 21
3875738.26778125
 31
0.0
  0
LINE
  5
3DC84
330
1F
100
AcDbEntity
  8
DETAIL
370
     9
100
AcDbLine
 10
3194249.971263341
 20
3875738.26778125
 30
0.0
 11
3194515.971263342
 21
3875738.26778125
 31
0.0
  0
LINE
  5
3DC86
330
1F
100
AcDbEntity
  8
DETAIL
370
     9
100
AcDbLine
 10
3194249.971263341
 20
3875688.26778125
 30
0.0
 11
3194515.971263342
 21
3875688.26778125
 31
0.0
  0
ARC
  5
3DC87
330
1F
100
AcDbEntity
  8
DETAIL
370
     9
100
AcDbCircle
 10
3194165.971263341
 20
3875315.793673737
 30
0.0
 40
109.9615384636189
100
AcDbArc
 50
40.1904623863573
 51
139.8095376136427
  0
ARC
  5
3DC88
330
1F
100
AcDbEntity
  8
DETAIL
370
     9
100
AcDbCircle
 10
3194599.971259207
 20
3875315.793665711
 30
0.0
 40
109.9615384636189
100
AcDbArc
 50
40.1904623863573
 51
139.8095376136427
  0
LINE
  5
3DC89
330
1F
100
AcDbEntity
  8
DETAIL
370
     9
100
AcDbLine
 10
3194345.471263342
 20
3875588.267781251
 30
0.0
 11
3194345.471263342
 21
3875638.267781251
 31
0.0
  0
LINE
  5
3DC8A
330
1F
100
AcDbEntity
  8
DETAIL
370
     9
100
AcDbLine
 10
3194345.471263342
 20
3875638.267781251
 30
0.0
 11
3194350.471263342
 21
3875638.267781251
 31
0.0
  0
LINE
  5
3DC8B
330
1F
100
AcDbEntity
  8
DETAIL
370
     9
100
AcDbLine
 10
3194350.471263342
 20
3875638.267781251
 30
0.0
 11
3194350.471263342
 21
3875588.267781251
 31
0.0
  0
LINE
  5
3DC8C
330
1F
100
AcDbEntity
  8
DETAIL
370
     9
100
AcDbLine
 10
3194420.471263342
 20
3875588.267781251
 30
0.0
 11
3194420.471263342
 21
3875593.267781251
 31
0.0
  0
LINE
  5
3DC8D
330
1F
100
AcDbEntity
  8
DETAIL
370
     9
100
AcDbLine
 10
3194420.471263342
 20
3875593.267781251
 30
0.0
 11
3194350.471263342
 21
3875593.267781251
 31
0.0
  0
LINE
  5
3DCA3
330
1F
100
AcDbEntity
  8
DETAIL
370
     9
100
AcDbLine
 10
3194447.12527677
 20
3875538.26778125
 30
0.0
 11
3194473.12527677
 21
3875538.26778125
 31
0.0
  0
LINE
  5
3DCA4
330
1F
100
AcDbEntity
  8
DETAIL
370
     9
100
AcDbLine
 10
3194446.125276772
 20
3875575.26778125
 30
0.0
 11
3194447.12527677
 21
3875578.26778125
 31
0.0
  0
LINE
  5
3DCA5
330
1F
100
AcDbEntity
  8
DETAIL
370
     9
100
AcDbLine
 10
3194474.12527677
 20
3875575.26778125
 30
0.0
 11
3194473.125276771
 21
3875578.26778125
 31
0.0
  0
LINE
  5
3DCA6
330
1F
100
AcDbEntity
  8
DETAIL
370
     9
100
AcDbLine
 10
3194475.125276771
 20
3875554.26778125
 30
0.0
 11
3194445.12527677
 21
3875554.26778125
 31
0.0
  0
LINE
  5
3DCA7
330
1F
100
AcDbEntity
  8
DETAIL
370
     9
100
AcDbLine
 10
3194475.125276771
 20
3875562.26778125
 30
0.0
 11
3194445.12527677
 21
3875562.26778125
 31
0.0
  0
LINE
  5
3DCA8
330
1F
100
AcDbEntity
  8
DETAIL
370
     9
100
AcDbLine
 10
3194474.12527677
 20
3875575.26778125
 30
0.0
 11
3194475.125276771
 21
3875562.26778125
 31
0.0
  0
LINE
  5
3DCA9
330
1F
100
AcDbEntity
  8
DETAIL
370
     9
100
AcDbLine
 10
3194446.125276772
 20
3875575.26778125
 30
0.0
 11
3194445.12527677
 21
3875562.26778125
 31
0.0
  0
LINE
  5
3DCAA
330
1F
100
AcDbEntity
  8
DETAIL
370
     9
100
AcDbLine
 10
3194446.125276772
 20
3875541.26778125
 30
0.0
 11
3194447.12527677
 21
3875538.26778125
 31
0.0
  0
LINE
  5
3DCAB
330
1F
100
AcDbEntity
  8
DETAIL
370
     9
100
AcDbLine
 10
3194474.12527677
 20
3875541.26778125
 30
0.0
 11
3194473.125276771
 21
3875538.26778125
 31
0.0
  0
LINE
  5
3DCAC
330
1F
100
AcDbEntity
  8
DETAIL
370
     9
100
AcDbLine
 10
3194474.12527677
 20
3875541.26778125
 30
0.0
 11
3194475.125276771
 21
3875554.26778125
 31
0.0
  0
LINE
  5
3DCAD
330
1F
100
AcDbEntity
  8
DETAIL
370
     9
100
AcDbLine
 10
3194446.125276772
 20
3875541.26778125
 30
0.0
 11
3194445.12527677
 21
3875554.26778125
 31
0.0
  0
LINE
  5
3DCAE
330
1F
100
AcDbEntity
  8
DETAIL
370
     9
100
AcDbLine
 10
3194473.125276771
 20
3875578.26778125
 30
0.0
 11
3194447.12527677
 21
3875578.26778125
 31
0.0
  0
LINE
  5
3DCAF
330
1F
100
AcDbEntity
  8
DETAIL
370
     9
100
AcDbLine
 10
3194446.125276772
 20
3875575.26778125
 30
0.0
 11
3194474.12527677
 21
3875575.26778125
 31
0.0
  0
LINE
  5
3DCB0
330
1F
100
AcDbEntity
  8
DETAIL
370
     9
100
AcDbLine
 10
3194474.12527677
 20
3875541.26778125
 30
0.0
 11
3194446.125276772
 21
3875541.26778125
 31
0.0
  0
LINE
  5
3DCB1
330
1F
100
AcDbEntity
  8
DETAIL
370
     9
100
AcDbLine
 10
3194475.125276771
 20
3875554.26778125
 30
0.0
 11
3194475.62527677
 21
3875554.26778125
 31
0.0
  0
LINE
  5
3DCB2
330
1F
100
AcDbEntity
  8
DETAIL
370
     9
100
AcDbLine
 10
3194475.62527677
 20
3875554.26778125
 30
0.0
 11
3194475.62527677
 21
3875562.26778125
 31
0.0
  0
LINE
  5
3DCB3
330
1F
100
AcDbEntity
  8
DETAIL
370
     9
100
AcDbLine
 10
3194475.125276771
 20
3875562.26778125
 30
0.0
 11
3194475.62527677
 21
3875562.26778125
 31
0.0
  0
LINE
  5
3DCB4
330
1F
100
AcDbEntity
  8
DETAIL
370
     9
100
AcDbLine
 10
3194445.12527677
 20
3875554.26778125
 30
0.0
 11
3194444.625276771
 21
3875554.26778125
 31
0.0
  0
LINE
  5
3DCB5
330
1F
100
AcDbEntity
  8
DETAIL
370
     9
100
AcDbLine
 10
3194444.625276771
 20
3875554.26778125
 30
0.0
 11
3194444.625276771
 21
3875562.26778125
 31
0.0
  0
LINE
  5
3DCB6
330
1F
100
AcDbEntity
  8
DETAIL
370
     9
100
AcDbLine
 10
3194445.12527677
 20
3875562.26778125
 30
0.0
 11
3194444.625276771
 21
3875562.26778125
 31
0.0
  0
LINE
  5
3DCB7
330
1F
100
AcDbEntity
  8
DETAIL
370
     9
100
AcDbLine
 10
3194453.12527677
 20
3875507.26778125
 30
0.0
 11
3194453.12527677
 21
3875509.856623984
 31
0.0
  0
LINE
  5
3DCB8
330
1F
100
AcDbEntity
  8
DETAIL
370
     9
100
AcDbLine
 10
3194467.125276772
 20
3875507.26778125
 30
0.0
 11
3194467.125276772
 21
3875509.856623985
 31
0.0
  0
LINE
  5
3DCB9
330
1F
100
AcDbEntity
  8
DETAIL
370
     9
100
AcDbLine
 10
3194466.12527677
 20
3875505.26778125
 30
0.0
 11
3194454.125276771
 21
3875505.26778125
 31
0.0
  0
LINE
  5
3DCBA
330
1F
100
AcDbEntity
  8
DETAIL
370
     9
100
AcDbLine
 10
3194453.12527677
 20
3875507.26778125
 30
0.0
 11
3194454.125276771
 21
3875507.26778125
 31
0.0
  0
LINE
  5
3DCBB
330
1F
100
AcDbEntity
  8
DETAIL
370
     9
100
AcDbLine
 10
3194454.125276771
 20
3875505.26778125
 30
0.0
 11
3194453.12527677
 21
3875507.26778125
 31
0.0
  0
LINE
  5
3DCBC
330
1F
100
AcDbEntity
  8
DETAIL
370
     9
100
AcDbLine
 10
3194466.125276771
 20
3875505.26778125
 30
0.0
 11
3194467.125276772
 21
3875507.26778125
 31
0.0
  0
LINE
  5
3DCBD
330
1F
100
AcDbEntity
  8
DETAIL
370
     9
100
AcDbLine
 10
3194467.125276772
 20
3875507.26778125
 30
0.0
 11
3194453.12527677
 21
3875507.26778125
 31
0.0
  0
LINE
  5
3DCBE
330
1F
100
AcDbEntity
  8
DETAIL
370
     9
100
AcDbLine
 10
3194467.125276772
 20
3875507.26778125
 30
0.0
 11
3194454.125276771
 21
3875505.26778125
 31
0.0
  0
LINE
  5
3DCBF
330
1F
100
AcDbEntity
  8
DETAIL
370
     9
100
AcDbLine
 10
3194466.570707748
 20
3875509.856624051
 30
0.0
 11
3194453.570707748
 21
3875507.856624052
 31
0.0
  0
LINE
  5
3DCC0
330
1F
100
AcDbEntity
  8
DETAIL
370
     9
100
AcDbLine
 10
3194467.125276772
 20
3875507.26778125
 30
0.0
 11
3194467.125276772
 21
3875509.26778125
 31
0.0
  0
LINE
  5
3DCC1
330
1F
100
AcDbEntity
  8
DETAIL
370
     9
100
AcDbLine
 10
3194466.570703649
 20
3875523.768221103
 30
0.0
 11
3194453.570703649
 21
3875521.768221103
 31
0.0
  0
LINE
  5
3DCC2
330
1F
100
AcDbEntity
  8
DETAIL
370
     9
100
AcDbLine
 10
3194466.570703649
 20
3875525.768221103
 30
0.0
 11
3194453.570703649
 21
3875523.768221103
 31
0.0
  0
LINE
  5
3DCC3
330
1F
100
AcDbEntity
  8
DETAIL
370
     9
100
AcDbLine
 10
3194466.570703649
 20
3875527.768221104
 30
0.0
 11
3194453.570703649
 21
3875525.768221103
 31
0.0
  0
LINE
  5
3DCC4
330
1F
100
AcDbEntity
  8
DETAIL
370
     9
100
AcDbLine
 10
3194466.570703649
 20
3875529.768221103
 30
0.0
 11
3194453.570703649
 21
3875527.768221104
 31
0.0
  0
LINE
  5
3DCC5
330
1F
100
AcDbEntity
  8
DETAIL
370
     9
100
AcDbLine
 10
3194466.570703649
 20
3875531.768221104
 30
0.0
 11
3194453.570703649
 21
3875529.768221103
 31
0.0
  0
LINE
  5
3DCC6
330
1F
100
AcDbEntity
  8
DETAIL
370
     9
100
AcDbLine
 10
3194466.570703649
 20
3875533.768221103
 30
0.0
 11
3194453.570703649
 21
3875531.768221104
 31
0.0
  0
LINE
  5
3DCC8
330
1F
100
AcDbEntity
  8
DETAIL
370
     9
100
AcDbLine
 10
3194420.471263341
 20
3875588.26778125
 30
0.0
 11
3194470.471263342
 21
3875588.26778125
 31
0.0
  0
LINE
  5
3DCC9
330
1F
100
AcDbEntity
  8
DETAIL
370
     9
100
AcDbLine
 10
3194487.62527677
 20
3875588.26778125
 30
0.0
 11
3194487.62527677
 21
3875558.26778125
 31
0.0
  0
LINE
  5
3DCCA
330
1F
100
AcDbEntity
  8
DETAIL
370
     9
100
AcDbLine
 10
3194487.62527677
 20
3875558.26778125
 30
0.0
 11
3194487.62527677
 21
3875538.26778125
 31
0.0
  0
LINE
  5
3DCCB
330
1F
100
AcDbEntity
  8
DETAIL
370
     9
100
AcDbLine
 10
3194487.62527677
 20
3875538.26778125
 30
0.0
 11
3194482.625276772
 21
3875538.26778125
 31
0.0
  0
LINE
  5
3DCCC
330
1F
100
AcDbEntity
  8
DETAIL
370
     9
100
AcDbLine
 10
3194482.625276772
 20
3875538.26778125
 30
0.0
 11
3194482.625276772
 21
3875583.26778125
 31
0.0
  0
LINE
  5
3DCCD
330
1F
100
AcDbEntity
  8
DETAIL
370
     9
100
AcDbLine
 10
3194465.471263341
 20
3875583.26778125
 30
0.0
 11
3194420.471263341
 21
3875583.26778125
 31
0.0
  0
LINE
  5
3DCCE
330
1F
100
AcDbEntity
  8
DETAIL
370
     9
100
AcDbLine
 10
3194465.471263341
 20
3875583.26778125
 30
0.0
 11
3194482.625276772
 21
3875583.26778125
 31
0.0
  0
LINE
  5
3DCCF
330
1F
100
AcDbEntity
  8
DETAIL
370
     9
100
AcDbLine
 10
3194470.471263342
 20
3875588.26778125
 30
0.0
 11
3194487.62527677
 21
3875588.26778125
 31
0.0
  0
LINE
  5
3DCD0
330
1F
100
AcDbEntity
  8
DETAIL
370
     9
100
AcDbLine
 10
3194453.570703649
 20
3875519.856623985
 30
0.0
 11
3194515.971263342
 21
3875519.856623985
 31
0.0
  0
LINE
  5
3DCD1
330
1F
100
AcDbEntity
  8
DETAIL
370
     9
100
AcDbLine
 10
3194515.971263342
 20
3875726.856623984
 30
0.0
 11
3194515.971263342
 21
3875716.856623984
 31
0.0
  0
LINE
  5
3DCD2
330
1F
100
AcDbEntity
  8
DETAIL
370
     9
100
AcDbLine
 10
3194515.971263342
 20
3875509.856623985
 30
0.0
 11
3194467.125276772
 21
3875509.856623985
 31
0.0
  0
LINE
  5
3DCD3
330
1F
100
AcDbEntity
  8
DETAIL
370
     9
100
AcDbLine
 10
3194467.125276772
 20
3875509.856623985
 30
0.0
 11
3194453.570703649
 21
3875509.856623985
 31
0.0
  0
LINE
  5
3DCD4
330
1F
100
AcDbEntity
  8
DETAIL
370
     9
100
AcDbLine
 10
3194453.570703649
 20
3875509.856623985
 30
0.0
 11
3194443.570703649
 21
3875509.856623985
 31
0.0
  0
LINE
  5
3DCD5
330
1F
100
AcDbEntity
  8
DETAIL
370
     9
100
AcDbLine
 10
3194443.570703649
 20
3875509.856623985
 30
0.0
 11
3194443.570703649
 21
3875519.856623985
 31
0.0
  0
LINE
  5
3DCD6
330
1F
100
AcDbEntity
  8
DETAIL
370
     9
100
AcDbLine
 10
3194443.570703649
 20
3875519.856623985
 30
0.0
 11
3194467.125276772
 21
3875519.856623985
 31
0.0
  0
LINE
  5
3DCD7
330
1F
100
AcDbEntity
  8
DETAIL
370
     9
100
AcDbLine
 10
3194453.12527677
 20
3875519.856623985
 30
0.0
 11
3194453.12527677
 21
3875538.26778125
 31
0.0
  0
LINE
  5
3DCD8
330
1F
100
AcDbEntity
  8
DETAIL
370
     9
100
AcDbLine
 10
3194467.12527677
 20
3875519.856623985
 30
0.0
 11
3194467.12527677
 21
3875538.26778125
 31
0.0
  0
LINE
  5
3DCDD
330
1F
100
AcDbEntity
  8
DETAIL
370
     9
100
AcDbLine
 10
3194466.570678141
 20
3875535.768213247
 30
0.0
 11
3194453.570678141
 21
3875533.768213247
 31
0.0
  0
LINE
  5
3DCDE
330
1F
100
AcDbEntity
  8
DETAIL
370
     9
100
AcDbLine
 10
3194466.570678141
 20
3875537.768213247
 30
0.0
 11
3194453.570678141
 21
3875535.768213247
 31
0.0
  0
LINE
  5
3DCDF
330
1F
100
AcDbEntity
  8
DETAIL
370
     9
100
AcDbLine
 10
3194466.57070846
 20
3875521.767322355
 30
0.0
 11
3194453.570708459
 21
3875519.767322355
 31
0.0
  0
LINE
  5
3DDD5
330
1F
100
AcDbEntity
  8
DETAIL
370
     9
100
AcDbLine
 10
3194372.971263343
 20
3873436.26778125
 30
0.0
 11
3194372.971263343
 21
3873438.267781251
 31
0.0
  0
LINE
  5
3DDD6
330
1F
100
AcDbEntity
  8
DETAIL
370
     9
100
AcDbLine
 10
3194392.971263344
 20
3873436.267781249
 30
0.0
 11
3194392.971263344
 21
3873438.267781251
 31
0.0
  0
LINE
  5
3DE01
330
1F
100
AcDbEntity
  8
DETAIL
370
     9
100
AcDbLine
 10
3194420.471263342
 20
3875588.26778125
 30
0.0
 11
3194345.471263341
 21
3875588.26778125
 31
0.0
  0
LINE
  5
3DE03
330
1F
100
AcDbEntity
  8
DETAIL
370
     9
100
AcDbLine
 10
3194420.471263341
 20
3875588.26778125
 30
0.0
 11
3194420.471263341
 21
3873599.267781252
 31
0.0
  0
LINE
  5
3DE05
330
1F
100
AcDbEntity
  8
DETAIL
370
     9
100
AcDbLine
 10
3194345.471263341
 20
3875588.26778125
 30
0.0
 11
3194345.471263342
 21
3873599.267781252
 31
0.0
  0
LINE
  5
3DE19
330
1F
100
AcDbEntity
  8
DETAIL
370
     9
100
AcDbLine
 10
3194515.971263342
 20
3875716.856623984
 30
0.0
 11
3194515.971263342
 21
3875738.26778125
 31
0.0
  0
LINE
  5
3DE1A
330
1F
100
AcDbEntity
  8
DETAIL
370
     9
100
AcDbLine
 10
3194515.971263342
 20
3875738.26778125
 30
0.0
 11
3194515.971263342
 21
3873413.267781251
 31
0.0
  0
LINE
  5
3DFCB
330
1F
100
AcDbEntity
  8
DETAIL
370
     9
100
AcDbLine
 10
3194732.971263341
 20
3873403.26778125
 30
0.0
 11
3194712.971263342
 21
3873403.26778125
 31
0.0
  0
LINE
  5
3E015
330
1F
100
AcDbEntity
  8
DETAIL
370
     9
100
AcDbLine
 10
3194732.971263341
 20
3873403.26778125
 30
0.0
 11
3194712.971263342
 21
3873403.26778125
 31
0.0
  0
LINE
  5
3F174
330
1F
100
AcDbEntity
  8
APPLICATION
370
     9
100
AcDbLine
 10
3194757.971263342
 20
3873338.26778125
 30
0.0
 11
3194757.971263342
 21
3873288.267781251
 31
0.0
  0
MTEXT
  5
3F23E
330
1F
100
AcDbEntity
  8
Hidden
 62
     7
370
     9
100
AcDbMText
 10
3177176.87898417
 20
3874168.156694052
 30
0.0
 40
6.0
 41
0.0
 46
0.0
 71
     9
 72
     1
  1

 73
     1
 44
1.0
  0
LINE
  5
3F8CC
330
1F
100
AcDbEntity
  8
DETAIL
370
    25
100
AcDbLine
 10
3187372.146352729
 20
3873398.26778125
 30
0.0
 11
3187372.146352729
 21
3873403.26778125
 31
0.0
  0
LINE
  5
3F8CD
330
1F
100
AcDbEntity
  8
APPLICATION
370
     9
100
AcDbLine
 10
3187392.146352729
 20
3873353.26778125
 30
0.0
 11
3187392.146352729
 21
3873363.267781251
 31
0.0
  0
LINE
  5
3F8CE
330
1F
100
AcDbEntity
  8
APPLICATION
370
     9
100
AcDbLine
 10
3187392.146352729
 20
3873363.267781251
 30
0.0
 11
3187412.14635273
 21
3873363.267781251
 31
0.0
  0
LINE
  5
3F8CF
330
1F
100
AcDbEntity
  8
APPLICATION
370
     9
100
AcDbLine
 10
3187412.14635273
 20
3873363.267781251
 30
0.0
 11
3187412.14635273
 21
3873353.26778125
 31
0.0
  0
LINE
  5
3F8D0
330
1F
100
AcDbEntity
  8
DETAIL
370
    25
100
AcDbLine
 10
3187984.446128965
 20
3873403.26778125
 30
0.0
 11
3187984.446128965
 21
3873413.267781251
 31
0.0
  0
LINE
  5
3F8D1
330
1F
100
AcDbEntity
  8
DETAIL
370
    25
100
AcDbLine
 10
3187984.446128965
 20
3873413.267781251
 30
0.0
 11
3187964.446128965
 21
3873413.267781251
 31
0.0
  0
LINE
  5
3F8D2
330
1F
100
AcDbEntity
  8
DETAIL
370
    25
100
AcDbLine
 10
3187964.446128965
 20
3873413.267781251
 30
0.0
 11
3187964.446128965
 21
3873403.26778125
 31
0.0
  0
LINE
  5
3F8D3
330
1F
100
AcDbEntity
  8
DETAIL
370
    25
100
AcDbLine
 10
3189047.14635273
 20
3873403.26778125
 30
0.0
 11
3189047.14635273
 21
3873413.267781251
 31
0.0
  0
LINE
  5
3F8D4
330
1F
100
AcDbEntity
  8
DETAIL
370
    25
100
AcDbLine
 10
3189047.14635273
 20
3873413.267781251
 30
0.0
 11
3189027.14635273
 21
3873413.267781251
 31
0.0
  0
LINE
  5
3F8D5
330
1F
100
AcDbEntity
  8
DETAIL
370
    25
100
AcDbLine
 10
3189027.14635273
 20
3873413.267781251
 30
0.0
 11
3189027.14635273
 21
3873403.26778125
 31
0.0
  0
LINE
  5
3F8D6
330
1F
100
AcDbEntity
  8
DETAIL
370
    25
100
AcDbLine
 10
3188456.546576493
 20
3873403.26778125
 30
0.0
 11
3188456.546576493
 21
3873413.267781251
 31
0.0
  0
LINE
  5
3F8D7
330
1F
100
AcDbEntity
  8
DETAIL
370
    25
100
AcDbLine
 10
3188456.546576493
 20
3873413.267781251
 30
0.0
 11
3188476.546576493
 21
3873413.267781251
 31
0.0
  0
LINE
  5
3F8D8
330
1F
100
AcDbEntity
  8
DETAIL
370
    25
100
AcDbLine
 10
3188476.546576493
 20
3873413.267781251
 30
0.0
 11
3188476.546576493
 21
3873403.26778125
 31
0.0
  0
LINE
  5
3F8D9
330
1F
100
AcDbEntity
  8
DETAIL
370
    25
100
AcDbLine
 10
3188436.546576494
 20
3873403.26778125
 30
0.0
 11
3188511.49635273
 21
3873403.26778125
 31
0.0
  0
LINE
  5
3F8DC
330
1F
100
AcDbEntity
  8
DETAIL
370
    25
100
AcDbLine
 10
3188664.996352729
 20
3873481.267781251
 30
0.0
 11
3188664.996352729
 21
3874181.267781251
 31
0.0
  0
LINE
  5
3F8DD
330
1F
100
AcDbEntity
  8
DETAIL
370
    25
100
AcDbLine
 10
3188664.99635273
 20
3873665.26778125
 30
0.0
 11
3188664.996352729
 21
3875356.167333722
 31
0.0
  0
LINE
  5
3F8DE
330
1F
100
AcDbEntity
  8
DETAIL
370
    25
100
AcDbLine
 10
3189067.146352729
 20
3873403.26778125
 30
0.0
 11
3189061.596800258
 21
3873403.26778125
 31
0.0
  0
LINE
  5
3F8DF
330
1F
100
AcDbEntity
  8
DETAIL
370
    25
100
AcDbLine
 10
3188664.996352729
 20
3875356.167333722
 30
0.0
 11
3189047.096800258
 21
3875738.26778125
 31
0.0
  0
LINE
  5
3F8E0
330
1F
100
AcDbEntity
  8
DETAIL
370
    25
100
AcDbLine
 10
3188525.99635273
 20
3873403.26778125
 30
0.0
 11
3188525.996352729
 21
3875425.755212202
 31
0.0
  0
LINE
  5
3F8E1
330
1F
100
AcDbEntity
  8
DETAIL
370
    25
100
AcDbLine
 10
3188525.996352729
 20
3875425.755212202
 30
0.0
 11
3188838.508921779
 21
3875738.26778125
 31
0.0
  0
LINE
  5
3F8E2
330
1F
100
AcDbEntity
  8
DETAIL
370
    25
100
AcDbLine
 10
3188679.49635273
 20
3873403.26778125
 30
0.0
 11
3189067.14635273
 21
3873403.267781251
 31
0.0
  0
LINE
  5
3F8E3
330
1F
100
AcDbEntity
  8
DETAIL
370
    25
100
AcDbLine
 10
3187372.146352729
 20
3873398.26778125
 30
0.0
 11
3187372.146352729
 21
3873388.267781251
 31
0.0
  0
LINE
  5
3F8E4
330
1F
100
AcDbEntity
  8
DETAIL
370
    25
100
AcDbLine
 10
3189067.146352729
 20
3873403.26778125
 30
0.0
 11
3189067.146352729
 21
3873388.267781251
 31
0.0
  0
LINE
  5
3F8E7
330
1F
100
AcDbEntity
  8
DETAIL
370
    25
100
AcDbLine
 10
3188525.996352729
 20
3875425.755212202
 30
0.0
 11
3188664.996352729
 21
3875356.167333722
 31
0.0
  0
LINE
  5
3F8E8
330
1F
100
AcDbEntity
  8
DETAIL
370
    25
100
AcDbLine
 10
3188838.508921779
 20
3875738.26778125
 30
0.0
 11
3189047.096800258
 21
3875738.26778125
 31
0.0
  0
LINE
  5
3F8E9
330
1F
100
AcDbEntity
  8
DETAIL
370
    25
100
AcDbLine
 10
3187775.99635273
 20
3873481.267781251
 30
0.0
 11
3187775.99635273
 21
3874181.267781251
 31
0.0
  0
LINE
  5
3F8EA
330
1F
100
AcDbEntity
  8
DETAIL
370
    25
100
AcDbLine
 10
3187775.99635273
 20
3874563.267781251
 30
0.0
 11
3187775.99635273
 21
3875356.167333722
 31
0.0
  0
LINE
  5
3F8EB
330
1F
100
AcDbEntity
  8
DETAIL
370
    25
100
AcDbLine
 10
3187775.99635273
 20
3875356.167333722
 30
0.0
 11
3187393.895905202
 21
3875738.26778125
 31
0.0
  0
LINE
  5
3F8EC
330
1F
100
AcDbEntity
  8
DETAIL
370
    25
100
AcDbLine
 10
3187914.996352729
 20
3873403.26778125
 30
0.0
 11
3187914.996352729
 21
3875425.755212202
 31
0.0
  0
LINE
  5
3F8ED
330
1F
100
AcDbEntity
  8
DETAIL
370
    25
100
AcDbLine
 10
3187914.996352729
 20
3875425.755212202
 30
0.0
 11
3187602.48378368
 21
3875738.26778125
 31
0.0
  0
LINE
  5
3F8EE
330
1F
100
AcDbEntity
  8
DETAIL
370
    25
100
AcDbLine
 10
3187914.996352729
 20
3875425.755212202
 30
0.0
 11
3187775.99635273
 21
3875356.167333722
 31
0.0
  0
LINE
  5
3F8EF
330
1F
100
AcDbEntity
  8
DETAIL
370
    25
100
AcDbLine
 10
3187602.48378368
 20
3875738.26778125
 30
0.0
 11
3187393.895905202
 21
3875738.26778125
 31
0.0
  0
LINE
  5
3F8F0
330
1F
100
AcDbEntity
  8
DETAIL
370
    25
100
AcDbLine
 10
3187914.996352729
 20
3873408.481799834
 30
0.0
 11
3187914.996352729
 21
3873403.26778125
 31
0.0
  0
LINE
  5
3F8F1
330
1F
100
AcDbEntity
  8
DETAIL
370
    25
100
AcDbLine
 10
3187775.99635273
 20
3873481.267781251
 30
0.0
 11
3187775.99635273
 21
3873403.26778125
 31
0.0
  0
LINE
  5
3F8F2
330
1F
100
AcDbEntity
  8
DETAIL
370
    25
100
AcDbLine
 10
3188004.446128965
 20
3873388.267781251
 30
0.0
 11
3187322.146352729
 21
3873388.267781251
 31
0.0
  0
LINE
  5
3F8F3
330
1F
100
AcDbEntity
  8
DETAIL
370
    25
100
AcDbLine
 10
3187761.496352729
 20
3873403.26778125
 30
0.0
 11
3188004.446128965
 21
3873403.26778125
 31
0.0
  0
LINE
  5
3F8F4
330
1F
100
AcDbEntity
  8
DETAIL
370
    25
100
AcDbLine
 10
3188436.546576494
 20
3873388.267781251
 30
0.0
 11
3189136.546576494
 21
3873388.267781251
 31
0.0
  0
LINE
  5
3F8F6
330
1F
100
AcDbEntity
  8
DETAIL
370
    25
100
AcDbLine
 10
3188664.996352729
 20
3873441.489756646
 30
0.0
 11
3188664.996352729
 21
3873481.267781251
 31
0.0
  0
LINE
  5
3F8F7
330
1F
100
AcDbEntity
  8
DETAIL
370
    25
100
AcDbLine
 10
3188664.996352729
 20
3874181.267781251
 30
0.0
 11
3188664.996352729
 21
3874206.267781251
 31
0.0
  0
LINE
  5
3F8F8
330
1F
100
AcDbEntity
  8
DETAIL
370
    25
100
AcDbLine
 10
3187775.99635273
 20
3874181.267781251
 30
0.0
 11
3187775.99635273
 21
3874206.267781251
 31
0.0
  0
LINE
  5
3F8FA
330
1F
100
AcDbEntity
  8
DETAIL
370
    25
100
AcDbLine
 10
3188072.146352729
 20
3873403.26778125
 30
0.0
 11
3188072.146352729
 21
3873388.267781251
 31
0.0
  0
LINE
  5
3F8FD
330
1F
100
AcDbEntity
  8
DETAIL
370
    25
100
AcDbLine
 10
3188382.146352731
 20
3873403.26778125
 30
0.0
 11
3188367.146352729
 21
3873403.26778125
 31
0.0
  0
LINE
  5
3F8FE
330
1F
100
AcDbEntity
  8
DETAIL
370
    25
100
AcDbLine
 10
3188367.146352729
 20
3873403.26778125
 30
0.0
 11
3188367.146352729
 21
3873388.267781251
 31
0.0
  0
LINE
  5
3F900
330
1F
100
AcDbEntity
  8
DETAIL
370
    25
100
AcDbLine
 10
3188057.146352729
 20
3873403.26778125
 30
0.0
 11
3188072.146352729
 21
3873403.26778125
 31
0.0
  0
LINE
  5
3F905
330
1F
100
AcDbEntity
  8
DETAIL
370
    25
100
AcDbLine
 10
3188525.99635273
 20
3873403.26778125
 30
0.0
 11
3188525.996352729
 21
3873441.489756646
 31
0.0
  0
LINE
  5
3F906
330
1F
100
AcDbEntity
  8
DETAIL
370
    25
100
AcDbLine
 10
3188525.996352729
 20
3873403.26778125
 30
0.0
 11
3188525.996352729
 21
3873408.481799834
 31
0.0
  0
LINE
  5
3F90E
330
1F
100
AcDbEntity
  8
DETAIL
370
    25
100
AcDbLine
 10
3188664.996352729
 20
3875244.074024702
 30
0.0
 11
3188664.996352729
 21
3875264.101975393
 31
0.0
  0
LINE
  5
3F910
330
1F
100
AcDbEntity
  8
DETAIL
370
    25
100
AcDbLine
 10
3187602.48378368
 20
3875738.26778125
 30
0.0
 11
3187393.895905202
 21
3875738.26778125
 31
0.0
  0
LINE
  5
3F911
330
1F
100
AcDbEntity
  8
APPLICATION
370
     9
100
AcDbLine
 10
3190327.136963654
 20
3873388.267781251
 30
0.0
 11
3189557.736739889
 21
3873388.267781251
 31
0.0
  0
LINE
  5
3F912
330
1F
100
AcDbEntity
  8
APPLICATION
370
    25
100
AcDbLine
 10
3187322.146352729
 20
3872888.267781251
 30
0.0
 11
3190244.446138982
 21
3872888.267781251
 31
0.0
  0
LINE
  5
3F913
330
1F
100
AcDbEntity
  8
APPLICATION
370
     9
100
AcDbLine
 10
3187322.146352729
 20
3873388.267781251
 30
0.0
 11
3190244.446138982
 21
3873388.267781251
 31
0.0
  0
LINE
  5
3F914
330
1F
100
AcDbEntity
  8
DETAIL
370
    25
100
AcDbLine
 10
3188367.146352729
 20
3873403.26778125
 30
0.0
 11
3188525.996352729
 21
3873403.26778125
 31
0.0
  0
LINE
  5
3F915
330
1F
100
AcDbEntity
  8
DETAIL
370
    25
100
AcDbLine
 10
3188367.146352729
 20
3873403.26778125
 30
0.0
 11
3188525.996352729
 21
3873403.26778125
 31
0.0
  0
LINE
  5
3F919
330
1F
100
AcDbEntity
  8
DETAIL
370
    25
100
AcDbLine
 10
3185117.018546346
 20
3873463.26778125
 30
0.0
 11
3187491.386628007
 21
3873463.267781251
 31
0.0
  0
LINE
  5
3F91A
330
1F
100
AcDbEntity
  8
DETAIL
370
    25
100
AcDbLine
 10
3189991.386628008
 20
3873463.26778125
 30
0.0
 11
3191072.765007673
 21
3873463.26778125
 31
0.0
  0
LINE
  5
3F91B
330
1F
100
AcDbEntity
  8
DETAIL
370
    25
100
AcDbLine
 10
3189991.386628007
 20
3873605.267781251
 30
0.0
 11
3191072.765007673
 21
3873605.267781251
 31
0.0
  0
LINE
  5
3F91C
330
1F
100
AcDbEntity
  8
DETAIL
370
    25
100
AcDbLine
 10
3187491.386628007
 20
3873605.267781251
 30
0.0
 11
3187611.386628007
 21
3873605.267781251
 31
0.0
  0
LINE
  5
3F91D
330
1F
100
AcDbEntity
  8
DETAIL
370
    25
100
AcDbLine
 10
3187775.996352729
 20
3873463.267781251
 30
0.0
 11
3187491.386628007
 21
3873463.267781251
 31
0.0
  0
LINE
  5
3F91E
330
1F
100
AcDbEntity
  8
DETAIL
370
    25
100
AcDbLine
 10
3187775.99635273
 20
3873665.26778125
 30
0.0
 11
3185117.018546345
 21
3873665.26778125
 31
0.0
  0
LINE
  5
3F91F
330
1F
100
AcDbEntity
  8
DETAIL
370
    25
100
AcDbLine
 10
3189871.386628007
 20
3873605.267781251
 30
0.0
 11
3189991.386628007
 21
3873605.267781251
 31
0.0
  0
LINE
  5
3F920
330
1F
100
AcDbEntity
  8
DETAIL
370
    25
100
AcDbLine
 10
3189871.386628007
 20
3873463.26778125
 30
0.0
 11
3189991.386628008
 21
3873463.26778125
 31
0.0
  0
LINE
  5
3F921
330
1F
100
AcDbEntity
  8
DETAIL
370
    25
100
AcDbLine
 10
3188664.99635273
 20
3873605.267781251
 30
0.0
 11
3189871.386628007
 21
3873605.267781251
 31
0.0
  0
LINE
  5
3F922
330
1F
100
AcDbEntity
  8
DETAIL
370
    25
100
AcDbLine
 10
3188664.99635273
 20
3873463.26778125
 30
0.0
 11
3189871.386628007
 21
3873463.26778125
 31
0.0
  0
LINE
  5
3F923
330
1F
100
AcDbEntity
  8
DETAIL
370
    25
100
AcDbLine
 10
3187611.386628007
 20
3873605.267781251
 30
0.0
 11
3187775.996352729
 21
3873605.267781251
 31
0.0
  0
LINE
  5
3F924
330
1F
100
AcDbEntity
  8
DETAIL
370
    25
100
AcDbLine
 10
3190160.265010864
 20
3875589.435651918
 30
0.0
 11
3189007.133092526
 21
3875589.435651918
 31
0.0
  0
LINE
  5
3F925
330
1F
100
AcDbEntity
  8
DETAIL
370
    25
100
AcDbLine
 10
3191022.765007673
 20
3873665.267839804
 30
0.0
 11
3191022.765007673
 21
3875539.435710472
 31
0.0
  0
LINE
  5
3F926
330
1F
100
AcDbEntity
  8
DETAIL
370
    25
100
AcDbLine
 10
3187501.386628005
 20
3875589.435651918
 30
0.0
 11
3185117.018546345
 21
3875589.435651918
 31
0.0
  0
LINE
  5
3F927
330
1F
100
AcDbEntity
  8
DETAIL
370
    25
100
AcDbLine
 10
3185506.969689661
 20
3875539.435651918
 30
0.0
 11
3183166.855143479
 21
3875539.435651918
 31
0.0
  0
LINE
  5
3F928
330
1F
100
AcDbEntity
  8
DETAIL
370
    25
100
AcDbLine
 10
3191022.765007673
 20
3875539.435710472
 30
0.0
 11
3191072.765007672
 21
3875589.435710472
 31
0.0
  0
LINE
  5
3F929
330
1F
100
AcDbEntity
  8
DETAIL
370
    25
100
AcDbLine
 10
3183666.855143479
 20
3875539.435651918
 30
0.0
 11
3183666.855143479
 21
3873665.267781252
 31
0.0
  0
LINE
  5
3F92A
330
1F
100
AcDbEntity
  8
DETAIL
370
    25
100
AcDbLine
 10
3183722.601607998
 20
3875539.435651919
 30
0.0
 11
3183722.601607998
 21
3873665.267781252
 31
0.0
  0
ARC
  5
3F92F
330
1F
100
AcDbEntity
  8
DETAIL
370
    25
100
AcDbCircle
 10
3185204.518546344
 20
3875639.435651919
 30
0.0
 40
50.0
100
AcDbArc
 50
180.0
 51
0.000000000000007
  0
ARC
  5
3F930
330
1F
100
AcDbEntity
  8
DETAIL
370
    25
100
AcDbCircle
 10
3186304.518546344
 20
3875639.435651919
 30
0.0
 40
50.0
100
AcDbArc
 50
180.0
 51
0.000000000000007
  0
ARC
  5
3F931
330
1F
100
AcDbEntity
  8
DETAIL
370
    25
100
AcDbCircle
 10
3186204.518546344
 20
3875639.435651919
 30
0.0
 40
50.0
100
AcDbArc
 50
180.0
 51
0.000000000000007
  0
ARC
  5
3F932
330
1F
100
AcDbEntity
  8
DETAIL
370
    25
100
AcDbCircle
 10
3186404.518546344
 20
3875639.435651919
 30
0.0
 40
50.0
100
AcDbArc
 50
180.0
 51
0.000000000000007
  0
ARC
  5
3F933
330
1F
100
AcDbEntity
  8
DETAIL
370
    25
100
AcDbCircle
 10
3186004.518546344
 20
3875639.435651919
 30
0.0
 40
50.0
100
AcDbArc
 50
180.0
 51
0.000000000000007
  0
ARC
  5
3F934
330
1F
100
AcDbEntity
  8
DETAIL
370
    25
100
AcDbCircle
 10
3186104.518546344
 20
3875639.435651919
 30
0.0
 40
50.0
100
AcDbArc
 50
180.0
 51
0.000000000000007
  0
ARC
  5
3F935
330
1F
100
AcDbEntity
  8
DETAIL
370
    25
100
AcDbCircle
 10
3185904.518546344
 20
3875639.435651919
 30
0.0
 40
50.0
100
AcDbArc
 50
180.0
 51
0.000000000000007
  0
ARC
  5
3F936
330
1F
100
AcDbEntity
  8
DETAIL
370
    25
100
AcDbCircle
 10
3185404.518546344
 20
3875639.435651919
 30
0.0
 40
50.0
100
AcDbArc
 50
180.0
 51
0.000000000000007
  0
ARC
  5
3F937
330
1F
100
AcDbEntity
  8
DETAIL
370
    25
100
AcDbCircle
 10
3185504.518546344
 20
3875639.435651919
 30
0.0
 40
50.0
100
AcDbArc
 50
180.0
 51
0.000000000000007
  0
ARC
  5
3F938
330
1F
100
AcDbEntity
  8
DETAIL
370
    25
100
AcDbCircle
 10
3185304.518546344
 20
3875639.435651919
 30
0.0
 40
50.0
100
AcDbArc
 50
180.0
 51
0.000000000000007
  0
ARC
  5
3F939
330
1F
100
AcDbEntity
  8
DETAIL
370
    25
100
AcDbCircle
 10
3185704.518546344
 20
3875639.435651919
 30
0.0
 40
50.0
100
AcDbArc
 50
180.0
 51
0.000000000000007
  0
ARC
  5
3F93A
330
1F
100
AcDbEntity
  8
DETAIL
370
    25
100
AcDbCircle
 10
3185604.518546344
 20
3875639.435651919
 30
0.0
 40
50.0
100
AcDbArc
 50
180.0
 51
0.000000000000007
  0
ARC
  5
3F93B
330
1F
100
AcDbEntity
  8
DETAIL
370
    25
100
AcDbCircle
 10
3185804.518546344
 20
3875639.435651919
 30
0.0
 40
50.0
100
AcDbArc
 50
180.0
 51
0.000000000000007
  0
ARC
  5
3F93C
330
1F
100
AcDbEntity
  8
DETAIL
370
    25
100
AcDbCircle
 10
3188660.265010865
 20
3875639.435651919
 30
0.0
 40
50.0
100
AcDbArc
 50
180.0
 51
0.000000000000007
  0
ARC
  5
3F93D
330
1F
100
AcDbEntity
  8
DETAIL
370
    25
100
AcDbCircle
 10
3188560.265010865
 20
3875639.435651919
 30
0.0
 40
50.0
100
AcDbArc
 50
180.0
 51
0.000000000000007
  0
ARC
  5
3F93E
330
1F
100
AcDbEntity
  8
DETAIL
370
    25
100
AcDbCircle
 10
3188360.265010865
 20
3875639.435651919
 30
0.0
 40
50.0
100
AcDbArc
 50
180.0
 51
0.000000000000007
  0
ARC
  5
3F93F
330
1F
100
AcDbEntity
  8
DETAIL
370
    25
100
AcDbCircle
 10
3188460.265010864
 20
3875639.435651919
 30
0.0
 40
50.0
100
AcDbArc
 50
180.0
 51
0.000000000000007
  0
ARC
  5
3F940
330
1F
100
AcDbEntity
  8
DETAIL
370
    25
100
AcDbCircle
 10
3188260.265010864
 20
3875639.435651919
 30
0.0
 40
50.0
100
AcDbArc
 50
180.0
 51
0.000000000000007
  0
ARC
  5
3F941
330
1F
100
AcDbEntity
  8
DETAIL
370
    25
100
AcDbCircle
 10
3187860.265010864
 20
3875639.435651919
 30
0.0
 40
50.0
100
AcDbArc
 50
180.0
 51
0.000000000000007
  0
ARC
  5
3F942
330
1F
100
AcDbEntity
  8
DETAIL
370
    25
100
AcDbCircle
 10
3188060.265010865
 20
3875639.435651919
 30
0.0
 40
50.0
100
AcDbArc
 50
180.0
 51
0.000000000000007
  0
ARC
  5
3F943
330
1F
100
AcDbEntity
  8
DETAIL
370
    25
100
AcDbCircle
 10
3187960.265010865
 20
3875639.435651919
 30
0.0
 40
50.0
100
AcDbArc
 50
180.0
 51
0.000000000000007
  0
ARC
  5
3F944
330
1F
100
AcDbEntity
  8
DETAIL
370
    25
100
AcDbCircle
 10
3188160.265010865
 20
3875639.435651919
 30
0.0
 40
50.0
100
AcDbArc
 50
180.0
 51
0.000000000000007
  0
ARC
  5
3F945
330
1F
100
AcDbEntity
  8
DETAIL
370
    25
100
AcDbCircle
 10
3186604.518546344
 20
3875639.435651919
 30
0.0
 40
50.0
100
AcDbArc
 50
180.0
 51
0.000000000000007
  0
ARC
  5
3F946
330
1F
100
AcDbEntity
  8
DETAIL
370
    25
100
AcDbCircle
 10
3186704.518546344
 20
3875639.435651919
 30
0.0
 40
50.0
100
AcDbArc
 50
180.0
 51
0.000000000000007
  0
ARC
  5
3F947
330
1F
100
AcDbEntity
  8
DETAIL
370
    25
100
AcDbCircle
 10
3186504.518546344
 20
3875639.435651919
 30
0.0
 40
50.0
100
AcDbArc
 50
180.0
 51
0.000000000000007
  0
ARC
  5
3F948
330
1F
100
AcDbEntity
  8
DETAIL
370
    25
100
AcDbCircle
 10
3186904.518546344
 20
3875639.435651919
 30
0.0
 40
50.0
100
AcDbArc
 50
180.0
 51
0.000000000000007
  0
ARC
  5
3F949
330
1F
100
AcDbEntity
  8
DETAIL
370
    25
100
AcDbCircle
 10
3186804.518546344
 20
3875639.435651919
 30
0.0
 40
50.0
100
AcDbArc
 50
180.0
 51
0.000000000000007
  0
ARC
  5
3F94A
330
1F
100
AcDbEntity
  8
DETAIL
370
    25
100
AcDbCircle
 10
3187004.518546344
 20
3875639.435651919
 30
0.0
 40
50.0
100
AcDbArc
 50
180.0
 51
0.000000000000007
  0
ARC
  5
3F94B
330
1F
100
AcDbEntity
  8
DETAIL
370
    25
100
AcDbCircle
 10
3187504.518546344
 20
3875639.435651919
 30
0.0
 40
50.0
100
AcDbArc
 50
180.0
 51
266.4087349161139
  0
ARC
  5
3F94C
330
1F
100
AcDbEntity
  8
DETAIL
370
    25
100
AcDbCircle
 10
3187404.518546344
 20
3875639.435651919
 30
0.0
 40
50.0
100
AcDbArc
 50
180.0
 51
0.000000000000007
  0
ARC
  5
3F94D
330
1F
100
AcDbEntity
  8
DETAIL
370
    25
100
AcDbCircle
 10
3187204.518546344
 20
3875639.435651919
 30
0.0
 40
50.0
100
AcDbArc
 50
180.0
 51
0.000000000000007
  0
ARC
  5
3F94E
330
1F
100
AcDbEntity
  8
DETAIL
370
    25
100
AcDbCircle
 10
3187304.518546344
 20
3875639.435651919
 30
0.0
 40
50.0
100
AcDbArc
 50
180.0
 51
0.000000000000007
  0
ARC
  5
3F94F
330
1F
100
AcDbEntity
  8
DETAIL
370
    25
100
AcDbCircle
 10
3187104.518546344
 20
3875639.435651919
 30
0.0
 40
50.0
100
AcDbArc
 50
180.0
 51
0.000000000000007
  0
ARC
  5
3F950
330
1F
100
AcDbEntity
  8
DETAIL
370
    25
100
AcDbCircle
 10
3189060.265010864
 20
3875639.435651919
 30
0.0
 40
50.0
100
AcDbArc
 50
180.0
 51
0.000000000000007
  0
ARC
  5
3F951
330
1F
100
AcDbEntity
  8
DETAIL
370
    25
100
AcDbCircle
 10
3189260.265010865
 20
3875639.435651919
 30
0.0
 40
50.0
100
AcDbArc
 50
180.0
 51
0.000000000000007
  0
ARC
  5
3F952
330
1F
100
AcDbEntity
  8
DETAIL
370
    25
100
AcDbCircle
 10
3189160.265010865
 20
3875639.435651919
 30
0.0
 40
50.0
100
AcDbArc
 50
180.0
 51
0.000000000000007
  0
ARC
  5
3F953
330
1F
100
AcDbEntity
  8
DETAIL
370
    25
100
AcDbCircle
 10
3189360.265010865
 20
3875639.435651919
 30
0.0
 40
50.0
100
AcDbArc
 50
180.0
 51
0.000000000000007
  0
ARC
  5
3F954
330
1F
100
AcDbEntity
  8
DETAIL
370
    25
100
AcDbCircle
 10
3189860.265010865
 20
3875639.435651919
 30
0.0
 40
50.0
100
AcDbArc
 50
180.0
 51
0.000000000000007
  0
ARC
  5
3F955
330
1F
100
AcDbEntity
  8
DETAIL
370
    25
100
AcDbCircle
 10
3189760.265010864
 20
3875639.435651919
 30
0.0
 40
50.0
100
AcDbArc
 50
180.0
 51
0.000000000000007
  0
ARC
  5
3F956
330
1F
100
AcDbEntity
  8
DETAIL
370
    25
100
AcDbCircle
 10
3189960.265010865
 20
3875639.435651919
 30
0.0
 40
50.0
100
AcDbArc
 50
180.0
 51
0.000000000000007
  0
ARC
  5
3F957
330
1F
100
AcDbEntity
  8
DETAIL
370
    25
100
AcDbCircle
 10
3189560.265010864
 20
3875639.435651919
 30
0.0
 40
50.0
100
AcDbArc
 50
180.0
 51
0.000000000000007
  0
ARC
  5
3F958
330
1F
100
AcDbEntity
  8
DETAIL
370
    25
100
AcDbCircle
 10
3189660.265010865
 20
3875639.435651919
 30
0.0
 40
50.0
100
AcDbArc
 50
180.0
 51
0.000000000000007
  0
ARC
  5
3F959
330
1F
100
AcDbEntity
  8
DETAIL
370
    25
100
AcDbCircle
 10
3189460.265010865
 20
3875639.435651919
 30
0.0
 40
50.0
100
AcDbArc
 50
180.0
 51
0.000000000000007
  0
ARC
  5
3F95A
330
1F
100
AcDbEntity
  8
DETAIL
370
    25
100
AcDbCircle
 10
3190060.265010865
 20
3875639.435651919
 30
0.0
 40
50.0
100
AcDbArc
 50
180.0
 51
0.000000000000007
  0
LINE
  5
3F95B
330
1F
100
AcDbEntity
  8
DETAIL
370
    25
100
AcDbLine
 10
3187501.386628006
 20
3875589.435651918
 30
0.0
 11
3185117.018546346
 21
3875589.435651918
 31
0.0
  0
LINE
  5
3F95C
330
1F
100
AcDbEntity
  8
DETAIL
370
    25
100
AcDbLine
 10
3183722.601607998
 20
3875539.435651918
 30
0.0
 11
3183722.601607998
 21
3873665.26778125
 31
0.0
  0
LINE
  5
3F95D
330
1F
100
AcDbEntity
  8
DETAIL
370
    25
100
AcDbLine
 10
3185772.765010864
 20
3875539.435651918
 30
0.0
 11
3185772.765010864
 21
3873665.26778125
 31
0.0
  0
LINE
  5
3F95E
330
1F
100
AcDbEntity
  8
DETAIL
370
    25
100
AcDbLine
 10
3185797.765010864
 20
3875539.435651918
 30
0.0
 11
3185797.765010864
 21
3873665.26778125
 31
0.0
  0
LINE
  5
3F95F
330
1F
100
AcDbEntity
  8
DETAIL
370
    25
100
AcDbLine
 10
3185897.765010864
 20
3875539.435651918
 30
0.0
 11
3185897.765010864
 21
3873665.26778125
 31
0.0
  0
LINE
  5
3F960
330
1F
100
AcDbEntity
  8
DETAIL
370
    25
100
AcDbLine
 10
3185922.765010864
 20
3875539.435651918
 30
0.0
 11
3185922.765010864
 21
3873665.26778125
 31
0.0
  0
LINE
  5
3F961
330
1F
100
AcDbEntity
  8
DETAIL
370
    25
100
AcDbLine
 10
3186022.765010863
 20
3875539.435651918
 30
0.0
 11
3186022.765010863
 21
3873665.26778125
 31
0.0
  0
LINE
  5
3F962
330
1F
100
AcDbEntity
  8
DETAIL
370
    25
100
AcDbLine
 10
3186047.765010863
 20
3875539.435651918
 30
0.0
 11
3186047.765010863
 21
3873665.26778125
 31
0.0
  0
LINE
  5
3F963
330
1F
100
AcDbEntity
  8
DETAIL
370
    25
100
AcDbLine
 10
3186147.765010864
 20
3875539.435651918
 30
0.0
 11
3186147.765010864
 21
3873665.26778125
 31
0.0
  0
LINE
  5
3F964
330
1F
100
AcDbEntity
  8
DETAIL
370
    25
100
AcDbLine
 10
3186172.765010864
 20
3875539.435651918
 30
0.0
 11
3186172.765010864
 21
3873665.26778125
 31
0.0
  0
LINE
  5
3F965
330
1F
100
AcDbEntity
  8
DETAIL
370
    25
100
AcDbLine
 10
3186272.765010864
 20
3875539.435651918
 30
0.0
 11
3186272.765010865
 21
3873665.26778125
 31
0.0
  0
LINE
  5
3F966
330
1F
100
AcDbEntity
  8
DETAIL
370
    25
100
AcDbLine
 10
3186297.765010864
 20
3875539.435651918
 30
0.0
 11
3186297.765010865
 21
3873665.26778125
 31
0.0
  0
LINE
  5
3F967
330
1F
100
AcDbEntity
  8
DETAIL
370
    25
100
AcDbLine
 10
3186397.765010864
 20
3875539.435651918
 30
0.0
 11
3186397.765010863
 21
3873665.26778125
 31
0.0
  0
LINE
  5
3F968
330
1F
100
AcDbEntity
  8
DETAIL
370
    25
100
AcDbLine
 10
3186422.765010864
 20
3875539.435651918
 30
0.0
 11
3186422.765010863
 21
3873665.26778125
 31
0.0
  0
LINE
  5
3F969
330
1F
100
AcDbEntity
  8
DETAIL
370
    25
100
AcDbLine
 10
3186522.765010864
 20
3875539.435651918
 30
0.0
 11
3186522.765010864
 21
3873665.26778125
 31
0.0
  0
LINE
  5
3F96A
330
1F
100
AcDbEntity
  8
DETAIL
370
    25
100
AcDbLine
 10
3186547.765010864
 20
3875539.435651918
 30
0.0
 11
3186547.765010864
 21
3873665.26778125
 31
0.0
  0
LINE
  5
3F96B
330
1F
100
AcDbEntity
  8
DETAIL
370
    25
100
AcDbLine
 10
3186647.765010864
 20
3875539.435651918
 30
0.0
 11
3186647.765010864
 21
3873665.26778125
 31
0.0
  0
LINE
  5
3F96C
330
1F
100
AcDbEntity
  8
DETAIL
370
    25
100
AcDbLine
 10
3186672.765010864
 20
3875539.435651918
 30
0.0
 11
3186672.765010864
 21
3873665.26778125
 31
0.0
  0
LINE
  5
3F96D
330
1F
100
AcDbEntity
  8
DETAIL
370
    25
100
AcDbLine
 10
3186772.765010864
 20
3875539.435651918
 30
0.0
 11
3186772.765010864
 21
3873665.26778125
 31
0.0
  0
LINE
  5
3F96E
330
1F
100
AcDbEntity
  8
DETAIL
370
    25
100
AcDbLine
 10
3186797.765010864
 20
3875539.435651918
 30
0.0
 11
3186797.765010864
 21
3873665.26778125
 31
0.0
  0
LINE
  5
3F96F
330
1F
100
AcDbEntity
  8
DETAIL
370
    25
100
AcDbLine
 10
3186897.765010864
 20
3875539.435651918
 30
0.0
 11
3186897.765010863
 21
3873665.26778125
 31
0.0
  0
LINE
  5
3F970
330
1F
100
AcDbEntity
  8
DETAIL
370
    25
100
AcDbLine
 10
3186922.765010864
 20
3875539.435651918
 30
0.0
 11
3186922.765010864
 21
3873665.26778125
 31
0.0
  0
LINE
  5
3F971
330
1F
100
AcDbEntity
  8
DETAIL
370
    25
100
AcDbLine
 10
3187022.765010864
 20
3875539.435651918
 30
0.0
 11
3187022.765010864
 21
3873665.26778125
 31
0.0
  0
LINE
  5
3F972
330
1F
100
AcDbEntity
  8
DETAIL
370
    25
100
AcDbLine
 10
3187047.765010864
 20
3875539.435651918
 30
0.0
 11
3187047.765010863
 21
3873665.26778125
 31
0.0
  0
LINE
  5
3F973
330
1F
100
AcDbEntity
  8
DETAIL
370
    25
100
AcDbLine
 10
3187147.765010863
 20
3875539.435651918
 30
0.0
 11
3187147.765010863
 21
3873665.26778125
 31
0.0
  0
LINE
  5
3F974
330
1F
100
AcDbEntity
  8
DETAIL
370
    25
100
AcDbLine
 10
3187172.765010864
 20
3875539.435651918
 30
0.0
 11
3187172.765010863
 21
3873665.26778125
 31
0.0
  0
LINE
  5
3F975
330
1F
100
AcDbEntity
  8
DETAIL
370
    25
100
AcDbLine
 10
3187272.765010864
 20
3875539.435651918
 30
0.0
 11
3187272.765010864
 21
3873665.26778125
 31
0.0
  0
LINE
  5
3F976
330
1F
100
AcDbEntity
  8
DETAIL
370
    25
100
AcDbLine
 10
3187297.765010864
 20
3875539.435651918
 30
0.0
 11
3187297.765010864
 21
3873665.26778125
 31
0.0
  0
LINE
  5
3F977
330
1F
100
AcDbEntity
  8
DETAIL
370
    25
100
AcDbLine
 10
3187397.765010864
 20
3875539.435651918
 30
0.0
 11
3187397.765010864
 21
3873665.26778125
 31
0.0
  0
LINE
  5
3F978
330
1F
100
AcDbEntity
  8
DETAIL
370
    25
100
AcDbLine
 10
3187422.765010864
 20
3875539.435651918
 30
0.0
 11
3187422.765010863
 21
3874022.267781251
 31
0.0
  0
LINE
  5
3F979
330
1F
100
AcDbEntity
  8
DETAIL
370
    25
100
AcDbLine
 10
3187647.765010864
 20
3875484.398675589
 30
0.0
 11
3187647.765010862
 21
3873665.26778125
 31
0.0
  0
LINE
  5
3F97A
330
1F
100
AcDbEntity
  8
DETAIL
370
    25
100
AcDbLine
 10
3187672.765010863
 20
3875459.398675587
 30
0.0
 11
3187672.765010864
 21
3873665.267781252
 31
0.0
  0
LINE
  5
3F97B
330
1F
100
AcDbEntity
  8
DETAIL
370
    25
100
AcDbLine
 10
3187897.765010863
 20
3875539.435651918
 30
0.0
 11
3187897.765010863
 21
3875442.986554067
 31
0.0
  0
LINE
  5
3F97C
330
1F
100
AcDbEntity
  8
DETAIL
370
    25
100
AcDbLine
 10
3187922.765010863
 20
3875539.435651918
 30
0.0
 11
3187922.765010863
 21
3875425.755212201
 31
0.0
  0
LINE
  5
3F97D
330
1F
100
AcDbEntity
  8
DETAIL
370
    25
100
AcDbLine
 10
3188022.765010864
 20
3875539.435651918
 30
0.0
 11
3188022.765010864
 21
3875426.923082868
 31
0.0
  0
LINE
  5
3F97E
330
1F
100
AcDbEntity
  8
DETAIL
370
    25
100
AcDbLine
 10
3188047.765010864
 20
3875539.435651918
 30
0.0
 11
3188047.765010864
 21
3875426.923082868
 31
0.0
  0
LINE
  5
3F97F
330
1F
100
AcDbEntity
  8
DETAIL
370
    25
100
AcDbLine
 10
3188147.765010864
 20
3875539.435651918
 30
0.0
 11
3188147.765010864
 21
3875426.923082868
 31
0.0
  0
LINE
  5
3F980
330
1F
100
AcDbEntity
  8
DETAIL
370
    25
100
AcDbLine
 10
3188172.765010864
 20
3875539.435651918
 30
0.0
 11
3188172.765010863
 21
3875426.923082868
 31
0.0
  0
LINE
  5
3F981
330
1F
100
AcDbEntity
  8
DETAIL
370
    25
100
AcDbLine
 10
3188272.765010864
 20
3875539.435651918
 30
0.0
 11
3188272.765010864
 21
3875426.923082868
 31
0.0
  0
LINE
  5
3F982
330
1F
100
AcDbEntity
  8
DETAIL
370
    25
100
AcDbLine
 10
3188297.765010864
 20
3875539.435651918
 30
0.0
 11
3188297.765010863
 21
3875426.923082868
 31
0.0
  0
LINE
  5
3F983
330
1F
100
AcDbEntity
  8
DETAIL
370
    25
100
AcDbLine
 10
3188397.765010864
 20
3875539.435651918
 30
0.0
 11
3188397.765010864
 21
3875426.923082868
 31
0.0
  0
LINE
  5
3F984
330
1F
100
AcDbEntity
  8
DETAIL
370
    25
100
AcDbLine
 10
3188422.765010864
 20
3875539.435651918
 30
0.0
 11
3188422.765010863
 21
3875426.923082868
 31
0.0
  0
LINE
  5
3F985
330
1F
100
AcDbEntity
  8
DETAIL
370
    25
100
AcDbLine
 10
3188522.765010863
 20
3875539.435651918
 30
0.0
 11
3188522.765010863
 21
3875425.755212202
 31
0.0
  0
LINE
  5
3F986
330
1F
100
AcDbEntity
  8
DETAIL
370
    25
100
AcDbLine
 10
3188547.765010863
 20
3875539.435651918
 30
0.0
 11
3188547.765010863
 21
3875447.523870334
 31
0.0
  0
LINE
  5
3F987
330
1F
100
AcDbEntity
  8
DETAIL
370
    25
100
AcDbLine
 10
3188772.765010864
 20
3875445.916898963
 30
0.0
 11
3188772.765010864
 21
3874022.267781251
 31
0.0
  0
LINE
  5
3F988
330
1F
100
AcDbEntity
  8
DETAIL
370
    25
100
AcDbLine
 10
3188797.765010863
 20
3875470.916898962
 30
0.0
 11
3188797.765010864
 21
3874022.267781251
 31
0.0
  0
LINE
  5
3F989
330
1F
100
AcDbEntity
  8
DETAIL
370
    25
100
AcDbLine
 10
3189022.765010864
 20
3875539.435651918
 30
0.0
 11
3189022.765010863
 21
3873665.26778125
 31
0.0
  0
LINE
  5
3F98A
330
1F
100
AcDbEntity
  8
DETAIL
370
    25
100
AcDbLine
 10
3189047.765010863
 20
3875539.435651918
 30
0.0
 11
3189047.765010863
 21
3873665.26778125
 31
0.0
  0
LINE
  5
3F98B
330
1F
100
AcDbEntity
  8
DETAIL
370
    25
100
AcDbLine
 10
3189147.765010864
 20
3875539.435651918
 30
0.0
 11
3189147.765010864
 21
3873665.26778125
 31
0.0
  0
LINE
  5
3F98C
330
1F
100
AcDbEntity
  8
DETAIL
370
    25
100
AcDbLine
 10
3189172.765010864
 20
3875539.435651918
 30
0.0
 11
3189172.765010864
 21
3873665.26778125
 31
0.0
  0
LINE
  5
3F98D
330
1F
100
AcDbEntity
  8
DETAIL
370
    25
100
AcDbLine
 10
3189272.765010864
 20
3875539.435651918
 30
0.0
 11
3189272.765010864
 21
3873665.26778125
 31
0.0
  0
LINE
  5
3F98E
330
1F
100
AcDbEntity
  8
DETAIL
370
    25
100
AcDbLine
 10
3189297.765010864
 20
3875539.435651918
 30
0.0
 11
3189297.765010864
 21
3873665.26778125
 31
0.0
  0
LINE
  5
3F98F
330
1F
100
AcDbEntity
  8
DETAIL
370
    25
100
AcDbLine
 10
3189397.765010864
 20
3875539.435651918
 30
0.0
 11
3189397.765010864
 21
3873665.26778125
 31
0.0
  0
LINE
  5
3F990
330
1F
100
AcDbEntity
  8
DETAIL
370
    25
100
AcDbLine
 10
3189422.765010864
 20
3875539.435651918
 30
0.0
 11
3189422.765010863
 21
3873665.26778125
 31
0.0
  0
LINE
  5
3F991
330
1F
100
AcDbEntity
  8
DETAIL
370
    25
100
AcDbLine
 10
3189522.765010864
 20
3875539.435651918
 30
0.0
 11
3189522.765010863
 21
3873665.26778125
 31
0.0
  0
LINE
  5
3F992
330
1F
100
AcDbEntity
  8
DETAIL
370
    25
100
AcDbLine
 10
3189547.765010864
 20
3875539.435651918
 30
0.0
 11
3189547.765010863
 21
3873665.26778125
 31
0.0
  0
LINE
  5
3F993
330
1F
100
AcDbEntity
  8
DETAIL
370
    25
100
AcDbLine
 10
3189647.765010864
 20
3875539.435651918
 30
0.0
 11
3189647.765010864
 21
3873665.26778125
 31
0.0
  0
LINE
  5
3F994
330
1F
100
AcDbEntity
  8
DETAIL
370
    25
100
AcDbLine
 10
3189672.765010864
 20
3875539.435651918
 30
0.0
 11
3189672.765010863
 21
3873665.26778125
 31
0.0
  0
LINE
  5
3F995
330
1F
100
AcDbEntity
  8
DETAIL
370
    25
100
AcDbLine
 10
3189772.765010864
 20
3875539.435651918
 30
0.0
 11
3189772.765010864
 21
3873665.26778125
 31
0.0
  0
LINE
  5
3F996
330
1F
100
AcDbEntity
  8
DETAIL
370
    25
100
AcDbLine
 10
3189797.765010863
 20
3875539.435651918
 30
0.0
 11
3189797.765010863
 21
3873665.26778125
 31
0.0
  0
LINE
  5
3F997
330
1F
100
AcDbEntity
  8
DETAIL
370
    25
100
AcDbLine
 10
3189897.765010864
 20
3875539.435651918
 30
0.0
 11
3189897.765010863
 21
3873665.26778125
 31
0.0
  0
LINE
  5
3F998
330
1F
100
AcDbEntity
  8
DETAIL
370
    25
100
AcDbLine
 10
3189922.765010864
 20
3875539.435651918
 30
0.0
 11
3189922.765010864
 21
3873665.26778125
 31
0.0
  0
LINE
  5
3F999
330
1F
100
AcDbEntity
  8
DETAIL
370
    25
100
AcDbLine
 10
3190022.765010864
 20
3875539.435651918
 30
0.0
 11
3190022.765010864
 21
3874022.267781251
 31
0.0
  0
LINE
  5
3F99A
330
1F
100
AcDbEntity
  8
DETAIL
370
    25
100
AcDbLine
 10
3190047.765010864
 20
3875539.435651918
 30
0.0
 11
3190047.765010863
 21
3874022.267781251
 31
0.0
  0
LINE
  5
3F99B
330
1F
100
AcDbEntity
  8
DETAIL
370
    25
100
AcDbLine
 10
3188772.764998264
 20
3875463.935979257
 30
0.0
 11
3188772.764998264
 21
3873665.26778125
 31
0.0
  0
LINE
  5
3F99C
330
1F
100
AcDbEntity
  8
DETAIL
370
    25
100
AcDbLine
 10
3188797.764998264
 20
3875470.916886364
 30
0.0
 11
3188797.764998264
 21
3874022.267781251
 31
0.0
  0
LINE
  5
3F99D
330
1F
100
AcDbEntity
  8
DETAIL
370
    25
100
AcDbLine
 10
3188897.764998265
 20
3875539.43564216
 30
0.0
 11
3188897.764998264
 21
3873665.26778125
 31
0.0
  0
LINE
  5
3F99E
330
1F
100
AcDbEntity
  8
DETAIL
370
    25
100
AcDbLine
 10
3188797.764985665
 20
3875488.935966656
 30
0.0
 11
3188797.764985665
 21
3873665.26778125
 31
0.0
  0
LINE
  5
3F99F
330
1F
100
AcDbEntity
  8
DETAIL
370
    25
100
AcDbLine
 10
3188922.764985666
 20
3875539.43564216
 30
0.0
 11
3188922.764985664
 21
3873665.26778125
 31
0.0
  0
LINE
  5
3F9A0
330
1F
100
AcDbEntity
  8
DETAIL
370
    25
100
AcDbLine
 10
3188848.264670927
 20
3875539.435651918
 30
0.0
 11
3188907.133092527
 21
3875539.435651919
 31
0.0
  0
LINE
  5
3F9A1
330
1F
100
AcDbEntity
  8
DETAIL
370
    25
100
AcDbLine
 10
3188628.69588534
 20
3875539.435651918
 30
0.0
 11
3187821.67074724
 21
3875539.435651918
 31
0.0
  0
LINE
  5
3F9A2
330
1F
100
AcDbEntity
  8
DETAIL
370
    25
100
AcDbLine
 10
3189007.133092526
 20
3875589.435651918
 30
0.0
 11
3188898.264670925
 21
3875589.435651917
 31
0.0
  0
LINE
  5
3F9A3
330
1F
100
AcDbEntity
  8
DETAIL
370
    25
100
AcDbLine
 10
3189007.133092526
 20
3875539.435651919
 30
0.0
 11
3188907.133092527
 21
3875539.435651919
 31
0.0
  0
LINE
  5
3F9A4
330
1F
100
AcDbEntity
  8
DETAIL
370
    25
100
AcDbLine
 10
3187592.728034534
 20
3875539.435651918
 30
0.0
 11
3187457.133092526
 21
3875539.435651918
 31
0.0
  0
LINE
  5
3F9A5
330
1F
100
AcDbEntity
  8
DETAIL
370
    25
100
AcDbLine
 10
3187457.133092526
 20
3875589.435651918
 30
0.0
 11
3187542.728034533
 21
3875589.435651918
 31
0.0
  0
LINE
  5
3F9A6
330
1F
100
AcDbEntity
  8
DETAIL
370
    25
100
AcDbLine
 10
3187801.31591301
 20
3875539.435651919
 30
0.0
 11
3188639.676792448
 21
3875539.435651919
 31
0.0
  0
LINE
  5
3F9A7
330
1F
100
AcDbEntity
  8
DETAIL
370
    25
100
AcDbLine
 10
3187422.765021174
 20
3875539.435642159
 30
0.0
 11
3187422.765021174
 21
3873665.26778125
 31
0.0
  0
LINE
  5
3F9A8
330
1F
100
AcDbEntity
  8
DETAIL
370
    25
100
AcDbLine
 10
3187522.765021173
 20
3875539.435642159
 30
0.0
 11
3187522.765021173
 21
3873665.26778125
 31
0.0
  0
LINE
  5
3F9A9
330
1F
100
AcDbEntity
  8
DETAIL
370
    25
100
AcDbLine
 10
3187547.765021173
 20
3875539.435642159
 30
0.0
 11
3187547.765021173
 21
3873665.26778125
 31
0.0
  0
LINE
  5
3F9AA
330
1F
100
AcDbEntity
  8
DETAIL
370
    25
100
AcDbLine
 10
3188560.265010865
 20
3875589.435651918
 30
0.0
 11
3188678.695885341
 21
3875589.435651918
 31
0.0
  0
LINE
  5
3F9AB
330
1F
100
AcDbEntity
  8
DETAIL
370
    25
100
AcDbLine
 10
3188689.676792447
 20
3875589.435651918
 30
0.0
 11
3187860.265010864
 21
3875589.435651918
 31
0.0
  0
LINE
  5
3F9AC
330
1F
100
AcDbEntity
  8
DETAIL
370
    25
100
AcDbLine
 10
3187860.265010864
 20
3875589.435651918
 30
0.0
 11
3187751.315913013
 21
3875589.435651917
 31
0.0
  0
LINE
  5
3F9AD
330
1F
100
AcDbEntity
  8
DETAIL
370
    25
100
AcDbLine
 10
3187810.265010865
 20
3875639.435651919
 30
0.0
 11
3187795.495253197
 21
3875605.306868378
 31
0.0
  0
LINE
  5
3F9AE
330
1F
100
AcDbEntity
  8
DETAIL
370
    25
100
AcDbLine
 10
3187795.495253197
 20
3875605.306868378
 30
0.0
 11
3187766.020853808
 21
3875595.085545352
 31
0.0
  0
LINE
  5
3F9AF
330
1F
100
AcDbEntity
  8
DETAIL
370
    25
100
AcDbLine
 10
3188422.765010863
 20
3875426.923082868
 30
0.0
 11
3188422.765010863
 21
3875425.755212201
 31
0.0
  0
LINE
  5
3F9B0
330
1F
100
AcDbEntity
  8
DETAIL
370
    25
100
AcDbLine
 10
3188397.765010864
 20
3875426.923082868
 30
0.0
 11
3188397.765010864
 21
3875425.755212202
 31
0.0
  0
LINE
  5
3F9B1
330
1F
100
AcDbEntity
  8
DETAIL
370
    25
100
AcDbLine
 10
3188297.765010863
 20
3875426.923082868
 30
0.0
 11
3188297.765010863
 21
3875425.755212201
 31
0.0
  0
LINE
  5
3F9B2
330
1F
100
AcDbEntity
  8
DETAIL
370
    25
100
AcDbLine
 10
3188272.765010864
 20
3875426.923082868
 30
0.0
 11
3188272.765010864
 21
3875425.755212201
 31
0.0
  0
ARC
  5
3F9B3
330
1F
100
AcDbEntity
  8
DETAIL
370
    25
100
AcDbCircle
 10
3183166.855143481
 20
3873493.267781252
 30
0.0
 40
30.0
100
AcDbArc
 50
180.0
 51
270.0
  0
ARC
  5
3F9B4
330
1F
100
AcDbEntity
  8
DETAIL
370
    25
100
AcDbCircle
 10
3183166.855143481
 20
3875559.435651918
 30
0.0
 40
30.0
100
AcDbArc
 50
90.0
 51
180.0
  0
LINE
  5
3F9B5
330
1F
100
AcDbEntity
  8
DETAIL
370
    25
100
AcDbLine
 10
3191072.765007673
 20
3873463.267839804
 30
0.0
 11
3191072.765007672
 21
3875589.435710471
 31
0.0
  0
LINE
  5
3F9B6
330
1F
100
AcDbEntity
  8
DETAIL
370
    25
100
AcDbLine
 10
3191022.765007673
 20
3873665.267839804
 30
0.0
 11
3191072.765007672
 21
3873605.267839804
 31
0.0
  0
LINE
  5
3F9B7
330
1F
100
AcDbEntity
  8
DETAIL
370
    25
100
AcDbLine
 10
3190022.765009268
 20
3875539.435681194
 30
0.0
 11
3190022.765009267
 21
3873665.26778125
 31
0.0
  0
LINE
  5
3F9B8
330
1F
100
AcDbEntity
  8
DETAIL
370
    25
100
AcDbLine
 10
3190047.765009268
 20
3875539.435681194
 30
0.0
 11
3190047.765009267
 21
3873665.26778125
 31
0.0
  0
LINE
  5
3F9B9
330
1F
100
AcDbEntity
  8
DETAIL
370
    25
100
AcDbLine
 10
3190147.765009267
 20
3875539.435681194
 30
0.0
 11
3190147.765009267
 21
3873665.26778125
 31
0.0
  0
LINE
  5
3F9BA
330
1F
100
AcDbEntity
  8
DETAIL
370
    25
100
AcDbLine
 10
3190172.765009267
 20
3875539.435681194
 30
0.0
 11
3190172.765009267
 21
3873665.26778125
 31
0.0
  0
LINE
  5
3F9BB
330
1F
100
AcDbEntity
  8
DETAIL
370
    25
100
AcDbLine
 10
3190272.765009269
 20
3875539.435681194
 30
0.0
 11
3190272.765009269
 21
3873665.26778125
 31
0.0
  0
LINE
  5
3F9BC
330
1F
100
AcDbEntity
  8
DETAIL
370
    25
100
AcDbLine
 10
3190297.765009268
 20
3875539.435681194
 30
0.0
 11
3190297.765009266
 21
3873665.26778125
 31
0.0
  0
LINE
  5
3F9BD
330
1F
100
AcDbEntity
  8
DETAIL
370
    25
100
AcDbLine
 10
3190397.765009267
 20
3875539.435681194
 30
0.0
 11
3190397.765009267
 21
3873665.26778125
 31
0.0
  0
LINE
  5
3F9BE
330
1F
100
AcDbEntity
  8
DETAIL
370
    25
100
AcDbLine
 10
3190422.765009267
 20
3875539.435681194
 30
0.0
 11
3190422.765009267
 21
3873665.26778125
 31
0.0
  0
LINE
  5
3F9BF
330
1F
100
AcDbEntity
  8
DETAIL
370
    25
100
AcDbLine
 10
3190522.765009267
 20
3875539.435681194
 30
0.0
 11
3190522.765009267
 21
3873665.26778125
 31
0.0
  0
LINE
  5
3F9C0
330
1F
100
AcDbEntity
  8
DETAIL
370
    25
100
AcDbLine
 10
3190547.765009267
 20
3875539.435681194
 30
0.0
 11
3190547.765009268
 21
3873665.26778125
 31
0.0
  0
LINE
  5
3F9C1
330
1F
100
AcDbEntity
  8
DETAIL
370
    25
100
AcDbLine
 10
3190647.765009268
 20
3875539.435681194
 30
0.0
 11
3190647.765009267
 21
3873665.26778125
 31
0.0
  0
LINE
  5
3F9C2
330
1F
100
AcDbEntity
  8
DETAIL
370
    25
100
AcDbLine
 10
3190672.765009268
 20
3875539.435681194
 30
0.0
 11
3190672.765009267
 21
3873665.26778125
 31
0.0
  0
LINE
  5
3F9C3
330
1F
100
AcDbEntity
  8
DETAIL
370
    25
100
AcDbLine
 10
3190772.765009267
 20
3875539.435681194
 30
0.0
 11
3190772.765009267
 21
3873665.26778125
 31
0.0
  0
LINE
  5
3F9C4
330
1F
100
AcDbEntity
  8
DETAIL
370
    25
100
AcDbLine
 10
3190797.765009268
 20
3875539.435681194
 30
0.0
 11
3190797.765009268
 21
3873665.26778125
 31
0.0
  0
LINE
  5
3F9C5
330
1F
100
AcDbEntity
  8
DETAIL
370
    25
100
AcDbLine
 10
3190897.765009268
 20
3875539.435681194
 30
0.0
 11
3190897.765009268
 21
3874022.267810527
 31
0.0
  0
LINE
  5
3F9C6
330
1F
100
AcDbEntity
  8
DETAIL
370
    25
100
AcDbLine
 10
3190922.765009267
 20
3875539.435681194
 30
0.0
 11
3190922.765009267
 21
3874022.267810527
 31
0.0
  0
LINE
  5
3F9C7
330
1F
100
AcDbEntity
  8
DETAIL
370
    25
100
AcDbLine
 10
3191022.765007672
 20
3875539.435710471
 30
0.0
 11
3191022.765007672
 21
3873665.26778125
 31
0.0
  0
LINE
  5
3F9C8
330
1F
100
AcDbEntity
  8
DETAIL
370
    25
100
AcDbLine
 10
3183136.855143481
 20
3875559.435651918
 30
0.0
 11
3183136.855143481
 21
3873493.26778125
 31
0.0
  0
LINE
  5
3F9C9
330
1F
100
AcDbEntity
  8
DETAIL
370
    25
100
AcDbLine
 10
3183166.855143479
 20
3875589.435651918
 30
0.0
 11
3183166.855143481
 21
3874022.267781251
 31
0.0
  0
LINE
  5
3F9CA
330
1F
100
AcDbEntity
  8
DETAIL
370
    25
100
AcDbLine
 10
3183166.85514348
 20
3875589.435651918
 30
0.0
 11
3183166.85514348
 21
3873463.267781251
 31
0.0
  0
ARC
  5
3F9CB
330
1F
100
AcDbEntity
  8
DETAIL
370
    25
100
AcDbCircle
 10
3190260.265010865
 20
3875639.435651919
 30
0.0
 40
50.0
100
AcDbArc
 50
180.0
 51
0.000000000000007
  0
ARC
  5
3F9CC
330
1F
100
AcDbEntity
  8
DETAIL
370
    25
100
AcDbCircle
 10
3190160.265010864
 20
3875639.435651919
 30
0.0
 40
50.0
100
AcDbArc
 50
180.0
 51
0.000000000000007
  0
ARC
  5
3F9CD
330
1F
100
AcDbEntity
  8
DETAIL
370
    25
100
AcDbCircle
 10
3190360.265010864
 20
3875639.435651919
 30
0.0
 40
50.0
100
AcDbArc
 50
180.0
 51
0.000000000000007
  0
ARC
  5
3F9CE
330
1F
100
AcDbEntity
  8
DETAIL
370
    25
100
AcDbCircle
 10
3190860.265010865
 20
3875639.435651919
 30
0.0
 40
50.0
100
AcDbArc
 50
180.0
 51
0.000000000000007
  0
ARC
  5
3F9CF
330
1F
100
AcDbEntity
  8
DETAIL
370
    25
100
AcDbCircle
 10
3190760.265010865
 20
3875639.435651919
 30
0.0
 40
50.0
100
AcDbArc
 50
180.0
 51
0.000000000000007
  0
ARC
  5
3F9D0
330
1F
100
AcDbEntity
  8
DETAIL
370
    25
100
AcDbCircle
 10
3190960.265010864
 20
3875639.435651919
 30
0.0
 40
50.0
100
AcDbArc
 50
180.0
 51
0.000000000000007
  0
ARC
  5
3F9D1
330
1F
100
AcDbEntity
  8
DETAIL
370
    25
100
AcDbCircle
 10
3190560.265010865
 20
3875639.435651919
 30
0.0
 40
50.0
100
AcDbArc
 50
180.0
 51
0.000000000000007
  0
ARC
  5
3F9D2
330
1F
100
AcDbEntity
  8
DETAIL
370
    25
100
AcDbCircle
 10
3190660.265010865
 20
3875639.435651919
 30
0.0
 40
50.0
100
AcDbArc
 50
180.0
 51
0.000000000000007
  0
ARC
  5
3F9D3
330
1F
100
AcDbEntity
  8
DETAIL
370
    25
100
AcDbCircle
 10
3190460.265010865
 20
3875639.435651919
 30
0.0
 40
50.0
100
AcDbArc
 50
180.0
 51
0.000000000000007
  0
ARC
  5
3F9D4
330
1F
100
AcDbEntity
  8
DETAIL
370
    25
100
AcDbCircle
 10
3191060.265010865
 20
3875639.435651919
 30
0.0
 40
50.0
100
AcDbArc
 50
180.0
 51
270.0003116732712
  0
LINE
  5
3F9D5
330
1F
100
AcDbEntity
  8
DETAIL
370
    25
100
AcDbLine
 10
3188147.765010864
 20
3875426.923082868
 30
0.0
 11
3188147.765010864
 21
3875425.755212201
 31
0.0
  0
LINE
  5
3F9D6
330
1F
100
AcDbEntity
  8
DETAIL
370
    25
100
AcDbLine
 10
3188172.765010863
 20
3875426.923082868
 30
0.0
 11
3188172.765010863
 21
3875425.755212201
 31
0.0
  0
LINE
  5
3F9D7
330
1F
100
AcDbEntity
  8
DETAIL
370
    25
100
AcDbLine
 10
3188022.765010864
 20
3875426.923082868
 30
0.0
 11
3188022.765010864
 21
3875425.755212201
 31
0.0
  0
LINE
  5
3F9D8
330
1F
100
AcDbEntity
  8
DETAIL
370
    25
100
AcDbLine
 10
3188047.765010864
 20
3875426.923082868
 30
0.0
 11
3188047.765010864
 21
3875425.755212202
 31
0.0
  0
LINE
  5
3FA63
102
{ACAD_REACTORS
330
3FDDC
102
}
330
1F
100
AcDbEntity
  8
APPLICATION
370
    25
100
AcDbLine
 10
3192999.794956989
 20
3873088.26778125
 30
0.0
 11
3192999.794956989
 21
3873388.267781251
 31
0.0
  0
LINE
  5
3FA64
102
{ACAD_REACTORS
330
3FDDC
102
}
330
1F
100
AcDbEntity
  8
DETAIL
370
    25
100
AcDbLine
 10
3192649.794956988
 20
3873388.267781251
 30
0.0
 11
3192699.794956989
 21
3873388.267781251
 31
0.0
  0
LINE
  5
3FA65
330
1F
100
AcDbEntity
  8
DETAIL
370
    25
100
AcDbLine
 10
3192699.794956989
 20
3873388.267781251
 30
0.0
 11
3192699.794956989
 21
3873403.26778125
 31
0.0
  0
LINE
  5
3FA66
330
1F
100
AcDbEntity
  8
DETAIL
370
    25
100
AcDbLine
 10
3192699.794956989
 20
3873403.26778125
 30
0.0
 11
3192949.79495699
 21
3873403.26778125
 31
0.0
  0
LINE
  5
3FA67
330
1F
100
AcDbEntity
  8
DETAIL
370
    25
100
AcDbLine
 10
3192949.79495699
 20
3873403.26778125
 30
0.0
 11
3192949.79495699
 21
3873388.267781251
 31
0.0
  0
LINE
  5
3FA68
330
1F
100
AcDbEntity
  8
DETAIL
370
    25
100
AcDbLine
 10
3192874.794956989
 20
3873653.26778125
 30
0.0
 11
3192774.794956989
 21
3873653.26778125
 31
0.0
  0
LINE
  5
3FA69
330
1F
100
AcDbEntity
  8
DETAIL
370
    25
100
AcDbLine
 10
3192874.794956989
 20
3873403.26778125
 30
0.0
 11
3192874.794956989
 21
3873653.26778125
 31
0.0
  0
LINE
  5
3FA6A
330
1F
100
AcDbEntity
  8
DETAIL
370
    25
100
AcDbLine
 10
3192774.794956989
 20
3873403.26778125
 30
0.0
 11
3192774.794956989
 21
3873653.26778125
 31
0.0
  0
LINE
  5
3FA6B
330
1F
100
AcDbEntity
  8
DETAIL
370
    25
100
AcDbLine
 10
3192774.794956989
 20
3873653.26778125
 30
0.0
 11
3192754.794956989
 21
3873653.26778125
 31
0.0
  0
ARC
  5
3FA6C
330
1F
100
AcDbEntity
  8
DETAIL
370
    25
100
AcDbCircle
 10
3192754.794956989
 20
3873592.26778125
 30
0.0
 40
61.0
100
AcDbArc
 50
90.0
 51
270.0
  0
LINE
  5
3FA6D
330
1F
100
AcDbEntity
  8
DETAIL
370
    25
100
AcDbLine
 10
3192754.794956989
 20
3873531.26778125
 30
0.0
 11
3192774.794956989
 21
3873531.26778125
 31
0.0
  0
HATCH
  5
3FA6E
330
1F
100
AcDbEntity
  8
DETAIL
370
    25
100
AcDbHatch
 10
0.0
 20
0.0
 30
0.0
210
0.0
220
0.0
230
1.0
  2
SOLID
 70
     1
 71
     0
 91
        1
 92
        7
 72
     1
 73
     1
 93
        4
 10
3192754.79495699
 20
3873531.26778125
 42
-1.0
 10
3192754.79495699
 20
3873653.26778125
 42
0.0
 10
3192774.794956989
 20
3873653.26778125
 42
0.0
 10
3192774.79495699
 20
3873531.26778125
 42
0.0
 97
        0
 75
     0
 76
     1
 47
2.259840673703695
 98
        1
 10
3192745.414663436
 20
3873603.891816799
450
        0
451
        0
460
0.0
461
0.0
452
        0
462
0.0
453
        0
470

  0
LINE
  5
3FA6F
330
1F
100
AcDbEntity
  8
DETAIL
370
    25
100
AcDbLine
 10
3192699.794956989
 20
3873403.26778125
 30
0.0
 11
3192709.79495699
 21
3873403.26778125
 31
0.0
  0
LINE
  5
3FA70
330
1F
100
AcDbEntity
  8
DETAIL
370
    25
100
AcDbLine
 10
3192699.794956989
 20
3873403.26778125
 30
0.0
 11
3192719.794956989
 21
3873403.26778125
 31
0.0
  0
LINE
  5
3FA71
330
1F
100
AcDbEntity
  8
DETAIL
370
    25
100
AcDbLine
 10
3192719.794956989
 20
3873403.26778125
 30
0.0
 11
3192719.794956989
 21
3873413.267781251
 31
0.0
  0
LINE
  5
3FA72
330
1F
100
AcDbEntity
  8
DETAIL
370
    25
100
AcDbLine
 10
3192719.794956989
 20
3873413.267781251
 30
0.0
 11
3192739.79495699
 21
3873413.267781251
 31
0.0
  0
LINE
  5
3FA73
330
1F
100
AcDbEntity
  8
DETAIL
370
    25
100
AcDbLine
 10
3192739.79495699
 20
3873413.267781251
 30
0.0
 11
3192739.79495699
 21
3873403.26778125
 31
0.0
  0
LINE
  5
3FA74
330
1F
100
AcDbEntity
  8
DETAIL
370
    25
100
AcDbLine
 10
3192929.794956989
 20
3873403.26778125
 30
0.0
 11
3192929.794956989
 21
3873413.267781251
 31
0.0
  0
LINE
  5
3FA75
330
1F
100
AcDbEntity
  8
DETAIL
370
    25
100
AcDbLine
 10
3192929.794956989
 20
3873413.267781251
 30
0.0
 11
3192909.794956989
 21
3873413.267781251
 31
0.0
  0
LINE
  5
3FA76
330
1F
100
AcDbEntity
  8
DETAIL
370
    25
100
AcDbLine
 10
3192909.794956989
 20
3873413.267781251
 30
0.0
 11
3192909.794956989
 21
3873403.26778125
 31
0.0
  0
LINE
  5
3FA77
330
1F
100
AcDbEntity
  8
DETAIL
370
    25
100
AcDbLine
 10
3181750.534647337
 20
3873403.26778125
 30
0.0
 11
3181650.534647336
 21
3873403.26778125
 31
0.0
  0
LINE
  5
3FA78
330
1F
100
AcDbEntity
  8
DETAIL
370
    25
100
AcDbLine
 10
3181650.534647336
 20
3873403.26778125
 30
0.0
 11
3181650.534647336
 21
3873388.267781251
 31
0.0
  0
LINE
  5
3FA7A
330
1F
100
AcDbEntity
  8
DETAIL
370
    25
100
AcDbLine
 10
3181750.534647337
 20
3873403.26778125
 30
0.0
 11
3181850.534647336
 21
3873403.26778125
 31
0.0
  0
LINE
  5
3FA7B
330
1F
100
AcDbEntity
  8
DETAIL
370
    25
100
AcDbLine
 10
3181850.534647336
 20
3873403.26778125
 30
0.0
 11
3181950.534647336
 21
3873403.26778125
 31
0.0
  0
LINE
  5
3FA7C
330
1F
100
AcDbEntity
  8
DETAIL
370
    25
100
AcDbLine
 10
3181950.534647336
 20
3873403.26778125
 30
0.0
 11
3181950.534647336
 21
3873388.267781251
 31
0.0
  0
LINE
  5
3FA7E
330
1F
100
AcDbEntity
  8
DETAIL
370
    25
100
AcDbLine
 10
3181650.534647336
 20
3873403.26778125
 30
0.0
 11
3181650.534647336
 21
3873388.267781251
 31
0.0
  0
LINE
  5
3FA7F
330
1F
100
AcDbEntity
  8
DETAIL
370
    25
100
AcDbLine
 10
3181930.534647336
 20
3873403.26778125
 30
0.0
 11
3181930.534647336
 21
3873413.267781251
 31
0.0
  0
LINE
  5
3FA80
330
1F
100
AcDbEntity
  8
DETAIL
370
    25
100
AcDbLine
 10
3181930.534647336
 20
3873413.267781251
 30
0.0
 11
3181910.534647336
 21
3873413.267781251
 31
0.0
  0
LINE
  5
3FA81
330
1F
100
AcDbEntity
  8
DETAIL
370
    25
100
AcDbLine
 10
3181910.534647336
 20
3873413.267781251
 30
0.0
 11
3181910.534647336
 21
3873403.26778125
 31
0.0
  0
LINE
  5
3FA82
330
1F
100
AcDbEntity
  8
DETAIL
370
    25
100
AcDbLine
 10
3181670.534647336
 20
3873403.26778125
 30
0.0
 11
3181670.534647336
 21
3873413.267781251
 31
0.0
  0
LINE
  5
3FA83
330
1F
100
AcDbEntity
  8
DETAIL
370
    25
100
AcDbLine
 10
3181670.534647336
 20
3873413.267781251
 30
0.0
 11
3181690.534647336
 21
3873413.267781251
 31
0.0
  0
LINE
  5
3FA84
330
1F
100
AcDbEntity
  8
DETAIL
370
    25
100
AcDbLine
 10
3181690.534647336
 20
3873413.267781251
 30
0.0
 11
3181690.534647336
 21
3873403.26778125
 31
0.0
  0
LINE
  5
3FA85
330
1F
100
AcDbEntity
  8
DETAIL
370
    25
100
AcDbLine
 10
3181950.534647336
 20
3873403.26778125
 30
0.0
 11
3181930.534647336
 21
3873403.26778125
 31
0.0
  0
LINE
  5
3FA86
330
1F
100
AcDbEntity
  8
DETAIL
370
    25
100
AcDbLine
 10
3181930.534647336
 20
3873403.26778125
 30
0.0
 11
3181930.534647336
 21
3873408.784466292
 31
0.0
  0
LINE
  5
3FA87
330
1F
100
AcDbEntity
  8
DETAIL
370
    25
100
AcDbLine
 10
3181884.534647335
 20
3875232.435651918
 30
0.0
 11
3181884.534647336
 21
3873403.26778125
 31
0.0
  0
LINE
  5
3FA88
330
1F
100
AcDbEntity
  8
DETAIL
370
    25
100
AcDbLine
 10
3181716.534647335
 20
3875232.435651918
 30
0.0
 11
3181716.534647336
 21
3873403.26778125
 31
0.0
  0
LINE
  5
3FA89
330
1F
100
AcDbEntity
  8
DETAIL
370
    25
100
AcDbLine
 10
3181884.534647335
 20
3875232.435651918
 30
0.0
 11
3181884.534647336
 21
3873403.26778125
 31
0.0
  0
LINE
  5
3FA8A
330
1F
100
AcDbEntity
  8
DETAIL
370
    25
100
AcDbLine
 10
3181716.534647335
 20
3875232.435651918
 30
0.0
 11
3181716.534647336
 21
3873403.26778125
 31
0.0
  0
LINE
  5
3FA91
102
{ACAD_REACTORS
330
3FECE
102
}
330
1F
100
AcDbEntity
  8
DETAIL
370
    25
100
AcDbLine
 10
3181884.534647336
 20
3875738.26778125
 30
0.0
 11
3181716.534647336
 21
3875738.26778125
 31
0.0
  0
LINE
  5
3FA97
330
1F
100
AcDbEntity
  8
DETAIL
370
    25
100
AcDbLine
 10
3183136.855143481
 20
3875539.435651918
 30
0.0
 11
3183106.85514348
 21
3875539.435651918
 31
0.0
  0
LINE
  5
3FA98
330
1F
100
AcDbEntity
  8
DETAIL
370
    25
100
AcDbLine
 10
3183106.85514348
 20
3875539.435651918
 30
0.0
 11
3183106.855143482
 21
3873493.267781252
 31
0.0
  0
LINE
  5
3FA99
330
1F
100
AcDbEntity
  8
DETAIL
370
    25
100
AcDbLine
 10
3183136.855143481
 20
3873493.267781252
 30
0.0
 11
3183106.85514348
 21
3873493.267781252
 31
0.0
  0
LINE
  5
3FA9A
330
1F
100
AcDbEntity
  8
DETAIL
370
    25
100
AcDbLine
 10
3181550.534647336
 20
3871512.52672683
 30
0.0
 11
3181550.534647336
 21
3870762.526726829
 31
0.0
  0
LINE
  5
3FA9B
330
1F
100
AcDbEntity
  8
DETAIL
370
    25
100
AcDbLine
 10
3182050.534647336
 20
3871512.52672683
 30
0.0
 11
3181550.534647336
 21
3871512.52672683
 31
0.0
  0
LINE
  5
3FA9C
330
1F
100
AcDbEntity
  8
DETAIL
370
    25
100
AcDbLine
 10
3182050.534647336
 20
3870762.526726829
 30
0.0
 11
3181550.534647336
 21
3870762.526726829
 31
0.0
  0
LINE
  5
3FA9D
330
1F
100
AcDbEntity
  8
DETAIL
370
    25
100
AcDbLine
 10
3181950.534647335
 20
3871487.52672683
 30
0.0
 11
3181650.534647336
 21
3871487.52672683
 31
0.0
  0
LINE
  5
3FA9E
330
1F
100
AcDbEntity
  8
DETAIL
370
    25
100
AcDbLine
 10
3181950.534647335
 20
3870787.526726831
 30
0.0
 11
3181650.534647336
 21
3870787.526726831
 31
0.0
  0
LINE
  5
3FA9F
330
1F
100
AcDbEntity
  8
DETAIL
370
    25
100
AcDbLine
 10
3181650.534647336
 20
3871387.526726829
 30
0.0
 11
3181650.534647336
 21
3870887.52672683
 31
0.0
  0
LINE
  5
3FAA0
330
1F
100
AcDbEntity
  8
DETAIL
370
    25
100
AcDbLine
 10
3181950.534647335
 20
3871387.526726829
 30
0.0
 11
3181950.534647336
 21
3870887.52672683
 31
0.0
  0
CIRCLE
  5
3FAA1
330
1F
100
AcDbEntity
  8
DETAIL
370
    25
100
AcDbCircle
 10
3181680.534647337
 20
3871457.526726829
 30
0.0
 40
10.0
  0
CIRCLE
  5
3FAA2
330
1F
100
AcDbEntity
  8
DETAIL
370
    25
100
AcDbCircle
 10
3181920.534647335
 20
3871457.526726829
 30
0.0
 40
10.0
  0
CIRCLE
  5
3FAA3
330
1F
100
AcDbEntity
  8
DETAIL
370
    25
100
AcDbCircle
 10
3181680.534647337
 20
3870817.526726829
 30
0.0
 40
10.0
  0
CIRCLE
  5
3FAA4
330
1F
100
AcDbEntity
  8
DETAIL
370
    25
100
AcDbCircle
 10
3181920.534647335
 20
3870817.526726829
 30
0.0
 40
10.0
  0
LINE
  5
3FAA5
330
1F
100
AcDbEntity
  8
DETAIL
370
    25
100
AcDbLine
 10
3192999.794956989
 20
3871312.526726829
 30
0.0
 11
3192999.794956989
 21
3870962.526726829
 31
0.0
  0
LINE
  5
3FAA6
330
1F
100
AcDbEntity
  8
DETAIL
370
    25
100
AcDbLine
 10
3192699.794956989
 20
3871262.526726829
 30
0.0
 11
3192949.79495699
 21
3871262.526726829
 31
0.0
  0
LINE
  5
3FAA7
330
1F
100
AcDbEntity
  8
DETAIL
370
    25
100
AcDbLine
 10
3192699.794956989
 20
3871262.526726829
 30
0.0
 11
3192699.794956989
 21
3871012.526726829
 31
0.0
  0
LINE
  5
3FAA8
330
1F
100
AcDbEntity
  8
DETAIL
370
    25
100
AcDbLine
 10
3192949.79495699
 20
3871262.526726829
 30
0.0
 11
3192949.79495699
 21
3871012.526726829
 31
0.0
  0
LINE
  5
3FAA9
330
1F
100
AcDbEntity
  8
DETAIL
370
    25
100
AcDbLine
 10
3192699.794956989
 20
3871012.526726829
 30
0.0
 11
3192949.79495699
 21
3871012.526726829
 31
0.0
  0
CIRCLE
  5
3FAAA
330
1F
100
AcDbEntity
  8
DETAIL
370
    25
100
AcDbCircle
 10
3192729.794956989
 20
3871232.526726829
 30
0.0
 40
10.0
  0
CIRCLE
  5
3FAAB
330
1F
100
AcDbEntity
  8
DETAIL
370
    25
100
AcDbCircle
 10
3192919.794956988
 20
3871232.526726829
 30
0.0
 40
10.0
  0
CIRCLE
  5
3FAAC
330
1F
100
AcDbEntity
  8
DETAIL
370
    25
100
AcDbCircle
 10
3192729.794956989
 20
3871042.526726828
 30
0.0
 40
10.0
  0
CIRCLE
  5
3FAAD
330
1F
100
AcDbEntity
  8
DETAIL
370
    25
100
AcDbCircle
 10
3192919.794956988
 20
3871042.526726828
 30
0.0
 40
10.0
  0
LINE
  5
3FAAE
330
1F
100
AcDbEntity
  8
DETAIL
370
    25
100
AcDbLine
 10
3192874.794956989
 20
3871187.526726829
 30
0.0
 11
3192874.794956989
 21
3871087.526726828
 31
0.0
  0
LINE
  5
3FAAF
330
1F
100
AcDbEntity
  8
DETAIL
370
    25
100
AcDbLine
 10
3192774.794956989
 20
3871187.526726829
 30
0.0
 11
3192774.794956989
 21
3871087.526726828
 31
0.0
  0
LINE
  5
3FAB0
330
1F
100
AcDbEntity
  8
DETAIL
370
    25
100
AcDbLine
 10
3192824.794956989
 20
3871187.526726829
 30
0.0
 11
3192874.794956989
 21
3871187.526726829
 31
0.0
  0
LINE
  5
3FAB1
330
1F
100
AcDbEntity
  8
DETAIL
370
    25
100
AcDbLine
 10
3192874.794956989
 20
3871187.526726829
 30
0.0
 11
3192774.794956989
 21
3871187.526726829
 31
0.0
  0
LINE
  5
3FAB2
330
1F
100
AcDbEntity
  8
DETAIL
370
    25
100
AcDbLine
 10
3192824.794956989
 20
3871087.526726828
 30
0.0
 11
3192874.794956989
 21
3871087.526726828
 31
0.0
  0
LINE
  5
3FAB3
330
1F
100
AcDbEntity
  8
DETAIL
370
    25
100
AcDbLine
 10
3192874.794956989
 20
3871087.526726828
 30
0.0
 11
3192774.794956989
 21
3871087.526726828
 31
0.0
  0
ARC
  5
3FAB4
330
1F
100
AcDbEntity
  8
DETAIL
370
    25
100
AcDbCircle
 10
3192757.748831693
 20
3871137.526726828
 30
0.0
 40
50.0
100
AcDbArc
 50
90.0
 51
270.0
  0
LINE
  5
3FAB5
330
1F
100
AcDbEntity
  8
DETAIL
370
    25
100
AcDbLine
 10
3192757.748831693
 20
3871187.526726829
 30
0.0
 11
3192774.794956989
 21
3871187.526726829
 31
0.0
  0
LINE
  5
3FAB6
330
1F
100
AcDbEntity
  8
DETAIL
370
    25
100
AcDbLine
 10
3192757.748831693
 20
3871087.526726828
 30
0.0
 11
3192774.794956989
 21
3871087.526726828
 31
0.0
  0
LINE
  5
3FAB7
330
1F
100
AcDbEntity
  8
DETAIL
370
    25
100
AcDbLine
 10
3192774.794956989
 20
3871087.526726828
 30
0.0
 11
3192774.794956989
 21
3871187.526726829
 31
0.0
  0
HATCH
  5
3FAB8
330
1F
100
AcDbEntity
  8
DETAIL
370
    25
100
AcDbHatch
 10
0.0
 20
0.0
 30
0.0
210
0.0
220
0.0
230
1.0
  2
SOLID
 70
     1
 71
     0
 91
        1
 92
        7
 72
     1
 73
     1
 93
        4
 10
3192757.748831694
 20
3871087.526726828
 42
-1.0
 10
3192757.748831694
 20
3871187.526726829
 42
0.0
 10
3192774.794956989
 20
3871187.526726829
 42
0.0
 10
3192774.794956989
 20
3871087.526726828
 42
0.0
 97
        0
 75
     0
 76
     1
 47
0.3305250713372007
 98
        1
 10
3192742.439976842
 20
3871149.354667411
450
        0
451
        0
460
0.0
461
0.0
452
        0
462
0.0
453
        0
470

  0
CIRCLE
  5
3FAB9
102
{ACAD_REACTORS
330
3FEF8
102
}
330
1F
100
AcDbEntity
  8
DETAIL
370
    25
100
AcDbCircle
 10
3181800.534647337
 20
3871354.526726829
 30
0.0
 40
84.0
  0
CIRCLE
  5
3FABA
330
1F
100
AcDbEntity
  8
DETAIL
370
    25
100
AcDbCircle
 10
3181800.534647337
 20
3870920.526726832
 30
0.0
 40
84.0
  0
LINE
  5
3FABB
330
1F
100
AcDbEntity
  8
DETAIL
370
    25
100
AcDbLine
 10
3181950.534647335
 20
3871387.526726829
 30
0.0
 11
3181950.534647335
 21
3871487.52672683
 31
0.0
  0
LINE
  5
3FABC
330
1F
100
AcDbEntity
  8
DETAIL
370
    25
100
AcDbLine
 10
3181950.534647336
 20
3870887.52672683
 30
0.0
 11
3181950.534647336
 21
3870787.526726831
 31
0.0
  0
LINE
  5
3FABD
330
1F
100
AcDbEntity
  8
DETAIL
370
    25
100
AcDbLine
 10
3181650.534647336
 20
3870887.52672683
 30
0.0
 11
3181650.534647336
 21
3870787.526726831
 31
0.0
  0
LINE
  5
3FABE
330
1F
100
AcDbEntity
  8
DETAIL
370
    25
100
AcDbLine
 10
3181650.534647336
 20
3871387.526726829
 30
0.0
 11
3181650.534647336
 21
3871487.52672683
 31
0.0
  0
LINE
  5
3FABF
330
1F
100
AcDbEntity
  8
DETAIL
370
    25
100
AcDbLine
 10
3181785.534647336
 20
3871270.526726829
 30
0.0
 11
3181785.534647336
 21
3871238.815045711
 31
0.0
  0
LINE
  5
3FAC0
330
1F
100
AcDbEntity
  8
DETAIL
370
    25
100
AcDbLine
 10
3181815.534647336
 20
3871270.526726829
 30
0.0
 11
3181815.534647336
 21
3871238.815045711
 31
0.0
  0
CIRCLE
  5
3FAC1
330
1F
100
AcDbEntity
  8
DETAIL
370
    25
100
AcDbCircle
 10
3181800.534647337
 20
3871208.68453206
 30
0.0
 40
33.65780523000285
  0
CIRCLE
  5
3FAC2
330
1F
100
AcDbEntity
  8
DETAIL
370
    25
100
AcDbCircle
 10
3181800.534647337
 20
3871066.368921601
 30
0.0
 40
33.65780523000285
  0
LINE
  5
3FAC3
330
1F
100
AcDbEntity
  8
DETAIL
370
    25
100
AcDbLine
 10
3181815.534647336
 20
3871036.238407949
 30
0.0
 11
3181815.534647336
 21
3871004.526726832
 31
0.0
  0
LINE
  5
3FAC4
330
1F
100
AcDbEntity
  8
DETAIL
370
    25
100
AcDbLine
 10
3181785.534647336
 20
3871036.238407949
 30
0.0
 11
3181785.534647336
 21
3871004.526726832
 31
0.0
  0
LINE
  5
3FAC5
330
1F
100
AcDbEntity
  8
DETAIL
370
    25
100
AcDbLine
 10
3181716.534647336
 20
3871354.526726829
 30
0.0
 11
3181716.534647336
 21
3870920.526726832
 31
0.0
  0
LINE
  5
3FAC6
330
1F
100
AcDbEntity
  8
DETAIL
370
    25
100
AcDbLine
 10
3181746.534647337
 20
3870984.869558599
 30
0.0
 11
3181746.534647337
 21
3871290.18389506
 31
0.0
  0
LINE
  5
3FAC7
330
1F
100
AcDbEntity
  8
DETAIL
370
    25
100
AcDbLine
 10
3189067.146352729
 20
3870787.526726828
 30
0.0
 11
3189067.146352729
 21
3871100.026726829
 31
0.0
  0
LINE
  5
3FAC8
330
1F
100
AcDbEntity
  8
DETAIL
370
    25
100
AcDbLine
 10
3189067.146352729
 20
3871487.526726828
 30
0.0
 11
3188367.146352729
 21
3871487.526726828
 31
0.0
  0
LINE
  5
3FAC9
330
1F
100
AcDbEntity
  8
DETAIL
370
    25
100
AcDbLine
 10
3188367.146352729
 20
3871487.526726828
 30
0.0
 11
3188367.146352729
 21
3871474.926726831
 31
0.0
  0
LINE
  5
3FACA
330
1F
100
AcDbEntity
  8
DETAIL
370
    25
100
AcDbLine
 10
3188367.146352729
 20
3870787.526726828
 30
0.0
 11
3188437.158765407
 21
3870787.526726827
 31
0.0
  0
LINE
  5
3FACB
330
1F
100
AcDbEntity
  8
DETAIL
370
    25
100
AcDbLine
 10
3188072.146352729
 20
3871487.526726828
 30
0.0
 11
3188072.146352729
 21
3871474.926726831
 31
0.0
  0
LINE
  5
3FACC
330
1F
100
AcDbEntity
  8
DETAIL
370
    25
100
AcDbLine
 10
3188072.146352729
 20
3870787.526726828
 30
0.0
 11
3188002.133940051
 21
3870787.526726827
 31
0.0
  0
LINE
  5
3FACD
330
1F
100
AcDbEntity
  8
DETAIL
370
    25
100
AcDbLine
 10
3187372.146352729
 20
3870787.526726828
 30
0.0
 11
3187372.146352729
 21
3871100.026726829
 31
0.0
  0
LINE
  5
3FACE
330
1F
100
AcDbEntity
  8
DETAIL
370
    25
100
AcDbLine
 10
3187372.146352729
 20
3871487.526726828
 30
0.0
 11
3188072.146352729
 21
3871487.526726828
 31
0.0
  0
LINE
  5
3FACF
330
1F
100
AcDbEntity
  8
DETAIL
370
    25
100
AcDbLine
 10
3188367.146352729
 20
3870800.126726829
 30
0.0
 11
3188367.146352729
 21
3870787.526726828
 31
0.0
  0
LINE
  5
3FAD0
330
1F
100
AcDbEntity
  8
DETAIL
370
    25
100
AcDbLine
 10
3188072.146352729
 20
3870800.126726829
 30
0.0
 11
3188072.146352729
 21
3870787.526726828
 31
0.0
  0
CIRCLE
  5
3FAD1
330
1F
100
AcDbEntity
  8
DETAIL
370
    25
100
AcDbCircle
 10
3189037.146352729
 20
3871457.526726829
 30
0.0
 40
10.0
  0
LINE
  5
3FAD2
330
1F
100
AcDbEntity
  8
DETAIL
370
    25
100
AcDbLine
 10
3189067.146352729
 20
3871487.526726828
 30
0.0
 11
3188367.14635273
 21
3871487.526726829
 31
0.0
  0
CIRCLE
  5
3FAD3
330
1F
100
AcDbEntity
  8
DETAIL
370
    25
100
AcDbCircle
 10
3189037.146352729
 20
3870817.52672683
 30
0.0
 40
10.0
  0
LINE
  5
3FAD4
330
1F
100
AcDbEntity
  8
DETAIL
370
    25
100
AcDbLine
 10
3188601.646517968
 20
3871438.526726828
 30
0.0
 11
3188983.746800257
 21
3871438.526726828
 31
0.0
  0
ARC
  5
3FAD5
330
1F
100
AcDbEntity
  8
DETAIL
370
    25
100
AcDbCircle
 10
3188594.64635273
 20
3871354.526726828
 30
0.0
 40
84.0
100
AcDbArc
 50
90.0
 51
270.0
  0
ARC
  5
3FAD6
330
1F
100
AcDbEntity
  8
DETAIL
370
    25
100
AcDbCircle
 10
3188983.746800257
 20
3871354.526726828
 30
0.0
 40
84.0
100
AcDbArc
 50
270.0
 51
90.0
  0
ARC
  5
3FAD7
330
1F
100
AcDbEntity
  8
DETAIL
370
    25
100
AcDbCircle
 10
3188914.158921779
 20
3871354.526726828
 30
0.0
 40
84.0
100
AcDbArc
 50
90.0
 51
270.0
  0
LINE
  5
3FAD8
330
1F
100
AcDbEntity
  8
DETAIL
370
    25
100
AcDbLine
 10
3188983.746800257
 20
3871270.526726828
 30
0.0
 11
3188601.646352731
 21
3871270.526726828
 31
0.0
  0
LINE
  5
3FAD9
330
1F
100
AcDbEntity
  8
DETAIL
370
    25
100
AcDbLine
 10
3188601.646517968
 20
3870836.52672683
 30
0.0
 11
3188983.746800257
 21
3870836.52672683
 31
0.0
  0
ARC
  5
3FADA
330
1F
100
AcDbEntity
  8
DETAIL
370
    25
100
AcDbCircle
 10
3188594.64635273
 20
3870920.52672683
 30
0.0
 40
84.0
100
AcDbArc
 50
90.0
 51
270.0
  0
ARC
  5
3FADB
330
1F
100
AcDbEntity
  8
DETAIL
370
    25
100
AcDbCircle
 10
3188983.746800257
 20
3870920.52672683
 30
0.0
 40
84.0
100
AcDbArc
 50
270.0
 51
90.0
  0
ARC
  5
3FADC
330
1F
100
AcDbEntity
  8
DETAIL
370
    25
100
AcDbCircle
 10
3188914.158921779
 20
3870920.52672683
 30
0.0
 40
84.0
100
AcDbArc
 50
90.0
 51
270.0
  0
LINE
  5
3FADD
330
1F
100
AcDbEntity
  8
DETAIL
370
    25
100
AcDbLine
 10
3188983.746800257
 20
3871004.52672683
 30
0.0
 11
3188601.646352731
 21
3871004.52672683
 31
0.0
  0
LINE
  5
3FADE
330
1F
100
AcDbEntity
  8
DETAIL
370
    25
100
AcDbLine
 10
3188914.158921779
 20
3871004.52672683
 30
0.0
 11
3188914.158921779
 21
3871270.526726828
 31
0.0
  0
LINE
  5
3FADF
330
1F
100
AcDbEntity
  8
DETAIL
370
    25
100
AcDbLine
 10
3188864.158921778
 20
3871004.52672683
 30
0.0
 11
3188864.158921778
 21
3871270.526726828
 31
0.0
  0
LINE
  5
3FAE0
330
1F
100
AcDbEntity
  8
DETAIL
370
    25
100
AcDbLine
 10
3188601.646517968
 20
3871438.526726828
 30
0.0
 11
3188594.64635273
 21
3871438.526726828
 31
0.0
  0
LINE
  5
3FAE1
330
1F
100
AcDbEntity
  8
DETAIL
370
    25
100
AcDbLine
 10
3188601.646352731
 20
3871270.526726828
 30
0.0
 11
3188594.64635273
 21
3871270.526726828
 31
0.0
  0
CIRCLE
  5
3FAE2
330
1F
100
AcDbEntity
  8
DETAIL
370
    25
100
AcDbCircle
 10
3187402.14635273
 20
3871457.526726829
 30
0.0
 40
10.0
  0
LINE
  5
3FAE3
330
1F
100
AcDbEntity
  8
DETAIL
370
    25
100
AcDbLine
 10
3187372.146352729
 20
3871487.526726828
 30
0.0
 11
3188072.146352729
 21
3871487.526726829
 31
0.0
  0
CIRCLE
  5
3FAE4
330
1F
100
AcDbEntity
  8
DETAIL
370
    25
100
AcDbCircle
 10
3187402.14635273
 20
3870817.52672683
 30
0.0
 40
10.0
  0
LINE
  5
3FAE5
330
1F
100
AcDbEntity
  8
DETAIL
370
    25
100
AcDbLine
 10
3187837.646187491
 20
3871438.526726828
 30
0.0
 11
3187455.545905202
 21
3871438.526726828
 31
0.0
  0
ARC
  5
3FAE6
330
1F
100
AcDbEntity
  8
DETAIL
370
    25
100
AcDbCircle
 10
3187844.64635273
 20
3871354.526726828
 30
0.0
 40
84.0
100
AcDbArc
 50
270.0
 51
90.0
  0
ARC
  5
3FAE7
330
1F
100
AcDbEntity
  8
DETAIL
370
    25
100
AcDbCircle
 10
3187455.545905202
 20
3871354.526726828
 30
0.0
 40
84.0
100
AcDbArc
 50
90.0
 51
270.0
  0
ARC
  5
3FAE8
330
1F
100
AcDbEntity
  8
DETAIL
370
    25
100
AcDbCircle
 10
3187525.13378368
 20
3871354.526726828
 30
0.0
 40
84.0
100
AcDbArc
 50
270.0
 51
90.0
  0
LINE
  5
3FAE9
330
1F
100
AcDbEntity
  8
DETAIL
370
    25
100
AcDbLine
 10
3187455.545905202
 20
3871270.526726828
 30
0.0
 11
3187837.646352729
 21
3871270.526726828
 31
0.0
  0
LINE
  5
3FAEA
330
1F
100
AcDbEntity
  8
DETAIL
370
    25
100
AcDbLine
 10
3187837.646187491
 20
3870836.52672683
 30
0.0
 11
3187455.545905202
 21
3870836.52672683
 31
0.0
  0
ARC
  5
3FAEB
330
1F
100
AcDbEntity
  8
DETAIL
370
    25
100
AcDbCircle
 10
3187844.64635273
 20
3870920.52672683
 30
0.0
 40
84.0
100
AcDbArc
 50
270.0
 51
90.0
  0
ARC
  5
3FAEC
330
1F
100
AcDbEntity
  8
DETAIL
370
    25
100
AcDbCircle
 10
3187455.545905202
 20
3870920.52672683
 30
0.0
 40
84.0
100
AcDbArc
 50
90.0
 51
270.0
  0
ARC
  5
3FAED
330
1F
100
AcDbEntity
  8
DETAIL
370
    25
100
AcDbCircle
 10
3187525.13378368
 20
3870920.52672683
 30
0.0
 40
84.0
100
AcDbArc
 50
270.0
 51
90.0
  0
LINE
  5
3FAEE
330
1F
100
AcDbEntity
  8
DETAIL
370
    25
100
AcDbLine
 10
3187455.545905202
 20
3871004.52672683
 30
0.0
 11
3187837.646352729
 21
3871004.52672683
 31
0.0
  0
LINE
  5
3FAEF
330
1F
100
AcDbEntity
  8
DETAIL
370
    25
100
AcDbLine
 10
3187525.13378368
 20
3871004.52672683
 30
0.0
 11
3187525.13378368
 21
3871270.526726828
 31
0.0
  0
LINE
  5
3FAF0
330
1F
100
AcDbEntity
  8
DETAIL
370
    25
100
AcDbLine
 10
3187575.133783679
 20
3871004.52672683
 30
0.0
 11
3187575.133783679
 21
3871270.526726828
 31
0.0
  0
LINE
  5
3FAF1
330
1F
100
AcDbEntity
  8
DETAIL
370
    25
100
AcDbLine
 10
3187837.646187491
 20
3870836.52672683
 30
0.0
 11
3187844.64635273
 21
3870836.52672683
 31
0.0
  0
LINE
  5
3FAF2
330
1F
100
AcDbEntity
  8
DETAIL
370
    25
100
AcDbLine
 10
3187837.646352729
 20
3871004.52672683
 30
0.0
 11
3187844.64635273
 21
3871004.52672683
 31
0.0
  0
LINE
  5
3FAF3
330
1F
100
AcDbEntity
  8
DETAIL
370
    25
100
AcDbLine
 10
3187837.646352729
 20
3871270.526726828
 30
0.0
 11
3187844.64635273
 21
3871270.526726828
 31
0.0
  0
LINE
  5
3FAF4
330
1F
100
AcDbEntity
  8
DETAIL
370
    25
100
AcDbLine
 10
3187837.646187491
 20
3871438.526726828
 30
0.0
 11
3187844.64635273
 21
3871438.526726828
 31
0.0
  0
LINE
  5
3FAF5
330
1F
100
AcDbEntity
  8
DETAIL
370
    25
100
AcDbLine
 10
3188601.646517968
 20
3870836.52672683
 30
0.0
 11
3188594.64635273
 21
3870836.52672683
 31
0.0
  0
LINE
  5
3FAF6
330
1F
100
AcDbEntity
  8
DETAIL
370
    25
100
AcDbLine
 10
3188601.646352731
 20
3871004.52672683
 30
0.0
 11
3188594.64635273
 21
3871004.52672683
 31
0.0
  0
LINE
  5
3FAF7
330
1F
100
AcDbEntity
  8
DETAIL
370
    25
100
AcDbLine
 10
3191072.765007673
 20
3871175.026726831
 30
0.0
 11
3188919.146352729
 21
3871175.026726829
 31
0.0
  0
LINE
  5
3FAF8
330
1F
100
AcDbEntity
  8
DETAIL
370
    25
100
AcDbLine
 10
3191072.765007673
 20
3871100.026726832
 30
0.0
 11
3188919.146352729
 21
3871100.026726829
 31
0.0
  0
LINE
  5
3FAF9
330
1F
100
AcDbEntity
  8
DETAIL
370
    25
100
AcDbLine
 10
3188864.158921778
 20
3871175.026726829
 30
0.0
 11
3187575.133783679
 21
3871175.026726829
 31
0.0
  0
LINE
  5
3FAFA
330
1F
100
AcDbEntity
  8
DETAIL
370
    25
100
AcDbLine
 10
3188864.158921778
 20
3871100.02672683
 30
0.0
 11
3187575.133783679
 21
3871100.02672683
 31
0.0
  0
LINE
  5
3FAFB
330
1F
100
AcDbEntity
  8
DETAIL
370
    25
100
AcDbLine
 10
3187369.14635273
 20
3871100.026726829
 30
0.0
 11
3185117.018546346
 21
3871100.026726832
 31
0.0
  0
LINE
  5
3FAFC
330
1F
100
AcDbEntity
  8
DETAIL
370
    25
100
AcDbLine
 10
3187369.14635273
 20
3871175.026726829
 30
0.0
 11
3185117.018546346
 21
3871175.026726832
 31
0.0
  0
LINE
  5
3FAFD
330
1F
100
AcDbEntity
  8
DETAIL
370
    25
100
AcDbLine
 10
3189067.146352729
 20
3871487.526726828
 30
0.0
 11
3188367.14635273
 21
3871487.526726829
 31
0.0
  0
LINE
  5
3FAFE
330
1F
100
AcDbEntity
  8
DETAIL
370
    25
100
AcDbLine
 10
3188919.146352729
 20
3871175.026726829
 30
0.0
 11
3188914.158921779
 21
3871175.026726829
 31
0.0
  0
LINE
  5
3FAFF
330
1F
100
AcDbEntity
  8
DETAIL
370
    25
100
AcDbLine
 10
3188919.146352729
 20
3871100.026726829
 30
0.0
 11
3188914.158921779
 21
3871100.026726829
 31
0.0
  0
LINE
  5
3FB00
330
1F
100
AcDbEntity
  8
DETAIL
370
    25
100
AcDbLine
 10
3187369.14635273
 20
3871100.026726829
 30
0.0
 11
3187525.13378368
 21
3871100.026726829
 31
0.0
  0
LINE
  5
3FB01
330
1F
100
AcDbEntity
  8
DETAIL
370
    25
100
AcDbLine
 10
3187369.14635273
 20
3871175.026726829
 30
0.0
 11
3187525.13378368
 21
3871175.026726829
 31
0.0
  0
LINE
  5
3FB02
330
1F
100
AcDbEntity
  8
DETAIL
370
    25
100
AcDbLine
 10
3188367.146352729
 20
3871100.02672683
 30
0.0
 11
3188367.146352729
 21
3871000.126726828
 31
0.0
  0
LINE
  5
3FB03
330
1F
100
AcDbEntity
  8
DETAIL
370
    25
100
AcDbLine
 10
3188072.146352729
 20
3871037.526726829
 30
0.0
 11
3188072.146352729
 21
3871000.126726828
 31
0.0
  0
LINE
  5
3FB04
330
1F
100
AcDbEntity
  8
DETAIL
370
    25
100
AcDbLine
 10
3188864.158921778
 20
3871175.026726829
 30
0.0
 11
3188838.608698016
 21
3871175.026726829
 31
0.0
  0
LINE
  5
3FB05
330
1F
100
AcDbEntity
  8
DETAIL
370
    25
100
AcDbLine
 10
3188864.158921778
 20
3871100.026726829
 30
0.0
 11
3188838.608698016
 21
3871100.026726829
 31
0.0
  0
LINE
  5
3FB06
330
1F
100
AcDbEntity
  8
DETAIL
370
    25
100
AcDbLine
 10
3187525.13378368
 20
3871100.02672683
 30
0.0
 11
3187499.684007444
 21
3871100.02672683
 31
0.0
  0
LINE
  5
3FB07
330
1F
100
AcDbEntity
  8
DETAIL
370
    25
100
AcDbLine
 10
3187525.13378368
 20
3871175.026726829
 30
0.0
 11
3187499.684007444
 21
3871175.026726829
 31
0.0
  0
LINE
  5
3FB08
330
1F
100
AcDbEntity
  8
DETAIL
370
    25
100
AcDbLine
 10
3189067.146352729
 20
3871175.02672683
 30
0.0
 11
3189067.146352729
 21
3871487.526726828
 31
0.0
  0
LINE
  5
3FB09
330
1F
100
AcDbEntity
  8
DETAIL
370
    25
100
AcDbLine
 10
3187372.146352729
 20
3871175.026726828
 30
0.0
 11
3187372.146352729
 21
3871487.526726828
 31
0.0
  0
LINE
  5
3FB0A
330
1F
100
AcDbEntity
  8
DETAIL
370
    25
100
AcDbLine
 10
3188367.146352729
 20
3873403.26778125
 30
0.0
 11
3189067.146352729
 21
3873403.26778125
 31
0.0
  0
LINE
  5
3FB0B
330
1F
100
AcDbEntity
  8
DETAIL
370
    25
100
AcDbLine
 10
3189067.146352729
 20
3873403.26778125
 30
0.0
 11
3189067.146352729
 21
3873388.267781251
 31
0.0
  0
LINE
  5
3FB0C
330
1F
100
AcDbEntity
  8
DETAIL
370
    25
100
AcDbLine
 10
3188072.146352729
 20
3873403.26778125
 30
0.0
 11
3187372.146352729
 21
3873403.26778125
 31
0.0
  0
LINE
  5
3FB0D
330
1F
100
AcDbEntity
  8
DETAIL
370
    25
100
AcDbLine
 10
3187372.146352729
 20
3873403.26778125
 30
0.0
 11
3187372.146352729
 21
3873388.267781251
 31
0.0
  0
LINE
  5
3FB0E
330
1F
100
AcDbEntity
  8
DETAIL
370
    25
100
AcDbLine
 10
3191072.765007673
 20
3871175.026726833
 30
0.0
 11
3191072.765007673
 21
3871237.526726833
 31
0.0
  0
LINE
  5
3FB0F
330
1F
100
AcDbEntity
  8
DETAIL
370
    25
100
AcDbLine
 10
3191072.765007673
 20
3871237.526726833
 30
0.0
 11
3191002.485736181
 21
3871175.026726833
 31
0.0
  0
ARC
  5
3FB10
330
1F
100
AcDbEntity
  8
DETAIL
370
    25
100
AcDbCircle
 10
3191050.713568083
 20
3871293.776726833
 30
0.0
 40
56.25
100
AcDbArc
 50
90.0
 51
270.0
  0
LINE
  5
3FB11
330
1F
100
AcDbEntity
  8
DETAIL
370
    25
100
AcDbLine
 10
3191050.713568083
 20
3871237.526726833
 30
0.0
 11
3191072.765007673
 21
3871237.526726833
 31
0.0
  0
LINE
  5
3FB12
330
1F
100
AcDbEntity
  8
DETAIL
370
    25
100
AcDbLine
 10
3191072.765007673
 20
3871237.526726833
 30
0.0
 11
3191073.182242017
 21
3871237.526726833
 31
0.0
  0
LINE
  5
3FB13
330
1F
100
AcDbEntity
  8
DETAIL
370
    25
100
AcDbLine
 10
3191072.765007673
 20
3871237.526726833
 30
0.0
 11
3191072.765007673
 21
3871256.257813719
 31
0.0
  0
LINE
  5
3FB14
330
1F
100
AcDbEntity
  8
DETAIL
370
    25
100
AcDbLine
 10
3191072.765007673
 20
3871256.257813719
 30
0.0
 11
3191072.765007673
 21
3871350.026726833
 31
0.0
  0
ARC
  5
3FB15
330
1F
100
AcDbEntity
  8
DETAIL
370
    25
100
AcDbCircle
 10
3191050.713568083
 20
3871293.776726833
 30
0.0
 40
56.25
100
AcDbArc
 50
90.0
 51
270.0
  0
LINE
  5
3FB16
330
1F
100
AcDbEntity
  8
DETAIL
370
    25
100
AcDbLine
 10
3191050.713568083
 20
3871237.526726833
 30
0.0
 11
3191072.765007673
 21
3871237.526726833
 31
0.0
  0
LINE
  5
3FB17
330
1F
100
AcDbEntity
  8
DETAIL
370
    25
100
AcDbLine
 10
3191072.765007673
 20
3871237.526726833
 30
0.0
 11
3191072.765007673
 21
3871350.026726833
 31
0.0
  0
HATCH
  5
3FB18
330
1F
100
AcDbEntity
  8
DETAIL
370
    25
100
AcDbHatch
 10
0.0
 20
0.0
 30
0.0
210
0.0
220
0.0
230
1.0
  2
SOLID
 70
     1
 71
     0
 91
        1
 92
        7
 72
     1
 73
     1
 93
        4
 10
3191050.713568082
 20
3871237.526726833
 42
-1.0
 10
3191050.713568082
 20
3871350.026726833
 42
0.0
 10
3191072.765007673
 20
3871350.026726833
 42
0.0
 10
3191072.765007672
 20
3871237.526726833
 42
0.0
 97
        0
 75
     0
 76
     1
 47
0.5283639741589199
 98
        1
 10
3191011.907240644
 20
3871286.136209399
450
        0
451
        0
460
0.0
461
0.0
452
        0
462
0.0
453
        0
470

  0
LINE
  5
3FB19
330
1F
100
AcDbEntity
  8
DETAIL
370
    25
100
AcDbLine
 10
3191072.765007673
 20
3871100.026726833
 30
0.0
 11
3191072.765007673
 21
3871175.026726833
 31
0.0
  0
LINE
  5
3FB1A
330
1F
100
AcDbEntity
  8
DETAIL
370
    25
100
AcDbLine
 10
3183136.855145907
 20
3871175.026726832
 30
0.0
 11
3183136.855145907
 21
3871100.026726833
 31
0.0
  0
ARC
  5
3FB1B
330
1F
100
AcDbEntity
  8
DETAIL
370
    25
100
AcDbCircle
 10
3183144.355200807
 20
3871137.573034891
 30
0.0
 40
37.5000573261641
100
AcDbArc
 50
101.5370267661812
 51
258.4629732338187
  0
LINE
  5
3FB1C
330
1F
100
AcDbEntity
  8
DETAIL
370
    25
100
AcDbLine
 10
3189047.096800258
 20
3875738.26778125
 30
0.0
 11
3189025.52965812
 21
3875738.26778125
 31
0.0
  0
LINE
  5
3FB1D
330
1F
100
AcDbEntity
  8
DETAIL
370
    25
100
AcDbLine
 10
3188838.508921779
 20
3875738.26778125
 30
0.0
 11
3188859.776442989
 21
3875738.26778125
 31
0.0
  0
LINE
  5
3FB1E
330
1F
100
AcDbEntity
  8
DETAIL
370
    25
100
AcDbLine
 10
3181884.534647335
 20
3875232.435651918
 30
0.0
 11
3181884.534647335
 21
3875738.267781251
 31
0.0
  0
LINE
  5
3FB1F
330
1F
100
AcDbEntity
  8
DETAIL
370
    25
100
AcDbLine
 10
3181716.534647335
 20
3875232.435651918
 30
0.0
 11
3181716.534647336
 21
3875738.267781251
 31
0.0
  0
LINE
  5
3FB20
330
1F
100
AcDbEntity
  8
DETAIL
370
    25
100
AcDbLine
 10
3191022.765007673
 20
3875539.435651916
 30
0.0
 11
3189007.133092526
 21
3875539.435651919
 31
0.0
  0
LINE
  5
3FB21
330
1F
100
AcDbEntity
  8
APPLICATION
370
    25
100
AcDbLine
 10
3181550.534647336
 20
3872888.267781249
 30
0.0
 11
3182050.534647336
 21
3872888.267781249
 31
0.0
  0
LINE
  5
3FB22
330
1F
100
AcDbEntity
  8
DETAIL
370
    25
100
AcDbLine
 10
3192874.794956989
 20
3873653.26778125
 30
0.0
 11
3192774.794956989
 21
3873653.26778125
 31
0.0
  0
LINE
  5
3FB23
102
{ACAD_REACTORS
330
3FF34
102
}
330
1F
100
AcDbEntity
  8
DETAIL
370
    25
100
AcDbLine
 10
3182050.534647336
 20
3871512.52672683
 30
0.0
 11
3181550.534647336
 21
3871512.52672683
 31
0.0
  0
LINE
  5
3FB24
330
1F
100
AcDbEntity
  8
APPLICATION
370
    25
100
AcDbLine
 10
3182050.534647336
 20
3873388.267781251
 30
0.0
 11
3181550.534647336
 21
3873388.267781251
 31
0.0
  0
LINE
  5
3FB25
330
1F
100
AcDbEntity
  8
APPLICATION
370
    25
100
AcDbLine
 10
3181550.534647336
 20
3873388.267781251
 30
0.0
 11
3181550.534647336
 21
3873338.26778125
 31
0.0
  0
LINE
  5
3FB26
330
1F
100
AcDbEntity
  8
APPLICATION
370
    25
100
AcDbLine
 10
3182050.534647336
 20
3873388.267781251
 30
0.0
 11
3182545.329469022
 21
3873388.267781251
 31
0.0
  0
LINE
  5
3FB27
330
1F
100
AcDbEntity
  8
DETAIL
370
    25
100
AcDbLine
 10
3187372.146352729
 20
3873388.267781251
 30
0.0
 11
3187322.146352729
 21
3873388.267781251
 31
0.0
  0
LINE
  5
3FB28
330
1F
100
AcDbEntity
  8
APPLICATION
370
     9
100
AcDbLine
 10
3187244.446138982
 20
3873388.267781251
 30
0.0
 11
3187322.146352729
 21
3873388.267781251
 31
0.0
  0
LINE
  5
3FB29
330
1F
100
AcDbEntity
  8
APPLICATION
370
     9
100
AcDbLine
 10
3190327.136963654
 20
3873388.267781251
 30
0.0
 11
3190377.136963653
 21
3873388.267781251
 31
0.0
  0
LINE
  5
3FB2A
330
1F
100
AcDbEntity
  8
APPLICATION
370
    25
100
AcDbLine
 10
3190377.136963653
 20
3872888.267781251
 30
0.0
 11
3190244.446138982
 21
3872888.267781251
 31
0.0
  0
LINE
  5
3FB32
102
{ACAD_REACTORS
330
3FDDC
102
}
330
1F
100
AcDbEntity
  8
APPLICATION
370
     9
100
AcDbLine
 10
3192999.794956989
 20
3873388.267781251
 30
0.0
 11
3192699.794956989
 21
3873388.267781251
 31
0.0
  0
LINE
  5
3FB33
330
1F
100
AcDbEntity
  8
APPLICATION
370
     9
100
AcDbLine
 10
3190377.136963653
 20
3873388.267781251
 30
0.0
 11
3191587.983875018
 21
3873388.267781251
 31
0.0
  0
LINE
  5
3FB35
330
1F
100
AcDbEntity
  8
DETAIL
370
    25
100
AcDbLine
 10
3187722.146352729
 20
3871512.526726829
 30
0.0
 11
3187322.146352729
 21
3871512.526726829
 31
0.0
  0
LINE
  5
3FB36
330
1F
100
AcDbEntity
  8
DETAIL
370
    25
100
AcDbLine
 10
3187322.146352729
 20
3870762.526726829
 30
0.0
 11
3190377.136963653
 21
3870762.526726829
 31
0.0
  0
LINE
  5
3FB37
330
1F
100
AcDbEntity
  8
DETAIL
370
    25
100
AcDbLine
 10
3187722.146352729
 20
3871512.526726829
 30
0.0
 11
3190377.136963653
 21
3871512.526726829
 31
0.0
  0
LINE
  5
3FB38
330
1F
100
AcDbEntity
  8
DETAIL
370
    25
100
AcDbLine
 10
3187775.99635273
 20
3874563.267781251
 30
0.0
 11
3187775.99635273
 21
3874206.267781251
 31
0.0
  0
LINE
  5
3FB3A
330
1F
100
AcDbEntity
  8
APPLICATION
370
     9
100
AcDbLine
 10
3190292.436851771
 20
3873388.267781251
 30
0.0
 11
3190342.436851772
 21
3873388.267781251
 31
0.0
  0
LINE
  5
3FB47
330
1F
100
AcDbEntity
  8
DETAIL
370
    25
100
AcDbLine
 10
3191072.76494912
 20
3875589.435651918
 30
0.0
 11
3189007.133092526
 21
3875589.435651918
 31
0.0
  0
LINE
  5
3FB48
330
1F
100
AcDbEntity
  8
DETAIL
370
    25
100
AcDbLine
 10
3191022.765056469
 20
3873665.26778125
 30
0.0
 11
3188664.99635273
 21
3873665.267781252
 31
0.0
  0
LINE
  5
3FB49
330
1F
100
AcDbEntity
  8
DETAIL
370
    25
100
AcDbLine
 10
3185117.018546346
 20
3873605.267781251
 30
0.0
 11
3187491.386628007
 21
3873605.267781251
 31
0.0
  0
LINE
  5
3FB4A
330
1F
100
AcDbEntity
  8
DETAIL
370
    25
100
AcDbLine
 10
3185154.518546344
 20
3875639.435651919
 30
0.0
 11
3185142.203765494
 21
3875604.854286144
 31
0.0
  0
LINE
  5
3FB4B
330
1F
100
AcDbEntity
  8
DETAIL
370
    25
100
AcDbLine
 10
3185142.203765494
 20
3875604.854286144
 30
0.0
 11
3185117.018546344
 21
3875589.435651918
 31
0.0
  0
LINE
  5
3FB4C
330
1F
100
AcDbEntity
  8
APPLICATION
370
     9
100
AcDbLine
 10
3184382.006326854
 20
3873388.267781251
 30
0.0
 11
3187244.446138982
 21
3873388.267781251
 31
0.0
  0
LINE
  5
3FB4D
102
{ACAD_REACTORS
330
3FDDC
102
}
330
1F
100
AcDbEntity
  8
APPLICATION
370
     9
100
AcDbLine
 10
3192513.796652987
 20
3873388.267781251
 30
0.0
 11
3192649.794956988
 21
3873388.267781251
 31
0.0
  0
DIMENSION
  5
3FB4E
330
1F
100
AcDbEntity
  8
DIM
370
    25
100
AcDbDimension
280
     0
  2
*D1
 10
3182440.176257324
 20
3873388.267781251
 30
0.0
 11
3182356.842923989
 21
3874488.851716585
 31
0.0
 70
    32
  1
to suit fence height
 71
     5
 42
2201.167870667763
 73
     0
 74
     0
 75
     0
  3
ISO-25
100
AcDbAlignedDimension
 13
3183166.855143481
 23
3875589.435651918
 33
0.0
 14
3182440.176257324
 24
3873388.267781251
 34
0.0
 50
90.0
100
AcDbRotatedDimension
1001
ACAD
1000
DSTYLE
1002
{
1070
   340
1005
40AB6
1070
    41
1040
80.0
1070
    42
1040
30.0
1070
    44
1040
30.0
1070
   140
1040
80.0
1070
   147
1040
30.0
1070
   173
1070
     1
1070
   178
1070
   256
1070
   342
1005
0
1002
}
  0
LINE
  5
3FB4F
330
1F
100
AcDbEntity
  8
DETAIL
370
     9
100
AcDbLine
 10
3190922.765009267
 20
3874022.267810527
 30
0.0
 11
3190922.765009267
 21
3873665.26778125
 31
0.0
  0
LINE
  5
3FB50
330
1F
100
AcDbEntity
  8
DETAIL
370
     9
100
AcDbLine
 10
3190897.765009268
 20
3874022.267810527
 30
0.0
 11
3190897.765009268
 21
3873665.26778125
 31
0.0
  0
LINE
  5
3FB51
330
1F
100
AcDbEntity
  8
DETAIL
370
    25
100
AcDbLine
 10
3188072.146352729
 20
3871037.526726829
 30
0.0
 11
3188072.146352729
 21
3871100.02672683
 31
0.0
  0
LINE
  5
3FB52
330
1F
100
AcDbEntity
  8
DETAIL
370
    25
100
AcDbLine
 10
3188072.146352729
 20
3871175.026726829
 30
0.0
 11
3188072.146352729
 21
3871237.526726829
 31
0.0
  0
LINE
  5
3FB53
330
1F
100
AcDbEntity
  8
DETAIL
370
     9
100
AcDbLine
 10
3183166.855143481
 20
3875589.435651918
 30
0.0
 11
3185117.018546343
 21
3875589.435651918
 31
0.0
  0
LINE
  5
3FB54
330
1F
100
AcDbEntity
  8
DETAIL
370
     9
100
AcDbLine
 10
3185506.969689661
 20
3875539.435651918
 30
0.0
 11
3187457.133092526
 21
3875539.435651918
 31
0.0
  0
LINE
  5
3FB55
330
1F
100
AcDbEntity
  8
DETAIL
370
     9
100
AcDbLine
 10
3185117.018546346
 20
3873463.26778125
 30
0.0
 11
3183166.85514348
 21
3873463.267781251
 31
0.0
  0
LINE
  5
3FB56
330
1F
100
AcDbEntity
  8
DETAIL
370
     9
100
AcDbLine
 10
3185117.018546345
 20
3873665.26778125
 30
0.0
 11
3183166.85514348
 21
3873665.26778125
 31
0.0
  0
LINE
  5
3FB57
330
1F
100
AcDbEntity
  8
DETAIL
370
     9
100
AcDbLine
 10
3185117.018546346
 20
3873605.267781251
 30
0.0
 11
3183166.85514348
 21
3873605.267781251
 31
0.0
  0
LINE
  5
3FB58
330
1F
100
AcDbEntity
  8
DETAIL
370
     9
100
AcDbLine
 10
3183136.855145907
 20
3871174.315428334
 30
0.0
 11
3185117.018546346
 21
3871175.026726832
 31
0.0
  0
LINE
  5
3FB59
330
1F
100
AcDbEntity
  8
DETAIL
370
     9
100
AcDbLine
 10
3185117.018546346
 20
3871100.026726832
 30
0.0
 11
3183136.855145907
 21
3871100.026726832
 31
0.0
  0
LINE
  5
3FB5A
330
1F
100
AcDbEntity
  8
APPLICATION
370
     9
100
AcDbLine
 10
3184382.006326854
 20
3873388.267781251
 30
0.0
 11
3182545.329469022
 21
3873388.267781251
 31
0.0
  0
LINE
  5
3FB5B
330
1F
100
AcDbEntity
  8
DETAIL
370
    25
100
AcDbLine
 10
3185147.764995785
 20
3875539.435665975
 30
0.0
 11
3185147.764995785
 21
3873665.267795307
 31
0.0
  0
LINE
  5
3FB5C
330
1F
100
AcDbEntity
  8
DETAIL
370
    25
100
AcDbLine
 10
3185172.764995785
 20
3875539.435665975
 30
0.0
 11
3185172.764995785
 21
3873665.267795307
 31
0.0
  0
LINE
  5
3FB5D
330
1F
100
AcDbEntity
  8
DETAIL
370
    25
100
AcDbLine
 10
3185272.764995785
 20
3875539.435665975
 30
0.0
 11
3185272.764995785
 21
3873665.267795307
 31
0.0
  0
LINE
  5
3FB5E
330
1F
100
AcDbEntity
  8
DETAIL
370
    25
100
AcDbLine
 10
3185297.764995785
 20
3875539.435665975
 30
0.0
 11
3185297.764995785
 21
3873665.267795307
 31
0.0
  0
LINE
  5
3FB5F
330
1F
100
AcDbEntity
  8
DETAIL
370
    25
100
AcDbLine
 10
3185397.764995784
 20
3875539.435665975
 30
0.0
 11
3185397.764995784
 21
3873665.267795307
 31
0.0
  0
LINE
  5
3FB60
330
1F
100
AcDbEntity
  8
DETAIL
370
    25
100
AcDbLine
 10
3185422.764995785
 20
3875539.435665975
 30
0.0
 11
3185422.764995785
 21
3873665.267795307
 31
0.0
  0
LINE
  5
3FB61
330
1F
100
AcDbEntity
  8
DETAIL
370
    25
100
AcDbLine
 10
3185522.764995785
 20
3875539.435665975
 30
0.0
 11
3185522.764995785
 21
3873665.267795307
 31
0.0
  0
LINE
  5
3FB62
330
1F
100
AcDbEntity
  8
DETAIL
370
    25
100
AcDbLine
 10
3185547.764995785
 20
3875539.435665975
 30
0.0
 11
3185547.764995785
 21
3873665.267795307
 31
0.0
  0
LINE
  5
3FB63
330
1F
100
AcDbEntity
  8
DETAIL
370
    25
100
AcDbLine
 10
3185647.764995784
 20
3875539.435665975
 30
0.0
 11
3185647.764995785
 21
3873665.267795307
 31
0.0
  0
LINE
  5
3FB64
330
1F
100
AcDbEntity
  8
DETAIL
370
    25
100
AcDbLine
 10
3185672.764995784
 20
3875539.435665975
 30
0.0
 11
3185672.764995785
 21
3873665.267795307
 31
0.0
  0
LINE
  5
3FB65
330
1F
100
AcDbEntity
  8
DETAIL
370
    25
100
AcDbLine
 10
3185772.764995785
 20
3875539.435665975
 30
0.0
 11
3185772.764995784
 21
3873665.267795307
 31
0.0
  0
LINE
  5
3FB66
330
1F
100
AcDbEntity
  8
DETAIL
370
    25
100
AcDbLine
 10
3185797.764995785
 20
3875539.435665975
 30
0.0
 11
3185797.764995784
 21
3873665.267795307
 31
0.0
  0
LINE
  5
3FB67
330
1F
100
AcDbEntity
  8
DETAIL
370
    25
100
AcDbLine
 10
3184522.764980707
 20
3875539.435680032
 30
0.0
 11
3184522.764980707
 21
3873665.267809364
 31
0.0
  0
LINE
  5
3FB68
330
1F
100
AcDbEntity
  8
DETAIL
370
    25
100
AcDbLine
 10
3184547.764980707
 20
3875539.435680032
 30
0.0
 11
3184547.764980707
 21
3873665.267809364
 31
0.0
  0
LINE
  5
3FB69
330
1F
100
AcDbEntity
  8
DETAIL
370
    25
100
AcDbLine
 10
3184647.764980705
 20
3875539.435680032
 30
0.0
 11
3184647.764980706
 21
3873665.267809364
 31
0.0
  0
LINE
  5
3FB6A
330
1F
100
AcDbEntity
  8
DETAIL
370
    25
100
AcDbLine
 10
3184672.764980705
 20
3875539.435680032
 30
0.0
 11
3184672.764980707
 21
3873665.267809364
 31
0.0
  0
LINE
  5
3FB6B
330
1F
100
AcDbEntity
  8
DETAIL
370
    25
100
AcDbLine
 10
3184772.764980706
 20
3875539.435680032
 30
0.0
 11
3184772.764980706
 21
3873665.267809364
 31
0.0
  0
LINE
  5
3FB6C
330
1F
100
AcDbEntity
  8
DETAIL
370
    25
100
AcDbLine
 10
3184797.764980706
 20
3875539.435680032
 30
0.0
 11
3184797.764980706
 21
3873665.267809364
 31
0.0
  0
LINE
  5
3FB6D
330
1F
100
AcDbEntity
  8
DETAIL
370
    25
100
AcDbLine
 10
3184897.764980706
 20
3875539.435680032
 30
0.0
 11
3184897.764980706
 21
3873665.267809364
 31
0.0
  0
LINE
  5
3FB6E
330
1F
100
AcDbEntity
  8
DETAIL
370
    25
100
AcDbLine
 10
3184922.764980707
 20
3875539.435680032
 30
0.0
 11
3184922.764980707
 21
3873665.267809364
 31
0.0
  0
LINE
  5
3FB6F
330
1F
100
AcDbEntity
  8
DETAIL
370
    25
100
AcDbLine
 10
3185022.764980705
 20
3875539.435680032
 30
0.0
 11
3185022.764980707
 21
3873665.267809364
 31
0.0
  0
LINE
  5
3FB70
330
1F
100
AcDbEntity
  8
DETAIL
370
    25
100
AcDbLine
 10
3185047.764980705
 20
3875539.435680032
 30
0.0
 11
3185047.764980707
 21
3873665.267809364
 31
0.0
  0
LINE
  5
3FB71
330
1F
100
AcDbEntity
  8
DETAIL
370
    25
100
AcDbLine
 10
3185147.764980706
 20
3875539.435680032
 30
0.0
 11
3185147.764980705
 21
3873665.267809364
 31
0.0
  0
LINE
  5
3FB72
330
1F
100
AcDbEntity
  8
DETAIL
370
    25
100
AcDbLine
 10
3185172.764980706
 20
3875539.435680032
 30
0.0
 11
3185172.764980705
 21
3873665.267809364
 31
0.0
  0
LINE
  5
3FB73
330
1F
100
AcDbEntity
  8
DETAIL
370
    25
100
AcDbLine
 10
3183897.764965627
 20
3875539.435694089
 30
0.0
 11
3183897.764965627
 21
3873665.267823422
 31
0.0
  0
LINE
  5
3FB74
330
1F
100
AcDbEntity
  8
DETAIL
370
    25
100
AcDbLine
 10
3183922.764965627
 20
3875539.435694089
 30
0.0
 11
3183922.764965627
 21
3873665.267823422
 31
0.0
  0
LINE
  5
3FB75
330
1F
100
AcDbEntity
  8
DETAIL
370
    25
100
AcDbLine
 10
3184022.764965626
 20
3875539.435694089
 30
0.0
 11
3184022.764965627
 21
3873665.267823422
 31
0.0
  0
LINE
  5
3FB76
330
1F
100
AcDbEntity
  8
DETAIL
370
    25
100
AcDbLine
 10
3184047.764965626
 20
3875539.435694089
 30
0.0
 11
3184047.764965627
 21
3873665.267823422
 31
0.0
  0
LINE
  5
3FB77
330
1F
100
AcDbEntity
  8
DETAIL
370
    25
100
AcDbLine
 10
3184147.764965626
 20
3875539.435694089
 30
0.0
 11
3184147.764965626
 21
3873665.267823422
 31
0.0
  0
LINE
  5
3FB78
330
1F
100
AcDbEntity
  8
DETAIL
370
    25
100
AcDbLine
 10
3184172.764965627
 20
3875539.435694089
 30
0.0
 11
3184172.764965627
 21
3873665.267823422
 31
0.0
  0
LINE
  5
3FB79
330
1F
100
AcDbEntity
  8
DETAIL
370
    25
100
AcDbLine
 10
3184272.764965627
 20
3875539.435694089
 30
0.0
 11
3184272.764965627
 21
3873665.267823422
 31
0.0
  0
LINE
  5
3FB7A
330
1F
100
AcDbEntity
  8
DETAIL
370
    25
100
AcDbLine
 10
3184297.764965627
 20
3875539.435694089
 30
0.0
 11
3184297.764965627
 21
3873665.267823422
 31
0.0
  0
LINE
  5
3FB7B
330
1F
100
AcDbEntity
  8
DETAIL
370
    25
100
AcDbLine
 10
3184397.764965627
 20
3875539.435694089
 30
0.0
 11
3184397.764965627
 21
3873665.267823422
 31
0.0
  0
LINE
  5
3FB7C
330
1F
100
AcDbEntity
  8
DETAIL
370
    25
100
AcDbLine
 10
3184422.764965627
 20
3875539.435694089
 30
0.0
 11
3184422.764965627
 21
3873665.267823422
 31
0.0
  0
LINE
  5
3FB7D
330
1F
100
AcDbEntity
  8
DETAIL
370
    25
100
AcDbLine
 10
3184522.764965627
 20
3875539.435694089
 30
0.0
 11
3184522.764965627
 21
3873665.267823422
 31
0.0
  0
LINE
  5
3FB7E
330
1F
100
AcDbEntity
  8
DETAIL
370
    25
100
AcDbLine
 10
3184547.764965627
 20
3875539.435694089
 30
0.0
 11
3184547.764965627
 21
3873665.267823422
 31
0.0
  0
LINE
  5
3FB7F
330
1F
100
AcDbEntity
  8
DETAIL
370
    25
100
AcDbLine
 10
3183772.764928836
 20
3875539.435679461
 30
0.0
 11
3183772.764928836
 21
3873665.267808793
 31
0.0
  0
LINE
  5
3FB80
330
1F
100
AcDbEntity
  8
DETAIL
370
    25
100
AcDbLine
 10
3183797.764928836
 20
3875539.435679461
 30
0.0
 11
3183797.764928836
 21
3873665.267808793
 31
0.0
  0
LINE
  5
3FB81
330
1F
100
AcDbEntity
  8
DETAIL
370
    25
100
AcDbLine
 10
3183897.764928835
 20
3875539.435679461
 30
0.0
 11
3183897.764928835
 21
3873665.267808793
 31
0.0
  0
LINE
  5
3FB82
330
1F
100
AcDbEntity
  8
DETAIL
370
    25
100
AcDbLine
 10
3183922.764928835
 20
3875539.435679461
 30
0.0
 11
3183922.764928835
 21
3873665.267808793
 31
0.0
  0
ARC
  5
3FB83
330
1F
100
AcDbEntity
  8
DETAIL
370
    25
100
AcDbCircle
 10
3183817.018510648
 20
3875639.435647443
 30
0.0
 40
50.0
100
AcDbArc
 50
180.0
 51
0.000000000000007
  0
ARC
  5
3FB84
330
1F
100
AcDbEntity
  8
DETAIL
370
    25
100
AcDbCircle
 10
3183717.018510649
 20
3875639.435647443
 30
0.0
 40
50.0
100
AcDbArc
 50
180.0
 51
0.000000000000007
  0
ARC
  5
3FB85
330
1F
100
AcDbEntity
  8
DETAIL
370
    25
100
AcDbCircle
 10
3183517.018510649
 20
3875639.435647443
 30
0.0
 40
50.0
100
AcDbArc
 50
180.0
 51
0.000000000000007
  0
ARC
  5
3FB86
330
1F
100
AcDbEntity
  8
DETAIL
370
    25
100
AcDbCircle
 10
3183617.018510649
 20
3875639.435647443
 30
0.0
 40
50.0
100
AcDbArc
 50
180.0
 51
0.000000000000007
  0
ARC
  5
3FB87
330
1F
100
AcDbEntity
  8
DETAIL
370
    25
100
AcDbCircle
 10
3183417.018510648
 20
3875639.435647443
 30
0.0
 40
50.0
100
AcDbArc
 50
180.0
 51
0.000000000000007
  0
ARC
  5
3FB88
330
1F
100
AcDbEntity
  8
DETAIL
370
    25
100
AcDbCircle
 10
3183317.018510649
 20
3875639.435647443
 30
0.0
 40
50.0
100
AcDbArc
 50
180.0
 51
0.000000000000007
  0
ARC
  5
3FB89
330
1F
100
AcDbEntity
  8
DETAIL
370
    25
100
AcDbCircle
 10
3183917.018510649
 20
3875639.435647443
 30
0.0
 40
50.0
100
AcDbArc
 50
180.0
 51
0.000000000000007
  0
ARC
  5
3FB8A
330
1F
100
AcDbEntity
  8
DETAIL
370
    25
100
AcDbCircle
 10
3185017.018510649
 20
3875639.435647443
 30
0.0
 40
50.0
100
AcDbArc
 50
180.0
 51
0.000000000000007
  0
ARC
  5
3FB8B
330
1F
100
AcDbEntity
  8
DETAIL
370
    25
100
AcDbCircle
 10
3184917.018510649
 20
3875639.435647443
 30
0.0
 40
50.0
100
AcDbArc
 50
180.0
 51
0.000000000000007
  0
ARC
  5
3FB8C
330
1F
100
AcDbEntity
  8
DETAIL
370
    25
100
AcDbCircle
 10
3185117.018510648
 20
3875639.435647443
 30
0.0
 40
50.0
100
AcDbArc
 50
180.0
 51
270.0
  0
ARC
  5
3FB8D
330
1F
100
AcDbEntity
  8
DETAIL
370
    25
100
AcDbCircle
 10
3184717.018510649
 20
3875639.435647443
 30
0.0
 40
50.0
100
AcDbArc
 50
180.0
 51
0.000000000000007
  0
ARC
  5
3FB8E
330
1F
100
AcDbEntity
  8
DETAIL
370
    25
100
AcDbCircle
 10
3184817.01851065
 20
3875639.435647443
 30
0.0
 40
50.0
100
AcDbArc
 50
180.0
 51
0.000000000000007
  0
ARC
  5
3FB8F
330
1F
100
AcDbEntity
  8
DETAIL
370
    25
100
AcDbCircle
 10
3184617.018510648
 20
3875639.435647443
 30
0.0
 40
50.0
100
AcDbArc
 50
180.0
 51
0.000000000000007
  0
ARC
  5
3FB90
330
1F
100
AcDbEntity
  8
DETAIL
370
    25
100
AcDbCircle
 10
3184117.018510649
 20
3875639.435647443
 30
0.0
 40
50.0
100
AcDbArc
 50
180.0
 51
0.000000000000007
  0
ARC
  5
3FB91
330
1F
100
AcDbEntity
  8
DETAIL
370
    25
100
AcDbCircle
 10
3184217.018510649
 20
3875639.435647443
 30
0.0
 40
50.0
100
AcDbArc
 50
180.0
 51
0.000000000000007
  0
ARC
  5
3FB92
330
1F
100
AcDbEntity
  8
DETAIL
370
    25
100
AcDbCircle
 10
3184017.018510648
 20
3875639.435647443
 30
0.0
 40
50.0
100
AcDbArc
 50
180.0
 51
0.000000000000007
  0
ARC
  5
3FB93
330
1F
100
AcDbEntity
  8
DETAIL
370
    25
100
AcDbCircle
 10
3184417.018510649
 20
3875639.435647443
 30
0.0
 40
50.0
100
AcDbArc
 50
180.0
 51
0.000000000000007
  0
ARC
  5
3FB94
330
1F
100
AcDbEntity
  8
DETAIL
370
    25
100
AcDbCircle
 10
3184317.018510649
 20
3875639.435647443
 30
0.0
 40
50.0
100
AcDbArc
 50
180.0
 51
0.000000000000007
  0
ARC
  5
3FB95
330
1F
100
AcDbEntity
  8
DETAIL
370
    25
100
AcDbCircle
 10
3184517.018510649
 20
3875639.435647443
 30
0.0
 40
50.0
100
AcDbArc
 50
180.0
 51
0.000000000000007
  0
LINE
  5
3FB96
330
1F
100
AcDbEntity
  8
DETAIL
370
     9
100
AcDbLine
 10
3183267.018510648
 20
3875639.435647443
 30
0.0
 11
3183263.135775137
 21
3875619.480289915
 31
0.0
  0
LINE
  5
3FB97
330
1F
100
AcDbEntity
  8
DETAIL
370
     9
100
AcDbLine
 10
3183263.135775137
 20
3875619.480289915
 30
0.0
 11
3183253.297969294
 21
3875603.83950001
 31
0.0
  0
LINE
  5
3FB98
330
1F
100
AcDbEntity
  8
DETAIL
370
     9
100
AcDbLine
 10
3183253.297969294
 20
3875603.83950001
 30
0.0
 11
3183229.004457676
 21
3875594.013863319
 31
0.0
  0
LINE
  5
3FB99
330
1F
100
AcDbEntity
  8
DETAIL
370
     9
100
AcDbLine
 10
3183229.004457676
 20
3875594.013863319
 30
0.0
 11
3183208.432703628
 21
3875589.435651918
 31
0.0
  0
LINE
  5
3FB9A
330
1F
100
AcDbEntity
  8
DETAIL
370
    25
100
AcDbLine
 10
3188402.146352729
 20
3871274.92672683
 30
0.0
 11
3188037.14635273
 21
3871274.92672683
 31
0.0
  0
LINE
  5
3FB9B
330
1F
100
AcDbEntity
  8
DETAIL
370
    25
100
AcDbLine
 10
3188402.146352729
 20
3871274.92672683
 30
0.0
 11
3188402.146352729
 21
3871474.926726831
 31
0.0
  0
LINE
  5
3FB9C
330
1F
100
AcDbEntity
  8
DETAIL
370
    25
100
AcDbLine
 10
3188402.146352729
 20
3871474.926726831
 30
0.0
 11
3188037.14635273
 21
3871474.926726831
 31
0.0
  0
LINE
  5
3FB9D
330
1F
100
AcDbEntity
  8
DETAIL
370
    25
100
AcDbLine
 10
3188037.14635273
 20
3871474.926726831
 30
0.0
 11
3188037.14635273
 21
3871274.92672683
 31
0.0
  0
LINE
  5
3FB9E
330
1F
100
AcDbEntity
  8
DETAIL
370
    25
100
AcDbLine
 10
3188294.646352729
 20
3871399.92672683
 30
0.0
 11
3188294.646352729
 21
3871349.92672683
 31
0.0
  0
LINE
  5
3FB9F
330
1F
100
AcDbEntity
  8
DETAIL
370
    25
100
AcDbLine
 10
3188294.646352729
 20
3871349.92672683
 30
0.0
 11
3188144.646352729
 21
3871349.92672683
 31
0.0
  0
LINE
  5
3FBA0
330
1F
100
AcDbEntity
  8
DETAIL
370
    25
100
AcDbLine
 10
3188294.646352729
 20
3871399.92672683
 30
0.0
 11
3188144.646352729
 21
3871399.92672683
 31
0.0
  0
LINE
  5
3FBA1
330
1F
100
AcDbEntity
  8
DETAIL
370
    25
100
AcDbLine
 10
3188402.146352729
 20
3871274.92672683
 30
0.0
 11
3188037.14635273
 21
3871274.92672683
 31
0.0
  0
CIRCLE
  5
3FBA2
330
1F
100
AcDbEntity
  8
DETAIL
370
    25
100
AcDbCircle
 10
3188329.646352729
 20
3871424.926726831
 30
0.0
 40
7.0
  0
CIRCLE
  5
3FBA3
330
1F
100
AcDbEntity
  8
DETAIL
370
    25
100
AcDbCircle
 10
3188329.646352729
 20
3871334.92672683
 30
0.0
 40
7.0
  0
CIRCLE
  5
3FBA4
330
1F
100
AcDbEntity
  8
DETAIL
370
    25
100
AcDbCircle
 10
3188104.646352729
 20
3871424.926726831
 30
0.0
 40
7.0
  0
CIRCLE
  5
3FBA5
330
1F
100
AcDbEntity
  8
DETAIL
370
    25
100
AcDbCircle
 10
3188104.646352729
 20
3871334.92672683
 30
0.0
 40
7.0
  0
LINE
  5
3FBA6
330
1F
100
AcDbEntity
  8
DETAIL
370
    25
100
AcDbLine
 10
3188292.14635273
 20
3871349.92672683
 30
0.0
 11
3188142.146352729
 21
3871349.92672683
 31
0.0
  0
LINE
  5
3FBA7
330
1F
100
AcDbEntity
  8
DETAIL
370
    25
100
AcDbLine
 10
3188292.14635273
 20
3871399.92672683
 30
0.0
 11
3188142.146352729
 21
3871399.92672683
 31
0.0
  0
LINE
  5
3FBA8
330
1F
100
AcDbEntity
  8
DETAIL
370
    25
100
AcDbLine
 10
3188142.146352729
 20
3871349.926726829
 30
0.0
 11
3188142.146352729
 21
3871399.92672683
 31
0.0
  0
LINE
  5
3FBA9
330
1F
100
AcDbEntity
  8
DETAIL
370
     9
100
AcDbLine
 10
3188367.146352729
 20
3870800.126726829
 30
0.0
 11
3188367.146352729
 21
3871000.126726828
 31
0.0
  0
LINE
  5
3FBAA
330
1F
100
AcDbEntity
  8
DETAIL
370
     9
100
AcDbLine
 10
3188072.146352729
 20
3871000.126726828
 30
0.0
 11
3188072.146352729
 21
3870800.126726829
 31
0.0
  0
LINE
  5
3FBAB
330
1F
100
AcDbEntity
  8
DETAIL
370
    25
100
AcDbLine
 10
3188367.146352729
 20
3871274.92672683
 30
0.0
 11
3188367.146352729
 21
3871175.026726829
 31
0.0
  0
LINE
  5
3FBAC
330
1F
100
AcDbEntity
  8
DETAIL
370
    25
100
AcDbLine
 10
3188072.146352728
 20
3871274.92672683
 30
0.0
 11
3188072.146352729
 21
3871237.526726829
 31
0.0
  0
CIRCLE
  5
3FBAD
330
1F
100
AcDbEntity
  8
DETAIL
370
    25
100
AcDbCircle
 10
3188042.14635273
 20
3870817.52672683
 30
0.0
 40
10.0
  0
CIRCLE
  5
3FBAE
330
1F
100
AcDbEntity
  8
DETAIL
370
    25
100
AcDbCircle
 10
3188397.14635273
 20
3870817.52672683
 30
0.0
 40
10.0
  0
LINE
  5
3FBAF
330
1F
100
AcDbEntity
  8
DETAIL
370
     9
100
AcDbLine
 10
3188525.996352729
 20
3875425.755212202
 30
0.0
 11
3187914.996352729
 21
3875425.755212202
 31
0.0
  0
LINE
  5
3FBB1
330
1F
100
AcDbEntity
  8
DETAIL
370
     9
100
AcDbLine
 10
3188367.146352729
 20
3873418.26778125
 30
0.0
 11
3188525.99635273
 21
3873418.267781246
 31
0.0
  0
LINE
  5
3FBB2
330
1F
100
AcDbEntity
  8
DETAIL
370
     9
100
AcDbLine
 10
3188367.146352729
 20
3873418.26778125
 30
0.0
 11
3187914.99635273
 21
3873418.26778125
 31
0.0
  0
LINE
  5
3FBB5
330
1F
100
AcDbEntity
  8
DETAIL
370
    25
100
AcDbLine
 10
3188400.99635273
 20
3873418.267781249
 30
0.0
 11
3188400.99635273
 21
3875425.755212202
 31
0.0
  0
LINE
  5
3FBB6
330
1F
100
AcDbEntity
  8
DETAIL
370
    25
100
AcDbLine
 10
3188039.996352729
 20
3873418.26778125
 30
0.0
 11
3188039.996352729
 21
3875425.755212202
 31
0.0
  0
LINE
  5
3FBB9
330
1F
100
AcDbEntity
  8
DETAIL
370
     9
100
AcDbLine
 10
3188375.99635273
 20
3875375.755212201
 30
0.0
 11
3188350.185693669
 21
3875375.755212201
 31
0.0
  0
LINE
  5
3FBBA
330
1F
100
AcDbEntity
  8
DETAIL
370
    25
100
AcDbLine
 10
3188375.996352729
 20
3875075.755212201
 30
0.0
 11
3188375.99635273
 21
3875375.755212202
 31
0.0
  0
LINE
  5
3FBBB
330
1F
100
AcDbEntity
  8
DETAIL
370
    25
100
AcDbLine
 10
3188064.996352729
 20
3875075.755212201
 30
0.0
 11
3188064.996352729
 21
3875375.755212202
 31
0.0
  0
LINE
  5
3FBBC
330
1F
100
AcDbEntity
  8
DETAIL
370
     9
100
AcDbLine
 10
3188375.99635273
 20
3875075.755212201
 30
0.0
 11
3188350.185693669
 21
3875075.755212201
 31
0.0
  0
LINE
  5
3FBBD
330
1F
100
AcDbEntity
  8
DETAIL
370
     9
100
AcDbLine
 10
3188210.185693669
 20
3875375.755212201
 30
0.0
 11
3188210.185693669
 21
3875075.755212201
 31
0.0
  0
LINE
  5
3FBBE
330
1F
100
AcDbEntity
  8
DETAIL
370
     9
100
AcDbLine
 10
3188230.185693669
 20
3875375.755212201
 30
0.0
 11
3188230.185693669
 21
3875075.755212201
 31
0.0
  0
LINE
  5
3FBBF
330
1F
100
AcDbEntity
  8
DETAIL
370
     9
100
AcDbLine
 10
3188250.185693669
 20
3875375.755212201
 30
0.0
 11
3188250.185693669
 21
3875075.755212201
 31
0.0
  0
LINE
  5
3FBC0
330
1F
100
AcDbEntity
  8
DETAIL
370
     9
100
AcDbLine
 10
3188190.185693669
 20
3875375.755212201
 30
0.0
 11
3188190.185693669
 21
3875075.755212201
 31
0.0
  0
LINE
  5
3FBC1
330
1F
100
AcDbEntity
  8
DETAIL
370
     9
100
AcDbLine
 10
3188170.185693669
 20
3875375.755212201
 30
0.0
 11
3188170.185693669
 21
3875075.755212201
 31
0.0
  0
LINE
  5
3FBC2
330
1F
100
AcDbEntity
  8
DETAIL
370
     9
100
AcDbLine
 10
3188150.185693669
 20
3875375.755212201
 30
0.0
 11
3188150.185693669
 21
3875075.755212201
 31
0.0
  0
LINE
  5
3FBC3
330
1F
100
AcDbEntity
  8
DETAIL
370
     9
100
AcDbLine
 10
3188130.185693669
 20
3875375.755212201
 30
0.0
 11
3188130.185693669
 21
3875075.755212201
 31
0.0
  0
LINE
  5
3FBC4
330
1F
100
AcDbEntity
  8
DETAIL
370
     9
100
AcDbLine
 10
3188110.185693669
 20
3875375.755212201
 30
0.0
 11
3188110.185693669
 21
3875075.755212201
 31
0.0
  0
LINE
  5
3FBC5
330
1F
100
AcDbEntity
  8
DETAIL
370
     9
100
AcDbLine
 10
3188090.185693669
 20
3875375.755212201
 30
0.0
 11
3188090.185693669
 21
3875075.755212201
 31
0.0
  0
LINE
  5
3FBC6
330
1F
100
AcDbEntity
  8
DETAIL
370
     9
100
AcDbLine
 10
3188270.185693669
 20
3875375.755212201
 30
0.0
 11
3188270.185693669
 21
3875075.755212201
 31
0.0
  0
LINE
  5
3FBC7
330
1F
100
AcDbEntity
  8
DETAIL
370
     9
100
AcDbLine
 10
3188290.185693669
 20
3875375.755212201
 30
0.0
 11
3188290.185693669
 21
3875075.755212201
 31
0.0
  0
LINE
  5
3FBC8
330
1F
100
AcDbEntity
  8
DETAIL
370
     9
100
AcDbLine
 10
3188310.185693669
 20
3875375.755212201
 30
0.0
 11
3188310.185693669
 21
3875075.755212201
 31
0.0
  0
LINE
  5
3FBC9
330
1F
100
AcDbEntity
  8
DETAIL
370
     9
100
AcDbLine
 10
3188330.185693668
 20
3875375.755212201
 30
0.0
 11
3188330.185693668
 21
3875075.755212201
 31
0.0
  0
LINE
  5
3FBCA
330
1F
100
AcDbEntity
  8
DETAIL
370
     9
100
AcDbLine
 10
3188350.185693669
 20
3875375.755212201
 30
0.0
 11
3188350.185693669
 21
3875075.755212201
 31
0.0
  0
LINE
  5
3FBCB
330
1F
100
AcDbEntity
  8
DETAIL
370
     9
100
AcDbLine
 10
3188330.185693668
 20
3875375.755212201
 30
0.0
 11
3188310.185693669
 21
3875375.755212199
 31
0.0
  0
LINE
  5
3FBCC
330
1F
100
AcDbEntity
  8
DETAIL
370
     9
100
AcDbLine
 10
3188330.185693668
 20
3875075.755212201
 30
0.0
 11
3188310.185693669
 21
3875075.755212201
 31
0.0
  0
LINE
  5
3FBCD
330
1F
100
AcDbEntity
  8
DETAIL
370
     9
100
AcDbLine
 10
3188290.185693669
 20
3875075.755212201
 30
0.0
 11
3188270.185693669
 21
3875075.755212201
 31
0.0
  0
LINE
  5
3FBCE
330
1F
100
AcDbEntity
  8
DETAIL
370
     9
100
AcDbLine
 10
3188250.185693669
 20
3875075.755212201
 30
0.0
 11
3188230.185693669
 21
3875075.755212201
 31
0.0
  0
LINE
  5
3FBCF
330
1F
100
AcDbEntity
  8
DETAIL
370
     9
100
AcDbLine
 10
3188210.185693669
 20
3875075.755212201
 30
0.0
 11
3188190.185693668
 21
3875075.755212201
 31
0.0
  0
LINE
  5
3FBD0
330
1F
100
AcDbEntity
  8
DETAIL
370
     9
100
AcDbLine
 10
3188170.185693669
 20
3875075.755212201
 30
0.0
 11
3188150.185693669
 21
3875075.755212201
 31
0.0
  0
LINE
  5
3FBD1
330
1F
100
AcDbEntity
  8
DETAIL
370
     9
100
AcDbLine
 10
3188130.185693669
 20
3875075.755212201
 30
0.0
 11
3188110.185693669
 21
3875075.755212201
 31
0.0
  0
LINE
  5
3FBD2
330
1F
100
AcDbEntity
  8
DETAIL
370
     9
100
AcDbLine
 10
3188090.185693669
 20
3875075.755212201
 30
0.0
 11
3188064.996352729
 21
3875075.755212201
 31
0.0
  0
LINE
  5
3FBD3
330
1F
100
AcDbEntity
  8
DETAIL
370
     9
100
AcDbLine
 10
3188090.185693669
 20
3875375.755212201
 30
0.0
 11
3188064.996352729
 21
3875375.755212202
 31
0.0
  0
LINE
  5
3FBD4
330
1F
100
AcDbEntity
  8
DETAIL
370
     9
100
AcDbLine
 10
3188130.185693669
 20
3875375.755212201
 30
0.0
 11
3188110.185693669
 21
3875375.755212201
 31
0.0
  0
LINE
  5
3FBD5
330
1F
100
AcDbEntity
  8
DETAIL
370
     9
100
AcDbLine
 10
3188170.185693669
 20
3875375.755212199
 30
0.0
 11
3188150.185693669
 21
3875375.755212201
 31
0.0
  0
LINE
  5
3FBD6
330
1F
100
AcDbEntity
  8
DETAIL
370
     9
100
AcDbLine
 10
3188210.185693669
 20
3875375.755212199
 30
0.0
 11
3188190.185693669
 21
3875375.755212199
 31
0.0
  0
LINE
  5
3FBD7
330
1F
100
AcDbEntity
  8
DETAIL
370
     9
100
AcDbLine
 10
3188250.185693669
 20
3875375.755212199
 30
0.0
 11
3188230.185693669
 21
3875375.755212199
 31
0.0
  0
LINE
  5
3FBD8
330
1F
100
AcDbEntity
  8
DETAIL
370
     9
100
AcDbLine
 10
3188290.185693669
 20
3875375.755212199
 30
0.0
 11
3188270.185693669
 21
3875375.755212199
 31
0.0
  0
LINE
  5
3FBD9
330
1F
100
AcDbEntity
  8
DETAIL
370
     9
100
AcDbLine
 10
3188220.496352729
 20
3874909.203471662
 30
0.0
 11
3188095.49635273
 21
3874909.203471662
 31
0.0
  0
LINE
  5
3FBDA
330
1F
100
AcDbEntity
  8
DETAIL
370
     9
100
AcDbLine
 10
3188095.49635273
 20
3874909.203471662
 30
0.0
 11
3188095.49635273
 21
3874559.203471662
 31
0.0
  0
LINE
  5
3FBDB
330
1F
100
AcDbEntity
  8
DETAIL
370
     9
100
AcDbLine
 10
3188095.49635273
 20
3874559.203471662
 30
0.0
 11
3188345.49635273
 21
3874559.203471662
 31
0.0
  0
LINE
  5
3FBDC
330
1F
100
AcDbEntity
  8
DETAIL
370
     9
100
AcDbLine
 10
3188345.49635273
 20
3874559.203471662
 30
0.0
 11
3188345.49635273
 21
3874909.203471662
 31
0.0
  0
LINE
  5
3FBDD
330
1F
100
AcDbEntity
  8
DETAIL
370
     9
100
AcDbLine
 10
3188345.49635273
 20
3874909.203471662
 30
0.0
 11
3188220.496352729
 21
3874909.203471662
 31
0.0
  0
LINE
  5
3FBDE
330
1F
100
AcDbEntity
  8
DETAIL
370
     9
100
AcDbLine
 10
3188270.496352729
 20
3874859.203471662
 30
0.0
 11
3188270.496352729
 21
3874759.203471662
 31
0.0
  0
LINE
  5
3FBDF
330
1F
100
AcDbEntity
  8
DETAIL
370
     9
100
AcDbLine
 10
3188170.496352729
 20
3874859.203471662
 30
0.0
 11
3188170.496352729
 21
3874759.203471662
 31
0.0
  0
LINE
  5
3FBE0
330
1F
100
AcDbEntity
  8
DETAIL
370
     9
100
AcDbLine
 10
3188270.496352729
 20
3874859.203471662
 30
0.0
 11
3188170.496352729
 21
3874859.203471662
 31
0.0
  0
LINE
  5
3FBE1
330
1F
100
AcDbEntity
  8
DETAIL
370
     9
100
AcDbLine
 10
3188270.496352729
 20
3874709.203471661
 30
0.0
 11
3188170.496352729
 21
3874709.203471661
 31
0.0
  0
LINE
  5
3FBE2
330
1F
100
AcDbEntity
  8
DETAIL
370
     9
100
AcDbLine
 10
3188270.496352729
 20
3874709.203471661
 30
0.0
 11
3188270.496352729
 21
3874759.203471662
 31
0.0
  0
LINE
  5
3FBE3
330
1F
100
AcDbEntity
  8
DETAIL
370
     9
100
AcDbLine
 10
3188170.496352729
 20
3874709.203471661
 30
0.0
 11
3188170.496352729
 21
3874759.203471662
 31
0.0
  0
LINE
  5
3FBE4
330
1F
100
AcDbEntity
  8
DETAIL
370
     9
100
AcDbLine
 10
3188510.646352729
 20
3870920.52672683
 30
0.0
 11
3188510.646352729
 21
3870945.52672683
 31
0.0
  0
LINE
  5
3FBE5
330
1F
100
AcDbEntity
  8
DETAIL
370
     9
100
AcDbLine
 10
3188510.646352729
 20
3870945.52672683
 30
0.0
 11
3188485.64635273
 21
3870945.52672683
 31
0.0
  0
LINE
  5
3FBE6
330
1F
100
AcDbEntity
  8
DETAIL
370
     9
100
AcDbLine
 10
3188510.646352729
 20
3870920.52672683
 30
0.0
 11
3188510.646352729
 21
3870836.52672683
 31
0.0
  0
LINE
  5
3FBE7
330
1F
100
AcDbEntity
  8
DETAIL
370
     9
100
AcDbLine
 10
3188410.64635273
 20
3870766.52672683
 30
0.0
 11
3188510.646352729
 21
3870836.52672683
 31
0.0
  0
LINE
  5
3FBE8
330
1F
100
AcDbEntity
  8
DETAIL
370
     9
100
AcDbLine
 10
3188485.64635273
 20
3870945.52672683
 30
0.0
 11
3188485.64635273
 21
3870943.52672683
 31
0.0
  0
LINE
  5
3FBE9
330
1F
100
AcDbEntity
  8
DETAIL
370
     9
100
AcDbLine
 10
3188485.64635273
 20
3870943.52672683
 30
0.0
 11
3188508.64635273
 21
3870943.526726831
 31
0.0
  0
LINE
  5
3FBEA
330
1F
100
AcDbEntity
  8
DETAIL
370
     9
100
AcDbLine
 10
3188508.64635273
 20
3870920.52672683
 30
0.0
 11
3188508.64635273
 21
3870837.568037953
 31
0.0
  0
LINE
  5
3FBEB
330
1F
100
AcDbEntity
  8
DETAIL
370
     9
100
AcDbLine
 10
3188508.64635273
 20
3870920.52672683
 30
0.0
 11
3188508.64635273
 21
3870943.526726831
 31
0.0
  0
LINE
  5
3FBEC
330
1F
100
AcDbEntity
  8
DETAIL
370
     9
100
AcDbLine
 10
3188410.015908267
 20
3870768.52672683
 30
0.0
 11
3188508.64635273
 21
3870837.568037953
 31
0.0
  0
LINE
  5
3FBED
330
1F
100
AcDbEntity
  8
DETAIL
370
     9
100
AcDbLine
 10
3187928.64635273
 20
3870920.52672683
 30
0.0
 11
3187928.64635273
 21
3870945.52672683
 31
0.0
  0
LINE
  5
3FBEE
330
1F
100
AcDbEntity
  8
DETAIL
370
     9
100
AcDbLine
 10
3187928.64635273
 20
3870945.52672683
 30
0.0
 11
3187953.64635273
 21
3870945.52672683
 31
0.0
  0
LINE
  5
3FBEF
330
1F
100
AcDbEntity
  8
DETAIL
370
     9
100
AcDbLine
 10
3187928.64635273
 20
3870920.52672683
 30
0.0
 11
3187928.64635273
 21
3870836.52672683
 31
0.0
  0
LINE
  5
3FBF0
330
1F
100
AcDbEntity
  8
DETAIL
370
     9
100
AcDbLine
 10
3188028.64635273
 20
3870766.52672683
 30
0.0
 11
3187928.64635273
 21
3870836.52672683
 31
0.0
  0
LINE
  5
3FBF1
330
1F
100
AcDbEntity
  8
DETAIL
370
     9
100
AcDbLine
 10
3187953.64635273
 20
3870945.52672683
 30
0.0
 11
3187953.64635273
 21
3870943.52672683
 31
0.0
  0
LINE
  5
3FBF2
330
1F
100
AcDbEntity
  8
DETAIL
370
     9
100
AcDbLine
 10
3187953.64635273
 20
3870943.52672683
 30
0.0
 11
3187930.64635273
 21
3870943.526726831
 31
0.0
  0
LINE
  5
3FBF3
330
1F
100
AcDbEntity
  8
DETAIL
370
     9
100
AcDbLine
 10
3187930.64635273
 20
3870920.52672683
 30
0.0
 11
3187930.64635273
 21
3870837.568037953
 31
0.0
  0
LINE
  5
3FBF4
330
1F
100
AcDbEntity
  8
DETAIL
370
     9
100
AcDbLine
 10
3187930.64635273
 20
3870920.52672683
 30
0.0
 11
3187930.64635273
 21
3870943.526726831
 31
0.0
  0
LINE
  5
3FBF5
330
1F
100
AcDbEntity
  8
DETAIL
370
     9
100
AcDbLine
 10
3188029.27679719
 20
3870768.52672683
 30
0.0
 11
3187930.64635273
 21
3870837.568037953
 31
0.0
  0
LINE
  5
3FBF6
330
1F
100
AcDbEntity
  8
DETAIL
370
     9
100
AcDbLine
 10
3188410.64635273
 20
3870766.52672683
 30
0.0
 11
3188028.64635273
 21
3870766.52672683
 31
0.0
  0
LINE
  5
3FBF7
330
1F
100
AcDbEntity
  8
DETAIL
370
     9
100
AcDbLine
 10
3188410.015908267
 20
3870768.52672683
 30
0.0
 11
3188029.27679719
 21
3870768.52672683
 31
0.0
  0
LINE
  5
3FBF8
330
1F
100
AcDbEntity
  8
DETAIL
370
    25
100
AcDbLine
 10
3187998.646352733
 20
3870787.526726828
 30
0.0
 11
3187372.146352729
 21
3870787.526726828
 31
0.0
  0
LINE
  5
3FBF9
330
1F
100
AcDbEntity
  8
DETAIL
370
    25
100
AcDbLine
 10
3188440.646352725
 20
3870787.526726828
 30
0.0
 11
3189067.146352729
 21
3870787.526726828
 31
0.0
  0
LINE
  5
3FBFA
330
1F
100
AcDbEntity
  8
DETAIL
370
     9
100
AcDbLine
 10
3188510.646352729
 20
3871354.526726828
 30
0.0
 11
3188510.646352729
 21
3871329.526726828
 31
0.0
  0
LINE
  5
3FBFB
330
1F
100
AcDbEntity
  8
DETAIL
370
     9
100
AcDbLine
 10
3188510.646352729
 20
3871329.526726828
 30
0.0
 11
3188485.64635273
 21
3871329.526726828
 31
0.0
  0
LINE
  5
3FBFC
330
1F
100
AcDbEntity
  8
DETAIL
370
     9
100
AcDbLine
 10
3188510.646352729
 20
3871354.526726828
 30
0.0
 11
3188510.646352729
 21
3871438.526726828
 31
0.0
  0
LINE
  5
3FBFD
330
1F
100
AcDbEntity
  8
DETAIL
370
     9
100
AcDbLine
 10
3188410.64635273
 20
3871508.526726828
 30
0.0
 11
3188510.646352729
 21
3871438.526726828
 31
0.0
  0
LINE
  5
3FBFE
330
1F
100
AcDbEntity
  8
DETAIL
370
     9
100
AcDbLine
 10
3188485.64635273
 20
3871329.526726828
 30
0.0
 11
3188485.64635273
 21
3871331.526726828
 31
0.0
  0
LINE
  5
3FBFF
330
1F
100
AcDbEntity
  8
DETAIL
370
     9
100
AcDbLine
 10
3188485.64635273
 20
3871331.526726828
 30
0.0
 11
3188508.64635273
 21
3871331.526726828
 31
0.0
  0
LINE
  5
3FC00
330
1F
100
AcDbEntity
  8
DETAIL
370
     9
100
AcDbLine
 10
3188508.64635273
 20
3871354.526726828
 30
0.0
 11
3188508.64635273
 21
3871437.485415705
 31
0.0
  0
LINE
  5
3FC01
330
1F
100
AcDbEntity
  8
DETAIL
370
     9
100
AcDbLine
 10
3188508.64635273
 20
3871354.526726828
 30
0.0
 11
3188508.64635273
 21
3871331.526726828
 31
0.0
  0
LINE
  5
3FC02
330
1F
100
AcDbEntity
  8
DETAIL
370
     9
100
AcDbLine
 10
3188410.015908267
 20
3871506.526726829
 30
0.0
 11
3188508.64635273
 21
3871437.485415705
 31
0.0
  0
LINE
  5
3FC03
330
1F
100
AcDbEntity
  8
DETAIL
370
     9
100
AcDbLine
 10
3187928.64635273
 20
3871354.526726828
 30
0.0
 11
3187928.64635273
 21
3871329.526726828
 31
0.0
  0
LINE
  5
3FC04
330
1F
100
AcDbEntity
  8
DETAIL
370
     9
100
AcDbLine
 10
3187928.64635273
 20
3871329.526726828
 30
0.0
 11
3187953.64635273
 21
3871329.526726828
 31
0.0
  0
LINE
  5
3FC05
330
1F
100
AcDbEntity
  8
DETAIL
370
     9
100
AcDbLine
 10
3187928.64635273
 20
3871354.526726828
 30
0.0
 11
3187928.64635273
 21
3871438.526726828
 31
0.0
  0
LINE
  5
3FC06
330
1F
100
AcDbEntity
  8
DETAIL
370
     9
100
AcDbLine
 10
3188028.64635273
 20
3871508.526726828
 30
0.0
 11
3187928.64635273
 21
3871438.526726828
 31
0.0
  0
LINE
  5
3FC07
330
1F
100
AcDbEntity
  8
DETAIL
370
     9
100
AcDbLine
 10
3187953.64635273
 20
3871329.526726828
 30
0.0
 11
3187953.64635273
 21
3871331.526726828
 31
0.0
  0
LINE
  5
3FC08
330
1F
100
AcDbEntity
  8
DETAIL
370
     9
100
AcDbLine
 10
3187953.64635273
 20
3871331.526726828
 30
0.0
 11
3187930.64635273
 21
3871331.526726828
 31
0.0
  0
LINE
  5
3FC09
330
1F
100
AcDbEntity
  8
DETAIL
370
     9
100
AcDbLine
 10
3187930.64635273
 20
3871354.526726828
 30
0.0
 11
3187930.64635273
 21
3871437.485415705
 31
0.0
  0
LINE
  5
3FC0A
330
1F
100
AcDbEntity
  8
DETAIL
370
     9
100
AcDbLine
 10
3187930.64635273
 20
3871354.526726828
 30
0.0
 11
3187930.64635273
 21
3871331.526726828
 31
0.0
  0
LINE
  5
3FC0B
330
1F
100
AcDbEntity
  8
DETAIL
370
     9
100
AcDbLine
 10
3188029.27679719
 20
3871506.526726829
 30
0.0
 11
3187930.64635273
 21
3871437.485415705
 31
0.0
  0
LINE
  5
3FC0C
330
1F
100
AcDbEntity
  8
DETAIL
370
     9
100
AcDbLine
 10
3188410.64635273
 20
3871508.526726828
 30
0.0
 11
3188028.64635273
 21
3871508.526726828
 31
0.0
  0
LINE
  5
3FC0D
330
1F
100
AcDbEntity
  8
DETAIL
370
     9
100
AcDbLine
 10
3188410.015908267
 20
3871506.526726829
 30
0.0
 11
3188029.27679719
 21
3871506.526726829
 31
0.0
  0
LINE
  5
3FC0E
330
1F
100
AcDbEntity
  8
APPLICATION
370
     9
100
AcDbLine
 10
3190377.136963653
 20
3872888.267781251
 30
0.0
 11
3191455.574234652
 21
3872888.267781251
 31
0.0
  0
LINE
  5
3FC0F
330
1F
100
AcDbEntity
  8
DETAIL
370
     9
100
AcDbLine
 10
3191587.983875018
 20
3873388.267781251
 30
0.0
 11
3191602.696057282
 21
3873388.267781251
 31
0.0
  0
LINE
  5
3FC10
330
1F
100
AcDbEntity
  8
APPLICATION
370
     9
100
AcDbLine
 10
3181550.534647336
 20
3873338.26778125
 30
0.0
 11
3181550.534647336
 21
3872888.267781249
 31
0.0
  0
LINE
  5
3FC11
330
1F
100
AcDbEntity
  8
APPLICATION
370
     9
100
AcDbLine
 10
3187322.146352729
 20
3872888.267781251
 30
0.0
 11
3182050.534647336
 21
3872888.267781249
 31
0.0
  0
LINE
  5
3FC12
330
1F
100
AcDbEntity
  8
DETAIL
370
     9
100
AcDbLine
 10
3187322.146352729
 20
3871512.526726829
 30
0.0
 11
3182050.534647336
 21
3871512.52672683
 31
0.0
  0
LINE
  5
3FC13
330
1F
100
AcDbEntity
  8
DETAIL
370
     9
100
AcDbLine
 10
3187322.146352729
 20
3870762.526726829
 30
0.0
 11
3182050.534647336
 21
3870762.526726829
 31
0.0
  0
LINE
  5
3FC14
330
1F
100
AcDbEntity
  8
DETAIL
370
     9
100
AcDbLine
 10
3182050.534647336
 20
3870762.526726829
 30
0.0
 11
3182050.534647336
 21
3870762.526726829
 31
0.0
  0
LINE
  5
3FC15
102
{ACAD_REACTORS
330
3FDDC
102
}
330
1F
100
AcDbEntity
  8
APPLICATION
370
     9
100
AcDbLine
 10
3192999.794956989
 20
3873088.26778125
 30
0.0
 11
3192999.794956989
 21
3872888.267781251
 31
0.0
  0
LINE
  5
3FC16
102
{ACAD_REACTORS
330
3FDDC
102
}
330
1F
100
AcDbEntity
  8
APPLICATION
370
     9
100
AcDbLine
 10
3192999.794956989
 20
3872888.267781251
 30
0.0
 11
3192366.674830355
 21
3872888.267781251
 31
0.0
  0
LINE
  5
3FC19
102
{ACAD_REACTORS
330
3FF34
102
}
330
1F
100
AcDbEntity
  8
DETAIL
370
     9
100
AcDbLine
 10
3192999.794956989
 20
3871312.526726829
 30
0.0
 11
3192999.794956989
 21
3871512.526726829
 31
0.0
  0
LINE
  5
3FC1A
330
1F
100
AcDbEntity
  8
DETAIL
370
     9
100
AcDbLine
 10
3192999.794956989
 20
3870962.526726829
 30
0.0
 11
3192999.794956989
 21
3870762.52672683
 31
0.0
  0
LINE
  5
3FC1B
330
1F
100
AcDbEntity
  8
DETAIL
370
     9
100
AcDbLine
 10
3192528.00839557
 20
3871512.526726829
 30
0.0
 11
3192999.794956989
 21
3871512.526726829
 31
0.0
  0
LINE
  5
3FC1C
330
1F
100
AcDbEntity
  8
DETAIL
370
     9
100
AcDbLine
 10
3192344.608507233
 20
3870762.52672683
 30
0.0
 11
3192999.794956989
 21
3870762.52672683
 31
0.0
  0
ARC
  5
3FC1D
330
1F
100
AcDbEntity
  8
DETAIL
370
     9
100
AcDbCircle
 10
3190531.727864224
 20
3873502.090210065
 30
0.0
 40
93.82242881413548
100
AcDbArc
 50
204.4429026388709
 51
335.5570973611291
  0
ARC
  5
3FC1E
330
1F
100
AcDbEntity
  8
DETAIL
370
     9
100
AcDbCircle
 10
3183665.280245694
 20
3873502.090210065
 30
0.0
 40
93.82242881413548
100
AcDbArc
 50
204.4429026386121
 51
335.5570973613879
  0
LINE
  5
3FC63
102
{ACAD_REACTORS
330
3FDDC
102
}
330
1F
100
AcDbEntity
  8
APPLICATION
370
     9
100
AcDbLine
 10
3192366.674830355
 20
3872888.267781251
 30
0.0
 11
3192105.50439438
 21
3872888.267781249
 31
0.0
  0
LINE
  5
3FC64
102
{ACAD_REACTORS
330
3FDDC
102
}
330
1F
100
AcDbEntity
  8
APPLICATION
370
     9
100
AcDbLine
 10
3192513.796652987
 20
3873388.267781251
 30
0.0
 11
3192296.08262324
 21
3873388.267781251
 31
0.0
  0
LINE
  5
3FC65
330
1F
100
AcDbEntity
  8
DETAIL
370
     9
100
AcDbLine
 10
3192528.00839557
 20
3871512.526726829
 30
0.0
 11
3192167.265107547
 21
3871512.526726828
 31
0.0
  0
LINE
  5
3FC66
330
1F
100
AcDbEntity
  8
DETAIL
370
     9
100
AcDbLine
 10
3192344.608507233
 20
3870762.52672683
 30
0.0
 11
3191881.397764259
 21
3870762.526726831
 31
0.0
  0
LINE
  5
3FCA1
330
1F
100
AcDbEntity
  8
APPLICATION
370
     9
100
AcDbLine
 10
3191910.444328252
 20
3873878.030054978
 30
0.0
 11
3191332.790345902
 21
3872362.500222927
 31
0.0
  0
LINE
  5
3FCA8
102
{ACAD_REACTORS
330
3FDDC
102
}
330
1F
100
AcDbEntity
  8
APPLICATION
370
     9
100
AcDbLine
 10
3192479.4765621
 20
3873869.419117261
 30
0.0
 11
3191901.822579749
 21
3872353.889285212
 31
0.0
  0
LINE
  5
3FCB0
330
1F
100
AcDbEntity
  8
DETAIL
370
     9
100
AcDbLine
 10
3191719.848793865
 20
3871840.208528237
 30
0.0
 11
3191142.194811515
 21
3870324.678696187
 31
0.0
  0
LINE
  5
3FCB1
330
1F
100
AcDbEntity
  8
DETAIL
370
     9
100
AcDbLine
 10
3192288.881027713
 20
3871831.59759052
 30
0.0
 11
3191711.227045362
 21
3870316.06775847
 31
0.0
  0
LINE
  5
3FCB2
330
1F
100
AcDbEntity
  8
APPLICATION
370
     9
100
AcDbLine
 10
3191723.768274874
 20
3873388.267781251
 30
0.0
 11
3191587.983875018
 21
3873388.267781251
 31
0.0
  0
LINE
  5
3FCB3
330
1F
100
AcDbEntity
  8
APPLICATION
370
     9
100
AcDbLine
 10
3191533.190046015
 20
3872888.267781251
 30
0.0
 11
3191455.574234652
 21
3872888.267781251
 31
0.0
  0
LINE
  5
3FCB6
330
1F
100
AcDbEntity
  8
DETAIL
370
     9
100
AcDbLine
 10
3190377.136963653
 20
3871512.526726829
 30
0.0
 11
3191594.950759182
 21
3871512.526726829
 31
0.0
  0
LINE
  5
3FCB7
330
1F
100
AcDbEntity
  8
DETAIL
370
     9
100
AcDbLine
 10
3190377.136963653
 20
3870762.526726829
 30
0.0
 11
3191309.083415894
 21
3870762.526726829
 31
0.0
  0
LINE
  5
3FCC5
330
1F
100
AcDbEntity
  8
DETAIL
370
     9
100
AcDbLine
 10
3188019.300388196
 20
3875369.40547122
 30
0.0
 11
3188019.300388196
 21
3875075.755212201
 31
0.0
  0
LINE
  5
3FCC6
330
1F
100
AcDbEntity
  8
DETAIL
370
     9
100
AcDbLine
 10
3188019.300388197
 20
3875375.755212202
 30
0.0
 11
3188019.300388197
 21
3875075.755212201
 31
0.0
  0
LINE
  5
3FCC7
330
1F
100
AcDbEntity
  8
DETAIL
370
     9
100
AcDbLine
 10
3188004.300388197
 20
3875375.755212202
 30
0.0
 11
3188004.300388197
 21
3875075.755212201
 31
0.0
  0
LINE
  5
3FCC8
330
1F
100
AcDbEntity
  8
DETAIL
370
     9
100
AcDbLine
 10
3187989.300388196
 20
3875375.755212202
 30
0.0
 11
3187989.300388196
 21
3875075.755212201
 31
0.0
  0
LINE
  5
3FCC9
330
1F
100
AcDbEntity
  8
DETAIL
370
     9
100
AcDbLine
 10
3187974.300388197
 20
3875375.755212201
 30
0.0
 11
3187974.300388197
 21
3875075.755212201
 31
0.0
  0
LINE
  5
3FCCA
330
1F
100
AcDbEntity
  8
DETAIL
370
     9
100
AcDbLine
 10
3187959.300388197
 20
3875375.755212202
 30
0.0
 11
3187959.300388196
 21
3875075.755212201
 31
0.0
  0
LINE
  5
3FCCB
330
1F
100
AcDbEntity
  8
DETAIL
370
     9
100
AcDbLine
 10
3187944.300388196
 20
3875375.755212202
 30
0.0
 11
3187944.300388196
 21
3875075.755212201
 31
0.0
  0
LINE
  5
3FCE3
330
1F
100
AcDbEntity
  8
DETAIL
370
     9
100
AcDbLine
 10
3188183.658636214
 20
3874836.216343918
 30
0.0
 11
3188257.045949818
 21
3874836.216343918
 31
0.0
  0
LINE
  5
3FCE4
330
1F
100
AcDbEntity
  8
DETAIL
370
     9
100
AcDbLine
 10
3188183.658636214
 20
3874811.216343919
 30
0.0
 11
3188257.045949818
 21
3874811.216343919
 31
0.0
  0
LINE
  5
3FCE5
330
1F
100
AcDbEntity
  8
DETAIL
370
     9
100
AcDbLine
 10
3188183.658636214
 20
3874786.216343917
 30
0.0
 11
3188257.045949818
 21
3874786.216343917
 31
0.0
  0
LINE
  5
3FD7C
330
1F
100
AcDbEntity
  8
DETAIL
370
     9
100
AcDbLine
 10
3194515.971263342
 20
3873413.267781251
 30
0.0
 11
3194515.971263342
 21
3873403.26778125
 31
0.0
  0
LINE
  5
3FD8D
330
1F
100
AcDbEntity
  8
DETAIL
370
     9
100
AcDbLine
 10
3194298.971263342
 20
3873403.26778125
 30
0.0
 11
3194298.971263342
 21
3873388.267781251
 31
0.0
  0
LINE
  5
3FD8E
330
1F
100
AcDbEntity
  8
DETAIL
370
     9
100
AcDbLine
 10
3194278.971263341
 20
3873403.267781251
 30
0.0
 11
3194278.971263341
 21
3873413.267781251
 31
0.0
  0
LINE
  5
3FD8F
330
1F
100
AcDbEntity
  8
DETAIL
370
     9
100
AcDbLine
 10
3194278.971263341
 20
3873413.267781251
 30
0.0
 11
3194258.971263341
 21
3873413.267781251
 31
0.0
  0
LINE
  5
3FD90
330
1F
100
AcDbEntity
  8
DETAIL
370
     9
100
AcDbLine
 10
3194258.971263341
 20
3873413.267781251
 30
0.0
 11
3194258.971263341
 21
3873403.267781251
 31
0.0
  0
LINE
  5
3FD92
330
1F
100
AcDbEntity
  8
DETAIL
370
     9
100
AcDbLine
 10
3194249.971263341
 20
3873403.267781251
 30
0.0
 11
3194298.971263342
 21
3873403.267781251
 31
0.0
  0
LINE
  5
3FD94
330
1F
100
AcDbEntity
  8
DETAIL
370
     9
100
AcDbLine
 10
3194466.971263342
 20
3873388.267781251
 30
0.0
 11
3194466.971263342
 21
3873403.26778125
 31
0.0
  0
LINE
  5
3FD95
330
1F
100
AcDbEntity
  8
DETAIL
370
     9
100
AcDbLine
 10
3194491.971263341
 20
3873403.26778125
 30
0.0
 11
3194511.971263342
 21
3873403.26778125
 31
0.0
  0
LINE
  5
3FD96
330
1F
100
AcDbEntity
  8
DETAIL
370
     9
100
AcDbLine
 10
3194486.971263341
 20
3873403.26778125
 30
0.0
 11
3194486.971263341
 21
3873413.267781251
 31
0.0
  0
LINE
  5
3FD97
330
1F
100
AcDbEntity
  8
DETAIL
370
     9
100
AcDbLine
 10
3194486.971263341
 20
3873413.267781251
 30
0.0
 11
3194506.971263341
 21
3873413.267781251
 31
0.0
  0
LINE
  5
3FD98
330
1F
100
AcDbEntity
  8
DETAIL
370
     9
100
AcDbLine
 10
3194506.971263341
 20
3873413.267781251
 30
0.0
 11
3194506.971263341
 21
3873403.26778125
 31
0.0
  0
LINE
  5
3FD9A
330
1F
100
AcDbEntity
  8
DETAIL
370
     9
100
AcDbLine
 10
3194491.971263341
 20
3873403.26778125
 30
0.0
 11
3194466.971263342
 21
3873403.26778125
 31
0.0
  0
LINE
  5
3FD9B
330
1F
100
AcDbEntity
  8
DETAIL
370
     9
100
AcDbLine
 10
3194466.971263342
 20
3873403.26778125
 30
0.0
 11
3194486.971263341
 21
3873403.26778125
 31
0.0
  0
LINE
  5
3FD9C
330
1F
100
AcDbEntity
  8
DETAIL
370
     9
100
AcDbLine
 10
3194466.971263342
 20
3873403.26778125
 30
0.0
 11
3194486.971263341
 21
3873403.26778125
 31
0.0
  0
LINE
  5
3FD9D
330
1F
100
AcDbEntity
  8
DETAIL
370
     9
100
AcDbLine
 10
3194466.971263342
 20
3873403.26778125
 30
0.0
 11
3194732.971263341
 21
3873403.26778125
 31
0.0
  0
LINE
  5
3FD9E
330
1F
100
AcDbEntity
  8
APPLICATION
370
     9
100
AcDbLine
 10
3194307.971263341
 20
3873333.26778125
 30
0.0
 11
3194457.971263341
 21
3873333.267781251
 31
0.0
  0
LINE
  5
3FDA0
330
1F
100
AcDbEntity
  8
APPLICATION
370
     9
100
AcDbLine
 10
3194307.971263341
 20
3873388.267781251
 30
0.0
 11
3194307.971263341
 21
3873333.26778125
 31
0.0
  0
LINE
  5
3FDA1
330
1F
100
AcDbEntity
  8
APPLICATION
370
     9
100
AcDbLine
 10
3194457.971263341
 20
3873388.267781251
 30
0.0
 11
3194457.971263341
 21
3873333.26778125
 31
0.0
  0
LINE
  5
3FDA3
330
1F
100
AcDbEntity
  8
DETAIL
370
     9
100
AcDbLine
 10
3194372.971263343
 20
3873368.267781252
 30
0.0
 11
3194372.971263343
 21
3873348.267781251
 31
0.0
  0
CIRCLE
  5
3FDA4
330
1F
100
AcDbEntity
  8
DETAIL
370
     9
100
AcDbCircle
 10
3194382.971263341
 20
3873388.267781251
 30
0.0
 40
9.999999998603016
  0
LINE
  5
3FDA9
330
1F
100
AcDbEntity
  8
DETAIL
370
     9
100
AcDbLine
 10
3194392.971263344
 20
3873368.267781252
 30
0.0
 11
3194392.971263341
 21
3873348.267781251
 31
0.0
  0
LINE
  5
3FDAA
330
1F
100
AcDbEntity
  8
DETAIL
370
     9
100
AcDbLine
 10
3194372.971263343
 20
3873388.267781251
 30
0.0
 11
3194372.971263342
 21
3873348.267781251
 31
0.0
  0
LINE
  5
3FDAB
330
1F
100
AcDbEntity
  8
DETAIL
370
     9
100
AcDbLine
 10
3194392.97126334
 20
3873388.267781249
 30
0.0
 11
3194392.97126334
 21
3873348.267781251
 31
0.0
  0
LINE
  5
3FDAC
330
1F
100
AcDbEntity
  8
DETAIL
370
     9
100
AcDbLine
 10
3194322.971263341
 20
3873348.267781251
 30
0.0
 11
3194372.971263342
 21
3873348.267781251
 31
0.0
  0
LINE
  5
3FDAD
330
1F
100
AcDbEntity
  8
DETAIL
370
     9
100
AcDbLine
 10
3194322.971263341
 20
3873348.267781251
 30
0.0
 11
3194322.971263341
 21
3873333.26778125
 31
0.0
  0
LINE
  5
3FDAE
330
1F
100
AcDbEntity
  8
DETAIL
370
     9
100
AcDbLine
 10
3194442.971263341
 20
3873348.267781251
 30
0.0
 11
3194442.971263341
 21
3873333.26778125
 31
0.0
  0
LINE
  5
3FDAF
330
1F
100
AcDbEntity
  8
DETAIL
370
     9
100
AcDbLine
 10
3194392.97126334
 20
3873348.267781251
 30
0.0
 11
3194442.971263341
 21
3873348.267781251
 31
0.0
  0
LINE
  5
3FDB6
330
1F
100
AcDbEntity
  8
DETAIL
370
     9
100
AcDbLine
 10
3194753.971263342
 20
3875425.755212202
 30
0.0
 11
3194753.971263342
 21
3873418.267781249
 31
0.0
  0
LINE
  5
3FDB7
330
1F
100
AcDbEntity
  8
DETAIL
370
     9
100
AcDbLine
 10
3194011.971263341
 20
3875425.755212202
 30
0.0
 11
3194011.971263341
 21
3873418.267781251
 31
0.0
  0
LINE
  5
3FDB9
330
1F
100
AcDbEntity
  8
DETAIL
370
     9
100
AcDbLine
 10
3194011.971263341
 20
3875425.755212202
 30
0.0
 11
3194081.971263341
 21
3875425.755212202
 31
0.0
  0
LINE
  5
3FDBC
330
1F
100
AcDbEntity
  8
DETAIL
370
     9
100
AcDbLine
 10
3194683.971263342
 20
3875425.755212202
 30
0.0
 11
3194753.971263342
 21
3875425.755212202
 31
0.0
  0
LINE
  5
3FDBE
330
1F
100
AcDbEntity
  8
DETAIL
370
     9
100
AcDbLine
 10
3194077.971263341
 20
3873403.267781251
 30
0.0
 11
3194081.971263341
 21
3873403.267781251
 31
0.0
  0
LINE
  5
3FDC0
330
1F
100
AcDbEntity
  8
DETAIL
370
     9
100
AcDbLine
 10
3194032.971263341
 20
3873418.267781251
 30
0.0
 11
3194081.971263341
 21
3873418.267781251
 31
0.0
  0
LINE
  5
3FDC1
330
1F
100
AcDbEntity
  8
DETAIL
370
     9
100
AcDbLine
 10
3194081.971263341
 20
3873418.267781251
 30
0.0
 11
3194011.971263341
 21
3873418.267781251
 31
0.0
  0
LINE
  5
3FDC4
330
1F
100
AcDbEntity
  8
DETAIL
370
     9
100
AcDbLine
 10
3194732.971263341
 20
3873418.26778125
 30
0.0
 11
3194683.971263341
 21
3873418.26778125
 31
0.0
  0
LINE
  5
3FDC5
330
1F
100
AcDbEntity
  8
DETAIL
370
     9
100
AcDbLine
 10
3194683.971263341
 20
3873418.26778125
 30
0.0
 11
3194753.971263342
 21
3873418.26778125
 31
0.0
  0
HATCH
  5
3FDD2
330
1F
100
AcDbEntity
  8
APPLICATION
370
     9
100
AcDbHatch
 10
0.0
 20
0.0
 30
0.0
210
0.0
220
0.0
230
1.0
  2
AR-CONC
 70
     0
 71
     0
 91
        1
 92
        7
 72
     0
 73
     1
 93
       10
 10
3194757.971263342
 20
3873388.267781251
 10
3194732.971263341
 20
3873388.267781251
 10
3194457.971263341
 20
3873388.267781251
 10
3194457.971263341
 20
3873333.267781251
 10
3194307.971263341
 20
3873333.26778125
 10
3194307.971263341
 20
3873388.267781251
 10
3194032.971263341
 20
3873388.267781251
 10
3194007.971263341
 20
3873388.267781251
 10
3194007.971263341
 20
3872888.267781251
 10
3194757.971263342
 20
3872888.267781251
 97
        0
 75
     0
 76
     1
 52
0.0
 41
1.0
 77
     0
 78
    13
 53
50.0
 43
0.0
 44
50.0
 45
182.184668996004
 46
-15.93908553890308
 79
     2
 49
19.05
 49
-209.55
 53
355.0
 43
0.0
 44
50.0
 45
-35.24282597566699
 46
191.05664288218
 79
     2
 49
15.24
 49
-167.64
 53
100.451
 43
15.182
 44
48.67175
 45
146.9425016659592
 46
175.1166878202919
 79
     2
 49
16.19
 49
-178.09
 53
46.18419999999999
 43
0.0
 44
100.8
 45
271.0790408921299
 46
-42.04232793272715
 79
     2
 49
28.575
 49
-314.325
 53
96.63559999999998
 43
22.5899
 44
97.29649999999999
 45
237.4042344662371
 46
247.4255558900491
 79
     2
 49
24.285
 49
-267.135
 53
351.184
 43
0.0
 44
100.8
 45
237.4046058139339
 46
247.4251178605977
 79
     2
 49
22.86
 49
-251.46
 53
21.0
 43
25.4
 44
88.1
 45
151.6148798353833
 46
-102.2655185167625
 79
     2
 49
19.05
 49
-209.55
 53
326.0
 43
25.4
 44
88.1
 45
61.80202834764706
 46
184.1879661223192
 79
     2
 49
15.24
 49
-167.64
 53
71.45140000000002
 43
38.0345
 44
79.5779
 45
213.4164907701245
 46
81.92285771605744
 79
     2
 49
16.19
 49
-178.09
 53
37.5
 43
0.0
 44
50.0
 45
3.088603250591816
 46
84.55503887315311
 79
     6
 49
0.0
 49
-165.608
 49
0.0
 49
-170.18
 49
0.0
 49
-168.275
 53
7.499999999999999
 43
0.0
 44
50.0
 45
66.81966251030575
 46
100.1805748181195
 79
     6
 49
0.0
 49
-97.02800000000001
 49
0.0
 49
-161.798
 49
0.0
 49
-64.135
 53
327.5
 43
-56.642
 44
50.0
 45
135.5905951668713
 46
-5.728743992673464
 79
     6
 49
0.0
 49
-63.5
 49
0.0
 49
-198.12
 49
0.0
 49
-262.89
 53
317.5
 43
-82.042
 44
50.0
 45
148.129181386018
 46
25.42649103333302
 79
     6
 49
0.0
 49
-82.55
 49
0.0
 49
-131.572
 49
0.0
 49
-186.69
 47
1.504873587895689
 98
        1
 10
3194445.741264547
 20
3873195.872376361
  0
HATCH
  5
3FDDC
330
1F
100
AcDbEntity
  8
APPLICATION
370
     9
100
AcDbHatch
 10
0.0
 20
0.0
 30
0.0
210
0.0
220
0.0
230
1.0
  2
AR-CONC
 70
     0
 71
     1
 91
        1
 92
        7
 72
     0
 73
     1
 93
        9
 10
3192513.796652987
 20
3873388.267781251
 10
3192296.082623239
 20
3873388.267781251
 10
3192105.504394378
 20
3872888.267781249
 10
3192366.674830355
 20
3872888.267781251
 10
3192999.794956989
 20
3872888.267781251
 10
3192999.794956989
 20
3873088.26778125
 10
3192999.794956989
 20
3873388.267781251
 10
3192699.794956989
 20
3873388.267781251
 10
3192649.794956988
 20
3873388.267781251
 97
        9
330
3FB32
330
3FA64
330
3FB4D
330
3FC64
330
3FCA8
330
3FC63
330
3FC16
330
3FC15
330
3FA63
 75
     0
 76
     1
 52
0.0
 41
1.0
 77
     0
 78
    13
 53
50.0
 43
0.0
 44
50.0
 45
182.184668996004
 46
-15.93908553890308
 79
     2
 49
19.05
 49
-209.55
 53
355.0
 43
0.0
 44
50.0
 45
-35.24282597566699
 46
191.05664288218
 79
     2
 49
15.24
 49
-167.64
 53
100.451
 43
15.182
 44
48.67175
 45
146.9425016659592
 46
175.1166878202919
 79
     2
 49
16.19
 49
-178.09
 53
46.18419999999999
 43
0.0
 44
100.8
 45
271.0790408921299
 46
-42.04232793272715
 79
     2
 49
28.575
 49
-314.325
 53
96.63559999999998
 43
22.5899
 44
97.29649999999999
 45
237.4042344662371
 46
247.4255558900491
 79
     2
 49
24.285
 49
-267.135
 53
351.184
 43
0.0
 44
100.8
 45
237.4046058139339
 46
247.4251178605977
 79
     2
 49
22.86
 49
-251.46
 53
21.0
 43
25.4
 44
88.1
 45
151.6148798353833
 46
-102.2655185167625
 79
     2
 49
19.05
 49
-209.55
 53
326.0
 43
25.4
 44
88.1
 45
61.80202834764706
 46
184.1879661223192
 79
     2
 49
15.24
 49
-167.64
 53
71.45140000000002
 43
38.0345
 44
79.5779
 45
213.4164907701245
 46
81.92285771605744
 79
     2
 49
16.19
 49
-178.09
 53
37.5
 43
0.0
 44
50.0
 45
3.088603250591816
 46
84.55503887315311
 79
     6
 49
0.0
 49
-165.608
 49
0.0
 49
-170.18
 49
0.0
 49
-168.275
 53
7.499999999999999
 43
0.0
 44
50.0
 45
66.81966251030575
 46
100.1805748181195
 79
     6
 49
0.0
 49
-97.02800000000001
 49
0.0
 49
-161.798
 49
0.0
 49
-64.135
 53
327.5
 43
-56.642
 44
50.0
 45
135.5905951668713
 46
-5.728743992673464
 79
     6
 49
0.0
 49
-63.5
 49
0.0
 49
-198.12
 49
0.0
 49
-262.89
 53
317.5
 43
-82.042
 44
50.0
 45
148.129181386018
 46
25.42649103333302
 79
     6
 49
0.0
 49
-82.55
 49
0.0
 49
-131.572
 49
0.0
 49
-186.69
 47
1.756627114919
 98
        1
 10
3192607.581170207
 20
3873204.077940074
  0
HATCH
  5
3FDF4
330
1F
100
AcDbEntity
  8
APPLICATION
370
     9
100
AcDbHatch
 10
0.0
 20
0.0
 30
0.0
210
0.0
220
0.0
230
1.0
  2
AR-CONC
 70
     0
 71
     0
 91
        1
 92
        7
 72
     1
 73
     1
 93
       22
 10
3187322.146352729
 20
3873388.267781251
 42
0.0
 10
3187244.446138982
 20
3873388.267781251
 42
0.0
 10
3184382.006326854
 20
3873388.267781251
 42
0.0
 10
3182545.329469022
 20
3873388.267781251
 42
0.0
 10
3182050.534647336
 20
3873388.267781251
 42
0.0
 10
3181550.534647336
 20
3873388.267781251
 42
0.0
 10
3181550.534647336
 20
3873338.26778125
 42
0.0
 10
3181550.534647336
 20
3872888.267781249
 42
0.0
 10
3182050.534647336
 20
3872888.267781249
 42
0.0
 10
3187322.146352729
 20
3872888.267781251
 42
0.0
 10
3190244.446138982
 20
3872888.267781251
 42
0.0
 10
3190377.136963653
 20
3872888.267781251
 42
0.0
 10
3191455.574234652
 20
3872888.267781251
 42
0.0
 10
3191533.190046015
 20
3872888.267781251
 42
0.0
 10
3191723.768274875
 20
3873388.267781251
 42
0.0
 10
3191587.983875018
 20
3873388.267781251
 42
0.0
 10
3190532.153853744
 20
3873388.267781251
 42
-0.002270202185053
 10
3190531.301874603
 20
3873388.267781251
 42
0.0
 10
3190377.136963653
 20
3873388.267781251
 42
0.0
 10
3190327.136963654
 20
3873388.267781251
 42
0.0
 10
3190292.436851771
 20
3873388.267781251
 42
0.0
 10
3189557.736739889
 20
3873388.267781251
 42
0.0
 97
        0
 75
     0
 76
     1
 52
0.0
 41
1.0
 77
     0
 78
    13
 53
50.0
 43
0.0
 44
50.0
 45
182.184668996004
 46
-15.93908553890308
 79
     2
 49
19.05
 49
-209.55
 53
355.0
 43
0.0
 44
50.0
 45
-35.24282597566699
 46
191.05664288218
 79
     2
 49
15.24
 49
-167.64
 53
100.451
 43
15.182
 44
48.67175
 45
146.9425016659592
 46
175.1166878202919
 79
     2
 49
16.19
 49
-178.09
 53
46.18419999999999
 43
0.0
 44
100.8
 45
271.0790408921299
 46
-42.04232793272715
 79
     2
 49
28.575
 49
-314.325
 53
96.63559999999998
 43
22.5899
 44
97.29649999999999
 45
237.4042344662371
 46
247.4255558900491
 79
     2
 49
24.285
 49
-267.135
 53
351.184
 43
0.0
 44
100.8
 45
237.4046058139339
 46
247.4251178605977
 79
     2
 49
22.86
 49
-251.46
 53
21.0
 43
25.4
 44
88.1
 45
151.6148798353833
 46
-102.2655185167625
 79
     2
 49
19.05
 49
-209.55
 53
326.0
 43
25.4
 44
88.1
 45
61.80202834764706
 46
184.1879661223192
 79
     2
 49
15.24
 49
-167.64
 53
71.45140000000002
 43
38.0345
 44
79.5779
 45
213.4164907701245
 46
81.92285771605744
 79
     2
 49
16.19
 49
-178.09
 53
37.5
 43
0.0
 44
50.0
 45
3.088603250591816
 46
84.55503887315311
 79
     6
 49
0.0
 49
-165.608
 49
0.0
 49
-170.18
 49
0.0
 49
-168.275
 53
7.499999999999999
 43
0.0
 44
50.0
 45
66.81966251030575
 46
100.1805748181195
 79
     6
 49
0.0
 49
-97.02800000000001
 49
0.0
 49
-161.798
 49
0.0
 49
-64.135
 53
327.5
 43
-56.642
 44
50.0
 45
135.5905951668713
 46
-5.728743992673464
 79
     6
 49
0.0
 49
-63.5
 49
0.0
 49
-198.12
 49
0.0
 49
-262.89
 53
317.5
 43
-82.042
 44
50.0
 45
148.129181386018
 46
25.42649103333302
 79
     6
 49
0.0
 49
-82.55
 49
0.0
 49
-131.572
 49
0.0
 49
-186.69
 47
9.568873979318579
 98
        1
 10
3187839.712098105
 20
3873175.686898644
  0
LINE
  5
3FDF8
330
1F
100
AcDbEntity
  8
DETAIL
370
     9
100
AcDbLine
 10
3183106.85514348
 20
3871147.573034892
 30
0.0
 11
3182025.874751867
 21
3871147.573034892
 31
0.0
  0
LINE
  5
3FDF9
330
1F
100
AcDbEntity
  8
DETAIL
370
     9
100
AcDbLine
 10
3183106.85514348
 20
3871127.573034891
 30
0.0
 11
3182025.874751867
 21
3871127.573034891
 31
0.0
  0
LINE
  5
3FDFA
330
1F
100
AcDbEntity
  8
DETAIL
370
     9
100
AcDbLine
 10
3182025.874751867
 20
3871147.573034892
 30
0.0
 11
3182025.874751867
 21
3871127.573034891
 31
0.0
  0
LINE
  5
3FDFC
330
1F
100
AcDbEntity
  8
DETAIL
370
     9
100
AcDbLine
 10
3191072.765007673
 20
3871147.526726833
 30
0.0
 11
3191455.828652117
 21
3871147.526726833
 31
0.0
  0
LINE
  5
3FDFD
330
1F
100
AcDbEntity
  8
DETAIL
370
     9
100
AcDbLine
 10
3191072.765007673
 20
3871127.526726833
 30
0.0
 11
3191448.205522962
 21
3871127.526726833
 31
0.0
  0
LINE
  5
3FDFF
330
1F
100
AcDbEntity
  8
DETAIL
370
     9
100
AcDbLine
 10
3192028.143000481
 20
3871147.526726833
 30
0.0
 11
3192654.158395827
 21
3871147.526726833
 31
0.0
  0
LINE
  5
3FE00
330
1F
100
AcDbEntity
  8
DETAIL
370
     9
100
AcDbLine
 10
3192020.519871328
 20
3871127.526726833
 30
0.0
 11
3192654.158395827
 21
3871127.526726833
 31
0.0
  0
LINE
  5
3FE01
330
1F
100
AcDbEntity
  8
DETAIL
370
     9
100
AcDbLine
 10
3192654.158395827
 20
3871147.526726833
 30
0.0
 11
3192654.158395827
 21
3871127.526726833
 31
0.0
  0
LINE
  5
3FE5E
330
1F
100
AcDbEntity
  8
TEXT
370
    18
100
AcDbLine
 10
3193708.428636203
 20
3872266.164869876
 30
0.0
 11
3193708.428636203
 21
3870911.702788695
 31
0.0
  0
MTEXT
  5
3FE5F
330
1F
100
AcDbEntity
  8
TEXT
370
    18
100
AcDbMText
 10
3193763.138615945
 20
3872232.794639028
 30
0.0
 40
75.0
 41
396.0387173708909
 46
0.0
 71
     1
 72
     5
  1
DIM A
  7
fastrack
 73
     1
 44
1.0
  0
MTEXT
  5
3FE60
330
1F
100
AcDbEntity
  8
TEXT
370
    18
100
AcDbMText
 10
3194203.726282664
 20
3872231.232500622
 30
0.0
 40
75.0
 41
396.0387
 46
0.0
 71
     1
 72
     5
  1
DIM B
  7
fastrack
 73
     1
 44
1.0
  0
MTEXT
  5
3FE61
330
1F
100
AcDbEntity
  8
TEXT
370
    18
100
AcDbMText
 10
3194662.921389045
 20
3872231.232500622
 30
0.0
 40
75.0
 41
396.0387
 46
0.0
 71
     1
 72
     5
  1
DIM C
  7
fastrack
 73
     1
 44
1.0
  0
LINE
  5
3FE62
330
1F
100
AcDbEntity
  8
TEXT
370
    18
100
AcDbLine
 10
3193708.428636203
 20
3872266.164869876
 30
0.0
 11
3194156.428636203
 21
3872266.164869876
 31
0.0
  0
LINE
  5
3FE63
330
1F
100
AcDbEntity
  8
TEXT
370
    18
100
AcDbLine
 10
3194156.428636203
 20
3872266.164869876
 30
0.0
 11
3194156.428636203
 21
3870911.702788695
 31
0.0
  0
LINE
  5
3FE64
330
1F
100
AcDbEntity
  8
TEXT
370
    18
100
AcDbLine
 10
3194604.428636203
 20
3872266.164869876
 30
0.0
 11
3194604.428636202
 21
3870911.702788695
 31
0.0
  0
LINE
  5
3FE65
330
1F
100
AcDbEntity
  8
TEXT
370
    18
100
AcDbLine
 10
3195052.428636203
 20
3872266.164869876
 30
0.0
 11
3195052.428636202
 21
3870911.702788695
 31
0.0
  0
LINE
  5
3FE66
330
1F
100
AcDbEntity
  8
TEXT
370
    18
100
AcDbLine
 10
3194156.428636203
 20
3872266.164869876
 30
0.0
 11
3195052.428636203
 21
3872266.164869876
 31
0.0
  0
LINE
  5
3FE67
330
1F
100
AcDbEntity
  8
TEXT
370
    18
100
AcDbLine
 10
3195052.428636203
 20
3872111.702788696
 30
0.0
 11
3193708.428636203
 21
3872111.702788695
 31
0.0
  0
LINE
  5
3FE68
330
1F
100
AcDbEntity
  8
TEXT
370
    18
100
AcDbLine
 10
3195052.428636203
 20
3871961.702788695
 30
0.0
 11
3193708.428636203
 21
3871961.702788695
 31
0.0
  0
LINE
  5
3FE69
330
1F
100
AcDbEntity
  8
TEXT
370
    18
100
AcDbLine
 10
3195052.428636203
 20
3871811.702788696
 30
0.0
 11
3193708.428636203
 21
3871811.702788696
 31
0.0
  0
LINE
  5
3FE6A
330
1F
100
AcDbEntity
  8
TEXT
370
    18
100
AcDbLine
 10
3195052.428636202
 20
3871661.702788697
 30
0.0
 11
3193708.428636203
 21
3871661.702788695
 31
0.0
  0
LINE
  5
3FE6B
330
1F
100
AcDbEntity
  8
TEXT
370
    18
100
AcDbLine
 10
3195052.428636202
 20
3871511.702788696
 30
0.0
 11
3193708.428636203
 21
3871511.702788695
 31
0.0
  0
LINE
  5
3FE6C
330
1F
100
AcDbEntity
  8
TEXT
370
    18
100
AcDbLine
 10
3195052.428636202
 20
3871361.702788695
 30
0.0
 11
3193708.428636203
 21
3871361.702788695
 31
0.0
  0
LINE
  5
3FE6D
330
1F
100
AcDbEntity
  8
TEXT
370
    18
100
AcDbLine
 10
3195052.428636202
 20
3871211.702788696
 30
0.0
 11
3193708.428636203
 21
3871211.702788696
 31
0.0
  0
LINE
  5
3FE6E
330
1F
100
AcDbEntity
  8
TEXT
370
    18
100
AcDbLine
 10
3195052.428636202
 20
3871061.702788696
 30
0.0
 11
3193708.428636203
 21
3871061.702788695
 31
0.0
  0
LINE
  5
3FE6F
330
1F
100
AcDbEntity
  8
TEXT
370
    18
100
AcDbLine
 10
3195052.428636202
 20
3870911.702788695
 30
0.0
 11
3193708.428636203
 21
3870911.702788695
 31
0.0
  0
MTEXT
  5
3FE70
330
1F
100
AcDbEntity
  8
TEXT
370
    18
100
AcDbMText
 10
3193803.725215444
 20
3872079.10362221
 30
0.0
 40
75.0
 41
396.0387
 46
0.0
 71
     1
 72
     5
  1
3000
  7
fastrack
 73
     1
 44
1.0
  0
LINE
  5
3FE71
330
1F
100
AcDbEntity
  8
TEXT
370
    18
100
AcDbLine
 10
3193708.428636203
 20
3872111.702788695
 30
0.0
 11
3193708.428636203
 21
3871961.702788695
 31
0.0
  0
MTEXT
  5
3FE72
330
1F
100
AcDbEntity
  8
TEXT
370
    18
100
AcDbMText
 10
3193803.72517995
 20
3871929.103655738
 30
0.0
 40
75.0
 41
396.0387
 46
0.0
 71
     1
 72
     5
  1
4000
  7
fastrack
 73
     1
 44
1.0
  0
LINE
  5
3FE73
330
1F
100
AcDbEntity
  8
TEXT
370
    18
100
AcDbLine
 10
3193708.42860071
 20
3871961.702822223
 30
0.0
 11
3193708.42860071
 21
3871811.702822224
 31
0.0
  0
MTEXT
  5
3FE74
330
1F
100
AcDbEntity
  8
TEXT
370
    18
100
AcDbMText
 10
3193803.72517995
 20
3871779.103655738
 30
0.0
 40
75.0
 41
396.0387
 46
0.0
 71
     1
 72
     5
  1
5000
  7
fastrack
 73
     1
 44
1.0
  0
LINE
  5
3FE75
330
1F
100
AcDbEntity
  8
TEXT
370
    18
100
AcDbLine
 10
3193708.42860071
 20
3871811.702822224
 30
0.0
 11
3193708.42860071
 21
3871661.702822223
 31
0.0
  0
MTEXT
  5
3FE76
330
1F
100
AcDbEntity
  8
TEXT
370
    18
100
AcDbMText
 10
3193803.725179949
 20
3871629.103655737
 30
0.0
 40
75.0
 41
396.0387
 46
0.0
 71
     1
 72
     5
  1
6000
  7
fastrack
 73
     1
 44
1.0
  0
LINE
  5
3FE77
330
1F
100
AcDbEntity
  8
TEXT
370
    18
100
AcDbLine
 10
3193708.428600709
 20
3871661.702822223
 30
0.0
 11
3193708.428600709
 21
3871511.702822223
 31
0.0
  0
MTEXT
  5
3FE78
330
1F
100
AcDbEntity
  8
TEXT
370
    18
100
AcDbMText
 10
3193803.72517995
 20
3871479.103655738
 30
0.0
 40
75.0
 41
396.0387
 46
0.0
 71
     1
 72
     5
  1
7000
  7
fastrack
 73
     1
 44
1.0
  0
LINE
  5
3FE79
330
1F
100
AcDbEntity
  8
TEXT
370
    18
100
AcDbLine
 10
3193708.42860071
 20
3871511.702822223
 30
0.0
 11
3193708.42860071
 21
3871361.702822223
 31
0.0
  0
MTEXT
  5
3FE7A
330
1F
100
AcDbEntity
  8
TEXT
370
    18
100
AcDbMText
 10
3193803.72517995
 20
3871329.103655737
 30
0.0
 40
75.0
 41
396.0387
 46
0.0
 71
     1
 72
     5
  1
8000
  7
fastrack
 73
     1
 44
1.0
  0
LINE
  5
3FE7B
330
1F
100
AcDbEntity
  8
TEXT
370
    18
100
AcDbLine
 10
3193708.42860071
 20
3871361.702822223
 30
0.0
 11
3193708.42860071
 21
3871211.702822224
 31
0.0
  0
MTEXT
  5
3FE7C
330
1F
100
AcDbEntity
  8
TEXT
370
    18
100
AcDbMText
 10
3193803.725179949
 20
3871179.103655738
 30
0.0
 40
75.0
 41
396.0387
 46
0.0
 71
     1
 72
     5
  1
9000
  7
fastrack
 73
     1
 44
1.0
  0
LINE
  5
3FE7D
330
1F
100
AcDbEntity
  8
TEXT
370
    18
100
AcDbLine
 10
3193708.428600709
 20
3871211.702822224
 30
0.0
 11
3193708.428600709
 21
3871061.702822224
 31
0.0
  0
MTEXT
  5
3FE7E
330
1F
100
AcDbEntity
  8
TEXT
370
    18
100
AcDbMText
 10
3193803.72517995
 20
3871029.103655737
 30
0.0
 40
75.0
 41
396.0387
 46
0.0
 71
     1
 72
     5
  1
10000
  7
fastrack
 73
     1
 44
1.0
  0
LINE
  5
3FE7F
330
1F
100
AcDbEntity
  8
TEXT
370
    18
100
AcDbLine
 10
3193708.42860071
 20
3871061.702822224
 30
0.0
 11
3193708.42860071
 21
3870911.702822223
 31
0.0
  0
MTEXT
  5
3FE80
330
1F
100
AcDbEntity
  8
TEXT
370
    18
100
AcDbMText
 10
3194251.72517995
 20
3872079.103655737
 30
0.0
 40
75.0
 41
396.0387
 46
0.0
 71
     1
 72
     5
  1
3100
  7
fastrack
 73
     1
 44
1.0
  0
LINE
  5
3FE81
330
1F
100
AcDbEntity
  8
TEXT
370
    18
100
AcDbLine
 10
3194156.42860071
 20
3872111.702822223
 30
0.0
 11
3194156.42860071
 21
3871961.702822223
 31
0.0
  0
MTEXT
  5
3FE82
330
1F
100
AcDbEntity
  8
TEXT
370
    18
100
AcDbMText
 10
3194251.72517995
 20
3871929.103655738
 30
0.0
 40
75.0
 41
396.0387
 46
0.0
 71
     1
 72
     5
  1
4100
  7
fastrack
 73
     1
 44
1.0
  0
LINE
  5
3FE83
330
1F
100
AcDbEntity
  8
TEXT
370
    18
100
AcDbLine
 10
3194156.42860071
 20
3871961.702822223
 30
0.0
 11
3194156.42860071
 21
3871811.702822224
 31
0.0
  0
MTEXT
  5
3FE84
330
1F
100
AcDbEntity
  8
TEXT
370
    18
100
AcDbMText
 10
3194251.72517995
 20
3871779.103655738
 30
0.0
 40
75.0
 41
396.0387
 46
0.0
 71
     1
 72
     5
  1
5120
  7
fastrack
 73
     1
 44
1.0
  0
LINE
  5
3FE85
330
1F
100
AcDbEntity
  8
TEXT
370
    18
100
AcDbLine
 10
3194156.42860071
 20
3871811.702822224
 30
0.0
 11
3194156.42860071
 21
3871661.702822223
 31
0.0
  0
MTEXT
  5
3FE86
330
1F
100
AcDbEntity
  8
TEXT
370
    18
100
AcDbMText
 10
3194251.72517995
 20
3871629.103655737
 30
0.0
 40
75.0
 41
396.0387
 46
0.0
 71
     1
 72
     5
  1
6120
  7
fastrack
 73
     1
 44
1.0
  0
LINE
  5
3FE87
330
1F
100
AcDbEntity
  8
TEXT
370
    18
100
AcDbLine
 10
3194156.42860071
 20
3871661.702822223
 30
0.0
 11
3194156.42860071
 21
3871511.702822223
 31
0.0
  0
MTEXT
  5
3FE88
330
1F
100
AcDbEntity
  8
TEXT
370
    18
100
AcDbMText
 10
3194251.72517995
 20
3871479.103655738
 30
0.0
 40
75.0
 41
396.0387
 46
0.0
 71
     1
 72
     5
  1
7150
  7
fastrack
 73
     1
 44
1.0
  0
LINE
  5
3FE89
330
1F
100
AcDbEntity
  8
TEXT
370
    18
100
AcDbLine
 10
3194156.42860071
 20
3871511.702822223
 30
0.0
 11
3194156.42860071
 21
3871361.702822223
 31
0.0
  0
MTEXT
  5
3FE8A
330
1F
100
AcDbEntity
  8
TEXT
370
    18
100
AcDbMText
 10
3194251.72517995
 20
3871329.103655737
 30
0.0
 40
75.0
 41
396.0387
 46
0.0
 71
     1
 72
     5
  1
8150
  7
fastrack
 73
     1
 44
1.0
  0
LINE
  5
3FE8B
330
1F
100
AcDbEntity
  8
TEXT
370
    18
100
AcDbLine
 10
3194156.42860071
 20
3871361.702822223
 30
0.0
 11
3194156.42860071
 21
3871211.702822224
 31
0.0
  0
MTEXT
  5
3FE8C
330
1F
100
AcDbEntity
  8
TEXT
370
    18
100
AcDbMText
 10
3194251.72517995
 20
3871179.103655738
 30
0.0
 40
75.0
 41
396.0387
 46
0.0
 71
     1
 72
     5
  1
9150
  7
fastrack
 73
     1
 44
1.0
  0
LINE
  5
3FE8D
330
1F
100
AcDbEntity
  8
TEXT
370
    18
100
AcDbLine
 10
3194156.42860071
 20
3871211.702822224
 30
0.0
 11
3194156.42860071
 21
3871061.702822224
 31
0.0
  0
MTEXT
  5
3FE8E
330
1F
100
AcDbEntity
  8
TEXT
370
    18
100
AcDbMText
 10
3194251.72517995
 20
3871029.103655737
 30
0.0
 40
75.0
 41
396.0387
 46
0.0
 71
     1
 72
     5
  1
10200
  7
fastrack
 73
     1
 44
1.0
  0
LINE
  5
3FE8F
330
1F
100
AcDbEntity
  8
TEXT
370
    18
100
AcDbLine
 10
3194156.42860071
 20
3871061.702822224
 30
0.0
 11
3194156.42860071
 21
3870911.702822223
 31
0.0
  0
MTEXT
  5
3FE90
330
1F
100
AcDbEntity
  8
TEXT
370
    18
100
AcDbMText
 10
3194699.72517995
 20
3872079.103655737
 30
0.0
 40
75.0
 41
396.0387
 46
0.0
 71
     1
 72
     5
  1
7850
  7
fastrack
 73
     1
 44
1.0
  0
LINE
  5
3FE91
330
1F
100
AcDbEntity
  8
TEXT
370
    18
100
AcDbLine
 10
3194604.42860071
 20
3872111.702822223
 30
0.0
 11
3194604.42860071
 21
3871961.702822223
 31
0.0
  0
MTEXT
  5
3FE92
330
1F
100
AcDbEntity
  8
TEXT
370
    18
100
AcDbMText
 10
3194699.72517995
 20
3871929.103655738
 30
0.0
 40
75.0
 41
396.0387
 46
0.0
 71
     1
 72
     5
  1
10100
  7
fastrack
 73
     1
 44
1.0
  0
LINE
  5
3FE93
330
1F
100
AcDbEntity
  8
TEXT
370
    18
100
AcDbLine
 10
3194604.42860071
 20
3871961.702822223
 30
0.0
 11
3194604.42860071
 21
3871811.702822224
 31
0.0
  0
LINE
  5
3FE94
330
1F
100
AcDbEntity
  8
TEXT
370
    18
100
AcDbLine
 10
3195052.42860071
 20
3872111.702822223
 30
0.0
 11
3195052.42860071
 21
3871961.702822223
 31
0.0
  0
LINE
  5
3FE95
330
1F
100
AcDbEntity
  8
TEXT
370
    18
100
AcDbLine
 10
3195052.42860071
 20
3871961.702822223
 30
0.0
 11
3195052.42860071
 21
3871811.702822224
 31
0.0
  0
MTEXT
  5
3FE96
330
1F
100
AcDbEntity
  8
TEXT
370
    18
100
AcDbMText
 10
3194699.72517995
 20
3871779.103655738
 30
0.0
 40
75.0
 41
396.0387
 46
0.0
 71
     1
 72
     5
  1
12140
  7
fastrack
 73
     1
 44
1.0
  0
LINE
  5
3FE97
330
1F
100
AcDbEntity
  8
TEXT
370
    18
100
AcDbLine
 10
3194604.42860071
 20
3871811.702822224
 30
0.0
 11
3194604.42860071
 21
3871661.702822223
 31
0.0
  0
LINE
  5
3FE98
330
1F
100
AcDbEntity
  8
TEXT
370
    18
100
AcDbLine
 10
3195052.42860071
 20
3871811.702822224
 30
0.0
 11
3195052.42860071
 21
3871661.702822223
 31
0.0
  0
MTEXT
  5
3FE99
330
1F
100
AcDbEntity
  8
TEXT
370
    18
100
AcDbMText
 10
3194699.72517995
 20
3871629.103655737
 30
0.0
 40
75.0
 41
396.0387
 46
0.0
 71
     1
 72
     5
  1
14290
  7
fastrack
 73
     1
 44
1.0
  0
LINE
  5
3FE9A
330
1F
100
AcDbEntity
  8
TEXT
370
    18
100
AcDbLine
 10
3194604.428600709
 20
3871661.702822223
 30
0.0
 11
3194604.428600709
 21
3871511.702822223
 31
0.0
  0
MTEXT
  5
3FE9B
330
1F
100
AcDbEntity
  8
TEXT
370
    18
100
AcDbMText
 10
3194699.72517995
 20
3871479.103655738
 30
0.0
 40
75.0
 41
396.0387
 46
0.0
 71
     1
 72
     5
  1
16350
  7
fastrack
 73
     1
 44
1.0
  0
LINE
  5
3FE9C
330
1F
100
AcDbEntity
  8
TEXT
370
    18
100
AcDbLine
 10
3194604.42860071
 20
3871511.702822223
 30
0.0
 11
3194604.42860071
 21
3871361.702822223
 31
0.0
  0
LINE
  5
3FE9D
330
1F
100
AcDbEntity
  8
TEXT
370
    18
100
AcDbLine
 10
3195052.428600709
 20
3871661.702822223
 30
0.0
 11
3195052.428600709
 21
3871511.702822223
 31
0.0
  0
LINE
  5
3FE9E
330
1F
100
AcDbEntity
  8
TEXT
370
    18
100
AcDbLine
 10
3195052.428600709
 20
3871511.702822223
 30
0.0
 11
3195052.428600709
 21
3871361.702822223
 31
0.0
  0
MTEXT
  5
3FE9F
330
1F
100
AcDbEntity
  8
TEXT
370
    18
100
AcDbMText
 10
3194699.72517995
 20
3871329.103655737
 30
0.0
 40
75.0
 41
396.0387
 46
0.0
 71
     1
 72
     5
  1
18750
  7
fastrack
 73
     1
 44
1.0
  0
LINE
  5
3FEA0
330
1F
100
AcDbEntity
  8
TEXT
370
    18
100
AcDbLine
 10
3194604.42860071
 20
3871361.702822223
 30
0.0
 11
3194604.42860071
 21
3871211.702822224
 31
0.0
  0
MTEXT
  5
3FEA1
330
1F
100
AcDbEntity
  8
TEXT
370
    18
100
AcDbMText
 10
3194669.410007039
 20
3871179.103655738
 30
0.0
 40
75.0
 41
396.0387
 46
0.0
 71
     1
 72
     5
  1
20750
  7
fastrack
 73
     1
 44
1.0
  0
LINE
  5
3FEA2
330
1F
100
AcDbEntity
  8
TEXT
370
    18
100
AcDbLine
 10
3194604.42860071
 20
3871211.702822224
 30
0.0
 11
3194604.42860071
 21
3871061.702822224
 31
0.0
  0
MTEXT
  5
3FEA3
330
1F
100
AcDbEntity
  8
TEXT
370
    18
100
AcDbMText
 10
3194664.357583589
 20
3871029.103655737
 30
0.0
 40
75.0
 41
396.0387
 46
0.0
 71
     1
 72
     5
  1
22850
  7
fastrack
 73
     1
 44
1.0
  0
LINE
  5
3FEA4
330
1F
100
AcDbEntity
  8
TEXT
370
    18
100
AcDbLine
 10
3194604.42860071
 20
3871061.702822224
 30
0.0
 11
3194604.42860071
 21
3870911.702822223
 31
0.0
  0
LINE
  5
3FEA5
330
1F
100
AcDbEntity
  8
TEXT
370
    18
100
AcDbLine
 10
3195052.428600709
 20
3871361.702822223
 30
0.0
 11
3195052.428600709
 21
3871211.702822224
 31
0.0
  0
LINE
  5
3FEA6
330
1F
100
AcDbEntity
  8
TEXT
370
    18
100
AcDbLine
 10
3195052.428600709
 20
3871211.702822224
 30
0.0
 11
3195052.428600709
 21
3871061.702822224
 31
0.0
  0
LINE
  5
3FEA7
330
1F
100
AcDbEntity
  8
TEXT
370
    18
100
AcDbLine
 10
3195052.428600709
 20
3871061.702822224
 30
0.0
 11
3195052.428600709
 21
3870911.702822223
 31
0.0
  0
LINE
  5
3FEB4
330
1F
100
AcDbEntity
  8
APPLICATION
370
     9
100
AcDbLine
 10
3192699.794956989
 20
3873388.267781251
 30
0.0
 11
3192622.000122935
 21
3873388.267781251
 31
0.0
  0
DIMENSION
  5
3FEB7
102
{ACAD_XDICTIONARY
360
3FEC4
102
}
102
{ACAD_REACTORS
330
3FECE
102
}
330
1F
100
AcDbEntity
  8
DIM
370
    25
100
AcDbDimension
280
     0
  2
*D2
 10
3187745.496352729
 20
3876283.136247729
 30
0.0
 11
3184815.015500033
 21
3876353.136247729
 31
0.0
 70
    32
  1
DIMENSION A
 71
     5
 42
5860.961705393624
 73
     0
 74
     0
 75
     0
  3
ISO-25
100
AcDbAlignedDimension
 13
3181884.534647336
 23
3875738.26778125
 33
0.0
 14
3187745.496352729
 24
3875420.961272962
 34
0.0
100
AcDbRotatedDimension
1001
ACAD
1000
DSTYLE
1002
{
1070
   340
1005
40AB6
1070
    41
1040
80.0
1070
    42
1040
30.0
1070
    44
1040
30.0
1070
   140
1040
80.0
1070
   147
1040
30.0
1070
   173
1070
     1
1070
   178
1070
   256
1070
   342
1005
0
1002
}
  0
DIMENSION
  5
3FEE1
102
{ACAD_XDICTIONARY
360
3FEEE
102
}
102
{ACAD_REACTORS
330
3FEF8
102
}
330
1F
100
AcDbEntity
  8
DIM
370
    25
100
AcDbDimension
280
     0
  2
*D3
 10
3187844.64635273
 20
3871755.026076209
 30
0.0
 11
3184822.590500033
 21
3871825.026076209
 31
0.0
 70
    32
  1
DIMENSION B
 71
     5
 42
6044.111705393532
 73
     0
 74
     0
 75
     0
  3
ISO-25
100
AcDbAlignedDimension
 13
3181800.534647337
 23
3871354.526726829
 33
0.0
 14
3187844.64635273
 24
3871354.526726828
 34
0.0
100
AcDbRotatedDimension
1001
ACAD
1000
DSTYLE
1002
{
1070
   340
1005
40AB6
1070
    41
1040
80.0
1070
    42
1040
30.0
1070
    44
1040
30.0
1070
   140
1040
80.0
1070
   147
1040
30.0
1070
   173
1070
     1
1070
   178
1070
   256
1070
   342
1005
0
1002
}
  0
DIMENSION
  5
3FF1D
102
{ACAD_XDICTIONARY
360
3FF2A
102
}
102
{ACAD_REACTORS
330
3FF34
102
}
330
1F
100
AcDbEntity
  8
DIM
370
    25
100
AcDbDimension
280
     0
  2
*D4
 10
3192999.794956989
 20
3872097.468535187
 30
0.0
 11
3187275.164802163
 21
3872167.468535187
 31
0.0
 70
    32
  1
DIMENSION C
 71
     5
 42
11449.26030965335
 73
     0
 74
     0
 75
     0
  3
ISO-25
100
AcDbAlignedDimension
 13
3181550.534647336
 23
3871512.52672683
 33
0.0
 14
3192999.794956989
 24
3871512.52672683
 34
0.0
100
AcDbRotatedDimension
1001
ACAD
1000
DSTYLE
1002
{
1070
   340
1005
40AB6
1070
    41
1040
80.0
1070
    42
1040
30.0
1070
    44
1040
30.0
1070
   140
1040
80.0
1070
   147
1040
30.0
1070
   173
1070
     1
1070
   178
1070
   256
1070
   342
1005
0
1002
}
  0
LINE
  5
3FF59
330
1F
100
AcDbEntity
  8
DETAIL
370
     9
100
AcDbLine
 10
3188019.300388197
 20
3875375.755212202
 30
0.0
 11
3188004.300388196
 21
3875375.755212202
 31
0.0
  0
LINE
  5
3FF5A
330
1F
100
AcDbEntity
  8
DETAIL
370
     9
100
AcDbLine
 10
3187959.300388196
 20
3875075.755212201
 30
0.0
 11
3187944.300388196
 21
3875075.755212201
 31
0.0
  0
LINE
  5
3FF5B
330
1F
100
AcDbEntity
  8
DETAIL
370
     9
100
AcDbLine
 10
3187989.300388197
 20
3875075.755212201
 30
0.0
 11
3187974.300388197
 21
3875075.755212201
 31
0.0
  0
LINE
  5
3FF5C
330
1F
100
AcDbEntity
  8
DETAIL
370
     9
100
AcDbLine
 10
3188019.300388196
 20
3875075.755212201
 30
0.0
 11
3188004.300388197
 21
3875075.755212201
 31
0.0
  0
LINE
  5
3FF5E
330
1F
100
AcDbEntity
  8
DETAIL
370
     9
100
AcDbLine
 10
3187959.300388197
 20
3875375.755212202
 30
0.0
 11
3187944.300388196
 21
3875375.755212202
 31
0.0
  0
LINE
  5
3FF5F
330
1F
100
AcDbEntity
  8
DETAIL
370
     9
100
AcDbLine
 10
3187989.300388196
 20
3875375.755212202
 30
0.0
 11
3187974.300388197
 21
3875375.755212201
 31
0.0
  0
LINE
  5
3FF61
330
1F
100
AcDbEntity
  8
DETAIL
370
     9
100
AcDbLine
 10
3192622.000122935
 20
3873388.267781251
 30
0.0
 11
3192622.000122935
 21
3873408.267781251
 31
0.0
  0
LINE
  5
3FF62
330
1F
100
AcDbEntity
  8
DETAIL
370
     9
100
AcDbLine
 10
3192622.000122935
 20
3873408.267781251
 30
0.0
 11
3192303.705752394
 21
3873408.267781251
 31
0.0
  0
LINE
  5
3FF63
330
1F
100
AcDbEntity
  8
DETAIL
370
     9
100
AcDbLine
 10
3182036.444058685
 20
3873388.267781251
 30
0.0
 11
3182036.444058685
 21
3873408.267781251
 31
0.0
  0
LINE
  5
3FF65
330
1F
100
AcDbEntity
  8
DETAIL
370
     9
100
AcDbLine
 10
3182036.444058685
 20
3873408.267781251
 30
0.0
 11
3191731.391404029
 21
3873408.267781251
 31
0.0
  0
LINE
  5
3FF6A
330
1F
100
AcDbEntity
  8
DETAIL
370
     9
100
AcDbLine
 10
3191072.765007673
 20
3873408.267781251
 30
0.0
 11
3191205.391295467
 21
3873408.267781251
 31
0.0
  0
LINE
  5
3FF89
330
1F
100
AcDbEntity
  8
DETAIL
370
     9
100
AcDbLine
 10
3188664.996352729
 20
3873441.489756646
 30
0.0
 11
3188664.996352729
 21
3873403.26778125
 31
0.0
  0
LINE
  5
3FF97
330
1F
100
AcDbEntity
  8
DETAIL
370
     9
100
AcDbLine
 10
3194032.971263341
 20
3873388.267781251
 30
0.0
 11
3194007.971263341
 21
3873388.267781251
 31
0.0
  0
LINE
  5
3FF98
330
1F
100
AcDbEntity
  8
APPLICATION
370
     9
100
AcDbLine
 10
3194007.971263341
 20
3873388.267781251
 30
0.0
 11
3194757.971263342
 21
3873388.267781251
 31
0.0
  0
LINE
  5
3FF9F
330
1F
100
AcDbEntity
  8
DETAIL
370
     9
100
AcDbLine
 10
3194683.971263342
 20
3873413.267781252
 30
0.0
 11
3194683.971263342
 21
3873403.267781251
 31
0.0
  0
LINE
  5
3FFA1
330
1F
100
AcDbEntity
  8
DETAIL
370
     9
100
AcDbLine
 10
3194081.971263341
 20
3873403.267781251
 30
0.0
 11
3194249.971263341
 21
3873403.267781251
 31
0.0
  0
LINE
  5
3FFA5
330
1F
100
AcDbEntity
  8
DETAIL
370
     9
100
AcDbLine
 10
3188421.692317263
 20
3875369.40547122
 30
0.0
 11
3188421.692317263
 21
3875075.755212201
 31
0.0
  0
LINE
  5
3FFA6
330
1F
100
AcDbEntity
  8
DETAIL
370
     9
100
AcDbLine
 10
3188421.692317263
 20
3875375.755212202
 30
0.0
 11
3188421.692317262
 21
3875075.755212201
 31
0.0
  0
LINE
  5
3FFA7
330
1F
100
AcDbEntity
  8
DETAIL
370
     9
100
AcDbLine
 10
3188436.692317263
 20
3875375.755212202
 30
0.0
 11
3188436.692317263
 21
3875075.755212201
 31
0.0
  0
LINE
  5
3FFA8
330
1F
100
AcDbEntity
  8
DETAIL
370
     9
100
AcDbLine
 10
3188451.692317262
 20
3875375.755212202
 30
0.0
 11
3188451.692317262
 21
3875075.755212201
 31
0.0
  0
LINE
  5
3FFA9
330
1F
100
AcDbEntity
  8
DETAIL
370
     9
100
AcDbLine
 10
3188466.692317261
 20
3875375.755212201
 30
0.0
 11
3188466.692317263
 21
3875075.755212201
 31
0.0
  0
LINE
  5
3FFAA
330
1F
100
AcDbEntity
  8
DETAIL
370
     9
100
AcDbLine
 10
3188481.692317262
 20
3875375.755212202
 30
0.0
 11
3188481.692317263
 21
3875075.755212201
 31
0.0
  0
LINE
  5
3FFAB
330
1F
100
AcDbEntity
  8
DETAIL
370
     9
100
AcDbLine
 10
3188496.692317262
 20
3875375.755212202
 30
0.0
 11
3188496.692317264
 21
3875075.755212201
 31
0.0
  0
LINE
  5
3FFAC
330
1F
100
AcDbEntity
  8
DETAIL
370
     9
100
AcDbLine
 10
3188421.692317263
 20
3875375.755212202
 30
0.0
 11
3188436.692317263
 21
3875375.755212202
 31
0.0
  0
LINE
  5
3FFAD
330
1F
100
AcDbEntity
  8
DETAIL
370
     9
100
AcDbLine
 10
3188481.692317263
 20
3875075.755212201
 30
0.0
 11
3188496.692317264
 21
3875075.755212201
 31
0.0
  0
LINE
  5
3FFAE
330
1F
100
AcDbEntity
  8
DETAIL
370
     9
100
AcDbLine
 10
3188451.692317262
 20
3875075.755212201
 30
0.0
 11
3188466.692317262
 21
3875075.755212201
 31
0.0
  0
LINE
  5
3FFAF
330
1F
100
AcDbEntity
  8
DETAIL
370
     9
100
AcDbLine
 10
3188421.692317263
 20
3875075.755212201
 30
0.0
 11
3188436.692317263
 21
3875075.755212201
 31
0.0
  0
LINE
  5
3FFB0
330
1F
100
AcDbEntity
  8
DETAIL
370
     9
100
AcDbLine
 10
3188481.692317262
 20
3875375.755212202
 30
0.0
 11
3188496.692317264
 21
3875375.755212202
 31
0.0
  0
LINE
  5
3FFB1
330
1F
100
AcDbEntity
  8
DETAIL
370
     9
100
AcDbLine
 10
3188451.692317264
 20
3875375.755212202
 30
0.0
 11
3188466.692317261
 21
3875375.755212201
 31
0.0
  0
LINE
  5
3FFCE
330
1F
100
AcDbEntity
  8
DETAIL
370
     9
100
AcDbLine
 10
3194420.471263343
 20
3873438.267781251
 30
0.0
 11
3194420.471263343
 21
3873513.26778125
 31
0.0
  0
LINE
  5
3FFD5
330
1F
100
AcDbEntity
  8
DETAIL
370
     9
100
AcDbLine
 10
3194345.471263341
 20
3873438.267781251
 30
0.0
 11
3194420.471263341
 21
3873438.267781251
 31
0.0
  0
LINE
  5
3FFD7
330
1F
100
AcDbEntity
  8
DETAIL
370
     9
100
AcDbLine
 10
3194345.471263342
 20
3873438.267781251
 30
0.0
 11
3194345.471263342
 21
3873588.267781252
 31
0.0
  0
LINE
  5
3FFD8
330
1F
100
AcDbEntity
  8
DETAIL
370
     9
100
AcDbLine
 10
3194345.471263342
 20
3873588.267781252
 30
0.0
 11
3194420.471263342
 21
3873588.267781252
 31
0.0
  0
LINE
  5
3FFD9
330
1F
100
AcDbEntity
  8
DETAIL
370
     9
100
AcDbLine
 10
3194420.471263342
 20
3873588.267781252
 30
0.0
 11
3194420.471263343
 21
3873513.26778125
 31
0.0
  0
LINE
  5
3FFE0
330
1F
100
AcDbEntity
  8
DETAIL
370
     9
100
AcDbLine
 10
3194345.471263342
 20
3873588.267781252
 30
0.0
 11
3194345.471263342
 21
3873599.267781252
 31
0.0
  0
LINE
  5
3FFE1
330
1F
100
AcDbEntity
  8
DETAIL
370
     9
100
AcDbLine
 10
3194420.471263342
 20
3873588.267781252
 30
0.0
 11
3194420.471263341
 21
3873599.267781252
 31
0.0
  0
LINE
  5
3FFE9
330
1F
100
AcDbEntity
  8
DETAIL
370
     9
100
AcDbLine
 10
3194360.471263343
 20
3873438.267781251
 30
0.0
 11
3194360.471263343
 21
3873588.267781252
 31
0.0
  0
LINE
  5
3FFEA
330
1F
100
AcDbEntity
  8
DETAIL
370
     9
100
AcDbLine
 10
3194405.471263343
 20
3873438.267781251
 30
0.0
 11
3194405.471263343
 21
3873513.26778125
 31
0.0
  0
LINE
  5
3FFEB
330
1F
100
AcDbEntity
  8
DETAIL
370
     9
100
AcDbLine
 10
3194405.471263342
 20
3873588.267781252
 30
0.0
 11
3194405.471263343
 21
3873513.26778125
 31
0.0
  0
MTEXT
  5
40A85
330
1F
100
AcDbEntity
  8
TEXT
370
     9
100
AcDbMText
 10
3183331.088735948
 20
3873848.208982021
 30
0.0
 40
200.0
 41
3128.049000000002
 46
0.0
 71
     1
 72
     5
  1
{\fArial|b0|i0|c0|p34;ADD LOGO}
  7
fastrack
 11
0.0000000000000001
 21
1.0
 31
0.0
 73
     1
 44
1.0
  0
MTEXT
  5
40ABE
102
{ACAD_XDICTIONARY
360
40B6C
102
}
330
1F
100
AcDbEntity
  8
TEXT
100
AcDbMText
 10
3187771.705078578
 20
3869316.663409223
 30
0.0
 40
100.0
 41
3177.87997086287
 46
0.0
 71
     2
 72
     5
  1
PROCTER SLIDING GATES\PPRO-GLIDE SERIES 20\PBALUSTRADE TRACKED GATE 
  7
fastrack
 73
     1
 44
1.0
  0
VIEWPORT
  5
348E6
330
348E5
100
AcDbEntity
 67
     1
  8
0
370
     9
348
34998
100
AcDbViewport
 10
208.0069433985293
 20
149.833625332077
 30
0.0
 40
693.0750003169032
 41
302.2948281736571
 68
     2
 69
     1
 12
208.0069433985293
 22
149.833625332077
 13
0.0
 23
0.0
 14
10.0
 24
10.0
 15
10.0
 25
10.0
 16
0.0
 26
0.0
 36
1.0
 17
0.0
 27
0.0
 37
0.0
 42
50.0
 43
0.0
 44
0.0
 45
302.2948281736571
 50
0.0
 51
0.0
 72
   100
 90
    32800
  1

281
     0
 71
     1
 74
     0
110
0.0
120
0.0
130
0.0
111
1.0
121
0.0
131
0.0
112
0.0
122
1.0
132
0.0
 79
     0
146
0.0
170
     0
 61
     5
348
34998
292
     1
282
     1
141
0.0
142
0.0
 63
   250
421
  3355443
  0
VIEWPORT
  5
40BA6
102
{ACAD_XDICTIONARY
360
40BA7
102
}
330
348E5
100
AcDbEntity
 67
     1
  8
0
370
     9
100
AcDbViewport
 10
205.8410844723553
 20
153.4409623257341
 30
0.0
 40
411.1523052799289
 41
280.2900737440608
 68
     1
 69
     2
 12
3188324.574841996
 22
3872666.756418253
 13
0.0
 23
0.0
 14
10.0
 24
10.0
 15
10.0
 25
10.0
 16
0.0
 26
0.0
 36
1.0
 17
0.0
 27
0.0
 37
0.0
 42
50.0
 43
0.0
 44
0.0
 45
9355.0071165877
 50
0.0
 51
0.0
 72
   100
 90
   819296
  1

281
     0
 71
     1
 74
     0
110
0.0
120
0.0
130
0.0
111
1.0
121
0.0
131
0.0
112
0.0
122
1.0
132
0.0
 79
     0
146
0.0
170
     0
 61
     5
348
34998
292
     1
282
     1
141
0.0
142
0.0
 63
   250
421
  3355443
  0
ENDSEC
  0
SECTION
  2
OBJECTS
  0
DICTIONARY
  5
C
330
0
100
AcDbDictionary
281
     1
  3
ACAD_BACKGROUND
350
40A9A
  3
ACAD_CIP_PREVIOUS_PRODUCT_INFO
350
40B8F
  3
ACAD_COLOR
350
349A3
  3
ACAD_DETAILVIEWSTYLE
350
40B8A
  3
ACAD_GROUP
350
D
  3
ACAD_LAYOUT
350
1A
  3
ACAD_MATERIAL
350
34979
  3
ACAD_MLEADERSTYLE
350
349C8
  3
ACAD_MLINESTYLE
350
17
  3
ACAD_PLOTSETTINGS
350
19
  3
ACAD_PLOTSTYLENAME
350
E
  3
ACAD_SCALELIST
350
349A6
  3
ACAD_SECTIONVIEWSTYLE
350
40B88
  3
ACAD_TABLESTYLE
350
349A4
  3
ACAD_VISUALSTYLE
350
34992
  3
AcadDim
350
3AFA4
  3
ACDB_RECOMPOSE_DATA
350
40BAB
  3
AcDbVariableDictionary
350
D1
  3
AcDsDecomposeData
350
40BB1
  3
AEC_PROPERTY_SET_DEFS
350
35414
  0
DICTIONARY
  5
34A75
330
8
100
AcDbDictionary
280
     1
281
     1
  0
DICTIONARY
  5
393
330
2
100
AcDbDictionary
280
     1
281
     1
  3
ACAD_LAYERFILTERS
360
40B34
  3
ACAD_LAYERSTATES
360
2D9CB
  3
ACLYDICTIONARY
360
40B33
  0
DICTIONARY
  5
349FE
330
10
100
AcDbDictionary
280
     1
281
     1
  3
ADSK_XREC_LAYER_RECONCILED
360
349FF
  0
DICTIONARY
  5
397
330
396
100
AcDbDictionary
280
     1
281
     1
  3
ADSK_XREC_LAYER_RECONCILED
360
399
  0
DICTIONARY
  5
34A02
330
24618
100
AcDbDictionary
280
     1
281
     1
  3
ADSK_XREC_LAYER_RECONCILED
360
34A03
  0
DICTIONARY
  5
34A04
330
24ACC
100
AcDbDictionary
280
     1
281
     1
  3
ADSK_XREC_LAYER_RECONCILED
360
34A05
  0
DICTIONARY
  5
35450
330
1F
100
AcDbDictionary
280
     1
281
     1
  3
ACAD_SORTENTS
360
35451
  0
DICTIONARY
  5
3FEC4
330
3FEB7
100
AcDbDictionary
280
     1
281
     1
  3
ACAD_DIMASSOC
360
3FECE
  0
DICTIONARY
  5
3FEEE
330
3FEE1
100
AcDbDictionary
280
     1
281
     1
  3
ACAD_DIMASSOC
360
3FEF8
  0
DICTIONARY
  5
3FF2A
330
3FF1D
100
AcDbDictionary
280
     1
281
     1
  3
ACAD_DIMASSOC
360
3FF34
  0
DICTIONARY
  5
40B6C
330
40ABE
100
AcDbDictionary
280
     1
281
     1
  3
ACAD_MTEXT_2008_RT
360
40BAA
  0
DICTIONARY
  5
40BA7
330
40BA6
100
AcDbDictionary
280
     1
281
     1
  3
ASDK_XREC_ANNOTATION_SCALE_INFO
360
40BA8
  0
DICTIONARY
  5
40A9A
102
{ACAD_REACTORS
330
C
102
}
330
C
100
AcDbDictionary
281
     1
  0
XRECORD
  5
40B8F
102
{ACAD_REACTORS
330
C
102
}
330
C
100
AcDbXrecord
280
     1
300
ACDLT
300
2020
300
ACDLT_F_S
  0
DICTIONARY
  5
349A3
102
{ACAD_REACTORS
330
C
102
}
330
C
100
AcDbDictionary
281
     1
  0
DICTIONARY
  5
40B8A
102
{ACAD_REACTORS
330
C
102
}
330
C
100
AcDbDictionary
281
     1
  3
Metric50
350
40B8B
  0
DICTIONARY
  5
D
102
{ACAD_REACTORS
330
C
102
}
330
C
100
AcDbDictionary
281
     1
  0
DICTIONARY
  5
1A
102
{ACAD_REACTORS
330
C
102
}
330
C
100
AcDbDictionary
281
     1
  3
Layout 1
350
3491A
  3
Model
350
22
  0
DICTIONARY
  5
34979
102
{ACAD_REACTORS
330
C
102
}
330
C
100
AcDbDictionary
281
     1
  3
ByBlock
350
34982
  3
ByLayer
350
3497A
  3
Global
350
3498A
  0
DICTIONARY
  5
349C8
102
{ACAD_REACTORS
330
C
102
}
330
C
100
AcDbDictionary
281
     1
  3
Standard
350
349C9
  0
DICTIONARY
  5
17
102
{ACAD_REACTORS
330
C
102
}
330
C
100
AcDbDictionary
281
     1
  3
Standard
350
18
  0
DICTIONARY
  5
19
102
{ACAD_REACTORS
330
C
102
}
330
C
100
AcDbDictionary
281
     1
  3
Template A3
350
1831
  0
ACDBDICTIONARYWDFLT
  5
E
102
{ACAD_REACTORS
330
C
102
}
330
C
100
AcDbDictionary
281
     1
  3
Normal
350
F
100
AcDbDictionaryWithDefault
340
F
  0
DICTIONARY
  5
349A6
102
{ACAD_REACTORS
330
C
102
}
330
C
100
AcDbDictionary
281
     1
  3
*A1
350
35298
  3
*A10
350
352A6
  3
*A11
350
352A7
  3
*A12
350
35299
  3
*A13
350
3529A
  3
*A14
350
3529B
  3
*A15
350
3529C
  3
*A16
350
3529D
  3
*A2
350
3529E
  3
*A3
350
3529F
  3
*A4
350
352A0
  3
*A5
350
352A1
  3
*A6
350
352A2
  3
*A7
350
352A3
  3
*A8
350
352A4
  3
*A9
350
352A5
  3
A0
350
349A7
  3
A1
350
349A8
  3
A2
350
349A9
  3
A3
350
349AA
  3
A4
350
349AB
  3
A5
350
349AC
  3
A6
350
349AD
  3
A7
350
349AE
  3
A8
350
349AF
  3
A9
350
349B0
  3
B0
350
349B1
  3
B1
350
349B2
  3
B2
350
349B3
  3
B3
350
349B4
  3
B4
350
349B5
  3
B5
350
349B6
  3
B6
350
349B7
  3
B7
350
349B8
  3
B8
350
349B9
  3
B9
350
349BA
  3
C0
350
349BB
  3
C1
350
349BC
  3
C2
350
349BD
  3
C3
350
349BE
  3
C4
350
349BF
  3
C5
350
349C0
  3
C6
350
349C1
  3
C7
350
349C2
  3
C8
350
349C3
  3
C9
350
349C4
  3
D0
350
349C5
  3
D1
350
349C6
  3
D2
350
349C7
  0
DICTIONARY
  5
40B88
102
{ACAD_REACTORS
330
C
102
}
330
C
100
AcDbDictionary
281
     1
  3
Metric50
350
40B89
  0
DICTIONARY
  5
349A4
102
{ACAD_REACTORS
330
C
102
}
330
C
100
AcDbDictionary
281
     1
  3
Standard
350
349A5
  0
DICTIONARY
  5
34992
102
{ACAD_REACTORS
330
C
102
}
330
C
100
AcDbDictionary
281
     1
  3
2dWireframe
350
34998
  3
3D Hidden
350
3499A
  3
3dWireframe
350
34999
  3
Basic
350
34997
  3
Brighten
350
3499E
  3
ColorChange
350
349A2
  3
Conceptual
350
3499B
  3
Dim
350
3499D
  3
EdgeColorOff
350
40B87
  3
Facepattern
350
349A1
  3
Flat
350
34993
  3
FlatWithEdges
350
34994
  3
Gouraud
350
34995
  3
GouraudWithEdges
350
34996
  3
Hidden
350
40B7F
  3
JitterOff
350
40B85
  3
Linepattern
350
349A0
  3
OverhangOff
350
40B86
  3
Realistic
350
3499C
  3
Shaded
350
40B84
  3
Shaded with edges
350
40B83
  3
Shades of Gray
350
40B80
  3
Sketchy
350
40B81
  3
Thicken
350
3499F
  3
Wireframe
350
40B7E
  3
X-Ray
350
40B82
  0
XRECORD
  5
3AFA4
102
{ACAD_REACTORS
330
C
102
}
330
C
100
AcDbXrecord
280
     1
 90
   990106
  3

 60
     0
 61
     0
 62
     1
 63
     3
 64
     0
 65
     0
 66
     0
 67
     3
 68
     1
 69
     0
 70
     0
 71
     0
 72
     0
 40
0.0
170
     0
340
3F23E
  0
XRECORD
  5
40BAB
102
{ACAD_REACTORS
330
C
102
}
330
C
100
AcDbXrecord
280
     1
 90
        1
330
349A5
330
40ABE
  0
DICTIONARY
  5
D1
102
{ACAD_REACTORS
330
C
102
}
330
C
100
AcDbDictionary
281
     1
  3
CANNOSCALE
350
34A95
  3
CMLEADERSTYLE
350
34A94
  3
CTABLESTYLE
350
34A93
  3
CVIEWDETAILSTYLE
350
40B90
  3
CVIEWSECTIONSTYLE
350
40B91
  3
DIMASSOC
350
D3
  3
HIDETEXT
350
D2
  3
INDEXCTL
350
34A97
  3
LAYEREVAL
350
40B92
  3
LAYERNOTIFY
350
40B93
  3
LIGHTINGUNITS
350
35721
  3
MSLTSCALE
350
35720
  3
SORTENTS
350
34A96
  0
DICTIONARY
  5
40BB1
102
{ACAD_REACTORS
330
C
102
}
330
C
100
AcDbDictionary
281
     1
  3
AcDsRecords
350
40BB3
  3
AcDsSchemas
350
40BB2
1001
ACAD
1070
     2
  0
DICTIONARY
  5
35414
102
{ACAD_REACTORS
330
C
102
}
330
C
100
AcDbDictionary
281
     1
  0
DICTIONARY
  5
40B34
102
{ACAD_REACTORS
330
393
102
}
330
393
100
AcDbDictionary
281
     1
  0
DICTIONARY
  5
2D9CB
102
{ACAD_REACTORS
330
393
102
}
330
393
100
AcDbDictionary
281
     1
  0
DICTIONARY
  5
40B33
102
{ACAD_REACTORS
330
393
102
}
330
393
100
AcDbDictionary
281
     1
1001
ACAD
1000
<All
  0
XRECORD
  5
349FF
102
{ACAD_REACTORS
330
349FE
102
}
330
349FE
100
AcDbXrecord
280
     1
290
     1
  0
XRECORD
  5
399
102
{ACAD_REACTORS
330
397
102
}
330
397
100
AcDbXrecord
280
     1
290
     1
  0
XRECORD
  5
34A03
102
{ACAD_REACTORS
330
34A02
102
}
330
34A02
100
AcDbXrecord
280
     1
290
     1
  0
XRECORD
  5
34A05
102
{ACAD_REACTORS
330
34A04
102
}
330
34A04
100
AcDbXrecord
280
     1
290
     1
  0
SORTENTSTABLE
  5
35451
102
{ACAD_REACTORS
330
35450
102
}
330
35450
100
AcDbSortentsTable
330
1F
  0
DIMASSOC
  5
3FECE
102
{ACAD_REACTORS
330
3FEC4
102
}
330
3FEC4
100
AcDbDimAssoc
330
3FEB7
 90
        1
 70
     0
 71
     0
  1
AcDbOsnapPointRef
 72
    13
331
3FA91
 73
     2
 91
        0
 40
0.0
 10
3181884.534647336
 20
3875738.26778125
 30
0.0
 75
     0
  0
DIMASSOC
  5
3FEF8
102
{ACAD_REACTORS
330
3FEEE
102
}
330
3FEEE
100
AcDbDimAssoc
330
3FEE1
 90
        1
 70
     0
 71
     0
  1
AcDbOsnapPointRef
 72
     3
331
3FAB9
 73
     2
 91
        0
 40
0.0
 10
3181800.534647337
 20
3871354.526726829
 30
0.0
 75
     0
  0
DIMASSOC
  5
3FF34
102
{ACAD_REACTORS
330
3FF2A
102
}
330
3FF2A
100
AcDbDimAssoc
330
3FF1D
 90
        3
 70
     0
 71
     0
  1
AcDbOsnapPointRef
 72
     1
331
3FB23
 73
     2
 91
        0
 40
1.0
 10
3181550.534647336
 20
3871512.52672683
 30
0.0
 75
     0
  1
AcDbOsnapPointRef
 72
     8
331
3FC19
 73
     2
 91
        0
 40
1.000000000004655
 10
3192999.794956989
 20
3871512.52672683
 30
0.0
 75
     1
  1
AcDbOsnapPointRef
 72
     1
331
3FB23
 73
     2
 91
        0
 40
1.0
 10
3181550.534647336
 20
3871512.52672683
 30
0.0
 75
     0
  0
XRECORD
  5
40BAA
102
{ACAD_REACTORS
330
40B6C
102
}
330
40B6C
100
AcDbXrecord
280
     1
 40
160366.0
  1
\pxqc;PROCTER SLIDING GATES\PPRO-GLIDE SERIES 20\PBALUSTRADE TRACKED GATE 
  0
XRECORD
  5
40BA8
102
{ACAD_REACTORS
330
40BA7
102
}
330
40BA7
100
AcDbXrecord
280
     1
 90
        1
340
349A7
  0
ACDBDETAILVIEWSTYLE
  5
40B8B
102
{ACAD_XDICTIONARY
360
40BEA
102
}
102
{ACAD_REACTORS
330
40B8A
102
}
330
40B8A
100
AcDbModelDocViewStyle
 70
     0
  3
Metric50
290
     0
100
AcDbDetailViewStyle
 70
     0
 71
     0
 90
        3
 71
     1
340
11
 62
   256
 40
5.0
340
0
 62
   256
 40
5.0
300

 40
0.0
280
     1
 71
     2
340
16
 90
       25
 62
   256
 71
     3
340
11
 62
   256
 40
5.0
 90
        0
 40
15.0
 90
        1
300
%<\AcVar ViewDetailId>% (%<\AcVar ViewScale \f "%sn">%)
 71
     4
340
16
 90
       25
 62
   256
340
16
 90
       25
 62
   256
280
     0
  0
LAYOUT
  5
3491A
102
{ACAD_XDICTIONARY
360
349D7
102
}
102
{ACAD_REACTORS
330
1A
102
}
330
1A
100
AcDbPlotSettings
  1

  2
HP Deskjet 5900 Series
  4
A4
  6

 40
4.222749710083006
 41
15.61041450500488
 42
4.138076782226561
 43
3.17498779296875
 44
209.9733276367186
 45
296.9683227539062
 46
0.0
 47
0.0
 48
0.2951330241755841
 49
5.796917231613292
140
397.9429662473851
141
287.3637556150874
142
1.0
143
1.429447331171438
 70
   688
 72
     1
 73
     1
 74
     4
  7
monochrome.ctb
 75
     0
147
0.6995710707161874
 76
     0
 77
     2
 78
   300
148
-0.2951330241755841
149
-5.796917231613292
100
AcDbLayout
  1
Layout 1
 70
     1
 71
     1
 10
-4.243344802985491
 20
-0.2392810716698293
 11
420.2572316000441
 21
299.9065317358239
 12
0.0
 22
0.0
 32
0.0
 14
0.2649318323908574
 24
13.29592545370372
 34
0.0
 15
411.4172371123197
 25
293.5859991977645
 35
0.0
146
0.0
 13
0.0
 23
0.0
 33
0.0
 16
1.0
 26
0.0
 36
0.0
 17
0.0
 27
1.0
 37
0.0
 76
     0
330
348E5
331
40BA6
  0
LAYOUT
  5
22
102
{ACAD_REACTORS
330
1A
102
}
330
1A
100
AcDbPlotSettings
  1

  2
Microsoft Office Document Image Writer
  4
A4
  6

 40
3.174999952316283
 41
3.174999952316283
 42
3.175003051757812
 43
3.17498779296875
 44
209.9733276367186
 45
297.0106506347656
 46
0.05
 47
0.0
 48
-56804.89904665446
 49
20175.45105326266
140
-56327.55042518879
141
20509.70811681668
142
1.0
143
1.642288353437004
 70
 11956
 72
     1
 73
     1
 74
     4
  7

 75
     0
147
0.6089064675561913
 76
     0
 77
     2
 78
   300
148
56804.89904665446
149
-20175.45105326266
100
AcDbLayout
  1
Model
 70
     1
 71
     0
 10
0.0
 20
0.0
 11
12.0
 21
9.0
 12
0.0
 22
0.0
 32
0.0
 14
0.0
 24
0.0
 34
0.0
 15
0.0
 25
0.0
 35
0.0
146
0.0
 13
0.0
 23
0.0
 33
0.0
 16
1.0
 26
0.0
 36
0.0
 17
0.0
 27
1.0
 37
0.0
 76
     0
330
1F
331
40A93
  0
MATERIAL
  5
34982
102
{ACAD_XDICTIONARY
360
34983
102
}
102
{ACAD_REACTORS
330
34979
102
}
330
34979
100
AcDbMaterial
  1
ByBlock
 72
     0
 43
0.0008202099737533
 43
0.0
 43
0.0
 43
0.0
 43
0.0
 43
0.0008202099737533
 43
0.0
 43
0.0
 43
0.0
 43
0.0
 43
1.0
 43
0.0
 43
0.0
 43
0.0
 43
0.0
 43
1.0
 77
     0
 47
0.0008202099737533
 47
0.0
 47
0.0
 47
0.0
 47
0.0
 47
0.0008202099737533
 47
0.0
 47
0.0
 47
0.0
 47
0.0
 47
1.0
 47
0.0
 47
0.0
 47
0.0
 47
0.0
 47
1.0
171
     0
 49
0.0008202099737533
 49
0.0
 49
0.0
 49
0.0
 49
0.0
 49
0.0008202099737533
 49
0.0
 49
0.0
 49
0.0
 49
0.0
 49
1.0
 49
0.0
 49
0.0
 49
0.0
 49
0.0
 49
1.0
175
     0
142
0.0008202099737533
142
0.0
142
0.0
142
0.0
142
0.0
142
0.0008202099737533
142
0.0
142
0.0
142
0.0
142
0.0
142
1.0
142
0.0
142
0.0
142
0.0
142
0.0
142
1.0
179
     0
144
0.0008202099737533
144
0.0
144
0.0
144
0.0
144
0.0
144
0.0008202099737533
144
0.0
144
0.0
144
0.0
144
0.0
144
1.0
144
0.0
144
0.0
144
0.0
144
0.0
144
1.0
147
0.0008202099737533
147
0.0
147
0.0
147
0.0
147
0.0
147
0.0008202099737533
147
0.0
147
0.0
147
0.0
147
0.0
147
1.0
147
0.0
147
0.0
147
0.0
147
0.0
147
1.0
  0
MATERIAL
  5
3497A
102
{ACAD_XDICTIONARY
360
3497B
102
}
102
{ACAD_REACTORS
330
34979
102
}
330
34979
100
AcDbMaterial
  1
ByLayer
 72
     0
 43
0.0008202099737533
 43
0.0
 43
0.0
 43
0.0
 43
0.0
 43
0.0008202099737533
 43
0.0
 43
0.0
 43
0.0
 43
0.0
 43
1.0
 43
0.0
 43
0.0
 43
0.0
 43
0.0
 43
1.0
 77
     0
 47
0.0008202099737533
 47
0.0
 47
0.0
 47
0.0
 47
0.0
 47
0.0008202099737533
 47
0.0
 47
0.0
 47
0.0
 47
0.0
 47
1.0
 47
0.0
 47
0.0
 47
0.0
 47
0.0
 47
1.0
171
     0
 49
0.0008202099737533
 49
0.0
 49
0.0
 49
0.0
 49
0.0
 49
0.0008202099737533
 49
0.0
 49
0.0
 49
0.0
 49
0.0
 49
1.0
 49
0.0
 49
0.0
 49
0.0
 49
0.0
 49
1.0
175
     0
142
0.0008202099737533
142
0.0
142
0.0
142
0.0
142
0.0
142
0.0008202099737533
142
0.0
142
0.0
142
0.0
142
0.0
142
1.0
142
0.0
142
0.0
142
0.0
142
0.0
142
1.0
179
     0
144
0.0008202099737533
144
0.0
144
0.0
144
0.0
144
0.0
144
0.0008202099737533
144
0.0
144
0.0
144
0.0
144
0.0
144
1.0
144
0.0
144
0.0
144
0.0
144
0.0
144
1.0
147
0.0008202099737533
147
0.0
147
0.0
147
0.0
147
0.0
147
0.0008202099737533
147
0.0
147
0.0
147
0.0
147
0.0
147
1.0
147
0.0
147
0.0
147
0.0
147
0.0
147
1.0
  0
MATERIAL
  5
3498A
102
{ACAD_XDICTIONARY
360
3498B
102
}
102
{ACAD_REACTORS
330
34979
102
}
330
34979
100
AcDbMaterial
  1
Global
 72
     0
 43
0.0008202099737533
 43
0.0
 43
0.0
 43
0.0
 43
0.0
 43
0.0008202099737533
 43
0.0
 43
0.0
 43
0.0
 43
0.0
 43
1.0
 43
0.0
 43
0.0
 43
0.0
 43
0.0
 43
1.0
 77
     0
 47
0.0008202099737533
 47
0.0
 47
0.0
 47
0.0
 47
0.0
 47
0.0008202099737533
 47
0.0
 47
0.0
 47
0.0
 47
0.0
 47
1.0
 47
0.0
 47
0.0
 47
0.0
 47
0.0
 47
1.0
171
     0
 49
0.0008202099737533
 49
0.0
 49
0.0
 49
0.0
 49
0.0
 49
0.0008202099737533
 49
0.0
 49
0.0
 49
0.0
 49
0.0
 49
1.0
 49
0.0
 49
0.0
 49
0.0
 49
0.0
 49
1.0
175
     0
142
0.0008202099737533
142
0.0
142
0.0
142
0.0
142
0.0
142
0.0008202099737533
142
0.0
142
0.0
142
0.0
142
0.0
142
1.0
142
0.0
142
0.0
142
0.0
142
0.0
142
1.0
179
     0
144
0.0008202099737533
144
0.0
144
0.0
144
0.0
144
0.0
144
0.0008202099737533
144
0.0
144
0.0
144
0.0
144
0.0
144
1.0
144
0.0
144
0.0
144
0.0
144
0.0
144
1.0
147
0.0008202099737533
147
0.0
147
0.0
147
0.0
147
0.0
147
0.0008202099737533
147
0.0
147
0.0
147
0.0
147
0.0
147
1.0
147
0.0
147
0.0
147
0.0
147
0.0
147
1.0
  0
MLEADERSTYLE
  5
349C9
102
{ACAD_REACTORS
330
349C8
102
}
330
349C8
100
AcDbMLeaderStyle
179
     2
170
     2
171
     1
172
     0
 90
        2
 40
0.0
 41
0.0
173
     1
 91
-1056964608
340
14
 92
       -2
290
     1
 42
2.0
291
     1
 43
0.36
  3
Standard
 44
4.0
300

342
11
174
     1
178
     6
175
     1
176
     0
 93
-1056964608
 45
4.0
292
     0
297
     0
 46
4.0
 94
-1056964608
 47
1.0
 49
1.0
140
1.0
293
     1
141
0.0
294
     1
177
     0
142
1.0
295
     0
296
     0
143
0.125
271
     0
272
     9
273
     9
  0
MLINESTYLE
  5
18
102
{ACAD_REACTORS
330
17
102
}
330
17
100
AcDbMlineStyle
  2
STANDARD
 70
     0
  3

 62
   256
 51
90.0
 52
90.0
 71
     2
 49
0.5
 62
   256
  6
BYLAYER
 49
-0.5
 62
   256
  6
BYLAYER
  0
PLOTSETTINGS
  5
1831
102
{ACAD_REACTORS
330
19
102
}
330
19
100
AcDbPlotSettings
  1
Template A3
  2
HP Officejet Pro K8600 Series
  4
A3
  6

 40
5.95841646194458
 41
12.64706611633301
 42
6.0430908203125
 43
20.77508544921875
 44
296.9259948730469
 45
419.9466552734373
 46
-0.6200000000000001
 47
-9.859999999999999
 48
0.0
 49
0.0
140
0.0
141
0.0
142
1.0
143
1.0
 70
   692
 72
     1
 73
     1
 74
     1
  7
monochrome.ctb
 75
    16
147
1.0
 76
     0
 77
     2
 78
   300
148
-2.293687681883284
149
-1.665891456123175
  0
ACDBPLACEHOLDER
  5
F
102
{ACAD_REACTORS
330
E
102
}
330
E
  0
SCALE
  5
35298
102
{ACAD_REACTORS
330
349A6
102
}
330
349A6
100
AcDbScale
 70
     0
300
1/128" = 1'-0"_XREF
140
0.0078125
141
12.0
290
     0
  0
SCALE
  5
352A6
102
{ACAD_REACTORS
330
349A6
102
}
330
349A6
100
AcDbScale
 70
     0
300
1/32" = 1'-0"_XREF
140
0.03125
141
12.0
290
     0
  0
SCALE
  5
352A7
102
{ACAD_REACTORS
330
349A6
102
}
330
349A6
100
AcDbScale
 70
     0
300
1/16" = 1'-0"_XREF
140
0.0625
141
12.0
290
     0
  0
SCALE
  5
35299
102
{ACAD_REACTORS
330
349A6
102
}
330
349A6
100
AcDbScale
 70
     0
300
1" = 1'-0"_XREF
140
1.0
141
12.0
290
     0
  0
SCALE
  5
3529A
102
{ACAD_REACTORS
330
349A6
102
}
330
349A6
100
AcDbScale
 70
     0
300
3/32" = 1'-0"_XREF
140
0.09375
141
12.0
290
     0
  0
SCALE
  5
3529B
102
{ACAD_REACTORS
330
349A6
102
}
330
349A6
100
AcDbScale
 70
     0
300
1/8" = 1'-0"_XREF
140
0.125
141
12.0
290
     0
  0
SCALE
  5
3529C
102
{ACAD_REACTORS
330
349A6
102
}
330
349A6
100
AcDbScale
 70
     0
300
3/16" = 1'-0"_XREF
140
0.1875
141
12.0
290
     0
  0
SCALE
  5
3529D
102
{ACAD_REACTORS
330
349A6
102
}
330
349A6
100
AcDbScale
 70
     0
300
1/4" = 1'-0"_XREF
140
0.25
141
12.0
290
     0
  0
SCALE
  5
3529E
102
{ACAD_REACTORS
330
349A6
102
}
330
349A6
100
AcDbScale
 70
     0
300
1-1/2" = 1'-0"_XREF
140
1.5
141
12.0
290
     0
  0
SCALE
  5
3529F
102
{ACAD_REACTORS
330
349A6
102
}
330
349A6
100
AcDbScale
 70
     0
300
3/8" = 1'-0"_XREF
140
0.375
141
12.0
290
     0
  0
SCALE
  5
352A0
102
{ACAD_REACTORS
330
349A6
102
}
330
349A6
100
AcDbScale
 70
     0
300
1/2" = 1'-0"_XREF
140
0.5
141
12.0
290
     0
  0
SCALE
  5
352A1
102
{ACAD_REACTORS
330
349A6
102
}
330
349A6
100
AcDbScale
 70
     0
300
3/4" = 1'-0"_XREF
140
0.75
141
12.0
290
     0
  0
SCALE
  5
352A2
102
{ACAD_REACTORS
330
349A6
102
}
330
349A6
100
AcDbScale
 70
     0
300
3" = 1'-0"_XREF
140
3.0
141
12.0
290
     0
  0
SCALE
  5
352A3
102
{ACAD_REACTORS
330
349A6
102
}
330
349A6
100
AcDbScale
 70
     0
300
6" = 1'-0"_XREF
140
6.0
141
12.0
290
     0
  0
SCALE
  5
352A4
102
{ACAD_REACTORS
330
349A6
102
}
330
349A6
100
AcDbScale
 70
     0
300
1'-0" = 1'-0"_XREF
140
12.0
141
12.0
290
     0
  0
SCALE
  5
352A5
102
{ACAD_REACTORS
330
349A6
102
}
330
349A6
100
AcDbScale
 70
     0
300
1/64" = 1'-0"_XREF
140
0.015625
141
12.0
290
     0
  0
SCALE
  5
349A7
102
{ACAD_REACTORS
330
349A6
102
}
330
349A6
100
AcDbScale
 70
     0
300
1:1
140
1.0
141
1.0
290
     1
  0
SCALE
  5
349A8
102
{ACAD_REACTORS
330
349A6
102
}
330
349A6
100
AcDbScale
 70
     0
300
1:2
140
1.0
141
2.0
290
     0
  0
SCALE
  5
349A9
102
{ACAD_REACTORS
330
349A6
102
}
330
349A6
100
AcDbScale
 70
     0
300
1:4
140
1.0
141
4.0
290
     0
  0
SCALE
  5
349AA
102
{ACAD_REACTORS
330
349A6
102
}
330
349A6
100
AcDbScale
 70
     0
300
1:5
140
1.0
141
5.0
290
     0
  0
SCALE
  5
349AB
102
{ACAD_REACTORS
330
349A6
102
}
330
349A6
100
AcDbScale
 70
     0
300
1:8
140
1.0
141
8.0
290
     0
  0
SCALE
  5
349AC
102
{ACAD_REACTORS
330
349A6
102
}
330
349A6
100
AcDbScale
 70
     0
300
1:10
140
1.0
141
10.0
290
     0
  0
SCALE
  5
349AD
102
{ACAD_REACTORS
330
349A6
102
}
330
349A6
100
AcDbScale
 70
     0
300
1:16
140
1.0
141
16.0
290
     0
  0
SCALE
  5
349AE
102
{ACAD_REACTORS
330
349A6
102
}
330
349A6
100
AcDbScale
 70
     0
300
1:20
140
1.0
141
20.0
290
     0
  0
SCALE
  5
349AF
102
{ACAD_REACTORS
330
349A6
102
}
330
349A6
100
AcDbScale
 70
     0
300
1:30
140
1.0
141
30.0
290
     0
  0
SCALE
  5
349B0
102
{ACAD_REACTORS
330
349A6
102
}
330
349A6
100
AcDbScale
 70
     0
300
1:40
140
1.0
141
40.0
290
     0
  0
SCALE
  5
349B1
102
{ACAD_REACTORS
330
349A6
102
}
330
349A6
100
AcDbScale
 70
     0
300
1:50
140
1.0
141
50.0
290
     0
  0
SCALE
  5
349B2
102
{ACAD_REACTORS
330
349A6
102
}
330
349A6
100
AcDbScale
 70
     0
300
1:100
140
1.0
141
100.0
290
     0
  0
SCALE
  5
349B3
102
{ACAD_REACTORS
330
349A6
102
}
330
349A6
100
AcDbScale
 70
     0
300
2:1
140
2.0
141
1.0
290
     0
  0
SCALE
  5
349B4
102
{ACAD_REACTORS
330
349A6
102
}
330
349A6
100
AcDbScale
 70
     0
300
4:1
140
4.0
141
1.0
290
     0
  0
SCALE
  5
349B5
102
{ACAD_REACTORS
330
349A6
102
}
330
349A6
100
AcDbScale
 70
     0
300
8:1
140
8.0
141
1.0
290
     0
  0
SCALE
  5
349B6
102
{ACAD_REACTORS
330
349A6
102
}
330
349A6
100
AcDbScale
 70
     0
300
10:1
140
10.0
141
1.0
290
     0
  0
SCALE
  5
349B7
102
{ACAD_REACTORS
330
349A6
102
}
330
349A6
100
AcDbScale
 70
     0
300
100:1
140
100.0
141
1.0
290
     0
  0
SCALE
  5
349B8
102
{ACAD_REACTORS
330
349A6
102
}
330
349A6
100
AcDbScale
 70
     0
300
1/128" = 1'-0"
140
0.0078125
141
12.0
290
     0
  0
SCALE
  5
349B9
102
{ACAD_REACTORS
330
349A6
102
}
330
349A6
100
AcDbScale
 70
     0
300
1/64" = 1'-0"
140
0.015625
141
12.0
290
     0
  0
SCALE
  5
349BA
102
{ACAD_REACTORS
330
349A6
102
}
330
349A6
100
AcDbScale
 70
     0
300
1/32" = 1'-0"
140
0.03125
141
12.0
290
     0
  0
SCALE
  5
349BB
102
{ACAD_REACTORS
330
349A6
102
}
330
349A6
100
AcDbScale
 70
     0
300
1/16" = 1'-0"
140
0.0625
141
12.0
290
     0
  0
SCALE
  5
349BC
102
{ACAD_REACTORS
330
349A6
102
}
330
349A6
100
AcDbScale
 70
     0
300
3/32" = 1'-0"
140
0.09375
141
12.0
290
     0
  0
SCALE
  5
349BD
102
{ACAD_REACTORS
330
349A6
102
}
330
349A6
100
AcDbScale
 70
     0
300
1/8" = 1'-0"
140
0.125
141
12.0
290
     0
  0
SCALE
  5
349BE
102
{ACAD_REACTORS
330
349A6
102
}
330
349A6
100
AcDbScale
 70
     0
300
3/16" = 1'-0"
140
0.1875
141
12.0
290
     0
  0
SCALE
  5
349BF
102
{ACAD_REACTORS
330
349A6
102
}
330
349A6
100
AcDbScale
 70
     0
300
1/4" = 1'-0"
140
0.25
141
12.0
290
     0
  0
SCALE
  5
349C0
102
{ACAD_REACTORS
330
349A6
102
}
330
349A6
100
AcDbScale
 70
     0
300
3/8" = 1'-0"
140
0.375
141
12.0
290
     0
  0
SCALE
  5
349C1
102
{ACAD_REACTORS
330
349A6
102
}
330
349A6
100
AcDbScale
 70
     0
300
1/2" = 1'-0"
140
0.5
141
12.0
290
     0
  0
SCALE
  5
349C2
102
{ACAD_REACTORS
330
349A6
102
}
330
349A6
100
AcDbScale
 70
     0
300
3/4" = 1'-0"
140
0.75
141
12.0
290
     0
  0
SCALE
  5
349C3
102
{ACAD_REACTORS
330
349A6
102
}
330
349A6
100
AcDbScale
 70
     0
300
1" = 1'-0"
140
1.0
141
12.0
290
     0
  0
SCALE
  5
349C4
102
{ACAD_REACTORS
330
349A6
102
}
330
349A6
100
AcDbScale
 70
     0
300
1-1/2" = 1'-0"
140
1.5
141
12.0
290
     0
  0
SCALE
  5
349C5
102
{ACAD_REACTORS
330
349A6
102
}
330
349A6
100
AcDbScale
 70
     0
300
3" = 1'-0"
140
3.0
141
12.0
290
     0
  0
SCALE
  5
349C6
102
{ACAD_REACTORS
330
349A6
102
}
330
349A6
100
AcDbScale
 70
     0
300
6" = 1'-0"
140
6.0
141
12.0
290
     0
  0
SCALE
  5
349C7
102
{ACAD_REACTORS
330
349A6
102
}
330
349A6
100
AcDbScale
 70
     0
300
1'-0" = 1'-0"
140
12.0
141
12.0
290
     0
  0
ACDBSECTIONVIEWSTYLE
  5
40B89
102
{ACAD_XDICTIONARY
360
40BE8
102
}
102
{ACAD_REACTORS
330
40B88
102
}
330
40B88
100
AcDbModelDocViewStyle
 70
     0
  3
Metric50
290
     0
100
AcDbSectionViewStyle
 70
     0
 71
     0
 90
      102
 71
     1
340
11
 62
   256
 40
5.0
340
0
340
0
 62
   256
 40
5.0
300
I, O, Q, S, X, Z
 40
10.0
 90
        0
 40
2.5
 90
        0
 71
     2
340
16
 90
       25
 62
   256
340
16
 90
       50
 62
   256
 40
5.0
 40
2.5
 40
5.0
 71
     3
340
11
 62
   256
 40
5.0
 90
        0
 40
15.0
 90
        1
300
%<\AcVar ViewSectionStartId>%-%<\AcVar ViewSectionEndId>% (%<\AcVar ViewScale \f "%sn">%)
 71
     4
 62
   256
 62
   257
300
ANSI31
 40
1.0
 90
        0
290
     0
290
     0
 90
        6
 40
0.0
 40
1.570796326794896
 40
0.2617993877991494
 40
1.308996938995747
 40
-0.2617993877991494
 40
1.832595714594045
  0
TABLESTYLE
  5
349A5
102
{ACAD_XDICTIONARY
360
34A71
102
}
102
{ACAD_REACTORS
330
349A4
102
}
330
349A4
100
AcDbTableStyle
280
     0
  3
Standard
 70
     0
 71
     0
 40
1.5
 41
1.5
280
     0
281
     0
  7
Standard
140
4.5
170
     2
 62
     0
 63
     7
283
     0
 90
      512
 91
        0
  1

274
    -2
284
     1
 64
     0
275
    -2
285
     1
 65
     0
276
    -2
286
     1
 66
     0
277
    -2
287
     1
 67
     0
278
    -2
288
     1
 68
     0
279
    -2
289
     1
 69
     0
  7
Standard
140
6.0
170
     5
 62
     0
 63
     7
283
     0
 90
      512
 91
        0
  1

274
    -2
284
     1
 64
     0
275
    -2
285
     1
 65
     0
276
    -2
286
     1
 66
     0
277
    -2
287
     1
 67
     0
278
    -2
288
     1
 68
     0
279
    -2
289
     1
 69
     0
  7
Standard
140
4.5
170
     5
 62
     0
 63
     7
283
     0
 90
      512
 91
        0
  1

274
    -2
284
     1
 64
     0
275
    -2
285
     1
 65
     0
276
    -2
286
     1
 66
     0
277
    -2
287
     1
 67
     0
278
    -2
288
     1
 68
     0
279
    -2
289
     1
 69
     0
  0
VISUALSTYLE
  5
34998
102
{ACAD_XDICTIONARY
360
40BBE
102
}
102
{ACAD_REACTORS
330
34992
102
}
330
34992
100
AcDbVisualStyle
  2
2dWireframe
 70
     4
177
     2
291
     0
 71
     0
176
     1
 72
     2
176
     1
 73
     0
176
     1
 90
        0
176
     1
 40
0.6
176
     1
 41
30.0
176
     1
 63
     7
176
     1
 74
     1
176
     1
 91
        4
176
     1
 64
     7
176
     1
 65
   257
176
     1
 75
     1
176
     1
175
     1
176
     1
 42
1.0
176
     1
 92
        0
176
     1
 66
   257
176
     1
 43
1.0
176
     1
 76
     1
176
     1
 77
     6
176
     1
 78
     2
176
     1
 67
     7
176
     1
 79
     5
176
     1
170
     0
176
     1
171
     0
176
     1
290
     0
176
     1
 93
        1
176
     1
 44
0.0
176
     1
173
     0
176
     1
1001
ACAD
1000
AcDbSavedByObjectVersion
1070
     0
  0
VISUALSTYLE
  5
3499A
102
{ACAD_XDICTIONARY
360
40BC2
102
}
102
{ACAD_REACTORS
330
34992
102
}
330
34992
100
AcDbVisualStyle
  2
3D Hidden
 70
     6
177
     2
291
     0
 71
     1
176
     1
 72
     2
176
     1
 73
     2
176
     1
 90
        0
176
     1
 40
0.6
176
     1
 41
30.0
176
     1
 63
     7
176
     1
 74
     2
176
     1
 91
        2
176
     1
 64
     7
176
     1
 65
   257
176
     1
 75
     2
176
     1
175
     1
176
     1
 42
40.0
176
     1
 92
        0
176
     1
 66
   257
176
     1
 43
1.0
176
     1
 76
     1
176
     1
 77
     6
176
     1
 78
     2
176
     1
 67
     7
176
     1
 79
     3
176
     1
170
     0
176
     1
171
     0
176
     1
290
     0
176
     1
 93
        1
176
     1
 44
0.0
176
     1
173
     0
176
     1
1001
ACAD
1000
AcDbSavedByObjectVersion
1070
     0
  0
VISUALSTYLE
  5
34999
102
{ACAD_XDICTIONARY
360
40BC0
102
}
102
{ACAD_REACTORS
330
34992
102
}
330
34992
100
AcDbVisualStyle
  2
3dWireframe
 70
     5
177
     2
291
     0
 71
     0
176
     1
 72
     2
176
     1
 73
     0
176
     1
 90
        0
176
     1
 40
0.6
176
     1
 41
30.0
176
     1
 63
     7
176
     1
 74
     1
176
     1
 91
        4
176
     1
 64
     7
176
     1
 65
   257
176
     1
 75
     1
176
     1
175
     1
176
     1
 42
1.0
176
     1
 92
        0
176
     1
 66
   257
176
     1
 43
1.0
176
     1
 76
     1
176
     1
 77
     6
176
     1
 78
     2
176
     1
 67
     7
176
     1
 79
     5
176
     1
170
     0
176
     1
171
     0
176
     1
290
     0
176
     1
 93
        1
176
     1
 44
0.0
176
     1
173
     0
176
     1
1001
ACAD
1000
AcDbSavedByObjectVersion
1070
     0
  0
VISUALSTYLE
  5
34997
102
{ACAD_XDICTIONARY
360
40BBC
102
}
102
{ACAD_REACTORS
330
34992
102
}
330
34992
100
AcDbVisualStyle
  2
Basic
 70
     7
177
     2
291
     1
 71
     1
176
     1
 72
     0
176
     1
 73
     1
176
     1
 90
        0
176
     1
 40
0.6
176
     1
 41
30.0
176
     1
 63
     7
176
     1
 74
     0
176
     1
 91
        4
176
     1
 64
     7
176
     1
 65
   257
176
     1
 75
     1
176
     1
175
     1
176
     1
 42
1.0
176
     1
 92
        8
176
     1
 66
     7
176
     1
 43
1.0
176
     1
 76
     1
176
     1
 77
     6
176
     1
 78
     2
176
     1
 67
     7
176
     1
 79
     5
176
     1
170
     0
176
     1
171
     0
176
     1
290
     0
176
     1
 93
        1
176
     1
 44
0.0
176
     1
173
     0
176
     1
1001
ACAD
1000
AcDbSavedByObjectVersion
1070
     0
  0
VISUALSTYLE
  5
3499E
102
{ACAD_XDICTIONARY
360
40BCA
102
}
102
{ACAD_REACTORS
330
34992
102
}
330
34992
100
AcDbVisualStyle
  2
Brighten
 70
    12
177
     2
291
     1
 71
     2
176
     1
 72
     2
176
     1
 73
     0
176
     1
 90
        0
176
     1
 40
0.6
176
     1
 41
30.0
176
     1
 63
     7
176
     1
 74
     1
176
     1
 91
        4
176
     1
 64
     7
176
     1
 65
   257
176
     1
 75
     1
176
     1
175
     1
176
     1
 42
1.0
176
     1
 92
        8
176
     1
 66
     7
176
     1
 43
1.0
176
     1
 76
     1
176
     1
 77
     6
176
     1
 78
     2
176
     1
 67
     7
176
     1
 79
     5
176
     1
170
     0
176
     1
171
     0
176
     1
290
     0
176
     1
 93
        1
176
     1
 44
50.0
176
     1
173
     0
176
     1
1001
ACAD
1000
AcDbSavedByObjectVersion
1070
     0
  0
VISUALSTYLE
  5
349A2
102
{ACAD_XDICTIONARY
360
40BD2
102
}
102
{ACAD_REACTORS
330
34992
102
}
330
34992
100
AcDbVisualStyle
  2
ColorChange
 70
    16
177
     2
291
     1
 71
     2
176
     1
 72
     2
176
     1
 73
     3
176
     1
 90
        0
176
     1
 40
0.6
176
     1
 41
30.0
176
     1
 63
     8
176
     1
 74
     1
176
     1
 91
        4
176
     1
 64
     7
176
     1
 65
   257
176
     1
 75
     1
176
     1
175
     1
176
     1
 42
1.0
176
     1
 92
        8
176
     1
 66
     8
176
     1
 43
1.0
176
     1
 76
     1
176
     1
 77
     6
176
     1
 78
     2
176
     1
 67
     7
176
     1
 79
     5
176
     1
170
     0
176
     1
171
     0
176
     1
290
     0
176
     1
 93
        1
176
     1
 44
0.0
176
     1
173
     0
176
     1
1001
ACAD
1000
AcDbSavedByObjectVersion
1070
     0
  0
VISUALSTYLE
  5
3499B
102
{ACAD_XDICTIONARY
360
40BC4
102
}
102
{ACAD_REACTORS
330
34992
102
}
330
34992
100
AcDbVisualStyle
  2
Conceptual
 70
     9
177
     2
291
     0
 71
     3
176
     1
 72
     2
176
     1
 73
     0
176
     1
 90
        0
176
     1
 40
0.6
176
     1
 41
30.0
176
     1
 63
     7
176
     1
 74
     2
176
     1
 91
        2
176
     1
 64
     7
176
     1
 65
   257
176
     1
 75
     1
176
     1
175
     1
176
     1
 42
40.0
176
     1
 92
        8
176
     1
 66
     7
176
     1
 43
1.0
176
     1
 76
     1
176
     1
 77
     6
176
     1
 78
     2
176
     1
 67
     7
176
     1
 79
     3
176
     1
170
     0
176
     1
171
     0
176
     1
290
     0
176
     1
 93
        1
176
     1
 44
0.0
176
     1
173
     0
176
     1
1001
ACAD
1000
AcDbSavedByObjectVersion
1070
     0
  0
VISUALSTYLE
  5
3499D
102
{ACAD_XDICTIONARY
360
40BC8
102
}
102
{ACAD_REACTORS
330
34992
102
}
330
34992
100
AcDbVisualStyle
  2
Dim
 70
    11
177
     2
291
     1
 71
     2
176
     1
 72
     2
176
     1
 73
     0
176
     1
 90
        0
176
     1
 40
0.6
176
     1
 41
30.0
176
     1
 63
     7
176
     1
 74
     1
176
     1
 91
        4
176
     1
 64
     7
176
     1
 65
   257
176
     1
 75
     1
176
     1
175
     1
176
     1
 42
1.0
176
     1
 92
        8
176
     1
 66
     7
176
     1
 43
1.0
176
     1
 76
     1
176
     1
 77
     6
176
     1
 78
     2
176
     1
 67
     7
176
     1
 79
     5
176
     1
170
     0
176
     1
171
     0
176
     1
290
     0
176
     1
 93
        1
176
     1
 44
-50.0
176
     1
173
     0
176
     1
1001
ACAD
1000
AcDbSavedByObjectVersion
1070
     0
  0
VISUALSTYLE
  5
40B87
102
{ACAD_XDICTIONARY
360
40BE6
102
}
102
{ACAD_REACTORS
330
34992
102
}
330
34992
100
AcDbVisualStyle
  2
EdgeColorOff
 70
    22
177
     2
291
     1
 71
     2
176
     0
 72
     2
176
     0
 73
     0
176
     0
 90
        0
176
     0
 40
0.6
176
     0
 41
30.0
176
     0
 63
     7
421
 16777215
176
     0
 74
     1
176
     0
 91
        4
176
     0
 64
     7
176
     0
 65
   257
176
     0
 75
     1
176
     0
175
     1
176
     0
 42
1.0
176
     0
 92
        8
176
     2
 66
     7
176
     0
 43
1.0
176
     0
 76
     1
176
     0
 77
     6
176
     0
 78
     2
176
     0
 67
     7
176
     0
 79
     5
176
     0
170
     0
176
     0
171
     0
176
     0
290
     0
176
     0
 93
        1
176
     0
 44
0.0
176
     0
173
     0
176
     0
1001
ACAD
1000
AcDbSavedByObjectVersion
1070
     0
  0
VISUALSTYLE
  5
349A1
102
{ACAD_XDICTIONARY
360
40BD0
102
}
102
{ACAD_REACTORS
330
34992
102
}
330
34992
100
AcDbVisualStyle
  2
Facepattern
 70
    15
177
     2
291
     1
 71
     2
176
     1
 72
     2
176
     1
 73
     0
176
     1
 90
        0
176
     1
 40
0.6
176
     1
 41
30.0
176
     1
 63
     7
176
     1
 74
     1
176
     1
 91
        4
176
     1
 64
     7
176
     1
 65
   257
176
     1
 75
     1
176
     1
175
     1
176
     1
 42
1.0
176
     1
 92
        8
176
     1
 66
     7
176
     1
 43
1.0
176
     1
 76
     1
176
     1
 77
     6
176
     1
 78
     2
176
     1
 67
     7
176
     1
 79
     5
176
     1
170
     0
176
     1
171
     0
176
     1
290
     0
176
     1
 93
        1
176
     1
 44
0.0
176
     1
173
     0
176
     1
1001
ACAD
1000
AcDbSavedByObjectVersion
1070
     0
  0
VISUALSTYLE
  5
34993
102
{ACAD_XDICTIONARY
360
40BB4
102
}
102
{ACAD_REACTORS
330
34992
102
}
330
34992
100
AcDbVisualStyle
  2
Flat
 70
     0
177
     2
291
     1
 71
     2
176
     1
 72
     1
176
     1
 73
     1
176
     1
 90
        2
176
     1
 40
0.6
176
     1
 41
30.0
176
     1
 63
     7
176
     1
 74
     0
176
     1
 91
        4
176
     1
 64
     7
176
     1
 65
   257
176
     1
 75
     1
176
     1
175
     1
176
     1
 42
1.0
176
     1
 92
        8
176
     1
 66
     7
176
     1
 43
1.0
176
     1
 76
     1
176
     1
 77
     6
176
     1
 78
     2
176
     1
 67
     7
176
     1
 79
     5
176
     1
170
     0
176
     1
171
     0
176
     1
290
     0
176
     1
 93
       13
176
     1
 44
0.0
176
     1
173
     0
176
     1
1001
ACAD
1000
AcDbSavedByObjectVersion
1070
     0
  0
VISUALSTYLE
  5
34994
102
{ACAD_XDICTIONARY
360
40BB6
102
}
102
{ACAD_REACTORS
330
34992
102
}
330
34992
100
AcDbVisualStyle
  2
FlatWithEdges
 70
     1
177
     2
291
     1
 71
     2
176
     1
 72
     1
176
     1
 73
     1
176
     1
 90
        2
176
     1
 40
0.6
176
     1
 41
30.0
176
     1
 63
     7
176
     1
 74
     1
176
     1
 91
        4
176
     1
 64
     7
176
     1
 65
   257
176
     1
 75
     1
176
     1
175
     1
176
     1
 42
1.0
176
     1
 92
        0
176
     1
 66
   257
176
     1
 43
1.0
176
     1
 76
     1
176
     1
 77
     6
176
     1
 78
     2
176
     1
 67
     7
176
     1
 79
     5
176
     1
170
     0
176
     1
171
     0
176
     1
290
     0
176
     1
 93
       13
176
     1
 44
0.0
176
     1
173
     0
176
     1
1001
ACAD
1000
AcDbSavedByObjectVersion
1070
     0
  0
VISUALSTYLE
  5
34995
102
{ACAD_XDICTIONARY
360
40BB8
102
}
102
{ACAD_REACTORS
330
34992
102
}
330
34992
100
AcDbVisualStyle
  2
Gouraud
 70
     2
177
     2
291
     1
 71
     2
176
     1
 72
     2
176
     1
 73
     1
176
     1
 90
        2
176
     1
 40
0.6
176
     1
 41
30.0
176
     1
 63
     7
176
     1
 74
     0
176
     1
 91
        4
176
     1
 64
     7
176
     1
 65
   257
176
     1
 75
     1
176
     1
175
     1
176
     1
 42
1.0
176
     1
 92
        0
176
     1
 66
     7
176
     1
 43
1.0
176
     1
 76
     1
176
     1
 77
     6
176
     1
 78
     2
176
     1
 67
     7
176
     1
 79
     5
176
     1
170
     0
176
     1
171
     0
176
     1
290
     0
176
     1
 93
       13
176
     1
 44
0.0
176
     1
173
     0
176
     1
1001
ACAD
1000
AcDbSavedByObjectVersion
1070
     0
  0
VISUALSTYLE
  5
34996
102
{ACAD_XDICTIONARY
360
40BBA
102
}
102
{ACAD_REACTORS
330
34992
102
}
330
34992
100
AcDbVisualStyle
  2
GouraudWithEdges
 70
     3
177
     2
291
     1
 71
     2
176
     1
 72
     2
176
     1
 73
     1
176
     1
 90
        2
176
     1
 40
0.6
176
     1
 41
30.0
176
     1
 63
     7
176
     1
 74
     1
176
     1
 91
        4
176
     1
 64
     7
176
     1
 65
   257
176
     1
 75
     1
176
     1
175
     1
176
     1
 42
1.0
176
     1
 92
        0
176
     1
 66
   257
176
     1
 43
1.0
176
     1
 76
     1
176
     1
 77
     6
176
     1
 78
     2
176
     1
 67
     7
176
     1
 79
     5
176
     1
170
     0
176
     1
171
     0
176
     1
290
     0
176
     1
 93
       13
176
     1
 44
0.0
176
     1
173
     0
176
     1
1001
ACAD
1000
AcDbSavedByObjectVersion
1070
     0
  0
VISUALSTYLE
  5
40B7F
102
{ACAD_XDICTIONARY
360
40BD6
102
}
102
{ACAD_REACTORS
330
34992
102
}
330
34992
100
AcDbVisualStyle
  2
Hidden
 70
     6
177
     2
291
     0
 71
     1
176
     1
 72
     2
176
     1
 73
     2
176
     1
 90
        0
176
     1
 40
0.6
176
     1
 41
30.0
176
     1
 63
     7
421
 16777215
176
     1
 74
     2
176
     1
 91
        2
176
     1
 64
     7
176
     1
 65
   257
176
     1
 75
     2
176
     1
175
     1
176
     1
 42
40.0
176
     1
 92
        0
176
     1
 66
   257
176
     1
 43
1.0
176
     1
 76
     1
176
     1
 77
     6
176
     1
 78
     2
176
     1
 67
     7
176
     1
 79
     3
176
     1
170
     0
176
     1
171
     0
176
     1
290
     0
176
     1
 93
        1
176
     1
 44
0.0
176
     1
173
     0
176
     1
1001
ACAD
1000
AcDbSavedByObjectVersion
1070
     0
  0
VISUALSTYLE
  5
40B85
102
{ACAD_XDICTIONARY
360
40BE2
102
}
102
{ACAD_REACTORS
330
34992
102
}
330
34992
100
AcDbVisualStyle
  2
JitterOff
 70
    20
177
     2
291
     1
 71
     2
176
     0
 72
     2
176
     0
 73
     0
176
     0
 90
        0
176
     0
 40
0.6
176
     0
 41
30.0
176
     0
 63
     7
421
 16777215
176
     0
 74
     1
176
     0
 91
        4
176
     0
 64
     7
176
     0
 65
   257
176
     0
 75
     1
176
     0
175
     1
176
     0
 42
1.0
176
     0
 92
       10
176
     2
 66
     7
176
     0
 43
1.0
176
     0
 76
     1
176
     0
 77
     6
176
     0
 78
     2
176
     0
 67
     7
176
     0
 79
     5
176
     0
170
     0
176
     0
171
     0
176
     0
290
     0
176
     0
 93
        1
176
     0
 44
0.0
176
     0
173
     0
176
     0
1001
ACAD
1000
AcDbSavedByObjectVersion
1070
     0
  0
VISUALSTYLE
  5
349A0
102
{ACAD_XDICTIONARY
360
40BCE
102
}
102
{ACAD_REACTORS
330
34992
102
}
330
34992
100
AcDbVisualStyle
  2
Linepattern
 70
    14
177
     2
291
     1
 71
     2
176
     1
 72
     2
176
     1
 73
     0
176
     1
 90
        0
176
     1
 40
0.6
176
     1
 41
30.0
176
     1
 63
     7
176
     1
 74
     1
176
     1
 91
        4
176
     1
 64
     7
176
     1
 65
   257
176
     1
 75
     7
176
     1
175
     7
176
     1
 42
1.0
176
     1
 92
        8
176
     1
 66
     7
176
     1
 43
1.0
176
     1
 76
     1
176
     1
 77
     6
176
     1
 78
     2
176
     1
 67
     7
176
     1
 79
     5
176
     1
170
     0
176
     1
171
     0
176
     1
290
     0
176
     1
 93
        1
176
     1
 44
0.0
176
     1
173
     0
176
     1
1001
ACAD
1000
AcDbSavedByObjectVersion
1070
     0
  0
VISUALSTYLE
  5
40B86
102
{ACAD_XDICTIONARY
360
40BE4
102
}
102
{ACAD_REACTORS
330
34992
102
}
330
34992
100
AcDbVisualStyle
  2
OverhangOff
 70
    21
177
     2
291
     1
 71
     2
176
     0
 72
     2
176
     0
 73
     0
176
     0
 90
        0
176
     0
 40
0.6
176
     0
 41
30.0
176
     0
 63
     7
421
 16777215
176
     0
 74
     1
176
     0
 91
        4
176
     0
 64
     7
176
     0
 65
   257
176
     0
 75
     1
176
     0
175
     1
176
     0
 42
1.0
176
     0
 92
        9
176
     2
 66
     7
176
     0
 43
1.0
176
     0
 76
     1
176
     0
 77
     6
176
     0
 78
     2
176
     0
 67
     7
176
     0
 79
     5
176
     0
170
     0
176
     0
171
     0
176
     0
290
     0
176
     0
 93
        1
176
     0
 44
0.0
176
     0
173
     0
176
     0
1001
ACAD
1000
AcDbSavedByObjectVersion
1070
     0
  0
VISUALSTYLE
  5
3499C
102
{ACAD_XDICTIONARY
360
40BC6
102
}
102
{ACAD_REACTORS
330
34992
102
}
330
34992
100
AcDbVisualStyle
  2
Realistic
 70
     8
177
     2
291
     0
 71
     2
176
     1
 72
     2
176
     1
 73
     0
176
     1
 90
        0
176
     1
 40
0.6
176
     1
 41
30.0
176
     1
 63
     7
176
     1
 74
     1
176
     1
 91
        0
176
     1
 64
     7
176
     1
 65
   257
176
     1
 75
     1
176
     1
175
     1
176
     1
 42
1.0
176
     1
 92
        8
176
     1
 66
     8
176
     1
 43
1.0
176
     1
 76
     1
176
     1
 77
     6
176
     1
 78
     2
176
     1
 67
     7
176
     1
 79
     5
176
     1
170
     0
176
     1
171
     0
176
     1
290
     0
176
     1
 93
       13
176
     1
 44
0.0
176
     1
173
     0
176
     1
1001
ACAD
1000
AcDbSavedByObjectVersion
1070
     0
  0
VISUALSTYLE
  5
40B84
102
{ACAD_XDICTIONARY
360
40BE0
102
}
102
{ACAD_REACTORS
330
34992
102
}
330
34992
100
AcDbVisualStyle
  2
Shaded
 70
    27
177
     2
291
     0
 71
     2
176
     1
 72
     2
176
     1
 73
     1
176
     1
 90
        2
176
     1
 40
0.6
176
     1
 41
30.0
176
     1
 63
     7
421
 16777215
176
     1
 74
     0
176
     1
 91
        4
176
     1
 64
     7
176
     1
 65
   257
176
     1
 75
     1
176
     1
175
     1
176
     1
 42
1.0
176
     1
 92
        8
176
     1
 66
   257
176
     1
 43
1.0
176
     1
 76
     1
176
     1
 77
     6
176
     1
 78
     2
176
     1
 67
     8
425
  7895160
176
     1
 79
     3
176
     1
170
     0
176
     1
171
     0
176
     1
290
     0
176
     1
 93
        5
176
     1
 44
0.0
176
     1
173
     0
176
     1
1001
ACAD
1000
AcDbSavedByObjectVersion
1070
     0
  0
VISUALSTYLE
  5
40B83
102
{ACAD_XDICTIONARY
360
40BDE
102
}
102
{ACAD_REACTORS
330
34992
102
}
330
34992
100
AcDbVisualStyle
  2
Shaded with edges
 70
    26
177
     2
291
     0
 71
     2
176
     1
 72
     2
176
     1
 73
     1
176
     1
 90
        2
176
     1
 40
0.6
176
     1
 41
30.0
176
     1
 63
     7
421
 16777215
176
     1
 74
     1
176
     1
 91
        2
176
     1
 64
     7
176
     1
 65
   257
176
     1
 75
     2
176
     1
175
     1
176
     1
 42
1.0
176
     1
 92
        8
176
     1
 66
   257
176
     1
 43
1.0
176
     1
 76
     1
176
     1
 77
     6
176
     1
 78
     2
176
     1
 67
     7
176
     1
 79
     3
176
     1
170
     0
176
     1
171
     0
176
     1
290
     0
176
     1
 93
        5
176
     1
 44
0.0
176
     1
173
     0
176
     1
1001
ACAD
1000
AcDbSavedByObjectVersion
1070
     0
  0
VISUALSTYLE
  5
40B80
102
{ACAD_XDICTIONARY
360
40BD8
102
}
102
{ACAD_REACTORS
330
34992
102
}
330
34992
100
AcDbVisualStyle
  2
Shades of Gray
 70
    23
177
     2
291
     0
 71
     2
176
     1
 72
     2
176
     1
 73
     3
176
     1
 90
        0
176
     1
 40
0.6
176
     1
 41
30.0
176
     1
 63
     7
421
 16777215
176
     1
 74
     2
176
     1
 91
        2
176
     1
 64
     7
176
     1
 65
     7
176
     1
 75
     1
176
     1
175
     1
176
     1
 42
40.0
176
     1
 92
        8
176
     1
 66
     7
176
     1
 43
1.0
176
     1
 76
     1
176
     1
 77
     6
176
     1
 78
     2
176
     1
 67
     7
176
     1
 79
     3
176
     1
170
     0
176
     1
171
     0
176
     1
290
     0
176
     1
 93
        1
176
     1
 44
0.0
176
     1
173
     0
176
     1
1001
ACAD
1000
AcDbSavedByObjectVersion
1070
     0
  0
VISUALSTYLE
  5
40B81
102
{ACAD_XDICTIONARY
360
40BDA
102
}
102
{ACAD_REACTORS
330
34992
102
}
330
34992
100
AcDbVisualStyle
  2
Sketchy
 70
    24
177
     2
291
     0
 71
     1
176
     1
 72
     2
176
     1
 73
     2
176
     1
 90
        0
176
     1
 40
0.6
176
     1
 41
30.0
176
     1
 63
     7
421
 16777215
176
     1
 74
     2
176
     1
 91
        2
176
     1
 64
     7
176
     1
 65
     7
176
     1
 75
     1
176
     1
175
     1
176
     1
 42
40.0
176
     1
 92
       11
176
     1
 66
     7
176
     1
 43
1.0
176
     1
 76
     1
176
     1
 77
     6
176
     1
 78
     2
176
     1
 67
     7
176
     1
 79
     6
176
     1
170
     0
176
     1
171
     0
176
     1
290
     0
176
     1
 93
        1
176
     1
 44
0.0
176
     1
173
     0
176
     1
1001
ACAD
1000
AcDbSavedByObjectVersion
1070
     0
  0
VISUALSTYLE
  5
3499F
102
{ACAD_XDICTIONARY
360
40BCC
102
}
102
{ACAD_REACTORS
330
34992
102
}
330
34992
100
AcDbVisualStyle
  2
Thicken
 70
    13
177
     2
291
     1
 71
     2
176
     1
 72
     2
176
     1
 73
     0
176
     1
 90
        0
176
     1
 40
0.6
176
     1
 41
30.0
176
     1
 63
     7
176
     1
 74
     1
176
     1
 91
        4
176
     1
 64
     7
176
     1
 65
   257
176
     1
 75
     1
176
     1
175
     1
176
     1
 42
1.0
176
     1
 92
       12
176
     1
 66
     7
176
     1
 43
1.0
176
     1
 76
     1
176
     1
 77
     6
176
     1
 78
     2
176
     1
 67
     7
176
     1
 79
     5
176
     1
170
     0
176
     1
171
     0
176
     1
290
     0
176
     1
 93
        1
176
     1
 44
0.0
176
     1
173
     0
176
     1
1001
ACAD
1000
AcDbSavedByObjectVersion
1070
     0
  0
VISUALSTYLE
  5
40B7E
102
{ACAD_XDICTIONARY
360
40BD4
102
}
102
{ACAD_REACTORS
330
34992
102
}
330
34992
100
AcDbVisualStyle
  2
Wireframe
 70
     5
177
     2
291
     0
 71
     0
176
     1
 72
     2
176
     1
 73
     0
176
     1
 90
        0
176
     1
 40
0.6
176
     1
 41
30.0
176
     1
 63
     7
421
 16777215
176
     1
 74
     1
176
     1
 91
        4
176
     1
 64
     7
176
     1
 65
   257
176
     1
 75
     1
176
     1
175
     1
176
     1
 42
1.0
176
     1
 92
        0
176
     1
 66
   257
176
     1
 43
1.0
176
     1
 76
     1
176
     1
 77
     6
176
     1
 78
     2
176
     1
 67
     7
176
     1
 79
     3
176
     1
170
     0
176
     1
171
     0
176
     1
290
     0
176
     1
 93
        1
176
     1
 44
0.0
176
     1
173
     0
176
     1
1001
ACAD
1000
AcDbSavedByObjectVersion
1070
     0
  0
VISUALSTYLE
  5
40B82
102
{ACAD_XDICTIONARY
360
40BDC
102
}
102
{ACAD_REACTORS
330
34992
102
}
330
34992
100
AcDbVisualStyle
  2
X-Ray
 70
    25
177
     2
291
     0
 71
     2
176
     1
 72
     2
176
     1
 73
     1
176
     1
 90
        1
176
     1
 40
0.5
176
     1
 41
30.0
176
     1
 63
     7
421
 16777215
176
     1
 74
     1
176
     1
 91
        0
176
     1
 64
     7
176
     1
 65
   257
176
     1
 75
     1
176
     1
175
     1
176
     1
 42
1.0
176
     1
 92
        8
176
     1
 66
     7
176
     1
 43
1.0
176
     1
 76
     1
176
     1
 77
     6
176
     1
 78
     2
176
     1
 67
     7
176
     1
 79
     3
176
     1
170
     0
176
     1
171
     0
176
     1
290
     0
176
     1
 93
       13
176
     1
 44
0.0
176
     1
173
     0
176
     1
1001
ACAD
1000
AcDbSavedByObjectVersion
1070
     0
  0
DICTIONARYVAR
  5
34A95
102
{ACAD_REACTORS
330
D1
102
}
330
D1
100
DictionaryVariables
280
     0
  1
1:1
  0
DICTIONARYVAR
  5
34A94
102
{ACAD_REACTORS
330
D1
102
}
330
D1
100
DictionaryVariables
280
     0
  1
STANDARD
  0
DICTIONARYVAR
  5
34A93
102
{ACAD_REACTORS
330
D1
102
}
330
D1
100
DictionaryVariables
280
     0
  1
STANDARD
  0
DICTIONARYVAR
  5
40B90
102
{ACAD_REACTORS
330
D1
102
}
330
D1
100
DictionaryVariables
280
     0
  1
Metric50
  0
DICTIONARYVAR
  5
40B91
102
{ACAD_REACTORS
330
D1
102
}
330
D1
100
DictionaryVariables
280
     0
  1
Metric50
  0
DICTIONARYVAR
  5
D3
102
{ACAD_REACTORS
330
D1
102
}
330
D1
100
DictionaryVariables
280
     0
  1
2
  0
DICTIONARYVAR
  5
D2
102
{ACAD_REACTORS
330
D1
102
}
330
D1
100
DictionaryVariables
280
     0
  1
1
  0
DICTIONARYVAR
  5
34A97
102
{ACAD_REACTORS
330
D1
102
}
330
D1
100
DictionaryVariables
280
     0
  1
0
  0
DICTIONARYVAR
  5
40B92
102
{ACAD_REACTORS
330
D1
102
}
330
D1
100
DictionaryVariables
280
     0
  1
1
  0
DICTIONARYVAR
  5
40B93
102
{ACAD_REACTORS
330
D1
102
}
330
D1
100
DictionaryVariables
280
     0
  1
15
  0
DICTIONARYVAR
  5
35721
102
{ACAD_REACTORS
330
D1
102
}
330
D1
100
DictionaryVariables
280
     0
  1
0
  0
DICTIONARYVAR
  5
35720
102
{ACAD_REACTORS
330
D1
102
}
330
D1
100
DictionaryVariables
280
     0
  1
0
  0
DICTIONARYVAR
  5
34A96
102
{ACAD_REACTORS
330
D1
102
}
330
D1
100
DictionaryVariables
280
     0
  1
127
  0
DICTIONARY
  5
40BB3
102
{ACAD_REACTORS
330
40BB1
102
}
330
40BB1
100
AcDbDictionary
281
     1
  0
DICTIONARY
  5
40BB2
102
{ACAD_REACTORS
330
40BB1
102
}
330
40BB1
100
AcDbDictionary
281
     1
  3
2785558751552
350
40BAC
  3
2785558751568
350
40BAD
  3
2785558751584
350
40BAE
  3
2785558751600
350
40BAF
  3
2785558751616
350
40BB0
  0
DICTIONARY
  5
40BEA
330
40B8B
100
AcDbDictionary
280
     1
281
     1
  3
ACAD_XREC_ROUNDTRIP
360
40BEB
  0
DICTIONARY
  5
349D7
330
3491A
100
AcDbDictionary
280
     1
281
     1
  0
DICTIONARY
  5
34983
330
34982
100
AcDbDictionary
280
     1
281
     1
  3
BUMPTILE
360
34985
  3
DIFFUSETILE
360
34984
  3
OPACITYTILE
360
34988
  3
REFLECTIONTILE
360
34987
  3
REFRACTIONTILE
360
34989
  3
SPECULARTILE
360
34986
  0
DICTIONARY
  5
3497B
330
3497A
100
AcDbDictionary
280
     1
281
     1
  3
BUMPTILE
360
3497D
  3
DIFFUSETILE
360
3497C
  3
OPACITYTILE
360
34980
  3
REFLECTIONTILE
360
3497F
  3
REFRACTIONTILE
360
34981
  3
SPECULARTILE
360
3497E
  0
DICTIONARY
  5
3498B
330
3498A
100
AcDbDictionary
280
     1
281
     1
  3
BUMPTILE
360
3498D
  3
DIFFUSETILE
360
3498C
  3
OPACITYTILE
360
34990
  3
REFLECTIONTILE
360
3498F
  3
REFRACTIONTILE
360
34991
  3
SPECULARTILE
360
3498E
  0
DICTIONARY
  5
40BE8
330
40B89
100
AcDbDictionary
280
     1
281
     1
  3
ACAD_XREC_ROUNDTRIP
360
40BE9
  0
DICTIONARY
  5
34A71
330
349A5
100
AcDbDictionary
280
     1
281
     1
  3
ACAD_ROUNDTRIP_2008_TABLESTYLE_CELLSTYLEMAP
360
40BA9
  0
DICTIONARY
  5
40BBE
330
34998
100
AcDbDictionary
280
     1
281
     1
  3
ACAD_XREC_ROUNDTRIP
360
40BBF
  0
DICTIONARY
  5
40BC2
330
3499A
100
AcDbDictionary
280
     1
281
     1
  3
ACAD_XREC_ROUNDTRIP
360
40BC3
  0
DICTIONARY
  5
40BC0
330
34999
100
AcDbDictionary
280
     1
281
     1
  3
ACAD_XREC_ROUNDTRIP
360
40BC1
  0
DICTIONARY
  5
40BBC
330
34997
100
AcDbDictionary
280
     1
281
     1
  3
ACAD_XREC_ROUNDTRIP
360
40BBD
  0
DICTIONARY
  5
40BCA
330
3499E
100
AcDbDictionary
280
     1
281
     1
  3
ACAD_XREC_ROUNDTRIP
360
40BCB
  0
DICTIONARY
  5
40BD2
330
349A2
100
AcDbDictionary
280
     1
281
     1
  3
ACAD_XREC_ROUNDTRIP
360
40BD3
  0
DICTIONARY
  5
40BC4
330
3499B
100
AcDbDictionary
280
     1
281
     1
  3
ACAD_XREC_ROUNDTRIP
360
40BC5
  0
DICTIONARY
  5
40BC8
330
3499D
100
AcDbDictionary
280
     1
281
     1
  3
ACAD_XREC_ROUNDTRIP
360
40BC9
  0
DICTIONARY
  5
40BE6
330
40B87
100
AcDbDictionary
280
     1
281
     1
  3
ACAD_XREC_ROUNDTRIP
360
40BE7
  0
DICTIONARY
  5
40BD0
330
349A1
100
AcDbDictionary
280
     1
281
     1
  3
ACAD_XREC_ROUNDTRIP
360
40BD1
  0
DICTIONARY
  5
40BB4
330
34993
100
AcDbDictionary
280
     1
281
     1
  3
ACAD_XREC_ROUNDTRIP
360
40BB5
  0
DICTIONARY
  5
40BB6
330
34994
100
AcDbDictionary
280
     1
281
     1
  3
ACAD_XREC_ROUNDTRIP
360
40BB7
  0
DICTIONARY
  5
40BB8
330
34995
100
AcDbDictionary
280
     1
281
     1
  3
ACAD_XREC_ROUNDTRIP
360
40BB9
  0
DICTIONARY
  5
40BBA
330
34996
100
AcDbDictionary
280
     1
281
     1
  3
ACAD_XREC_ROUNDTRIP
360
40BBB
  0
DICTIONARY
  5
40BD6
330
40B7F
100
AcDbDictionary
280
     1
281
     1
  3
ACAD_XREC_ROUNDTRIP
360
40BD7
  0
DICTIONARY
  5
40BE2
330
40B85
100
AcDbDictionary
280
     1
281
     1
  3
ACAD_XREC_ROUNDTRIP
360
40BE3
  0
DICTIONARY
  5
40BCE
330
349A0
100
AcDbDictionary
280
     1
281
     1
  3
ACAD_XREC_ROUNDTRIP
360
40BCF
  0
DICTIONARY
  5
40BE4
330
40B86
100
AcDbDictionary
280
     1
281
     1
  3
ACAD_XREC_ROUNDTRIP
360
40BE5
  0
DICTIONARY
  5
40BC6
330
3499C
100
AcDbDictionary
280
     1
281
     1
  3
ACAD_XREC_ROUNDTRIP
360
40BC7
  0
DICTIONARY
  5
40BE0
330
40B84
100
AcDbDictionary
280
     1
281
     1
  3
ACAD_XREC_ROUNDTRIP
360
40BE1
  0
DICTIONARY
  5
40BDE
330
40B83
100
AcDbDictionary
280
     1
281
     1
  3
ACAD_XREC_ROUNDTRIP
360
40BDF
  0
DICTIONARY
  5
40BD8
330
40B80
100
AcDbDictionary
280
     1
281
     1
  3
ACAD_XREC_ROUNDTRIP
360
40BD9
  0
DICTIONARY
  5
40BDA
330
40B81
100
AcDbDictionary
280
     1
281
     1
  3
ACAD_XREC_ROUNDTRIP
360
40BDB
  0
DICTIONARY
  5
40BCC
330
3499F
100
AcDbDictionary
280
     1
281
     1
  3
ACAD_XREC_ROUNDTRIP
360
40BCD
  0
DICTIONARY
  5
40BD4
330
40B7E
100
AcDbDictionary
280
     1
281
     1
  3
ACAD_XREC_ROUNDTRIP
360
40BD5
  0
DICTIONARY
  5
40BDC
330
40B82
100
AcDbDictionary
280
     1
281
     1
  3
ACAD_XREC_ROUNDTRIP
360
40BDD
  0
XRECORD
  5
40BAC
102
{ACAD_REACTORS
330
40BB2
102
}
330
40BB2
100
AcDbXrecord
280
     1
  1
AcDb_Thumbnail_Schema
102
{ATTRRECORD
341
40BAD
  2
AcDbDs::TreatedAsObjectData
280
     1
291
     1
102
ATTRRECORD}
102
{ATTRRECORD
341
40BAE
  2
AcDbDs::Legacy
280
     1
291
     1
102
ATTRRECORD}
  2
AcDbDs::ID
280
    10
 91
        8
102
{ATTRRECORD
341
40BAF
  2
AcDs:Indexable
280
     1
291
     1
102
ATTRRECORD}
102
{ATTRRECORD
341
40BB0
  2
AcDbDs::HandleAttribute
280
     7
282
     1
102
ATTRRECORD}
  2
Thumbnail_Data
280
    15
 91
        0
  0
XRECORD
  5
40BAD
102
{ACAD_REACTORS
330
40BB2
102
}
330
40BB2
100
AcDbXrecord
280
     1
  1
AcDbDs::TreatedAsObjectDataSchema
  2
AcDbDs::TreatedAsObjectData
280
     1
 91
        0
  0
XRECORD
  5
40BAE
102
{ACAD_REACTORS
330
40BB2
102
}
330
40BB2
100
AcDbXrecord
280
     1
  1
AcDbDs::LegacySchema
  2
AcDbDs::Legacy
280
     1
 91
        0
  0
XRECORD
  5
40BAF
102
{ACAD_REACTORS
330
40BB2
102
}
330
40BB2
100
AcDbXrecord
280
     1
  1
AcDbDs::IndexedPropertySchema
  2
AcDs:Indexable
280
     1
 91
        0
  0
XRECORD
  5
40BB0
102
{ACAD_REACTORS
330
40BB2
102
}
330
40BB2
100
AcDbXrecord
280
     1
  1
AcDbDs::HandleAttributeSchema
  2
AcDbDs::HandleAttribute
280
     7
 91
        1
284
     1
  0
XRECORD
  5
40BEB
102
{ACAD_REACTORS
330
40BEA
102
}
330
40BEA
100
AcDbXrecord
280
     1
102
DISPLAYNAME
  1
Metric50
102
FLAGS
 90
        0
  0
XRECORD
  5
34985
102
{ACAD_REACTORS
330
34983
102
}
330
34983
100
AcDbXrecord
280
     1
270
     1
271
     1
  0
XRECORD
  5
34984
102
{ACAD_REACTORS
330
34983
102
}
330
34983
100
AcDbXrecord
280
     1
270
     1
271
     1
  0
XRECORD
  5
34988
102
{ACAD_REACTORS
330
34983
102
}
330
34983
100
AcDbXrecord
280
     1
270
     1
271
     1
  0
XRECORD
  5
34987
102
{ACAD_REACTORS
330
34983
102
}
330
34983
100
AcDbXrecord
280
     1
270
     1
271
     1
  0
XRECORD
  5
34989
102
{ACAD_REACTORS
330
34983
102
}
330
34983
100
AcDbXrecord
280
     1
270
     1
271
     1
  0
XRECORD
  5
34986
102
{ACAD_REACTORS
330
34983
102
}
330
34983
100
AcDbXrecord
280
     1
270
     1
271
     1
  0
XRECORD
  5
3497D
102
{ACAD_REACTORS
330
3497B
102
}
330
3497B
100
AcDbXrecord
280
     1
270
     1
271
     1
  0
XRECORD
  5
3497C
102
{ACAD_REACTORS
330
3497B
102
}
330
3497B
100
AcDbXrecord
280
     1
270
     1
271
     1
  0
XRECORD
  5
34980
102
{ACAD_REACTORS
330
3497B
102
}
330
3497B
100
AcDbXrecord
280
     1
270
     1
271
     1
  0
XRECORD
  5
3497F
102
{ACAD_REACTORS
330
3497B
102
}
330
3497B
100
AcDbXrecord
280
     1
270
     1
271
     1
  0
XRECORD
  5
34981
102
{ACAD_REACTORS
330
3497B
102
}
330
3497B
100
AcDbXrecord
280
     1
270
     1
271
     1
  0
XRECORD
  5
3497E
102
{ACAD_REACTORS
330
3497B
102
}
330
3497B
100
AcDbXrecord
280
     1
270
     1
271
     1
  0
XRECORD
  5
3498D
102
{ACAD_REACTORS
330
3498B
102
}
330
3498B
100
AcDbXrecord
280
     1
270
     1
271
     1
  0
XRECORD
  5
3498C
102
{ACAD_REACTORS
330
3498B
102
}
330
3498B
100
AcDbXrecord
280
     1
270
     1
271
     1
  0
XRECORD
  5
34990
102
{ACAD_REACTORS
330
3498B
102
}
330
3498B
100
AcDbXrecord
280
     1
270
     1
271
     1
  0
XRECORD
  5
3498F
102
{ACAD_REACTORS
330
3498B
102
}
330
3498B
100
AcDbXrecord
280
     1
270
     1
271
     1
  0
XRECORD
  5
34991
102
{ACAD_REACTORS
330
3498B
102
}
330
3498B
100
AcDbXrecord
280
     1
270
     1
271
     1
  0
XRECORD
  5
3498E
102
{ACAD_REACTORS
330
3498B
102
}
330
3498B
100
AcDbXrecord
280
     1
270
     1
271
     1
  0
XRECORD
  5
40BE9
102
{ACAD_REACTORS
330
40BE8
102
}
330
40BE8
100
AcDbXrecord
280
     1
102
DISPLAYNAME
  1
Metric50
102
FLAGS
 90
        0
  0
CELLSTYLEMAP
  5
40BA9
102
{ACAD_REACTORS
330
34A71
102
}
330
34A71
100
AcDbCellStyleMap
 90
        3
300
CELLSTYLE
  1
TABLEFORMAT_BEGIN
 90
        5
170
     1
 91
        0
 92
    32768
 62
   257
 93
        1
300
CONTENTFORMAT
  1
CONTENTFORMAT_BEGIN
 90
        0
 91
        0
 92
      512
 93
        0
300

 40
0.0
140
1.0
 94
        5
 62
     0
340
11
144
6.0
309
CONTENTFORMAT_END
171
     1
301
MARGIN
  1
CELLMARGIN_BEGIN
 40
1.5
 40
1.5
 40
1.5
 40
1.5
 40
0.18
 40
0.18
309
CELLMARGIN_END
 94
        6
 95
        1
302
GRIDFORMAT
  1
GRIDFORMAT_BEGIN
 90
        0
 91
        1
 62
     0
 92
       -2
340
0
 93
        0
 40
1.125
309
GRIDFORMAT_END
 95
        2
302
GRIDFORMAT
  1
GRIDFORMAT_BEGIN
 90
        0
 91
        1
 62
     0
 92
       -2
340
0
 93
        0
 40
1.125
309
GRIDFORMAT_END
 95
        4
302
GRIDFORMAT
  1
GRIDFORMAT_BEGIN
 90
        0
 91
        1
 62
     0
 92
       -2
340
0
 93
        0
 40
1.125
309
GRIDFORMAT_END
 95
        8
302
GRIDFORMAT
  1
GRIDFORMAT_BEGIN
 90
        0
 91
        1
 62
     0
 92
       -2
340
0
 93
        0
 40
1.125
309
GRIDFORMAT_END
 95
       16
302
GRIDFORMAT
  1
GRIDFORMAT_BEGIN
 90
        0
 91
        1
 62
     0
 92
       -2
340
0
 93
        0
 40
1.125
309
GRIDFORMAT_END
 95
       32
302
GRIDFORMAT
  1
GRIDFORMAT_BEGIN
 90
        0
 91
        1
 62
     0
 92
       -2
340
0
 93
        0
 40
1.125
309
GRIDFORMAT_END
309
TABLEFORMAT_END
  1
CELLSTYLE_BEGIN
 90
        1
 91
        1
300
_TITLE
309
CELLSTYLE_END
300
CELLSTYLE
  1
TABLEFORMAT_BEGIN
 90
        5
170
     1
 91
        0
 92
        0
 62
   257
 93
        1
300
CONTENTFORMAT
  1
CONTENTFORMAT_BEGIN
 90
        0
 91
        0
 92
      512
 93
        0
300

 40
0.0
140
1.0
 94
        5
 62
     0
340
11
144
4.5
309
CONTENTFORMAT_END
171
     1
301
MARGIN
  1
CELLMARGIN_BEGIN
 40
1.5
 40
1.5
 40
1.5
 40
1.5
 40
0.18
 40
0.18
309
CELLMARGIN_END
 94
        6
 95
        1
302
GRIDFORMAT
  1
GRIDFORMAT_BEGIN
 90
        0
 91
        1
 62
     0
 92
       -2
340
0
 93
        0
 40
1.125
309
GRIDFORMAT_END
 95
        2
302
GRIDFORMAT
  1
GRIDFORMAT_BEGIN
 90
        0
 91
        1
 62
     0
 92
       -2
340
0
 93
        0
 40
1.125
309
GRIDFORMAT_END
 95
        4
302
GRIDFORMAT
  1
GRIDFORMAT_BEGIN
 90
        0
 91
        1
 62
     0
 92
       -2
340
0
 93
        0
 40
1.125
309
GRIDFORMAT_END
 95
        8
302
GRIDFORMAT
  1
GRIDFORMAT_BEGIN
 90
        0
 91
        1
 62
     0
 92
       -2
340
0
 93
        0
 40
1.125
309
GRIDFORMAT_END
 95
       16
302
GRIDFORMAT
  1
GRIDFORMAT_BEGIN
 90
        0
 91
        1
 62
     0
 92
       -2
340
0
 93
        0
 40
1.125
309
GRIDFORMAT_END
 95
       32
302
GRIDFORMAT
  1
GRIDFORMAT_BEGIN
 90
        0
 91
        1
 62
     0
 92
       -2
340
0
 93
        0
 40
1.125
309
GRIDFORMAT_END
309
TABLEFORMAT_END
  1
CELLSTYLE_BEGIN
 90
        2
 91
        1
300
_HEADER
309
CELLSTYLE_END
300
CELLSTYLE
  1
TABLEFORMAT_BEGIN
 90
        5
170
     1
 91
        0
 92
        0
 62
   257
 93
        1
300
CONTENTFORMAT
  1
CONTENTFORMAT_BEGIN
 90
        0
 91
        0
 92
      512
 93
        0
300

 40
0.0
140
1.0
 94
        2
 62
     0
340
11
144
4.5
309
CONTENTFORMAT_END
171
     1
301
MARGIN
  1
CELLMARGIN_BEGIN
 40
1.5
 40
1.5
 40
1.5
 40
1.5
 40
0.18
 40
0.18
309
CELLMARGIN_END
 94
        6
 95
        1
302
GRIDFORMAT
  1
GRIDFORMAT_BEGIN
 90
        0
 91
        1
 62
     0
 92
       -2
340
0
 93
        0
 40
1.125
309
GRIDFORMAT_END
 95
        2
302
GRIDFORMAT
  1
GRIDFORMAT_BEGIN
 90
        0
 91
        1
 62
     0
 92
       -2
340
0
 93
        0
 40
1.125
309
GRIDFORMAT_END
 95
        4
302
GRIDFORMAT
  1
GRIDFORMAT_BEGIN
 90
        0
 91
        1
 62
     0
 92
       -2
340
0
 93
        0
 40
1.125
309
GRIDFORMAT_END
 95
        8
302
GRIDFORMAT
  1
GRIDFORMAT_BEGIN
 90
        0
 91
        1
 62
     0
 92
       -2
340
0
 93
        0
 40
1.125
309
GRIDFORMAT_END
 95
       16
302
GRIDFORMAT
  1
GRIDFORMAT_BEGIN
 90
        0
 91
        1
 62
     0
 92
       -2
340
0
 93
        0
 40
1.125
309
GRIDFORMAT_END
 95
       32
302
GRIDFORMAT
  1
GRIDFORMAT_BEGIN
 90
        0
 91
        1
 62
     0
 92
       -2
340
0
 93
        0
 40
1.125
309
GRIDFORMAT_END
309
TABLEFORMAT_END
  1
CELLSTYLE_BEGIN
 90
        3
 91
        2
300
_DATA
309
CELLSTYLE_END
  0
XRECORD
  5
40BBF
102
{ACAD_REACTORS
330
40BBE
102
}
330
40BBE
100
AcDbXrecord
280
     1
102
RTVSPost2010Prop28
280
     1
102
RTVSPost2010PropOp28
 70
     1
102
RTVSPost2010Prop29
280
     1
102
RTVSPost2010PropOp29
 70
     1
102
RTVSPost2010Prop30
280
     0
102
RTVSPost2010PropOp30
 70
     1
102
RTVSPost2010Prop31
280
     0
102
RTVSPost2010PropOp31
 70
     1
102
RTVSPost2010Prop32
280
     0
102
RTVSPost2010PropOp32
 70
     1
102
RTVSPost2010Prop33
280
     0
102
RTVSPost2010PropOp33
 70
     1
102
RTVSPost2010Prop34
280
     0
102
RTVSPost2010PropOp34
 70
     1
102
RTVSPost2010Prop35
280
     0
102
RTVSPost2010PropOp35
 70
     1
102
RTVSPost2010Prop36
280
     0
102
RTVSPost2010PropOp36
 70
     1
102
RTVSPost2010Prop37
 90
       50
102
RTVSPost2010PropOp37
 70
     1
102
RTVSPost2010Prop38
140
0.0
102
RTVSPost2010PropOp38
 70
     1
102
RTVSPost2010Prop39
140
1.0
102
RTVSPost2010PropOp39
 70
     1
102
RTVSPost2010Prop40
 90
        0
102
RTVSPost2010PropOp40
 70
     1
102
RTVSPost2010Prop41ColorIndex
 90
       18
102
RTVSPost2010Prop41ColorRGB
 90
-16777216
102
RTVSPost2010PropOp41
 70
     1
102
RTVSPost2010Prop42
 90
       50
102
RTVSPost2010PropOp42
 70
     1
102
RTVSPost2010Prop43
 90
        3
102
RTVSPost2010PropOp43
 70
     1
102
RTVSPost2010Prop44ColorIndex
 90
        5
102
RTVSPost2010Prop44ColorRGB
 90
      255
102
RTVSPost2010PropOp44
 70
     1
102
RTVSPost2010Prop45
280
     0
102
RTVSPost2010PropOp45
 70
     1
102
RTVSPost2010Prop46
 90
       50
102
RTVSPost2010PropOp46
 70
     1
102
RTVSPost2010Prop47
 90
       50
102
RTVSPost2010PropOp47
 70
     1
102
RTVSPost2010Prop48
 90
       50
102
RTVSPost2010PropOp48
 70
     1
102
RTVSPost2010Prop49
280
     0
102
RTVSPost2010PropOp49
 70
     1
102
RTVSPost2010Prop50
 90
       50
102
RTVSPost2010PropOp50
 70
     1
102
RTVSPost2010Prop51ColorIndex
 90
      256
102
RTVSPost2010Prop51ColorRGB
 90
-16777216
102
RTVSPost2010PropOp51
 70
     0
102
RTVSPost2010Prop52
140
1.0
102
RTVSPost2010PropOp52
 70
     0
102
RTVSPost2010Prop53
 90
        2
102
RTVSPost2010PropOp53
 70
     1
102
RTVSPost2010Prop54
  1
strokes_ogs.tif
102
RTVSPost2010PropOp54
 70
     1
102
RTVSPost2010Prop55
280
     0
102
RTVSPost2010PropOp55
 70
     1
102
RTVSPost2010Prop56
140
1.0
102
RTVSPost2010PropOp56
 70
     1
102
RTVSPost2010Prop57
140
1.0
102
RTVSPost2010PropOp57
 70
     1
  0
XRECORD
  5
40BC3
102
{ACAD_REACTORS
330
40BC2
102
}
330
40BC2
100
AcDbXrecord
280
     1
102
RTVSPost2010Prop28
280
     0
102
RTVSPost2010PropOp28
 70
     1
102
RTVSPost2010Prop29
280
     1
102
RTVSPost2010PropOp29
 70
     1
102
RTVSPost2010Prop30
280
     1
102
RTVSPost2010PropOp30
 70
     1
102
RTVSPost2010Prop31
280
     0
102
RTVSPost2010PropOp31
 70
     1
102
RTVSPost2010Prop32
280
     0
102
RTVSPost2010PropOp32
 70
     1
102
RTVSPost2010Prop33
280
     0
102
RTVSPost2010PropOp33
 70
     1
102
RTVSPost2010Prop34
280
     0
102
RTVSPost2010PropOp34
 70
     1
102
RTVSPost2010Prop35
280
     0
102
RTVSPost2010PropOp35
 70
     1
102
RTVSPost2010Prop36
280
     0
102
RTVSPost2010PropOp36
 70
     1
102
RTVSPost2010Prop37
 90
       50
102
RTVSPost2010PropOp37
 70
     1
102
RTVSPost2010Prop38
140
0.0
102
RTVSPost2010PropOp38
 70
     1
102
RTVSPost2010Prop39
140
1.0
102
RTVSPost2010PropOp39
 70
     1
102
RTVSPost2010Prop40
 90
        0
102
RTVSPost2010PropOp40
 70
     1
102
RTVSPost2010Prop41ColorIndex
 90
       18
102
RTVSPost2010Prop41ColorRGB
 90
-16777216
102
RTVSPost2010PropOp41
 70
     1
102
RTVSPost2010Prop42
 90
       50
102
RTVSPost2010PropOp42
 70
     1
102
RTVSPost2010Prop43
 90
        3
102
RTVSPost2010PropOp43
 70
     1
102
RTVSPost2010Prop44ColorIndex
 90
        5
102
RTVSPost2010Prop44ColorRGB
 90
      255
102
RTVSPost2010PropOp44
 70
     1
102
RTVSPost2010Prop45
280
     0
102
RTVSPost2010PropOp45
 70
     1
102
RTVSPost2010Prop46
 90
       50
102
RTVSPost2010PropOp46
 70
     1
102
RTVSPost2010Prop47
 90
       50
102
RTVSPost2010PropOp47
 70
     1
102
RTVSPost2010Prop48
 90
       50
102
RTVSPost2010PropOp48
 70
     1
102
RTVSPost2010Prop49
280
     0
102
RTVSPost2010PropOp49
 70
     1
102
RTVSPost2010Prop50
 90
       50
102
RTVSPost2010PropOp50
 70
     1
102
RTVSPost2010Prop51ColorIndex
 90
      256
102
RTVSPost2010Prop51ColorRGB
 90
-16777216
102
RTVSPost2010PropOp51
 70
     0
102
RTVSPost2010Prop52
140
1.0
102
RTVSPost2010PropOp52
 70
     0
102
RTVSPost2010Prop53
 90
        2
102
RTVSPost2010PropOp53
 70
     1
102
RTVSPost2010Prop54
  1
strokes_ogs.tif
102
RTVSPost2010PropOp54
 70
     1
102
RTVSPost2010Prop55
280
     0
102
RTVSPost2010PropOp55
 70
     1
102
RTVSPost2010Prop56
140
1.0
102
RTVSPost2010PropOp56
 70
     1
102
RTVSPost2010Prop57
140
1.0
102
RTVSPost2010PropOp57
 70
     1
  0
XRECORD
  5
40BC1
102
{ACAD_REACTORS
330
40BC0
102
}
330
40BC0
100
AcDbXrecord
280
     1
102
RTVSPost2010Prop28
280
     0
102
RTVSPost2010PropOp28
 70
     1
102
RTVSPost2010Prop29
280
     1
102
RTVSPost2010PropOp29
 70
     1
102
RTVSPost2010Prop30
280
     1
102
RTVSPost2010PropOp30
 70
     1
102
RTVSPost2010Prop31
280
     0
102
RTVSPost2010PropOp31
 70
     1
102
RTVSPost2010Prop32
280
     0
102
RTVSPost2010PropOp32
 70
     1
102
RTVSPost2010Prop33
280
     0
102
RTVSPost2010PropOp33
 70
     1
102
RTVSPost2010Prop34
280
     0
102
RTVSPost2010PropOp34
 70
     1
102
RTVSPost2010Prop35
280
     0
102
RTVSPost2010PropOp35
 70
     1
102
RTVSPost2010Prop36
280
     0
102
RTVSPost2010PropOp36
 70
     1
102
RTVSPost2010Prop37
 90
       50
102
RTVSPost2010PropOp37
 70
     1
102
RTVSPost2010Prop38
140
0.0
102
RTVSPost2010PropOp38
 70
     1
102
RTVSPost2010Prop39
140
1.0
102
RTVSPost2010PropOp39
 70
     1
102
RTVSPost2010Prop40
 90
        0
102
RTVSPost2010PropOp40
 70
     1
102
RTVSPost2010Prop41ColorIndex
 90
       18
102
RTVSPost2010Prop41ColorRGB
 90
-16777216
102
RTVSPost2010PropOp41
 70
     1
102
RTVSPost2010Prop42
 90
       50
102
RTVSPost2010PropOp42
 70
     1
102
RTVSPost2010Prop43
 90
        3
102
RTVSPost2010PropOp43
 70
     1
102
RTVSPost2010Prop44ColorIndex
 90
        5
102
RTVSPost2010Prop44ColorRGB
 90
      255
102
RTVSPost2010PropOp44
 70
     1
102
RTVSPost2010Prop45
280
     0
102
RTVSPost2010PropOp45
 70
     1
102
RTVSPost2010Prop46
 90
       50
102
RTVSPost2010PropOp46
 70
     1
102
RTVSPost2010Prop47
 90
       50
102
RTVSPost2010PropOp47
 70
     1
102
RTVSPost2010Prop48
 90
       50
102
RTVSPost2010PropOp48
 70
     1
102
RTVSPost2010Prop49
280
     0
102
RTVSPost2010PropOp49
 70
     1
102
RTVSPost2010Prop50
 90
       50
102
RTVSPost2010PropOp50
 70
     1
102
RTVSPost2010Prop51ColorIndex
 90
      256
102
RTVSPost2010Prop51ColorRGB
 90
-16777216
102
RTVSPost2010PropOp51
 70
     0
102
RTVSPost2010Prop52
140
1.0
102
RTVSPost2010PropOp52
 70
     0
102
RTVSPost2010Prop53
 90
        2
102
RTVSPost2010PropOp53
 70
     1
102
RTVSPost2010Prop54
  1
strokes_ogs.tif
102
RTVSPost2010PropOp54
 70
     1
102
RTVSPost2010Prop55
280
     0
102
RTVSPost2010PropOp55
 70
     1
102
RTVSPost2010Prop56
140
1.0
102
RTVSPost2010PropOp56
 70
     1
102
RTVSPost2010Prop57
140
1.0
102
RTVSPost2010PropOp57
 70
     1
  0
XRECORD
  5
40BBD
102
{ACAD_REACTORS
330
40BBC
102
}
330
40BBC
100
AcDbXrecord
280
     1
102
RTVSPost2010Prop28
280
     0
102
RTVSPost2010PropOp28
 70
     1
102
RTVSPost2010Prop29
280
     1
102
RTVSPost2010PropOp29
 70
     1
102
RTVSPost2010Prop30
280
     1
102
RTVSPost2010PropOp30
 70
     1
102
RTVSPost2010Prop31
280
     0
102
RTVSPost2010PropOp31
 70
     1
102
RTVSPost2010Prop32
280
     0
102
RTVSPost2010PropOp32
 70
     1
102
RTVSPost2010Prop33
280
     0
102
RTVSPost2010PropOp33
 70
     1
102
RTVSPost2010Prop34
280
     0
102
RTVSPost2010PropOp34
 70
     1
102
RTVSPost2010Prop35
280
     0
102
RTVSPost2010PropOp35
 70
     1
102
RTVSPost2010Prop36
280
     0
102
RTVSPost2010PropOp36
 70
     1
102
RTVSPost2010Prop37
 90
       50
102
RTVSPost2010PropOp37
 70
     1
102
RTVSPost2010Prop38
140
0.0
102
RTVSPost2010PropOp38
 70
     1
102
RTVSPost2010Prop39
140
1.0
102
RTVSPost2010PropOp39
 70
     1
102
RTVSPost2010Prop40
 90
        0
102
RTVSPost2010PropOp40
 70
     1
102
RTVSPost2010Prop41ColorIndex
 90
       18
102
RTVSPost2010Prop41ColorRGB
 90
-16777216
102
RTVSPost2010PropOp41
 70
     1
102
RTVSPost2010Prop42
 90
       50
102
RTVSPost2010PropOp42
 70
     1
102
RTVSPost2010Prop43
 90
        3
102
RTVSPost2010PropOp43
 70
     1
102
RTVSPost2010Prop44ColorIndex
 90
        5
102
RTVSPost2010Prop44ColorRGB
 90
      255
102
RTVSPost2010PropOp44
 70
     1
102
RTVSPost2010Prop45
280
     0
102
RTVSPost2010PropOp45
 70
     1
102
RTVSPost2010Prop46
 90
       50
102
RTVSPost2010PropOp46
 70
     1
102
RTVSPost2010Prop47
 90
       50
102
RTVSPost2010PropOp47
 70
     1
102
RTVSPost2010Prop48
 90
       50
102
RTVSPost2010PropOp48
 70
     1
102
RTVSPost2010Prop49
280
     0
102
RTVSPost2010PropOp49
 70
     1
102
RTVSPost2010Prop50
 90
       50
102
RTVSPost2010PropOp50
 70
     1
102
RTVSPost2010Prop51ColorIndex
 90
      256
102
RTVSPost2010Prop51ColorRGB
 90
-16777216
102
RTVSPost2010PropOp51
 70
     0
102
RTVSPost2010Prop52
140
1.0
102
RTVSPost2010PropOp52
 70
     0
102
RTVSPost2010Prop53
 90
        2
102
RTVSPost2010PropOp53
 70
     1
102
RTVSPost2010Prop54
  1
strokes_ogs.tif
102
RTVSPost2010PropOp54
 70
     1
102
RTVSPost2010Prop55
280
     0
102
RTVSPost2010PropOp55
 70
     1
102
RTVSPost2010Prop56
140
1.0
102
RTVSPost2010PropOp56
 70
     1
102
RTVSPost2010Prop57
140
1.0
102
RTVSPost2010PropOp57
 70
     1
  0
XRECORD
  5
40BCB
102
{ACAD_REACTORS
330
40BCA
102
}
330
40BCA
100
AcDbXrecord
280
     1
102
RTVSPost2010Prop28
280
     0
102
RTVSPost2010PropOp28
 70
     1
102
RTVSPost2010Prop29
280
     1
102
RTVSPost2010PropOp29
 70
     1
102
RTVSPost2010Prop30
280
     1
102
RTVSPost2010PropOp30
 70
     1
102
RTVSPost2010Prop31
280
     0
102
RTVSPost2010PropOp31
 70
     1
102
RTVSPost2010Prop32
280
     0
102
RTVSPost2010PropOp32
 70
     1
102
RTVSPost2010Prop33
280
     0
102
RTVSPost2010PropOp33
 70
     1
102
RTVSPost2010Prop34
280
     0
102
RTVSPost2010PropOp34
 70
     1
102
RTVSPost2010Prop35
280
     0
102
RTVSPost2010PropOp35
 70
     1
102
RTVSPost2010Prop36
280
     0
102
RTVSPost2010PropOp36
 70
     1
102
RTVSPost2010Prop37
 90
       50
102
RTVSPost2010PropOp37
 70
     1
102
RTVSPost2010Prop38
140
0.0
102
RTVSPost2010PropOp38
 70
     1
102
RTVSPost2010Prop39
140
1.0
102
RTVSPost2010PropOp39
 70
     1
102
RTVSPost2010Prop40
 90
        0
102
RTVSPost2010PropOp40
 70
     1
102
RTVSPost2010Prop41ColorIndex
 90
       18
102
RTVSPost2010Prop41ColorRGB
 90
-16777216
102
RTVSPost2010PropOp41
 70
     1
102
RTVSPost2010Prop42
 90
       50
102
RTVSPost2010PropOp42
 70
     1
102
RTVSPost2010Prop43
 90
        3
102
RTVSPost2010PropOp43
 70
     1
102
RTVSPost2010Prop44ColorIndex
 90
        5
102
RTVSPost2010Prop44ColorRGB
 90
      255
102
RTVSPost2010PropOp44
 70
     1
102
RTVSPost2010Prop45
280
     0
102
RTVSPost2010PropOp45
 70
     1
102
RTVSPost2010Prop46
 90
       50
102
RTVSPost2010PropOp46
 70
     1
102
RTVSPost2010Prop47
 90
       50
102
RTVSPost2010PropOp47
 70
     1
102
RTVSPost2010Prop48
 90
       50
102
RTVSPost2010PropOp48
 70
     1
102
RTVSPost2010Prop49
280
     0
102
RTVSPost2010PropOp49
 70
     1
102
RTVSPost2010Prop50
 90
       50
102
RTVSPost2010PropOp50
 70
     1
102
RTVSPost2010Prop51ColorIndex
 90
      256
102
RTVSPost2010Prop51ColorRGB
 90
-16777216
102
RTVSPost2010PropOp51
 70
     0
102
RTVSPost2010Prop52
140
1.0
102
RTVSPost2010PropOp52
 70
     0
102
RTVSPost2010Prop53
 90
        2
102
RTVSPost2010PropOp53
 70
     1
102
RTVSPost2010Prop54
  1
strokes_ogs.tif
102
RTVSPost2010PropOp54
 70
     1
102
RTVSPost2010Prop55
280
     0
102
RTVSPost2010PropOp55
 70
     1
102
RTVSPost2010Prop56
140
1.0
102
RTVSPost2010PropOp56
 70
     1
102
RTVSPost2010Prop57
140
1.0
102
RTVSPost2010PropOp57
 70
     1
  0
XRECORD
  5
40BD3
102
{ACAD_REACTORS
330
40BD2
102
}
330
40BD2
100
AcDbXrecord
280
     1
102
RTVSPost2010Prop28
280
     0
102
RTVSPost2010PropOp28
 70
     1
102
RTVSPost2010Prop29
280
     1
102
RTVSPost2010PropOp29
 70
     1
102
RTVSPost2010Prop30
280
     1
102
RTVSPost2010PropOp30
 70
     1
102
RTVSPost2010Prop31
280
     0
102
RTVSPost2010PropOp31
 70
     1
102
RTVSPost2010Prop32
280
     0
102
RTVSPost2010PropOp32
 70
     1
102
RTVSPost2010Prop33
280
     0
102
RTVSPost2010PropOp33
 70
     1
102
RTVSPost2010Prop34
280
     0
102
RTVSPost2010PropOp34
 70
     1
102
RTVSPost2010Prop35
280
     0
102
RTVSPost2010PropOp35
 70
     1
102
RTVSPost2010Prop36
280
     0
102
RTVSPost2010PropOp36
 70
     1
102
RTVSPost2010Prop37
 90
       50
102
RTVSPost2010PropOp37
 70
     1
102
RTVSPost2010Prop38
140
0.0
102
RTVSPost2010PropOp38
 70
     1
102
RTVSPost2010Prop39
140
1.0
102
RTVSPost2010PropOp39
 70
     1
102
RTVSPost2010Prop40
 90
        0
102
RTVSPost2010PropOp40
 70
     1
102
RTVSPost2010Prop41ColorIndex
 90
       18
102
RTVSPost2010Prop41ColorRGB
 90
-16777216
102
RTVSPost2010PropOp41
 70
     1
102
RTVSPost2010Prop42
 90
       50
102
RTVSPost2010PropOp42
 70
     1
102
RTVSPost2010Prop43
 90
        3
102
RTVSPost2010PropOp43
 70
     1
102
RTVSPost2010Prop44ColorIndex
 90
        5
102
RTVSPost2010Prop44ColorRGB
 90
      255
102
RTVSPost2010PropOp44
 70
     1
102
RTVSPost2010Prop45
280
     0
102
RTVSPost2010PropOp45
 70
     1
102
RTVSPost2010Prop46
 90
       50
102
RTVSPost2010PropOp46
 70
     1
102
RTVSPost2010Prop47
 90
       50
102
RTVSPost2010PropOp47
 70
     1
102
RTVSPost2010Prop48
 90
       50
102
RTVSPost2010PropOp48
 70
     1
102
RTVSPost2010Prop49
280
     0
102
RTVSPost2010PropOp49
 70
     1
102
RTVSPost2010Prop50
 90
       50
102
RTVSPost2010PropOp50
 70
     1
102
RTVSPost2010Prop51ColorIndex
 90
      256
102
RTVSPost2010Prop51ColorRGB
 90
-16777216
102
RTVSPost2010PropOp51
 70
     0
102
RTVSPost2010Prop52
140
1.0
102
RTVSPost2010PropOp52
 70
     0
102
RTVSPost2010Prop53
 90
        2
102
RTVSPost2010PropOp53
 70
     1
102
RTVSPost2010Prop54
  1
strokes_ogs.tif
102
RTVSPost2010PropOp54
 70
     1
102
RTVSPost2010Prop55
280
     0
102
RTVSPost2010PropOp55
 70
     1
102
RTVSPost2010Prop56
140
1.0
102
RTVSPost2010PropOp56
 70
     1
102
RTVSPost2010Prop57
140
1.0
102
RTVSPost2010PropOp57
 70
     1
  0
XRECORD
  5
40BC5
102
{ACAD_REACTORS
330
40BC4
102
}
330
40BC4
100
AcDbXrecord
280
     1
102
RTVSPost2010Prop28
280
     0
102
RTVSPost2010PropOp28
 70
     1
102
RTVSPost2010Prop29
280
     1
102
RTVSPost2010PropOp29
 70
     1
102
RTVSPost2010Prop30
280
     1
102
RTVSPost2010PropOp30
 70
     1
102
RTVSPost2010Prop31
280
     0
102
RTVSPost2010PropOp31
 70
     1
102
RTVSPost2010Prop32
280
     0
102
RTVSPost2010PropOp32
 70
     1
102
RTVSPost2010Prop33
280
     0
102
RTVSPost2010PropOp33
 70
     1
102
RTVSPost2010Prop34
280
     0
102
RTVSPost2010PropOp34
 70
     1
102
RTVSPost2010Prop35
280
     0
102
RTVSPost2010PropOp35
 70
     1
102
RTVSPost2010Prop36
280
     0
102
RTVSPost2010PropOp36
 70
     1
102
RTVSPost2010Prop37
 90
       50
102
RTVSPost2010PropOp37
 70
     1
102
RTVSPost2010Prop38
140
0.0
102
RTVSPost2010PropOp38
 70
     1
102
RTVSPost2010Prop39
140
1.0
102
RTVSPost2010PropOp39
 70
     1
102
RTVSPost2010Prop40
 90
        0
102
RTVSPost2010PropOp40
 70
     1
102
RTVSPost2010Prop41ColorIndex
 90
       18
102
RTVSPost2010Prop41ColorRGB
 90
-16777216
102
RTVSPost2010PropOp41
 70
     1
102
RTVSPost2010Prop42
 90
       50
102
RTVSPost2010PropOp42
 70
     1
102
RTVSPost2010Prop43
 90
        3
102
RTVSPost2010PropOp43
 70
     1
102
RTVSPost2010Prop44ColorIndex
 90
        5
102
RTVSPost2010Prop44ColorRGB
 90
      255
102
RTVSPost2010PropOp44
 70
     1
102
RTVSPost2010Prop45
280
     0
102
RTVSPost2010PropOp45
 70
     1
102
RTVSPost2010Prop46
 90
       50
102
RTVSPost2010PropOp46
 70
     1
102
RTVSPost2010Prop47
 90
       50
102
RTVSPost2010PropOp47
 70
     1
102
RTVSPost2010Prop48
 90
       50
102
RTVSPost2010PropOp48
 70
     1
102
RTVSPost2010Prop49
280
     0
102
RTVSPost2010PropOp49
 70
     1
102
RTVSPost2010Prop50
 90
       50
102
RTVSPost2010PropOp50
 70
     1
102
RTVSPost2010Prop51ColorIndex
 90
      256
102
RTVSPost2010Prop51ColorRGB
 90
-16777216
102
RTVSPost2010PropOp51
 70
     0
102
RTVSPost2010Prop52
140
1.0
102
RTVSPost2010PropOp52
 70
     0
102
RTVSPost2010Prop53
 90
        2
102
RTVSPost2010PropOp53
 70
     1
102
RTVSPost2010Prop54
  1
strokes_ogs.tif
102
RTVSPost2010PropOp54
 70
     1
102
RTVSPost2010Prop55
280
     0
102
RTVSPost2010PropOp55
 70
     1
102
RTVSPost2010Prop56
140
1.0
102
RTVSPost2010PropOp56
 70
     1
102
RTVSPost2010Prop57
140
1.0
102
RTVSPost2010PropOp57
 70
     1
  0
XRECORD
  5
40BC9
102
{ACAD_REACTORS
330
40BC8
102
}
330
40BC8
100
AcDbXrecord
280
     1
102
RTVSPost2010Prop28
280
     0
102
RTVSPost2010PropOp28
 70
     1
102
RTVSPost2010Prop29
280
     1
102
RTVSPost2010PropOp29
 70
     1
102
RTVSPost2010Prop30
280
     1
102
RTVSPost2010PropOp30
 70
     1
102
RTVSPost2010Prop31
280
     0
102
RTVSPost2010PropOp31
 70
     1
102
RTVSPost2010Prop32
280
     0
102
RTVSPost2010PropOp32
 70
     1
102
RTVSPost2010Prop33
280
     0
102
RTVSPost2010PropOp33
 70
     1
102
RTVSPost2010Prop34
280
     0
102
RTVSPost2010PropOp34
 70
     1
102
RTVSPost2010Prop35
280
     0
102
RTVSPost2010PropOp35
 70
     1
102
RTVSPost2010Prop36
280
     0
102
RTVSPost2010PropOp36
 70
     1
102
RTVSPost2010Prop37
 90
       50
102
RTVSPost2010PropOp37
 70
     1
102
RTVSPost2010Prop38
140
0.0
102
RTVSPost2010PropOp38
 70
     1
102
RTVSPost2010Prop39
140
1.0
102
RTVSPost2010PropOp39
 70
     1
102
RTVSPost2010Prop40
 90
        0
102
RTVSPost2010PropOp40
 70
     1
102
RTVSPost2010Prop41ColorIndex
 90
       18
102
RTVSPost2010Prop41ColorRGB
 90
-16777216
102
RTVSPost2010PropOp41
 70
     1
102
RTVSPost2010Prop42
 90
       50
102
RTVSPost2010PropOp42
 70
     1
102
RTVSPost2010Prop43
 90
        3
102
RTVSPost2010PropOp43
 70
     1
102
RTVSPost2010Prop44ColorIndex
 90
        5
102
RTVSPost2010Prop44ColorRGB
 90
      255
102
RTVSPost2010PropOp44
 70
     1
102
RTVSPost2010Prop45
280
     0
102
RTVSPost2010PropOp45
 70
     1
102
RTVSPost2010Prop46
 90
       50
102
RTVSPost2010PropOp46
 70
     1
102
RTVSPost2010Prop47
 90
       50
102
RTVSPost2010PropOp47
 70
     1
102
RTVSPost2010Prop48
 90
       50
102
RTVSPost2010PropOp48
 70
     1
102
RTVSPost2010Prop49
280
     0
102
RTVSPost2010PropOp49
 70
     1
102
RTVSPost2010Prop50
 90
       50
102
RTVSPost2010PropOp50
 70
     1
102
RTVSPost2010Prop51ColorIndex
 90
      256
102
RTVSPost2010Prop51ColorRGB
 90
-16777216
102
RTVSPost2010PropOp51
 70
     0
102
RTVSPost2010Prop52
140
1.0
102
RTVSPost2010PropOp52
 70
     0
102
RTVSPost2010Prop53
 90
        2
102
RTVSPost2010PropOp53
 70
     1
102
RTVSPost2010Prop54
  1
strokes_ogs.tif
102
RTVSPost2010PropOp54
 70
     1
102
RTVSPost2010Prop55
280
     0
102
RTVSPost2010PropOp55
 70
     1
102
RTVSPost2010Prop56
140
1.0
102
RTVSPost2010PropOp56
 70
     1
102
RTVSPost2010Prop57
140
1.0
102
RTVSPost2010PropOp57
 70
     1
  0
XRECORD
  5
40BE7
102
{ACAD_REACTORS
330
40BE6
102
}
330
40BE6
100
AcDbXrecord
280
     1
102
RTVSPost2010Prop28
280
     0
102
RTVSPost2010PropOp28
 70
     0
102
RTVSPost2010Prop29
280
     1
102
RTVSPost2010PropOp29
 70
     0
102
RTVSPost2010Prop30
280
     1
102
RTVSPost2010PropOp30
 70
     0
102
RTVSPost2010Prop31
280
     0
102
RTVSPost2010PropOp31
 70
     0
102
RTVSPost2010Prop32
280
     0
102
RTVSPost2010PropOp32
 70
     0
102
RTVSPost2010Prop33
280
     0
102
RTVSPost2010PropOp33
 70
     0
102
RTVSPost2010Prop34
280
     0
102
RTVSPost2010PropOp34
 70
     0
102
RTVSPost2010Prop35
280
     0
102
RTVSPost2010PropOp35
 70
     0
102
RTVSPost2010Prop36
280
     0
102
RTVSPost2010PropOp36
 70
     0
102
RTVSPost2010Prop37
 90
       50
102
RTVSPost2010PropOp37
 70
     0
102
RTVSPost2010Prop38
140
0.0
102
RTVSPost2010PropOp38
 70
     0
102
RTVSPost2010Prop39
140
1.0
102
RTVSPost2010PropOp39
 70
     0
102
RTVSPost2010Prop40
 90
        0
102
RTVSPost2010PropOp40
 70
     0
102
RTVSPost2010Prop41ColorIndex
 90
       18
102
RTVSPost2010Prop41ColorRGB
 90
-16777216
102
RTVSPost2010PropOp41
 70
     0
102
RTVSPost2010Prop42
 90
       50
102
RTVSPost2010PropOp42
 70
     0
102
RTVSPost2010Prop43
 90
        3
102
RTVSPost2010PropOp43
 70
     0
102
RTVSPost2010Prop44ColorIndex
 90
        5
102
RTVSPost2010Prop44ColorRGB
 90
      255
102
RTVSPost2010PropOp44
 70
     0
102
RTVSPost2010Prop45
280
     0
102
RTVSPost2010PropOp45
 70
     0
102
RTVSPost2010Prop46
 90
       50
102
RTVSPost2010PropOp46
 70
     0
102
RTVSPost2010Prop47
 90
       50
102
RTVSPost2010PropOp47
 70
     0
102
RTVSPost2010Prop48
 90
       50
102
RTVSPost2010PropOp48
 70
     0
102
RTVSPost2010Prop49
280
     0
102
RTVSPost2010PropOp49
 70
     0
102
RTVSPost2010Prop50
 90
       50
102
RTVSPost2010PropOp50
 70
     0
102
RTVSPost2010Prop51ColorIndex
 90
      256
102
RTVSPost2010Prop51ColorRGB
 90
-16777216
102
RTVSPost2010PropOp51
 70
     0
102
RTVSPost2010Prop52
140
1.0
102
RTVSPost2010PropOp52
 70
     0
102
RTVSPost2010Prop53
 90
        2
102
RTVSPost2010PropOp53
 70
     0
102
RTVSPost2010Prop54
  1
strokes_ogs.tif
102
RTVSPost2010PropOp54
 70
     0
102
RTVSPost2010Prop55
280
     0
102
RTVSPost2010PropOp55
 70
     0
102
RTVSPost2010Prop56
140
1.0
102
RTVSPost2010PropOp56
 70
     0
102
RTVSPost2010Prop57
140
1.0
102
RTVSPost2010PropOp57
 70
     0
  0
XRECORD
  5
40BD1
102
{ACAD_REACTORS
330
40BD0
102
}
330
40BD0
100
AcDbXrecord
280
     1
102
RTVSPost2010Prop28
280
     0
102
RTVSPost2010PropOp28
 70
     1
102
RTVSPost2010Prop29
280
     1
102
RTVSPost2010PropOp29
 70
     1
102
RTVSPost2010Prop30
280
     1
102
RTVSPost2010PropOp30
 70
     1
102
RTVSPost2010Prop31
280
     0
102
RTVSPost2010PropOp31
 70
     1
102
RTVSPost2010Prop32
280
     0
102
RTVSPost2010PropOp32
 70
     1
102
RTVSPost2010Prop33
280
     0
102
RTVSPost2010PropOp33
 70
     1
102
RTVSPost2010Prop34
280
     0
102
RTVSPost2010PropOp34
 70
     1
102
RTVSPost2010Prop35
280
     0
102
RTVSPost2010PropOp35
 70
     1
102
RTVSPost2010Prop36
280
     0
102
RTVSPost2010PropOp36
 70
     1
102
RTVSPost2010Prop37
 90
       50
102
RTVSPost2010PropOp37
 70
     1
102
RTVSPost2010Prop38
140
0.0
102
RTVSPost2010PropOp38
 70
     1
102
RTVSPost2010Prop39
140
1.0
102
RTVSPost2010PropOp39
 70
     1
102
RTVSPost2010Prop40
 90
        0
102
RTVSPost2010PropOp40
 70
     1
102
RTVSPost2010Prop41ColorIndex
 90
       18
102
RTVSPost2010Prop41ColorRGB
 90
-16777216
102
RTVSPost2010PropOp41
 70
     1
102
RTVSPost2010Prop42
 90
       50
102
RTVSPost2010PropOp42
 70
     1
102
RTVSPost2010Prop43
 90
        3
102
RTVSPost2010PropOp43
 70
     1
102
RTVSPost2010Prop44ColorIndex
 90
        5
102
RTVSPost2010Prop44ColorRGB
 90
      255
102
RTVSPost2010PropOp44
 70
     1
102
RTVSPost2010Prop45
280
     0
102
RTVSPost2010PropOp45
 70
     1
102
RTVSPost2010Prop46
 90
       50
102
RTVSPost2010PropOp46
 70
     1
102
RTVSPost2010Prop47
 90
       50
102
RTVSPost2010PropOp47
 70
     1
102
RTVSPost2010Prop48
 90
       50
102
RTVSPost2010PropOp48
 70
     1
102
RTVSPost2010Prop49
280
     0
102
RTVSPost2010PropOp49
 70
     1
102
RTVSPost2010Prop50
 90
       50
102
RTVSPost2010PropOp50
 70
     1
102
RTVSPost2010Prop51ColorIndex
 90
      256
102
RTVSPost2010Prop51ColorRGB
 90
-16777216
102
RTVSPost2010PropOp51
 70
     0
102
RTVSPost2010Prop52
140
1.0
102
RTVSPost2010PropOp52
 70
     0
102
RTVSPost2010Prop53
 90
        2
102
RTVSPost2010PropOp53
 70
     1
102
RTVSPost2010Prop54
  1
strokes_ogs.tif
102
RTVSPost2010PropOp54
 70
     1
102
RTVSPost2010Prop55
280
     0
102
RTVSPost2010PropOp55
 70
     1
102
RTVSPost2010Prop56
140
1.0
102
RTVSPost2010PropOp56
 70
     1
102
RTVSPost2010Prop57
140
1.0
102
RTVSPost2010PropOp57
 70
     1
  0
XRECORD
  5
40BB5
102
{ACAD_REACTORS
330
40BB4
102
}
330
40BB4
100
AcDbXrecord
280
     1
102
RTVSPost2010Prop28
280
     0
102
RTVSPost2010PropOp28
 70
     1
102
RTVSPost2010Prop29
280
     1
102
RTVSPost2010PropOp29
 70
     1
102
RTVSPost2010Prop30
280
     1
102
RTVSPost2010PropOp30
 70
     1
102
RTVSPost2010Prop31
280
     0
102
RTVSPost2010PropOp31
 70
     1
102
RTVSPost2010Prop32
280
     0
102
RTVSPost2010PropOp32
 70
     1
102
RTVSPost2010Prop33
280
     0
102
RTVSPost2010PropOp33
 70
     1
102
RTVSPost2010Prop34
280
     0
102
RTVSPost2010PropOp34
 70
     1
102
RTVSPost2010Prop35
280
     0
102
RTVSPost2010PropOp35
 70
     1
102
RTVSPost2010Prop36
280
     0
102
RTVSPost2010PropOp36
 70
     1
102
RTVSPost2010Prop37
 90
       50
102
RTVSPost2010PropOp37
 70
     1
102
RTVSPost2010Prop38
140
0.0
102
RTVSPost2010PropOp38
 70
     1
102
RTVSPost2010Prop39
140
1.0
102
RTVSPost2010PropOp39
 70
     1
102
RTVSPost2010Prop40
 90
        0
102
RTVSPost2010PropOp40
 70
     1
102
RTVSPost2010Prop41ColorIndex
 90
       18
102
RTVSPost2010Prop41ColorRGB
 90
-16777216
102
RTVSPost2010PropOp41
 70
     1
102
RTVSPost2010Prop42
 90
       50
102
RTVSPost2010PropOp42
 70
     1
102
RTVSPost2010Prop43
 90
        3
102
RTVSPost2010PropOp43
 70
     1
102
RTVSPost2010Prop44ColorIndex
 90
        5
102
RTVSPost2010Prop44ColorRGB
 90
      255
102
RTVSPost2010PropOp44
 70
     1
102
RTVSPost2010Prop45
280
     0
102
RTVSPost2010PropOp45
 70
     1
102
RTVSPost2010Prop46
 90
       50
102
RTVSPost2010PropOp46
 70
     1
102
RTVSPost2010Prop47
 90
       50
102
RTVSPost2010PropOp47
 70
     1
102
RTVSPost2010Prop48
 90
       50
102
RTVSPost2010PropOp48
 70
     1
102
RTVSPost2010Prop49
280
     0
102
RTVSPost2010PropOp49
 70
     1
102
RTVSPost2010Prop50
 90
       50
102
RTVSPost2010PropOp50
 70
     1
102
RTVSPost2010Prop51ColorIndex
 90
      256
102
RTVSPost2010Prop51ColorRGB
 90
-16777216
102
RTVSPost2010PropOp51
 70
     0
102
RTVSPost2010Prop52
140
1.0
102
RTVSPost2010PropOp52
 70
     0
102
RTVSPost2010Prop53
 90
        2
102
RTVSPost2010PropOp53
 70
     1
102
RTVSPost2010Prop54
  1
strokes_ogs.tif
102
RTVSPost2010PropOp54
 70
     1
102
RTVSPost2010Prop55
280
     0
102
RTVSPost2010PropOp55
 70
     1
102
RTVSPost2010Prop56
140
1.0
102
RTVSPost2010PropOp56
 70
     1
102
RTVSPost2010Prop57
140
1.0
102
RTVSPost2010PropOp57
 70
     1
  0
XRECORD
  5
40BB7
102
{ACAD_REACTORS
330
40BB6
102
}
330
40BB6
100
AcDbXrecord
280
     1
102
RTVSPost2010Prop28
280
     0
102
RTVSPost2010PropOp28
 70
     1
102
RTVSPost2010Prop29
280
     1
102
RTVSPost2010PropOp29
 70
     1
102
RTVSPost2010Prop30
280
     1
102
RTVSPost2010PropOp30
 70
     1
102
RTVSPost2010Prop31
280
     0
102
RTVSPost2010PropOp31
 70
     1
102
RTVSPost2010Prop32
280
     0
102
RTVSPost2010PropOp32
 70
     1
102
RTVSPost2010Prop33
280
     0
102
RTVSPost2010PropOp33
 70
     1
102
RTVSPost2010Prop34
280
     0
102
RTVSPost2010PropOp34
 70
     1
102
RTVSPost2010Prop35
280
     0
102
RTVSPost2010PropOp35
 70
     1
102
RTVSPost2010Prop36
280
     0
102
RTVSPost2010PropOp36
 70
     1
102
RTVSPost2010Prop37
 90
       50
102
RTVSPost2010PropOp37
 70
     1
102
RTVSPost2010Prop38
140
0.0
102
RTVSPost2010PropOp38
 70
     1
102
RTVSPost2010Prop39
140
1.0
102
RTVSPost2010PropOp39
 70
     1
102
RTVSPost2010Prop40
 90
        0
102
RTVSPost2010PropOp40
 70
     1
102
RTVSPost2010Prop41ColorIndex
 90
       18
102
RTVSPost2010Prop41ColorRGB
 90
-16777216
102
RTVSPost2010PropOp41
 70
     1
102
RTVSPost2010Prop42
 90
       50
102
RTVSPost2010PropOp42
 70
     1
102
RTVSPost2010Prop43
 90
        3
102
RTVSPost2010PropOp43
 70
     1
102
RTVSPost2010Prop44ColorIndex
 90
        5
102
RTVSPost2010Prop44ColorRGB
 90
      255
102
RTVSPost2010PropOp44
 70
     1
102
RTVSPost2010Prop45
280
     0
102
RTVSPost2010PropOp45
 70
     1
102
RTVSPost2010Prop46
 90
       50
102
RTVSPost2010PropOp46
 70
     1
102
RTVSPost2010Prop47
 90
       50
102
RTVSPost2010PropOp47
 70
     1
102
RTVSPost2010Prop48
 90
       50
102
RTVSPost2010PropOp48
 70
     1
102
RTVSPost2010Prop49
280
     0
102
RTVSPost2010PropOp49
 70
     1
102
RTVSPost2010Prop50
 90
       50
102
RTVSPost2010PropOp50
 70
     1
102
RTVSPost2010Prop51ColorIndex
 90
      256
102
RTVSPost2010Prop51ColorRGB
 90
-16777216
102
RTVSPost2010PropOp51
 70
     0
102
RTVSPost2010Prop52
140
1.0
102
RTVSPost2010PropOp52
 70
     0
102
RTVSPost2010Prop53
 90
        2
102
RTVSPost2010PropOp53
 70
     1
102
RTVSPost2010Prop54
  1
strokes_ogs.tif
102
RTVSPost2010PropOp54
 70
     1
102
RTVSPost2010Prop55
280
     0
102
RTVSPost2010PropOp55
 70
     1
102
RTVSPost2010Prop56
140
1.0
102
RTVSPost2010PropOp56
 70
     1
102
RTVSPost2010Prop57
140
1.0
102
RTVSPost2010PropOp57
 70
     1
  0
XRECORD
  5
40BB9
102
{ACAD_REACTORS
330
40BB8
102
}
330
40BB8
100
AcDbXrecord
280
     1
102
RTVSPost2010Prop28
280
     0
102
RTVSPost2010PropOp28
 70
     1
102
RTVSPost2010Prop29
280
     1
102
RTVSPost2010PropOp29
 70
     1
102
RTVSPost2010Prop30
280
     1
102
RTVSPost2010PropOp30
 70
     1
102
RTVSPost2010Prop31
280
     0
102
RTVSPost2010PropOp31
 70
     1
102
RTVSPost2010Prop32
280
     0
102
RTVSPost2010PropOp32
 70
     1
102
RTVSPost2010Prop33
280
     0
102
RTVSPost2010PropOp33
 70
     1
102
RTVSPost2010Prop34
280
     0
102
RTVSPost2010PropOp34
 70
     1
102
RTVSPost2010Prop35
280
     0
102
RTVSPost2010PropOp35
 70
     1
102
RTVSPost2010Prop36
280
     0
102
RTVSPost2010PropOp36
 70
     1
102
RTVSPost2010Prop37
 90
       50
102
RTVSPost2010PropOp37
 70
     1
102
RTVSPost2010Prop38
140
0.0
102
RTVSPost2010PropOp38
 70
     1
102
RTVSPost2010Prop39
140
1.0
102
RTVSPost2010PropOp39
 70
     1
102
RTVSPost2010Prop40
 90
        0
102
RTVSPost2010PropOp40
 70
     1
102
RTVSPost2010Prop41ColorIndex
 90
       18
102
RTVSPost2010Prop41ColorRGB
 90
-16777216
102
RTVSPost2010PropOp41
 70
     1
102
RTVSPost2010Prop42
 90
       50
102
RTVSPost2010PropOp42
 70
     1
102
RTVSPost2010Prop43
 90
        3
102
RTVSPost2010PropOp43
 70
     1
102
RTVSPost2010Prop44ColorIndex
 90
        5
102
RTVSPost2010Prop44ColorRGB
 90
      255
102
RTVSPost2010PropOp44
 70
     1
102
RTVSPost2010Prop45
280
     0
102
RTVSPost2010PropOp45
 70
     1
102
RTVSPost2010Prop46
 90
       50
102
RTVSPost2010PropOp46
 70
     1
102
RTVSPost2010Prop47
 90
       50
102
RTVSPost2010PropOp47
 70
     1
102
RTVSPost2010Prop48
 90
       50
102
RTVSPost2010PropOp48
 70
     1
102
RTVSPost2010Prop49
280
     0
102
RTVSPost2010PropOp49
 70
     1
102
RTVSPost2010Prop50
 90
       50
102
RTVSPost2010PropOp50
 70
     1
102
RTVSPost2010Prop51ColorIndex
 90
      256
102
RTVSPost2010Prop51ColorRGB
 90
-16777216
102
RTVSPost2010PropOp51
 70
     0
102
RTVSPost2010Prop52
140
1.0
102
RTVSPost2010PropOp52
 70
     0
102
RTVSPost2010Prop53
 90
        2
102
RTVSPost2010PropOp53
 70
     1
102
RTVSPost2010Prop54
  1
strokes_ogs.tif
102
RTVSPost2010PropOp54
 70
     1
102
RTVSPost2010Prop55
280
     0
102
RTVSPost2010PropOp55
 70
     1
102
RTVSPost2010Prop56
140
1.0
102
RTVSPost2010PropOp56
 70
     1
102
RTVSPost2010Prop57
140
1.0
102
RTVSPost2010PropOp57
 70
     1
  0
XRECORD
  5
40BBB
102
{ACAD_REACTORS
330
40BBA
102
}
330
40BBA
100
AcDbXrecord
280
     1
102
RTVSPost2010Prop28
280
     0
102
RTVSPost2010PropOp28
 70
     1
102
RTVSPost2010Prop29
280
     1
102
RTVSPost2010PropOp29
 70
     1
102
RTVSPost2010Prop30
280
     1
102
RTVSPost2010PropOp30
 70
     1
102
RTVSPost2010Prop31
280
     0
102
RTVSPost2010PropOp31
 70
     1
102
RTVSPost2010Prop32
280
     0
102
RTVSPost2010PropOp32
 70
     1
102
RTVSPost2010Prop33
280
     0
102
RTVSPost2010PropOp33
 70
     1
102
RTVSPost2010Prop34
280
     0
102
RTVSPost2010PropOp34
 70
     1
102
RTVSPost2010Prop35
280
     0
102
RTVSPost2010PropOp35
 70
     1
102
RTVSPost2010Prop36
280
     0
102
RTVSPost2010PropOp36
 70
     1
102
RTVSPost2010Prop37
 90
       50
102
RTVSPost2010PropOp37
 70
     1
102
RTVSPost2010Prop38
140
0.0
102
RTVSPost2010PropOp38
 70
     1
102
RTVSPost2010Prop39
140
1.0
102
RTVSPost2010PropOp39
 70
     1
102
RTVSPost2010Prop40
 90
        0
102
RTVSPost2010PropOp40
 70
     1
102
RTVSPost2010Prop41ColorIndex
 90
       18
102
RTVSPost2010Prop41ColorRGB
 90
-16777216
102
RTVSPost2010PropOp41
 70
     1
102
RTVSPost2010Prop42
 90
       50
102
RTVSPost2010PropOp42
 70
     1
102
RTVSPost2010Prop43
 90
        3
102
RTVSPost2010PropOp43
 70
     1
102
RTVSPost2010Prop44ColorIndex
 90
        5
102
RTVSPost2010Prop44ColorRGB
 90
      255
102
RTVSPost2010PropOp44
 70
     1
102
RTVSPost2010Prop45
280
     0
102
RTVSPost2010PropOp45
 70
     1
102
RTVSPost2010Prop46
 90
       50
102
RTVSPost2010PropOp46
 70
     1
102
RTVSPost2010Prop47
 90
       50
102
RTVSPost2010PropOp47
 70
     1
102
RTVSPost2010Prop48
 90
       50
102
RTVSPost2010PropOp48
 70
     1
102
RTVSPost2010Prop49
280
     0
102
RTVSPost2010PropOp49
 70
     1
102
RTVSPost2010Prop50
 90
       50
102
RTVSPost2010PropOp50
 70
     1
102
RTVSPost2010Prop51ColorIndex
 90
      256
102
RTVSPost2010Prop51ColorRGB
 90
-16777216
102
RTVSPost2010PropOp51
 70
     0
102
RTVSPost2010Prop52
140
1.0
102
RTVSPost2010PropOp52
 70
     0
102
RTVSPost2010Prop53
 90
        2
102
RTVSPost2010PropOp53
 70
     1
102
RTVSPost2010Prop54
  1
strokes_ogs.tif
102
RTVSPost2010PropOp54
 70
     1
102
RTVSPost2010Prop55
280
     0
102
RTVSPost2010PropOp55
 70
     1
102
RTVSPost2010Prop56
140
1.0
102
RTVSPost2010PropOp56
 70
     1
102
RTVSPost2010Prop57
140
1.0
102
RTVSPost2010PropOp57
 70
     1
  0
XRECORD
  5
40BD7
102
{ACAD_REACTORS
330
40BD6
102
}
330
40BD6
100
AcDbXrecord
280
     1
102
RTVSPost2010Prop28
280
     0
102
RTVSPost2010PropOp28
 70
     1
102
RTVSPost2010Prop29
280
     1
102
RTVSPost2010PropOp29
 70
     1
102
RTVSPost2010Prop30
280
     1
102
RTVSPost2010PropOp30
 70
     1
102
RTVSPost2010Prop31
280
     0
102
RTVSPost2010PropOp31
 70
     1
102
RTVSPost2010Prop32
280
     0
102
RTVSPost2010PropOp32
 70
     1
102
RTVSPost2010Prop33
280
     0
102
RTVSPost2010PropOp33
 70
     1
102
RTVSPost2010Prop34
280
     0
102
RTVSPost2010PropOp34
 70
     1
102
RTVSPost2010Prop35
280
     0
102
RTVSPost2010PropOp35
 70
     1
102
RTVSPost2010Prop36
280
     0
102
RTVSPost2010PropOp36
 70
     1
102
RTVSPost2010Prop37
 90
       50
102
RTVSPost2010PropOp37
 70
     1
102
RTVSPost2010Prop38
140
0.0
102
RTVSPost2010PropOp38
 70
     1
102
RTVSPost2010Prop39
140
1.0
102
RTVSPost2010PropOp39
 70
     1
102
RTVSPost2010Prop40
 90
        0
102
RTVSPost2010PropOp40
 70
     1
102
RTVSPost2010Prop41ColorIndex
 90
       18
102
RTVSPost2010Prop41ColorRGB
 90
-16777216
102
RTVSPost2010PropOp41
 70
     1
102
RTVSPost2010Prop42
 90
       50
102
RTVSPost2010PropOp42
 70
     1
102
RTVSPost2010Prop43
 90
        3
102
RTVSPost2010PropOp43
 70
     1
102
RTVSPost2010Prop44ColorIndex
 90
        5
102
RTVSPost2010Prop44ColorRGB
 90
      255
102
RTVSPost2010PropOp44
 70
     1
102
RTVSPost2010Prop45
280
     0
102
RTVSPost2010PropOp45
 70
     1
102
RTVSPost2010Prop46
 90
       50
102
RTVSPost2010PropOp46
 70
     1
102
RTVSPost2010Prop47
 90
       50
102
RTVSPost2010PropOp47
 70
     1
102
RTVSPost2010Prop48
 90
       50
102
RTVSPost2010PropOp48
 70
     1
102
RTVSPost2010Prop49
280
     0
102
RTVSPost2010PropOp49
 70
     1
102
RTVSPost2010Prop50
 90
       50
102
RTVSPost2010PropOp50
 70
     1
102
RTVSPost2010Prop51ColorIndex
 90
      256
102
RTVSPost2010Prop51ColorRGB
 90
-16777216
102
RTVSPost2010PropOp51
 70
     0
102
RTVSPost2010Prop52
140
1.0
102
RTVSPost2010PropOp52
 70
     0
102
RTVSPost2010Prop53
 90
        2
102
RTVSPost2010PropOp53
 70
     1
102
RTVSPost2010Prop54
  1
strokes_ogs.tif
102
RTVSPost2010PropOp54
 70
     1
102
RTVSPost2010Prop55
280
     0
102
RTVSPost2010PropOp55
 70
     1
102
RTVSPost2010Prop56
140
1.0
102
RTVSPost2010PropOp56
 70
     1
102
RTVSPost2010Prop57
140
1.0
102
RTVSPost2010PropOp57
 70
     1
  0
XRECORD
  5
40BE3
102
{ACAD_REACTORS
330
40BE2
102
}
330
40BE2
100
AcDbXrecord
280
     1
102
RTVSPost2010Prop28
280
     0
102
RTVSPost2010PropOp28
 70
     0
102
RTVSPost2010Prop29
280
     1
102
RTVSPost2010PropOp29
 70
     0
102
RTVSPost2010Prop30
280
     1
102
RTVSPost2010PropOp30
 70
     0
102
RTVSPost2010Prop31
280
     0
102
RTVSPost2010PropOp31
 70
     0
102
RTVSPost2010Prop32
280
     0
102
RTVSPost2010PropOp32
 70
     0
102
RTVSPost2010Prop33
280
     0
102
RTVSPost2010PropOp33
 70
     0
102
RTVSPost2010Prop34
280
     0
102
RTVSPost2010PropOp34
 70
     0
102
RTVSPost2010Prop35
280
     0
102
RTVSPost2010PropOp35
 70
     0
102
RTVSPost2010Prop36
280
     0
102
RTVSPost2010PropOp36
 70
     0
102
RTVSPost2010Prop37
 90
       50
102
RTVSPost2010PropOp37
 70
     0
102
RTVSPost2010Prop38
140
0.0
102
RTVSPost2010PropOp38
 70
     0
102
RTVSPost2010Prop39
140
1.0
102
RTVSPost2010PropOp39
 70
     0
102
RTVSPost2010Prop40
 90
        0
102
RTVSPost2010PropOp40
 70
     0
102
RTVSPost2010Prop41ColorIndex
 90
       18
102
RTVSPost2010Prop41ColorRGB
 90
-16777216
102
RTVSPost2010PropOp41
 70
     0
102
RTVSPost2010Prop42
 90
       50
102
RTVSPost2010PropOp42
 70
     0
102
RTVSPost2010Prop43
 90
        3
102
RTVSPost2010PropOp43
 70
     0
102
RTVSPost2010Prop44ColorIndex
 90
        5
102
RTVSPost2010Prop44ColorRGB
 90
      255
102
RTVSPost2010PropOp44
 70
     0
102
RTVSPost2010Prop45
280
     0
102
RTVSPost2010PropOp45
 70
     0
102
RTVSPost2010Prop46
 90
       50
102
RTVSPost2010PropOp46
 70
     0
102
RTVSPost2010Prop47
 90
       50
102
RTVSPost2010PropOp47
 70
     0
102
RTVSPost2010Prop48
 90
       50
102
RTVSPost2010PropOp48
 70
     0
102
RTVSPost2010Prop49
280
     0
102
RTVSPost2010PropOp49
 70
     0
102
RTVSPost2010Prop50
 90
       50
102
RTVSPost2010PropOp50
 70
     0
102
RTVSPost2010Prop51ColorIndex
 90
      256
102
RTVSPost2010Prop51ColorRGB
 90
-16777216
102
RTVSPost2010PropOp51
 70
     0
102
RTVSPost2010Prop52
140
1.0
102
RTVSPost2010PropOp52
 70
     0
102
RTVSPost2010Prop53
 90
        2
102
RTVSPost2010PropOp53
 70
     0
102
RTVSPost2010Prop54
  1
strokes_ogs.tif
102
RTVSPost2010PropOp54
 70
     0
102
RTVSPost2010Prop55
280
     0
102
RTVSPost2010PropOp55
 70
     0
102
RTVSPost2010Prop56
140
1.0
102
RTVSPost2010PropOp56
 70
     0
102
RTVSPost2010Prop57
140
1.0
102
RTVSPost2010PropOp57
 70
     0
  0
XRECORD
  5
40BCF
102
{ACAD_REACTORS
330
40BCE
102
}
330
40BCE
100
AcDbXrecord
280
     1
102
RTVSPost2010Prop28
280
     0
102
RTVSPost2010PropOp28
 70
     1
102
RTVSPost2010Prop29
280
     1
102
RTVSPost2010PropOp29
 70
     1
102
RTVSPost2010Prop30
280
     1
102
RTVSPost2010PropOp30
 70
     1
102
RTVSPost2010Prop31
280
     0
102
RTVSPost2010PropOp31
 70
     1
102
RTVSPost2010Prop32
280
     0
102
RTVSPost2010PropOp32
 70
     1
102
RTVSPost2010Prop33
280
     0
102
RTVSPost2010PropOp33
 70
     1
102
RTVSPost2010Prop34
280
     0
102
RTVSPost2010PropOp34
 70
     1
102
RTVSPost2010Prop35
280
     0
102
RTVSPost2010PropOp35
 70
     1
102
RTVSPost2010Prop36
280
     0
102
RTVSPost2010PropOp36
 70
     1
102
RTVSPost2010Prop37
 90
       50
102
RTVSPost2010PropOp37
 70
     1
102
RTVSPost2010Prop38
140
0.0
102
RTVSPost2010PropOp38
 70
     1
102
RTVSPost2010Prop39
140
1.0
102
RTVSPost2010PropOp39
 70
     1
102
RTVSPost2010Prop40
 90
        0
102
RTVSPost2010PropOp40
 70
     1
102
RTVSPost2010Prop41ColorIndex
 90
       18
102
RTVSPost2010Prop41ColorRGB
 90
-16777216
102
RTVSPost2010PropOp41
 70
     1
102
RTVSPost2010Prop42
 90
       50
102
RTVSPost2010PropOp42
 70
     1
102
RTVSPost2010Prop43
 90
        3
102
RTVSPost2010PropOp43
 70
     1
102
RTVSPost2010Prop44ColorIndex
 90
        5
102
RTVSPost2010Prop44ColorRGB
 90
      255
102
RTVSPost2010PropOp44
 70
     1
102
RTVSPost2010Prop45
280
     0
102
RTVSPost2010PropOp45
 70
     1
102
RTVSPost2010Prop46
 90
       50
102
RTVSPost2010PropOp46
 70
     1
102
RTVSPost2010Prop47
 90
       50
102
RTVSPost2010PropOp47
 70
     1
102
RTVSPost2010Prop48
 90
       50
102
RTVSPost2010PropOp48
 70
     1
102
RTVSPost2010Prop49
280
     0
102
RTVSPost2010PropOp49
 70
     1
102
RTVSPost2010Prop50
 90
       50
102
RTVSPost2010PropOp50
 70
     1
102
RTVSPost2010Prop51ColorIndex
 90
      256
102
RTVSPost2010Prop51ColorRGB
 90
-16777216
102
RTVSPost2010PropOp51
 70
     0
102
RTVSPost2010Prop52
140
1.0
102
RTVSPost2010PropOp52
 70
     0
102
RTVSPost2010Prop53
 90
        2
102
RTVSPost2010PropOp53
 70
     1
102
RTVSPost2010Prop54
  1
strokes_ogs.tif
102
RTVSPost2010PropOp54
 70
     1
102
RTVSPost2010Prop55
280
     0
102
RTVSPost2010PropOp55
 70
     1
102
RTVSPost2010Prop56
140
1.0
102
RTVSPost2010PropOp56
 70
     1
102
RTVSPost2010Prop57
140
1.0
102
RTVSPost2010PropOp57
 70
     1
  0
XRECORD
  5
40BE5
102
{ACAD_REACTORS
330
40BE4
102
}
330
40BE4
100
AcDbXrecord
280
     1
102
RTVSPost2010Prop28
280
     0
102
RTVSPost2010PropOp28
 70
     0
102
RTVSPost2010Prop29
280
     1
102
RTVSPost2010PropOp29
 70
     0
102
RTVSPost2010Prop30
280
     1
102
RTVSPost2010PropOp30
 70
     0
102
RTVSPost2010Prop31
280
     0
102
RTVSPost2010PropOp31
 70
     0
102
RTVSPost2010Prop32
280
     0
102
RTVSPost2010PropOp32
 70
     0
102
RTVSPost2010Prop33
280
     0
102
RTVSPost2010PropOp33
 70
     0
102
RTVSPost2010Prop34
280
     0
102
RTVSPost2010PropOp34
 70
     0
102
RTVSPost2010Prop35
280
     0
102
RTVSPost2010PropOp35
 70
     0
102
RTVSPost2010Prop36
280
     0
102
RTVSPost2010PropOp36
 70
     0
102
RTVSPost2010Prop37
 90
       50
102
RTVSPost2010PropOp37
 70
     0
102
RTVSPost2010Prop38
140
0.0
102
RTVSPost2010PropOp38
 70
     0
102
RTVSPost2010Prop39
140
1.0
102
RTVSPost2010PropOp39
 70
     0
102
RTVSPost2010Prop40
 90
        0
102
RTVSPost2010PropOp40
 70
     0
102
RTVSPost2010Prop41ColorIndex
 90
       18
102
RTVSPost2010Prop41ColorRGB
 90
-16777216
102
RTVSPost2010PropOp41
 70
     0
102
RTVSPost2010Prop42
 90
       50
102
RTVSPost2010PropOp42
 70
     0
102
RTVSPost2010Prop43
 90
        3
102
RTVSPost2010PropOp43
 70
     0
102
RTVSPost2010Prop44ColorIndex
 90
        5
102
RTVSPost2010Prop44ColorRGB
 90
      255
102
RTVSPost2010PropOp44
 70
     0
102
RTVSPost2010Prop45
280
     0
102
RTVSPost2010PropOp45
 70
     0
102
RTVSPost2010Prop46
 90
       50
102
RTVSPost2010PropOp46
 70
     0
102
RTVSPost2010Prop47
 90
       50
102
RTVSPost2010PropOp47
 70
     0
102
RTVSPost2010Prop48
 90
       50
102
RTVSPost2010PropOp48
 70
     0
102
RTVSPost2010Prop49
280
     0
102
RTVSPost2010PropOp49
 70
     0
102
RTVSPost2010Prop50
 90
       50
102
RTVSPost2010PropOp50
 70
     0
102
RTVSPost2010Prop51ColorIndex
 90
      256
102
RTVSPost2010Prop51ColorRGB
 90
-16777216
102
RTVSPost2010PropOp51
 70
     0
102
RTVSPost2010Prop52
140
1.0
102
RTVSPost2010PropOp52
 70
     0
102
RTVSPost2010Prop53
 90
        2
102
RTVSPost2010PropOp53
 70
     0
102
RTVSPost2010Prop54
  1
strokes_ogs.tif
102
RTVSPost2010PropOp54
 70
     0
102
RTVSPost2010Prop55
280
     0
102
RTVSPost2010PropOp55
 70
     0
102
RTVSPost2010Prop56
140
1.0
102
RTVSPost2010PropOp56
 70
     0
102
RTVSPost2010Prop57
140
1.0
102
RTVSPost2010PropOp57
 70
     0
  0
XRECORD
  5
40BC7
102
{ACAD_REACTORS
330
40BC6
102
}
330
40BC6
100
AcDbXrecord
280
     1
102
RTVSPost2010Prop28
280
     0
102
RTVSPost2010PropOp28
 70
     1
102
RTVSPost2010Prop29
280
     1
102
RTVSPost2010PropOp29
 70
     1
102
RTVSPost2010Prop30
280
     1
102
RTVSPost2010PropOp30
 70
     1
102
RTVSPost2010Prop31
280
     0
102
RTVSPost2010PropOp31
 70
     1
102
RTVSPost2010Prop32
280
     0
102
RTVSPost2010PropOp32
 70
     1
102
RTVSPost2010Prop33
280
     0
102
RTVSPost2010PropOp33
 70
     1
102
RTVSPost2010Prop34
280
     0
102
RTVSPost2010PropOp34
 70
     1
102
RTVSPost2010Prop35
280
     0
102
RTVSPost2010PropOp35
 70
     1
102
RTVSPost2010Prop36
280
     0
102
RTVSPost2010PropOp36
 70
     1
102
RTVSPost2010Prop37
 90
       50
102
RTVSPost2010PropOp37
 70
     1
102
RTVSPost2010Prop38
140
0.0
102
RTVSPost2010PropOp38
 70
     1
102
RTVSPost2010Prop39
140
1.0
102
RTVSPost2010PropOp39
 70
     1
102
RTVSPost2010Prop40
 90
        0
102
RTVSPost2010PropOp40
 70
     1
102
RTVSPost2010Prop41ColorIndex
 90
       18
102
RTVSPost2010Prop41ColorRGB
 90
-16777216
102
RTVSPost2010PropOp41
 70
     1
102
RTVSPost2010Prop42
 90
       50
102
RTVSPost2010PropOp42
 70
     1
102
RTVSPost2010Prop43
 90
        3
102
RTVSPost2010PropOp43
 70
     1
102
RTVSPost2010Prop44ColorIndex
 90
        5
102
RTVSPost2010Prop44ColorRGB
 90
      255
102
RTVSPost2010PropOp44
 70
     1
102
RTVSPost2010Prop45
280
     0
102
RTVSPost2010PropOp45
 70
     1
102
RTVSPost2010Prop46
 90
       50
102
RTVSPost2010PropOp46
 70
     1
102
RTVSPost2010Prop47
 90
       50
102
RTVSPost2010PropOp47
 70
     1
102
RTVSPost2010Prop48
 90
       50
102
RTVSPost2010PropOp48
 70
     1
102
RTVSPost2010Prop49
280
     0
102
RTVSPost2010PropOp49
 70
     1
102
RTVSPost2010Prop50
 90
       50
102
RTVSPost2010PropOp50
 70
     1
102
RTVSPost2010Prop51ColorIndex
 90
      256
102
RTVSPost2010Prop51ColorRGB
 90
-16777216
102
RTVSPost2010PropOp51
 70
     0
102
RTVSPost2010Prop52
140
1.0
102
RTVSPost2010PropOp52
 70
     0
102
RTVSPost2010Prop53
 90
        2
102
RTVSPost2010PropOp53
 70
     1
102
RTVSPost2010Prop54
  1
strokes_ogs.tif
102
RTVSPost2010PropOp54
 70
     1
102
RTVSPost2010Prop55
280
     0
102
RTVSPost2010PropOp55
 70
     1
102
RTVSPost2010Prop56
140
1.0
102
RTVSPost2010PropOp56
 70
     1
102
RTVSPost2010Prop57
140
1.0
102
RTVSPost2010PropOp57
 70
     1
  0
XRECORD
  5
40BE1
102
{ACAD_REACTORS
330
40BE0
102
}
330
40BE0
100
AcDbXrecord
280
     1
102
RTVSPost2010Prop28
280
     0
102
RTVSPost2010PropOp28
 70
     1
102
RTVSPost2010Prop29
280
     1
102
RTVSPost2010PropOp29
 70
     1
102
RTVSPost2010Prop30
280
     1
102
RTVSPost2010PropOp30
 70
     1
102
RTVSPost2010Prop31
280
     0
102
RTVSPost2010PropOp31
 70
     1
102
RTVSPost2010Prop32
280
     0
102
RTVSPost2010PropOp32
 70
     1
102
RTVSPost2010Prop33
280
     0
102
RTVSPost2010PropOp33
 70
     1
102
RTVSPost2010Prop34
280
     0
102
RTVSPost2010PropOp34
 70
     1
102
RTVSPost2010Prop35
280
     0
102
RTVSPost2010PropOp35
 70
     1
102
RTVSPost2010Prop36
280
     0
102
RTVSPost2010PropOp36
 70
     1
102
RTVSPost2010Prop37
 90
       50
102
RTVSPost2010PropOp37
 70
     1
102
RTVSPost2010Prop38
140
0.0
102
RTVSPost2010PropOp38
 70
     1
102
RTVSPost2010Prop39
140
1.0
102
RTVSPost2010PropOp39
 70
     1
102
RTVSPost2010Prop40
 90
        0
102
RTVSPost2010PropOp40
 70
     1
102
RTVSPost2010Prop41ColorIndex
 90
       18
102
RTVSPost2010Prop41ColorRGB
 90
-16777216
102
RTVSPost2010PropOp41
 70
     1
102
RTVSPost2010Prop42
 90
       50
102
RTVSPost2010PropOp42
 70
     1
102
RTVSPost2010Prop43
 90
        3
102
RTVSPost2010PropOp43
 70
     1
102
RTVSPost2010Prop44ColorIndex
 90
        5
102
RTVSPost2010Prop44ColorRGB
 90
      255
102
RTVSPost2010PropOp44
 70
     1
102
RTVSPost2010Prop45
280
     0
102
RTVSPost2010PropOp45
 70
     1
102
RTVSPost2010Prop46
 90
       50
102
RTVSPost2010PropOp46
 70
     1
102
RTVSPost2010Prop47
 90
       50
102
RTVSPost2010PropOp47
 70
     1
102
RTVSPost2010Prop48
 90
       50
102
RTVSPost2010PropOp48
 70
     1
102
RTVSPost2010Prop49
280
     0
102
RTVSPost2010PropOp49
 70
     1
102
RTVSPost2010Prop50
 90
       50
102
RTVSPost2010PropOp50
 70
     1
102
RTVSPost2010Prop51ColorIndex
 90
      256
102
RTVSPost2010Prop51ColorRGB
 90
-16777216
102
RTVSPost2010PropOp51
 70
     0
102
RTVSPost2010Prop52
140
1.0
102
RTVSPost2010PropOp52
 70
     0
102
RTVSPost2010Prop53
 90
        2
102
RTVSPost2010PropOp53
 70
     1
102
RTVSPost2010Prop54
  1
strokes_ogs.tif
102
RTVSPost2010PropOp54
 70
     1
102
RTVSPost2010Prop55
280
     0
102
RTVSPost2010PropOp55
 70
     1
102
RTVSPost2010Prop56
140
1.0
102
RTVSPost2010PropOp56
 70
     1
102
RTVSPost2010Prop57
140
1.0
102
RTVSPost2010PropOp57
 70
     1
  0
XRECORD
  5
40BDF
102
{ACAD_REACTORS
330
40BDE
102
}
330
40BDE
100
AcDbXrecord
280
     1
102
RTVSPost2010Prop28
280
     0
102
RTVSPost2010PropOp28
 70
     1
102
RTVSPost2010Prop29
280
     1
102
RTVSPost2010PropOp29
 70
     1
102
RTVSPost2010Prop30
280
     1
102
RTVSPost2010PropOp30
 70
     1
102
RTVSPost2010Prop31
280
     0
102
RTVSPost2010PropOp31
 70
     1
102
RTVSPost2010Prop32
280
     0
102
RTVSPost2010PropOp32
 70
     1
102
RTVSPost2010Prop33
280
     0
102
RTVSPost2010PropOp33
 70
     1
102
RTVSPost2010Prop34
280
     0
102
RTVSPost2010PropOp34
 70
     1
102
RTVSPost2010Prop35
280
     0
102
RTVSPost2010PropOp35
 70
     1
102
RTVSPost2010Prop36
280
     0
102
RTVSPost2010PropOp36
 70
     1
102
RTVSPost2010Prop37
 90
       50
102
RTVSPost2010PropOp37
 70
     1
102
RTVSPost2010Prop38
140
0.0
102
RTVSPost2010PropOp38
 70
     1
102
RTVSPost2010Prop39
140
1.0
102
RTVSPost2010PropOp39
 70
     1
102
RTVSPost2010Prop40
 90
        0
102
RTVSPost2010PropOp40
 70
     1
102
RTVSPost2010Prop41ColorIndex
 90
       18
102
RTVSPost2010Prop41ColorRGB
 90
-16777216
102
RTVSPost2010PropOp41
 70
     1
102
RTVSPost2010Prop42
 90
       50
102
RTVSPost2010PropOp42
 70
     1
102
RTVSPost2010Prop43
 90
        3
102
RTVSPost2010PropOp43
 70
     1
102
RTVSPost2010Prop44ColorIndex
 90
        5
102
RTVSPost2010Prop44ColorRGB
 90
      255
102
RTVSPost2010PropOp44
 70
     1
102
RTVSPost2010Prop45
280
     0
102
RTVSPost2010PropOp45
 70
     1
102
RTVSPost2010Prop46
 90
       50
102
RTVSPost2010PropOp46
 70
     1
102
RTVSPost2010Prop47
 90
       50
102
RTVSPost2010PropOp47
 70
     1
102
RTVSPost2010Prop48
 90
       50
102
RTVSPost2010PropOp48
 70
     1
102
RTVSPost2010Prop49
280
     0
102
RTVSPost2010PropOp49
 70
     1
102
RTVSPost2010Prop50
 90
       50
102
RTVSPost2010PropOp50
 70
     1
102
RTVSPost2010Prop51ColorIndex
 90
      256
102
RTVSPost2010Prop51ColorRGB
 90
-16777216
102
RTVSPost2010PropOp51
 70
     0
102
RTVSPost2010Prop52
140
1.0
102
RTVSPost2010PropOp52
 70
     0
102
RTVSPost2010Prop53
 90
        2
102
RTVSPost2010PropOp53
 70
     1
102
RTVSPost2010Prop54
  1
strokes_ogs.tif
102
RTVSPost2010PropOp54
 70
     1
102
RTVSPost2010Prop55
280
     0
102
RTVSPost2010PropOp55
 70
     1
102
RTVSPost2010Prop56
140
1.0
102
RTVSPost2010PropOp56
 70
     1
102
RTVSPost2010Prop57
140
1.0
102
RTVSPost2010PropOp57
 70
     1
  0
XRECORD
  5
40BD9
102
{ACAD_REACTORS
330
40BD8
102
}
330
40BD8
100
AcDbXrecord
280
     1
102
RTVSPost2010Prop28
280
     0
102
RTVSPost2010PropOp28
 70
     1
102
RTVSPost2010Prop29
280
     1
102
RTVSPost2010PropOp29
 70
     1
102
RTVSPost2010Prop30
280
     1
102
RTVSPost2010PropOp30
 70
     1
102
RTVSPost2010Prop31
280
     0
102
RTVSPost2010PropOp31
 70
     1
102
RTVSPost2010Prop32
280
     0
102
RTVSPost2010PropOp32
 70
     1
102
RTVSPost2010Prop33
280
     0
102
RTVSPost2010PropOp33
 70
     1
102
RTVSPost2010Prop34
280
     0
102
RTVSPost2010PropOp34
 70
     1
102
RTVSPost2010Prop35
280
     0
102
RTVSPost2010PropOp35
 70
     1
102
RTVSPost2010Prop36
280
     0
102
RTVSPost2010PropOp36
 70
     1
102
RTVSPost2010Prop37
 90
       50
102
RTVSPost2010PropOp37
 70
     1
102
RTVSPost2010Prop38
140
0.0
102
RTVSPost2010PropOp38
 70
     1
102
RTVSPost2010Prop39
140
1.0
102
RTVSPost2010PropOp39
 70
     1
102
RTVSPost2010Prop40
 90
        0
102
RTVSPost2010PropOp40
 70
     1
102
RTVSPost2010Prop41ColorIndex
 90
       18
102
RTVSPost2010Prop41ColorRGB
 90
-16777216
102
RTVSPost2010PropOp41
 70
     1
102
RTVSPost2010Prop42
 90
       50
102
RTVSPost2010PropOp42
 70
     1
102
RTVSPost2010Prop43
 90
        3
102
RTVSPost2010PropOp43
 70
     1
102
RTVSPost2010Prop44ColorIndex
 90
        5
102
RTVSPost2010Prop44ColorRGB
 90
      255
102
RTVSPost2010PropOp44
 70
     1
102
RTVSPost2010Prop45
280
     0
102
RTVSPost2010PropOp45
 70
     1
102
RTVSPost2010Prop46
 90
       50
102
RTVSPost2010PropOp46
 70
     1
102
RTVSPost2010Prop47
 90
       50
102
RTVSPost2010PropOp47
 70
     1
102
RTVSPost2010Prop48
 90
       50
102
RTVSPost2010PropOp48
 70
     1
102
RTVSPost2010Prop49
280
     0
102
RTVSPost2010PropOp49
 70
     1
102
RTVSPost2010Prop50
 90
       50
102
RTVSPost2010PropOp50
 70
     1
102
RTVSPost2010Prop51ColorIndex
 90
      256
102
RTVSPost2010Prop51ColorRGB
 90
-16777216
102
RTVSPost2010PropOp51
 70
     0
102
RTVSPost2010Prop52
140
1.0
102
RTVSPost2010PropOp52
 70
     0
102
RTVSPost2010Prop53
 90
        2
102
RTVSPost2010PropOp53
 70
     1
102
RTVSPost2010Prop54
  1
strokes_ogs.tif
102
RTVSPost2010PropOp54
 70
     1
102
RTVSPost2010Prop55
280
     0
102
RTVSPost2010PropOp55
 70
     1
102
RTVSPost2010Prop56
140
1.0
102
RTVSPost2010PropOp56
 70
     1
102
RTVSPost2010Prop57
140
1.0
102
RTVSPost2010PropOp57
 70
     1
  0
XRECORD
  5
40BDB
102
{ACAD_REACTORS
330
40BDA
102
}
330
40BDA
100
AcDbXrecord
280
     1
102
RTVSPost2010Prop28
280
     0
102
RTVSPost2010PropOp28
 70
     1
102
RTVSPost2010Prop29
280
     1
102
RTVSPost2010PropOp29
 70
     1
102
RTVSPost2010Prop30
280
     1
102
RTVSPost2010PropOp30
 70
     1
102
RTVSPost2010Prop31
280
     0
102
RTVSPost2010PropOp31
 70
     1
102
RTVSPost2010Prop32
280
     0
102
RTVSPost2010PropOp32
 70
     1
102
RTVSPost2010Prop33
280
     0
102
RTVSPost2010PropOp33
 70
     1
102
RTVSPost2010Prop34
280
     0
102
RTVSPost2010PropOp34
 70
     1
102
RTVSPost2010Prop35
280
     0
102
RTVSPost2010PropOp35
 70
     1
102
RTVSPost2010Prop36
280
     0
102
RTVSPost2010PropOp36
 70
     1
102
RTVSPost2010Prop37
 90
       50
102
RTVSPost2010PropOp37
 70
     1
102
RTVSPost2010Prop38
140
0.0
102
RTVSPost2010PropOp38
 70
     1
102
RTVSPost2010Prop39
140
1.0
102
RTVSPost2010PropOp39
 70
     1
102
RTVSPost2010Prop40
 90
        0
102
RTVSPost2010PropOp40
 70
     1
102
RTVSPost2010Prop41ColorIndex
 90
       18
102
RTVSPost2010Prop41ColorRGB
 90
-16777216
102
RTVSPost2010PropOp41
 70
     1
102
RTVSPost2010Prop42
 90
       50
102
RTVSPost2010PropOp42
 70
     1
102
RTVSPost2010Prop43
 90
        3
102
RTVSPost2010PropOp43
 70
     1
102
RTVSPost2010Prop44ColorIndex
 90
        5
102
RTVSPost2010Prop44ColorRGB
 90
      255
102
RTVSPost2010PropOp44
 70
     1
102
RTVSPost2010Prop45
280
     0
102
RTVSPost2010PropOp45
 70
     1
102
RTVSPost2010Prop46
 90
       50
102
RTVSPost2010PropOp46
 70
     1
102
RTVSPost2010Prop47
 90
       50
102
RTVSPost2010PropOp47
 70
     1
102
RTVSPost2010Prop48
 90
       50
102
RTVSPost2010PropOp48
 70
     1
102
RTVSPost2010Prop49
280
     0
102
RTVSPost2010PropOp49
 70
     1
102
RTVSPost2010Prop50
 90
       50
102
RTVSPost2010PropOp50
 70
     1
102
RTVSPost2010Prop51ColorIndex
 90
      256
102
RTVSPost2010Prop51ColorRGB
 90
-16777216
102
RTVSPost2010PropOp51
 70
     0
102
RTVSPost2010Prop52
140
1.0
102
RTVSPost2010PropOp52
 70
     0
102
RTVSPost2010Prop53
 90
        2
102
RTVSPost2010PropOp53
 70
     1
102
RTVSPost2010Prop54
  1
strokes_ogs.tif
102
RTVSPost2010PropOp54
 70
     1
102
RTVSPost2010Prop55
280
     0
102
RTVSPost2010PropOp55
 70
     1
102
RTVSPost2010Prop56
140
1.0
102
RTVSPost2010PropOp56
 70
     1
102
RTVSPost2010Prop57
140
1.0
102
RTVSPost2010PropOp57
 70
     1
  0
XRECORD
  5
40BCD
102
{ACAD_REACTORS
330
40BCC
102
}
330
40BCC
100
AcDbXrecord
280
     1
102
RTVSPost2010Prop28
280
     0
102
RTVSPost2010PropOp28
 70
     1
102
RTVSPost2010Prop29
280
     1
102
RTVSPost2010PropOp29
 70
     1
102
RTVSPost2010Prop30
280
     1
102
RTVSPost2010PropOp30
 70
     1
102
RTVSPost2010Prop31
280
     0
102
RTVSPost2010PropOp31
 70
     1
102
RTVSPost2010Prop32
280
     0
102
RTVSPost2010PropOp32
 70
     1
102
RTVSPost2010Prop33
280
     0
102
RTVSPost2010PropOp33
 70
     1
102
RTVSPost2010Prop34
280
     0
102
RTVSPost2010PropOp34
 70
     1
102
RTVSPost2010Prop35
280
     0
102
RTVSPost2010PropOp35
 70
     1
102
RTVSPost2010Prop36
280
     0
102
RTVSPost2010PropOp36
 70
     1
102
RTVSPost2010Prop37
 90
       50
102
RTVSPost2010PropOp37
 70
     1
102
RTVSPost2010Prop38
140
0.0
102
RTVSPost2010PropOp38
 70
     1
102
RTVSPost2010Prop39
140
1.0
102
RTVSPost2010PropOp39
 70
     1
102
RTVSPost2010Prop40
 90
        0
102
RTVSPost2010PropOp40
 70
     1
102
RTVSPost2010Prop41ColorIndex
 90
       18
102
RTVSPost2010Prop41ColorRGB
 90
-16777216
102
RTVSPost2010PropOp41
 70
     1
102
RTVSPost2010Prop42
 90
       50
102
RTVSPost2010PropOp42
 70
     1
102
RTVSPost2010Prop43
 90
        3
102
RTVSPost2010PropOp43
 70
     1
102
RTVSPost2010Prop44ColorIndex
 90
        5
102
RTVSPost2010Prop44ColorRGB
 90
      255
102
RTVSPost2010PropOp44
 70
     1
102
RTVSPost2010Prop45
280
     0
102
RTVSPost2010PropOp45
 70
     1
102
RTVSPost2010Prop46
 90
       50
102
RTVSPost2010PropOp46
 70
     1
102
RTVSPost2010Prop47
 90
       50
102
RTVSPost2010PropOp47
 70
     1
102
RTVSPost2010Prop48
 90
       50
102
RTVSPost2010PropOp48
 70
     1
102
RTVSPost2010Prop49
280
     0
102
RTVSPost2010PropOp49
 70
     1
102
RTVSPost2010Prop50
 90
       50
102
RTVSPost2010PropOp50
 70
     1
102
RTVSPost2010Prop51ColorIndex
 90
      256
102
RTVSPost2010Prop51ColorRGB
 90
-16777216
102
RTVSPost2010PropOp51
 70
     0
102
RTVSPost2010Prop52
140
1.0
102
RTVSPost2010PropOp52
 70
     0
102
RTVSPost2010Prop53
 90
        2
102
RTVSPost2010PropOp53
 70
     1
102
RTVSPost2010Prop54
  1
strokes_ogs.tif
102
RTVSPost2010PropOp54
 70
     1
102
RTVSPost2010Prop55
280
     0
102
RTVSPost2010PropOp55
 70
     1
102
RTVSPost2010Prop56
140
1.0
102
RTVSPost2010PropOp56
 70
     1
102
RTVSPost2010Prop57
140
1.0
102
RTVSPost2010PropOp57
 70
     1
  0
XRECORD
  5
40BD5
102
{ACAD_REACTORS
330
40BD4
102
}
330
40BD4
100
AcDbXrecord
280
     1
102
RTVSPost2010Prop28
280
     0
102
RTVSPost2010PropOp28
 70
     1
102
RTVSPost2010Prop29
280
     1
102
RTVSPost2010PropOp29
 70
     1
102
RTVSPost2010Prop30
280
     1
102
RTVSPost2010PropOp30
 70
     1
102
RTVSPost2010Prop31
280
     0
102
RTVSPost2010PropOp31
 70
     1
102
RTVSPost2010Prop32
280
     0
102
RTVSPost2010PropOp32
 70
     1
102
RTVSPost2010Prop33
280
     0
102
RTVSPost2010PropOp33
 70
     1
102
RTVSPost2010Prop34
280
     0
102
RTVSPost2010PropOp34
 70
     1
102
RTVSPost2010Prop35
280
     0
102
RTVSPost2010PropOp35
 70
     1
102
RTVSPost2010Prop36
280
     0
102
RTVSPost2010PropOp36
 70
     1
102
RTVSPost2010Prop37
 90
       50
102
RTVSPost2010PropOp37
 70
     1
102
RTVSPost2010Prop38
140
0.0
102
RTVSPost2010PropOp38
 70
     1
102
RTVSPost2010Prop39
140
1.0
102
RTVSPost2010PropOp39
 70
     1
102
RTVSPost2010Prop40
 90
        0
102
RTVSPost2010PropOp40
 70
     1
102
RTVSPost2010Prop41ColorIndex
 90
       18
102
RTVSPost2010Prop41ColorRGB
 90
-16777216
102
RTVSPost2010PropOp41
 70
     1
102
RTVSPost2010Prop42
 90
       50
102
RTVSPost2010PropOp42
 70
     1
102
RTVSPost2010Prop43
 90
        3
102
RTVSPost2010PropOp43
 70
     1
102
RTVSPost2010Prop44ColorIndex
 90
        5
102
RTVSPost2010Prop44ColorRGB
 90
      255
102
RTVSPost2010PropOp44
 70
     1
102
RTVSPost2010Prop45
280
     0
102
RTVSPost2010PropOp45
 70
     1
102
RTVSPost2010Prop46
 90
       50
102
RTVSPost2010PropOp46
 70
     1
102
RTVSPost2010Prop47
 90
       50
102
RTVSPost2010PropOp47
 70
     1
102
RTVSPost2010Prop48
 90
       50
102
RTVSPost2010PropOp48
 70
     1
102
RTVSPost2010Prop49
280
     0
102
RTVSPost2010PropOp49
 70
     1
102
RTVSPost2010Prop50
 90
       50
102
RTVSPost2010PropOp50
 70
     1
102
RTVSPost2010Prop51ColorIndex
 90
      256
102
RTVSPost2010Prop51ColorRGB
 90
-16777216
102
RTVSPost2010PropOp51
 70
     0
102
RTVSPost2010Prop52
140
1.0
102
RTVSPost2010PropOp52
 70
     0
102
RTVSPost2010Prop53
 90
        2
102
RTVSPost2010PropOp53
 70
     1
102
RTVSPost2010Prop54
  1
strokes_ogs.tif
102
RTVSPost2010PropOp54
 70
     1
102
RTVSPost2010Prop55
280
     0
102
RTVSPost2010PropOp55
 70
     1
102
RTVSPost2010Prop56
140
1.0
102
RTVSPost2010PropOp56
 70
     1
102
RTVSPost2010Prop57
140
1.0
102
RTVSPost2010PropOp57
 70
     1
  0
XRECORD
  5
40BDD
102
{ACAD_REACTORS
330
40BDC
102
}
330
40BDC
100
AcDbXrecord
280
     1
102
RTVSPost2010Prop28
280
     0
102
RTVSPost2010PropOp28
 70
     1
102
RTVSPost2010Prop29
280
     1
102
RTVSPost2010PropOp29
 70
     1
102
RTVSPost2010Prop30
280
     1
102
RTVSPost2010PropOp30
 70
     1
102
RTVSPost2010Prop31
280
     0
102
RTVSPost2010PropOp31
 70
     1
102
RTVSPost2010Prop32
280
     0
102
RTVSPost2010PropOp32
 70
     1
102
RTVSPost2010Prop33
280
     0
102
RTVSPost2010PropOp33
 70
     1
102
RTVSPost2010Prop34
280
     0
102
RTVSPost2010PropOp34
 70
     1
102
RTVSPost2010Prop35
280
     0
102
RTVSPost2010PropOp35
 70
     1
102
RTVSPost2010Prop36
280
     0
102
RTVSPost2010PropOp36
 70
     1
102
RTVSPost2010Prop37
 90
       50
102
RTVSPost2010PropOp37
 70
     1
102
RTVSPost2010Prop38
140
0.0
102
RTVSPost2010PropOp38
 70
     1
102
RTVSPost2010Prop39
140
1.0
102
RTVSPost2010PropOp39
 70
     1
102
RTVSPost2010Prop40
 90
        0
102
RTVSPost2010PropOp40
 70
     1
102
RTVSPost2010Prop41ColorIndex
 90
       18
102
RTVSPost2010Prop41ColorRGB
 90
-16777216
102
RTVSPost2010PropOp41
 70
     1
102
RTVSPost2010Prop42
 90
       50
102
RTVSPost2010PropOp42
 70
     1
102
RTVSPost2010Prop43
 90
        3
102
RTVSPost2010PropOp43
 70
     1
102
RTVSPost2010Prop44ColorIndex
 90
        5
102
RTVSPost2010Prop44ColorRGB
 90
      255
102
RTVSPost2010PropOp44
 70
     1
102
RTVSPost2010Prop45
280
     0
102
RTVSPost2010PropOp45
 70
     1
102
RTVSPost2010Prop46
 90
       50
102
RTVSPost2010PropOp46
 70
     1
102
RTVSPost2010Prop47
 90
       50
102
RTVSPost2010PropOp47
 70
     1
102
RTVSPost2010Prop48
 90
       50
102
RTVSPost2010PropOp48
 70
     1
102
RTVSPost2010Prop49
280
     0
102
RTVSPost2010PropOp49
 70
     1
102
RTVSPost2010Prop50
 90
       50
102
RTVSPost2010PropOp50
 70
     1
102
RTVSPost2010Prop51ColorIndex
 90
      256
102
RTVSPost2010Prop51ColorRGB
 90
-16777216
102
RTVSPost2010PropOp51
 70
     0
102
RTVSPost2010Prop52
140
1.0
102
RTVSPost2010PropOp52
 70
     0
102
RTVSPost2010Prop53
 90
        2
102
RTVSPost2010PropOp53
 70
     1
102
RTVSPost2010Prop54
  1
strokes_ogs.tif
102
RTVSPost2010PropOp54
 70
     1
102
RTVSPost2010Prop55
280
     0
102
RTVSPost2010PropOp55
 70
     1
102
RTVSPost2010Prop56
140
1.0
102
RTVSPost2010PropOp56
 70
     1
102
RTVSPost2010Prop57
140
1.0
102
RTVSPost2010PropOp57
 70
     1
  0
ENDSEC
  0
EOF
