  0
SECTION
  2
HEADER
  9
$ACADVER
  1
AC1024
  9
$ACADMAINTVER
 70
   226
  9
$DWGCODEPAGE
  3
ANSI_1252
  9
$LASTSAVEDBY
  1
mhumphreys
  9
$INSBASE
 10
0.0
 20
0.0
 30
0.0
  9
$EXTMIN
 10
323.6408253205118
 20
53.26194773865245
 30
-0.0015258207003583
  9
$EXTMAX
 10
14448.75356256307
 20
7791.69720098378
 30
0.0000000349246037
  9
$LIMMIN
 10
0.0
 20
0.0
  9
$LIMMAX
 10
420.0
 20
297.0
  9
$ORTHOMODE
 70
     1
  9
$REGENMODE
 70
     1
  9
$FILLMODE
 70
     1
  9
$QTEXTMODE
 70
     0
  9
$MIRRTEXT
 70
     0
  9
$LTSCALE
 40
1.0
  9
$ATTMODE
 70
     1
  9
$TEXTSIZE
 40
2.5
  9
$TRACEWID
 40
1.0
  9
$TEXTSTYLE
  7
Standard
  9
$CLAYER
  8
0
  9
$CELTYPE
  6
ByLayer
  9
$CECOLOR
 62
   256
  9
$CELTSCALE
 40
50.0
  9
$DISPSILH
 70
     0
  9
$DIMSCALE
 40
1.0
  9
$DIMASZ
 40
0.18
  9
$DIMEXO
 40
0.0625
  9
$DIMDLI
 40
0.38
  9
$DIMRND
 40
0.0
  9
$DIMDLE
 40
0.0
  9
$DIMEXE
 40
0.18
  9
$DIMTP
 40
0.0
  9
$DIMTM
 40
0.0
  9
$DIMTXT
 40
0.18
  9
$DIMCEN
 40
0.09
  9
$DIMTSZ
 40
0.0
  9
$DIMTOL
 70
     0
  9
$DIMLIM
 70
     0
  9
$DIMTIH
 70
     1
  9
$DIMTOH
 70
     1
  9
$DIMSE1
 70
     0
  9
$DIMSE2
 70
     0
  9
$DIMTAD
 70
     0
  9
$DIMZIN
 70
     0
  9
$DIMBLK
  1

  9
$DIMASO
 70
     1
  9
$DIMSHO
 70
     1
  9
$DIMPOST
  1

  9
$DIMAPOST
  1

  9
$DIMALT
 70
     0
  9
$DIMALTD
 70
     2
  9
$DIMALTF
 40
25.4
  9
$DIMLFAC
 40
1.0
  9
$DIMTOFL
 70
     0
  9
$DIMTVP
 40
0.0
  9
$DIMTIX
 70
     0
  9
$DIMSOXD
 70
     0
  9
$DIMSAH
 70
     0
  9
$DIMBLK1
  1

  9
$DIMBLK2
  1

  9
$DIMSTYLE
  2
Standard
  9
$DIMCLRD
 70
     0
  9
$DIMCLRE
 70
     0
  9
$DIMCLRT
 70
     0
  9
$DIMTFAC
 40
1.0
  9
$DIMGAP
 40
0.09
  9
$DIMJUST
 70
     0
  9
$DIMSD1
 70
     0
  9
$DIMSD2
 70
     0
  9
$DIMTOLJ
 70
     1
  9
$DIMTZIN
 70
     0
  9
$DIMALTZ
 70
     0
  9
$DIMALTTZ
 70
     0
  9
$DIMUPT
 70
     0
  9
$DIMDEC
 70
     0
  9
$DIMTDEC
 70
     0
  9
$DIMALTU
 70
     2
  9
$DIMALTTD
 70
     2
  9
$DIMTXSTY
  7
Standard
  9
$DIMAUNIT
 70
     0
  9
$DIMADEC
 70
     0
  9
$DIMALTRND
 40
0.0
  9
$DIMAZIN
 70
     0
  9
$DIMDSEP
 70
    46
  9
$DIMATFIT
 70
     3
  9
$DIMFRAC
 70
     0
  9
$DIMLDRBLK
  1

  9
$DIMLUNIT
 70
     2
  9
$DIMLWD
 70
    -2
  9
$DIMLWE
 70
    -2
  9
$DIMTMOVE
 70
     0
  9
$DIMFXL
 40
1.0
  9
$DIMFXLON
 70
     0
  9
$DIMJOGANG
 40
0.7853981633974483
  9
$DIMTFILL
 70
     0
  9
$DIMTFILLCLR
 70
     0
  9
$DIMARCSYM
 70
     0
  9
$DIMLTYPE
  6

  9
$DIMLTEX1
  6

  9
$DIMLTEX2
  6

  9
$DIMTXTDIRECTION
 70
     0
  9
$LUNITS
 70
     2
  9
$LUPREC
 70
     4
  9
$SKETCHINC
 40
1.0
  9
$FILLETRAD
 40
20.0
  9
$AUNITS
 70
     0
  9
$AUPREC
 70
     0
  9
$MENU
  1
.
  9
$ELEVATION
 40
0.0
  9
$PELEVATION
 40
0.0
  9
$THICKNESS
 40
0.0
  9
$LIMCHECK
 70
     0
  9
$CHAMFERA
 40
0.0
  9
$CHAMFERB
 40
0.0
  9
$CHAMFERC
 40
20.0
  9
$CHAMFERD
 40
0.0
  9
$SKPOLY
 70
     0
  9
$TDCREATE
 40
2454761.433460648
  9
$TDUCREATE
 40
2454761.391795914
  9
$TDUPDATE
 40
2458815.593541667
  9
$TDUUPDATE
 40
2458815.593541667
  9
$TDINDWG
 40
11.4620390972
  9
$TDUSRTIMER
 40
11.4620316782
  9
$USRTIMER
 70
     1
  9
$ANGBASE
 50
0.0
  9
$ANGDIR
 70
     0
  9
$PDMODE
 70
     0
  9
$PDSIZE
 40
0.0
  9
$PLINEWID
 40
0.0
  9
$SPLFRAME
 70
     0
  9
$SPLINETYPE
 70
     6
  9
$SPLINESEGS
 70
     8
  9
$HANDSEED
  5
5A3B5
  9
$SURFTAB1
 70
     6
  9
$SURFTAB2
 70
     6
  9
$SURFTYPE
 70
     6
  9
$SURFU
 70
     6
  9
$SURFV
 70
     6
  9
$UCSBASE
  2

  9
$UCSNAME
  2

  9
$UCSORG
 10
0.0
 20
0.0
 30
0.0
  9
$UCSXDIR
 10
1.0
 20
0.0
 30
0.0
  9
$UCSYDIR
 10
0.0
 20
1.0
 30
0.0
  9
$UCSORTHOREF
  2

  9
$UCSORTHOVIEW
 70
     0
  9
$UCSORGTOP
 10
0.0
 20
0.0
 30
0.0
  9
$UCSORGBOTTOM
 10
0.0
 20
0.0
 30
0.0
  9
$UCSORGLEFT
 10
0.0
 20
0.0
 30
0.0
  9
$UCSORGRIGHT
 10
0.0
 20
0.0
 30
0.0
  9
$UCSORGFRONT
 10
0.0
 20
0.0
 30
0.0
  9
$UCSORGBACK
 10
0.0
 20
0.0
 30
0.0
  9
$PUCSBASE
  2

  9
$PUCSNAME
  2

  9
$PUCSORG
 10
0.0
 20
0.0
 30
0.0
  9
$PUCSXDIR
 10
1.0
 20
0.0
 30
0.0
  9
$PUCSYDIR
 10
0.0
 20
1.0
 30
0.0
  9
$PUCSORTHOREF
  2

  9
$PUCSORTHOVIEW
 70
     0
  9
$PUCSORGTOP
 10
0.0
 20
0.0
 30
0.0
  9
$PUCSORGBOTTOM
 10
0.0
 20
0.0
 30
0.0
  9
$PUCSORGLEFT
 10
0.0
 20
0.0
 30
0.0
  9
$PUCSORGRIGHT
 10
0.0
 20
0.0
 30
0.0
  9
$PUCSORGFRONT
 10
0.0
 20
0.0
 30
0.0
  9
$PUCSORGBACK
 10
0.0
 20
0.0
 30
0.0
  9
$USERI1
 70
     0
  9
$USERI2
 70
     0
  9
$USERI3
 70
     0
  9
$USERI4
 70
     0
  9
$USERI5
 70
     0
  9
$USERR1
 40
0.0
  9
$USERR2
 40
0.0
  9
$USERR3
 40
0.0
  9
$USERR4
 40
0.0
  9
$USERR5
 40
0.0
  9
$WORLDVIEW
 70
     1
  9
$SHADEDGE
 70
     3
  9
$SHADEDIF
 70
    70
  9
$TILEMODE
 70
     0
  9
$MAXACTVP
 70
    64
  9
$PINSBASE
 10
0.0
 20
0.0
 30
0.0
  9
$PLIMCHECK
 70
     0
  9
$PEXTMIN
 10
2.131409675472355
 20
18.1383399974012
 30
-0.0015258207003583
  9
$PEXTMAX
 10
409.5639658131855
 20
288.3958320316984
 30
0.0000000349246037
  9
$PLIMMIN
 10
-3.17498779296875
 20
-3.174999952316283
  9
$PLIMMAX
 10
416.8250122070311
 20
293.8250000476837
  9
$UNITMODE
 70
     0
  9
$VISRETAIN
 70
     1
  9
$PLINEGEN
 70
     0
  9
$PSLTSCALE
 70
     1
  9
$TREEDEPTH
 70
  3020
  9
$CMLSTYLE
  2
Standard
  9
$CMLJUST
 70
     0
  9
$CMLSCALE
 40
20.0
  9
$PROXYGRAPHICS
 70
     1
  9
$MEASUREMENT
 70
     1
  9
$CELWEIGHT
370
     5
  9
$ENDCAPS
280
     0
  9
$JOINSTYLE
280
     0
  9
$LWDISPLAY
290
     1
  9
$INSUNITS
 70
     4
  9
$HYPERLINKBASE
  1

  9
$STYLESHEET
  1

  9
$XEDIT
290
     1
  9
$CEPSNTYPE
380
     0
  9
$PSTYLEMODE
290
     1
  9
$FINGERPRINTGUID
  2
{524C90F3-A786-4345-9921-3B1287DDCEAC}
  9
$VERSIONGUID
  2
{A37CD39B-C516-7C4A-A46F-BB1080F59EA7}
  9
$EXTNAMES
290
     1
  9
$PSVPSCALE
 40
0.25
  9
$OLESTARTUP
290
     0
  9
$SORTENTS
280
   127
  9
$INDEXCTL
280
     0
  9
$HIDETEXT
280
     1
  9
$XCLIPFRAME
280
     2
  9
$HALOGAP
280
     0
  9
$OBSCOLOR
 70
   257
  9
$OBSLTYPE
280
     0
  9
$INTERSECTIONDISPLAY
280
     0
  9
$INTERSECTIONCOLOR
 70
   257
  9
$DIMASSOC
280
     2
  9
$PROJECTNAME
  1

  9
$CAMERADISPLAY
290
     0
  9
$LENSLENGTH
 40
50.0
  9
$CAMERAHEIGHT
 40
0.0
  9
$STEPSPERSEC
 40
2.0
  9
$STEPSIZE
 40
6.0
  9
$3DDWFPREC
 40
2.0
  9
$PSOLWIDTH
 40
0.25
  9
$PSOLHEIGHT
 40
4.0
  9
$LOFTANG1
 40
1.570796326794896
  9
$LOFTANG2
 40
1.570796326794896
  9
$LOFTMAG1
 40
0.0
  9
$LOFTMAG2
 40
0.0
  9
$LOFTPARAM
 70
     7
  9
$LOFTNORMALS
280
     1
  9
$LATITUDE
 40
37.795
  9
$LONGITUDE
 40
-122.394
  9
$NORTHDIRECTION
 40
0.0
  9
$TIMEZONE
 70
 -8000
  9
$LIGHTGLYPHDISPLAY
280
     1
  9
$TILEMODELIGHTSYNCH
280
     1
  9
$CMATERIAL
347
3497A
  9
$SOLIDHIST
280
     0
  9
$SHOWHIST
280
     1
  9
$DWFFRAME
280
     2
  9
$DGNFRAME
280
     0
  9
$REALWORLDSCALE
290
     1
  9
$INTERFERECOLOR
 62
     1
  9
$INTERFEREOBJVS
345
3499C
  9
$INTERFEREVPVS
346
5A345
  9
$CSHADOW
280
     0
  9
$SHADOWPLANELOCATION
 40
0.0
  0
ENDSEC
  0
SECTION
  2
CLASSES
  0
CLASS
  1
ACDBDICTIONARYWDFLT
  2
AcDbDictionaryWithDefault
  3
ObjectDBX Classes
 90
        0
 91
        1
280
     0
281
     0
  0
CLASS
  1
DIMASSOC
  2
AcDbDimAssoc
  3
"AcDbDimAssoc|Product Desc:     AcDim ARX App For Dimension|Company:          Autodesk, Inc.|WEB Address:      www.autodesk.com"
 90
        0
 91
        2
280
     0
281
     0
  0
CLASS
  1
DICTIONARYVAR
  2
AcDbDictionaryVar
  3
ObjectDBX Classes
 90
        0
 91
       13
280
     0
281
     0
  0
CLASS
  1
PLOTSETTINGS
  2
AcDbPlotSettings
  3
ObjectDBX Classes
 90
        0
 91
        1
280
     0
281
     0
  0
CLASS
  1
MATERIAL
  2
AcDbMaterial
  3
ObjectDBX Classes
 90
     1153
 91
        3
280
     0
281
     0
  0
CLASS
  1
VISUALSTYLE
  2
AcDbVisualStyle
  3
ObjectDBX Classes
 90
     4095
 91
       26
280
     0
281
     0
  0
CLASS
  1
TABLESTYLE
  2
AcDbTableStyle
  3
ObjectDBX Classes
 90
     4095
 91
        1
280
     0
281
     0
  0
CLASS
  1
SCALE
  2
AcDbScale
  3
ObjectDBX Classes
 90
     1153
 91
       49
280
     0
281
     0
  0
CLASS
  1
MLEADERSTYLE
  2
AcDbMLeaderStyle
  3
ACDB_MLEADERSTYLE_CLASS
 90
     4095
 91
        1
280
     0
281
     0
  0
CLASS
  1
CELLSTYLEMAP
  2
AcDbCellStyleMap
  3
ObjectDBX Classes
 90
     1152
 91
        2
280
     0
281
     0
  0
CLASS
  1
SORTENTSTABLE
  2
AcDbSortentsTable
  3
ObjectDBX Classes
 90
        0
 91
        1
280
     0
281
     0
  0
CLASS
  1
ACDBSECTIONVIEWSTYLE
  2
AcDbSectionViewStyle
  3
ObjectDBX Classes
 90
     1025
 91
        1
280
     0
281
     0
  0
CLASS
  1
ACDBDETAILVIEWSTYLE
  2
AcDbDetailViewStyle
  3
ObjectDBX Classes
 90
     1025
 91
        1
280
     0
281
     0
  0
ENDSEC
  0
SECTION
  2
TABLES
  0
TABLE
  2
VPORT
  5
8
102
{ACAD_XDICTIONARY
360
34A75
102
}
330
0
100
AcDbSymbolTable
 70
     1
  0
VPORT
  5
5A22C
330
8
100
AcDbSymbolTableRecord
100
AcDbViewportTableRecord
  2
*Active
 70
     0
 10
0.0
 20
0.0
 11
1.0
 21
1.0
 12
13136.75095634783
 22
5279.779422046817
 13
0.0
 23
0.0
 14
10.0
 24
10.0
 15
10.0
 25
10.0
 16
0.0
 26
0.0
 36
1.0
 17
0.0
 27
0.0
 37
0.0
 40
11799.61333015031
 41
2.292712066905615
 42
50.0
 43
0.0
 44
0.0
 50
0.0
 51
0.0
 71
     0
 72
   100
 73
     1
 74
     2
 75
     0
 76
     0
 77
     0
 78
     2
281
     0
 65
     1
110
0.0
120
0.0
130
0.0
111
1.0
121
0.0
131
0.0
112
0.0
122
1.0
132
0.0
 79
     0
146
0.0
348
34998
 60
     3
 61
     5
292
     1
282
     1
141
0.0
142
0.0
 63
   250
421
  3355443
1001
ACAD_NAV_VCDISPLAY
1070
     3
  0
ENDTAB
  0
TABLE
  2
LTYPE
  5
5
330
0
100
AcDbSymbolTable
 70
     1
  0
LTYPE
  5
14
330
5
100
AcDbSymbolTableRecord
100
AcDbLinetypeTableRecord
  2
ByBlock
 70
     0
  3

 72
    65
 73
     0
 40
0.0
  0
LTYPE
  5
15
330
5
100
AcDbSymbolTableRecord
100
AcDbLinetypeTableRecord
  2
ByLayer
 70
     0
  3

 72
    65
 73
     0
 40
0.0
  0
LTYPE
  5
16
330
5
100
AcDbSymbolTableRecord
100
AcDbLinetypeTableRecord
  2
Continuous
 70
     0
  3
Solid line
 72
    65
 73
     0
 40
0.0
  0
ENDTAB
  0
TABLE
  2
LAYER
  5
2
102
{ACAD_XDICTIONARY
360
393
102
}
330
0
100
AcDbSymbolTable
 70
     6
  0
LAYER
  5
10
102
{ACAD_XDICTIONARY
360
349FE
102
}
330
2
100
AcDbSymbolTableRecord
100
AcDbLayerTableRecord
  2
0
 70
     0
 62
     7
  6
Continuous
370
    -3
390
F
347
3498A
  0
LAYER
  5
34
330
2
100
AcDbSymbolTableRecord
100
AcDbLayerTableRecord
  2
Defpoints
 70
     0
 62
     7
  6
Continuous
290
     0
370
    -3
390
F
347
3498A
  0
LAYER
  5
5A244
330
2
100
AcDbSymbolTableRecord
100
AcDbLayerTableRecord
  2
TEXT
 70
     0
 62
     7
  6
Continuous
370
    -3
390
F
347
3498A
  0
LAYER
  5
5A289
330
2
100
AcDbSymbolTableRecord
100
AcDbLayerTableRecord
  2
DETAIL
 70
     0
 62
     2
  6
Continuous
370
    -3
390
F
347
3498A
1001
AcAecLayerStandard
1000

1000

  0
LAYER
  5
5A28A
330
2
100
AcDbSymbolTableRecord
100
AcDbLayerTableRecord
  2
APPLICATION
 70
     0
 62
     3
  6
Continuous
370
    -3
390
F
347
3498A
1001
AcAecLayerStandard
1000

1000

  0
LAYER
  5
5A28B
330
2
100
AcDbSymbolTableRecord
100
AcDbLayerTableRecord
  2
DIMS
 70
     0
 62
     7
  6
Continuous
370
    -3
390
F
347
3498A
1001
AcAecLayerStandard
1000

1000

  0
ENDTAB
  0
TABLE
  2
STYLE
  5
3
330
0
100
AcDbSymbolTable
 70
     3
  0
STYLE
  5
11
330
3
100
AcDbSymbolTableRecord
100
AcDbTextStyleTableRecord
  2
Standard
 70
     0
 40
0.0
 41
1.0
 50
0.0
 71
     0
 42
2.5
  3
txt
  4

  0
STYLE
  5
57C01
330
3
100
AcDbSymbolTableRecord
100
AcDbTextStyleTableRecord
  2
TITLEBOX
 70
     0
 40
105.0
 41
1.0
 50
0.0
 71
     0
 42
105.0
  3
techb___.ttf
  4

1001
ACAD
1000
TechnicBold
1071
      514
  0
STYLE
  5
5A245
330
3
100
AcDbSymbolTableRecord
100
AcDbTextStyleTableRecord
  2
fastrack
 70
     0
 40
0.0
 41
1.0
 50
0.0
 71
     0
 42
2.5
  3
simplex.shx
  4

  0
ENDTAB
  0
TABLE
  2
VIEW
  5
6
330
0
100
AcDbSymbolTable
 70
     1
  0
ENDTAB
  0
TABLE
  2
UCS
  5
7
330
0
100
AcDbSymbolTable
 70
     0
  0
ENDTAB
  0
TABLE
  2
APPID
  5
9
330
0
100
AcDbSymbolTable
 70
     9
  0
APPID
  5
12
330
9
100
AcDbSymbolTableRecord
100
AcDbRegAppTableRecord
  2
ACAD
 70
     0
  0
APPID
  5
2D9CA
330
9
100
AcDbSymbolTableRecord
100
AcDbRegAppTableRecord
  2
ACAD_PSEXT
 70
     0
  0
APPID
  5
349CA
330
9
100
AcDbSymbolTableRecord
100
AcDbRegAppTableRecord
  2
ACAD_MLEADERVER
 70
     0
  0
APPID
  5
35295
330
9
100
AcDbSymbolTableRecord
100
AcDbRegAppTableRecord
  2
RAK
 70
     0
  0
APPID
  5
35296
330
9
100
AcDbSymbolTableRecord
100
AcDbRegAppTableRecord
  2
AcAecLayerStandard
 70
     0
  0
APPID
  5
35297
330
9
100
AcDbSymbolTableRecord
100
AcDbRegAppTableRecord
  2
ACAD_DSTYLE_DIMJOGGED_JOGANGLE_SYMBOL
 70
     0
  0
APPID
  5
35527
330
9
100
AcDbSymbolTableRecord
100
AcDbRegAppTableRecord
  2
ACAD_DSTYLE_DIMEXT_LENGTH
 70
     0
  0
APPID
  5
357AB
330
9
100
AcDbSymbolTableRecord
100
AcDbRegAppTableRecord
  2
ACAD_EXEMPT_FROM_CAD_STANDARDS
 70
     0
  0
APPID
  5
5A35C
330
9
100
AcDbSymbolTableRecord
100
AcDbRegAppTableRecord
  2
ACAD_NAV_VCDISPLAY
 70
     0
  0
ENDTAB
  0
TABLE
  2
DIMSTYLE
  5
A
330
0
100
AcDbSymbolTable
 70
     2
100
AcDbDimStyleTable
 71
     2
340
39B
340
27
  0
DIMSTYLE
105
27
102
{ACAD_REACTORS
330
59EA1
330
59F92
330
59F93
330
59F96
330
5A05A
102
}
330
A
100
AcDbSymbolTableRecord
100
AcDbDimStyleTableRecord
  2
ISO-25
 70
     0
 41
2.5
 42
0.625
 43
3.75
 44
1.25
 73
     0
 74
     0
 77
     1
 78
     8
140
6.0
141
2.5
143
0.03937007874016
147
0.625
171
     3
172
     1
271
     0
272
     0
274
     3
278
    44
283
     0
284
     8
340
11
342
1A67
  0
DIMSTYLE
105
39B
330
A
100
AcDbSymbolTableRecord
100
AcDbDimStyleTableRecord
  2
Standard
 70
     0
271
     0
272
     0
340
11
  0
ENDTAB
  0
TABLE
  2
BLOCK_RECORD
  5
1
330
0
100
AcDbSymbolTable
 70
     6
  0
BLOCK_RECORD
  5
1F
102
{ACAD_XDICTIONARY
360
35450
102
}
330
1
100
AcDbSymbolTableRecord
100
AcDbBlockTableRecord
  2
*Model_Space
340
22
 70
     0
280
     1
281
     0
  0
BLOCK_RECORD
  5
348E5
330
1
100
AcDbSymbolTableRecord
100
AcDbBlockTableRecord
  2
*Paper_Space
340
3491A
 70
     0
280
     1
281
     0
  0
BLOCK_RECORD
  5
1A67
330
1
100
AcDbSymbolTableRecord
100
AcDbBlockTableRecord
  2
_ArchTick
340
0
 70
     0
280
     1
281
     0
  0
BLOCK_RECORD
  5
5A1C9
330
1
100
AcDbSymbolTableRecord
100
AcDbBlockTableRecord
  2
*D1
340
0
 70
     0
280
     1
281
     0
  0
BLOCK_RECORD
  5
5A1D5
330
1
100
AcDbSymbolTableRecord
100
AcDbBlockTableRecord
  2
*D2
340
0
 70
     0
280
     1
281
     0
  0
BLOCK_RECORD
  5
5A1E1
330
1
100
AcDbSymbolTableRecord
100
AcDbBlockTableRecord
  2
*D3
340
0
 70
     0
280
     1
281
     0
  0
BLOCK_RECORD
  5
5A200
330
1
100
AcDbSymbolTableRecord
100
AcDbBlockTableRecord
  2
*D4
340
0
 70
     0
280
     1
281
     0
  0
BLOCK_RECORD
  5
5A20C
330
1
100
AcDbSymbolTableRecord
100
AcDbBlockTableRecord
  2
*D5
340
0
 70
     0
280
     1
281
     0
  0
ENDTAB
  0
ENDSEC
  0
SECTION
  2
BLOCKS
  0
BLOCK
  5
20
330
1F
100
AcDbEntity
  8
0
100
AcDbBlockBegin
  2
*Model_Space
 70
     0
 10
0.0
 20
0.0
 30
0.0
  3
*Model_Space
  1

  0
ENDBLK
  5
21
330
1F
100
AcDbEntity
  8
0
100
AcDbBlockEnd
  0
BLOCK
  5
34918
330
348E5
100
AcDbEntity
 67
     1
  8
0
100
AcDbBlockBegin
  2
*Paper_Space
 70
     0
 10
0.0
 20
0.0
 30
0.0
  3
*Paper_Space
  1

  0
ENDBLK
  5
34919
330
348E5
100
AcDbEntity
 67
     1
  8
0
100
AcDbBlockEnd
  0
BLOCK
  5
1A69
330
1A67
100
AcDbEntity
  8
0
100
AcDbBlockBegin
  2
_ArchTick
 70
     0
 10
0.0
 20
0.0
 30
0.0
  3
_ArchTick
  1

  0
LWPOLYLINE
  5
1A68
330
1A67
100
AcDbEntity
  8
0
  6
ByBlock
 62
     0
100
AcDbPolyline
 90
        2
 70
     0
 43
0.15
 10
-0.5
 20
-0.5
 10
0.5
 20
0.5
  0
ENDBLK
  5
1A6A
330
1A67
100
AcDbEntity
  8
0
100
AcDbBlockEnd
  0
BLOCK
  5
5A1D3
330
5A1C9
100
AcDbEntity
  8
0
 62
     0
 48
50.0
370
     5
100
AcDbBlockBegin
  2
*D1
 70
     1
 10
0.0
 20
0.0
 30
0.0
  3
*D1
  1

  0
LINE
  5
5A2C2
330
5A1C9
100
AcDbEntity
  8
DIMS
 62
     0
440
 16777216
370
    -2
100
AcDbLine
 10
10378.87701052596
 20
5020.371790273901
 30
0.0
 11
10371.71034385898
 21
5020.371790273901
 31
0.0
  0
LINE
  5
5A2C3
330
5A1C9
100
AcDbEntity
  8
DIMS
 62
     0
440
 16777216
370
    -2
100
AcDbLine
 10
9964.927818960337
 20
7077.371790273899
 30
0.0
 11
10431.71034385898
 21
7077.371790273899
 31
0.0
  0
LINE
  5
5A2C4
330
5A1C9
100
AcDbEntity
  8
DIMS
 62
     0
440
 16777216
370
    -2
100
AcDbLine
 10
10401.71034385898
 20
5100.371790273901
 30
0.0
 11
10401.71034385898
 21
6997.371790273899
 31
0.0
  0
SOLID
  5
5A2C5
330
5A1C9
100
AcDbEntity
  8
DIMS
 62
     0
440
 16777216
370
     5
100
AcDbTrace
 10
10388.37701052565
 20
5100.371790273901
 30
0.0
 11
10415.04367719231
 21
5100.371790273901
 31
0.0
 12
10401.71034385898
 22
5020.371790273901
 32
0.0
 13
10401.71034385898
 23
5020.371790273901
 33
0.0
  0
SOLID
  5
5A2C6
330
5A1C9
100
AcDbEntity
  8
DIMS
 62
     0
440
 16777216
370
     5
100
AcDbTrace
 10
10388.37701052565
 20
6997.371790273899
 30
0.0
 11
10415.04367719231
 21
6997.371790273899
 31
0.0
 12
10401.71034385898
 22
7077.371790273899
 32
0.0
 13
10401.71034385898
 23
7077.371790273899
 33
0.0
  0
MTEXT
  5
5A2C7
330
5A1C9
100
AcDbEntity
  8
DIMS
440
 16777216
370
    25
100
AcDbMText
 10
10317.98227368354
 20
6048.871790273903
 30
0.0
 40
105.0
 41
0.0
 46
0.0
 71
     5
 72
     1
  1
to suit fence height
  7
TITLEBOX
 11
0.0000000000000001
 21
1.0
 31
0.0
 73
     1
 44
1.0
  0
POINT
  5
5A2C8
330
5A1C9
100
AcDbEntity
  8
Defpoints
 62
     0
440
 16777216
370
     5
100
AcDbPoint
 10
10408.87701052596
 20
5020.371790273901
 30
0.0
  0
POINT
  5
5A2C9
330
5A1C9
100
AcDbEntity
  8
Defpoints
 62
     0
440
 16777216
370
     5
100
AcDbPoint
 10
9934.927818960336
 20
7077.371790273899
 30
0.0
  0
POINT
  5
5A2CA
330
5A1C9
100
AcDbEntity
  8
Defpoints
 62
     0
440
 16777216
370
     5
100
AcDbPoint
 10
10401.71034385898
 20
7077.371790273899
 30
0.0
  0
ENDBLK
  5
5A1D4
330
5A1C9
100
AcDbEntity
  8
0
 62
     0
 48
50.0
370
     5
100
AcDbBlockEnd
  0
BLOCK
  5
5A1DF
330
5A1D5
100
AcDbEntity
  8
0
 62
     0
 48
50.0
370
     5
100
AcDbBlockBegin
  2
*D2
 70
     1
 10
0.0
 20
0.0
 30
0.0
  3
*D2
  1

  0
LINE
  5
5A2CB
330
5A1D5
100
AcDbEntity
  8
DIMS
 62
     0
440
 16777216
370
    -2
100
AcDbLine
 10
1004.514100695785
 20
7197.371790274832
 30
0.0
 11
1004.514100695785
 21
7650.384844967949
 31
0.0
  0
LINE
  5
5A2CC
330
5A1D5
100
AcDbEntity
  8
DIMS
 62
     0
440
 16777216
370
    -2
100
AcDbLine
 10
7221.795900621741
 20
7197.371790274832
 30
0.0
 11
7221.795900621741
 21
7650.384844967949
 31
0.0
  0
LINE
  5
5A2CD
330
5A1D5
100
AcDbEntity
  8
DIMS
 62
     0
440
 16777216
370
    -2
100
AcDbLine
 10
1084.514100695785
 20
7620.384844967951
 30
0.0
 11
7141.795900621743
 21
7620.384844967951
 31
0.0
  0
SOLID
  5
5A2CE
330
5A1D5
100
AcDbEntity
  8
DIMS
 62
     0
440
 16777216
370
     5
100
AcDbTrace
 10
1084.514100695785
 20
7633.718178301283
 30
0.0
 11
1084.514100695785
 21
7607.051511634617
 31
0.0
 12
1004.514100695785
 22
7620.384844967951
 32
0.0
 13
1004.514100695785
 23
7620.384844967951
 33
0.0
  0
SOLID
  5
5A2CF
330
5A1D5
100
AcDbEntity
  8
DIMS
 62
     0
440
 16777216
370
     5
100
AcDbTrace
 10
7141.795900621743
 20
7633.718178301283
 30
0.0
 11
7141.795900621743
 21
7607.051511634617
 31
0.0
 12
7221.795900621741
 22
7620.384844967951
 32
0.0
 13
7221.795900621741
 23
7620.384844967951
 33
0.0
  0
MTEXT
  5
5A2D0
330
5A1D5
100
AcDbEntity
  8
DIMS
440
 16777216
370
    25
100
AcDbMText
 10
4113.155000658763
 20
7704.650195845143
 30
0.0
 40
105.0
 41
0.0
 46
0.0
 71
     5
 72
     1
  1
DIMENSION A
  7
TITLEBOX
 73
     1
 44
1.0
  0
POINT
  5
5A2D1
330
5A1D5
100
AcDbEntity
  8
Defpoints
 62
     0
440
 16777216
370
     5
100
AcDbPoint
 10
1004.514100695785
 20
7167.371790274831
 30
0.0
  0
POINT
  5
5A2D2
330
5A1D5
100
AcDbEntity
  8
Defpoints
 62
     0
440
 16777216
370
     5
100
AcDbPoint
 10
7221.795900621741
 20
7167.371790274831
 30
0.0
  0
POINT
  5
5A2D3
330
5A1D5
100
AcDbEntity
  8
Defpoints
 62
     0
440
 16777216
370
     5
100
AcDbPoint
 10
7221.795900621741
 20
7620.384844967951
 30
0.0
  0
ENDBLK
  5
5A1E0
330
5A1D5
100
AcDbEntity
  8
0
 62
     0
 48
50.0
370
     5
100
AcDbBlockEnd
  0
BLOCK
  5
5A1EC
330
5A1E1
100
AcDbEntity
  8
0
 62
     0
 48
50.0
370
     5
100
AcDbBlockBegin
  2
*D3
 70
     1
 10
0.0
 20
0.0
 30
0.0
  3
*D3
  1

  0
LINE
  5
5A2E6
330
5A1E1
100
AcDbEntity
  8
DIMS
 62
     0
440
 16777216
370
    -2
100
AcDbLine
 10
1055.24640932196
 20
2639.331617823191
 30
0.0
 11
1055.24640932196
 21
3141.466575744882
 31
0.0
  0
LINE
  5
5A2E7
330
5A1E1
100
AcDbEntity
  8
DIMS
 62
     0
440
 16777216
370
    -2
100
AcDbLine
 10
805.2464093219604
 20
2854.331617823191
 30
0.0
 11
805.2464093219604
 21
3141.466575744882
 31
0.0
  0
LINE
  5
5A2E8
330
5A1E1
100
AcDbEntity
  8
DIMS
 62
     0
440
 16777216
370
    -2
100
AcDbLine
 10
975.2464093219606
 20
3111.466575744882
 30
0.0
 11
885.2464093219603
 21
3111.466575744882
 31
0.0
  0
LINE
  5
5A2E9
330
5A1E1
100
AcDbEntity
  8
DIMS
 62
     0
440
 16777216
370
    -2
100
AcDbLine
 10
805.2464093219604
 20
3111.466575744882
 30
0.0
 11
428.9964093219605
 21
3111.466575744882
 31
0.0
  0
SOLID
  5
5A2EA
330
5A1E1
100
AcDbEntity
  8
DIMS
 62
     0
440
 16777216
370
     5
100
AcDbTrace
 10
975.2464093219606
 20
3124.799909078216
 30
0.0
 11
975.2464093219606
 21
3098.133242411549
 31
0.0
 12
1055.24640932196
 22
3111.466575744882
 32
0.0
 13
1055.24640932196
 23
3111.466575744882
 33
0.0
  0
SOLID
  5
5A2EB
330
5A1E1
100
AcDbEntity
  8
DIMS
 62
     0
440
 16777216
370
     5
100
AcDbTrace
 10
885.2464093219603
 20
3124.799909078216
 30
0.0
 11
885.2464093219603
 21
3098.133242411549
 31
0.0
 12
805.2464093219604
 22
3111.466575744882
 32
0.0
 13
805.2464093219604
 23
3111.466575744882
 33
0.0
  0
MTEXT
  5
5A2EC
330
5A1E1
100
AcDbEntity
  8
DIMS
440
 16777216
370
    25
100
AcDbMText
 10
577.1214093219604
 20
3195.194645920321
 30
0.0
 40
105.0
 41
0.0
 46
0.0
 71
     5
 72
     1
  1
250
  7
TITLEBOX
 73
     1
 44
1.0
  0
POINT
  5
5A2ED
330
5A1E1
100
AcDbEntity
  8
Defpoints
 62
     0
440
 16777216
370
     5
100
AcDbPoint
 10
1055.24640932196
 20
2609.331617823191
 30
0.0
  0
POINT
  5
5A2EE
330
5A1E1
100
AcDbEntity
  8
Defpoints
 62
     0
440
 16777216
370
     5
100
AcDbPoint
 10
805.2464093219604
 20
2824.331617823191
 30
0.0
  0
POINT
  5
5A2EF
330
5A1E1
100
AcDbEntity
  8
Defpoints
 62
     0
440
 16777216
370
     5
100
AcDbPoint
 10
805.2464093219604
 20
3111.466575744882
 30
0.0
  0
ENDBLK
  5
5A1ED
330
5A1E1
100
AcDbEntity
  8
0
 62
     0
 48
50.0
370
     5
100
AcDbBlockEnd
  0
BLOCK
  5
5A20A
330
5A200
100
AcDbEntity
  8
0
 62
     0
 48
50.0
370
     5
100
AcDbBlockBegin
  2
*D4
 70
     1
 10
0.0
 20
0.0
 30
0.0
  3
*D4
  1

  0
LINE
  5
5A2D4
330
5A200
100
AcDbEntity
  8
DIMS
 62
     0
440
 16777216
370
    -2
100
AcDbLine
 10
1055.246409322193
 20
2609.331617823191
 30
0.0
 11
1055.246409322193
 21
3141.466575744882
 31
0.0
  0
LINE
  5
5A2D5
330
5A200
100
AcDbEntity
  8
DIMS
 62
     0
440
 16777216
370
    -2
100
AcDbLine
 10
7281.795896558847
 20
2646.831617823656
 30
0.0
 11
7281.795896558847
 21
3141.466575744882
 31
0.0
  0
LINE
  5
5A2D6
330
5A200
100
AcDbEntity
  8
DIMS
 62
     0
440
 16777216
370
    -2
100
AcDbLine
 10
1135.246409322193
 20
3111.466575744882
 30
0.0
 11
7201.795896558848
 21
3111.466575744882
 31
0.0
  0
SOLID
  5
5A2D7
330
5A200
100
AcDbEntity
  8
DIMS
 62
     0
440
 16777216
370
     5
100
AcDbTrace
 10
1135.246409322193
 20
3124.799909078216
 30
0.0
 11
1135.246409322193
 21
3098.133242411549
 31
0.0
 12
1055.246409322193
 22
3111.466575744882
 32
0.0
 13
1055.246409322193
 23
3111.466575744882
 33
0.0
  0
SOLID
  5
5A2D8
330
5A200
100
AcDbEntity
  8
DIMS
 62
     0
440
 16777216
370
     5
100
AcDbTrace
 10
7201.795896558848
 20
3124.799909078216
 30
0.0
 11
7201.795896558848
 21
3098.133242411549
 31
0.0
 12
7281.795896558847
 22
3111.466575744882
 32
0.0
 13
7281.795896558847
 23
3111.466575744882
 33
0.0
  0
MTEXT
  5
5A2D9
330
5A200
100
AcDbEntity
  8
DIMS
440
 16777216
370
    25
100
AcDbMText
 10
4168.521152940519
 20
3195.731926622075
 30
0.0
 40
105.0
 41
0.0
 46
0.0
 71
     5
 72
     1
  1
DIMENSION B
  7
TITLEBOX
 73
     1
 44
1.0
  0
POINT
  5
5A2DA
330
5A200
100
AcDbEntity
  8
Defpoints
 62
     0
440
 16777216
370
     5
100
AcDbPoint
 10
1055.246409322193
 20
2579.331617823191
 30
0.0
  0
POINT
  5
5A2DB
330
5A200
100
AcDbEntity
  8
Defpoints
 62
     0
440
 16777216
370
     5
100
AcDbPoint
 10
7281.795896558847
 20
2616.831617823657
 30
0.0
  0
POINT
  5
5A2DC
330
5A200
100
AcDbEntity
  8
Defpoints
 62
     0
440
 16777216
370
     5
100
AcDbPoint
 10
7281.795896558847
 20
3111.466575744882
 30
0.0
  0
ENDBLK
  5
5A20B
330
5A200
100
AcDbEntity
  8
0
 62
     0
 48
50.0
370
     5
100
AcDbBlockEnd
  0
BLOCK
  5
5A216
330
5A20C
100
AcDbEntity
  8
0
 62
     0
 48
50.0
370
     5
100
AcDbBlockBegin
  2
*D5
 70
     1
 10
0.0
 20
0.0
 30
0.0
  3
*D5
  1

  0
LINE
  5
5A2DD
330
5A20C
100
AcDbEntity
  8
DIMS
 62
     0
440
 16777216
370
    -2
100
AcDbLine
 10
805.2464093219604
 20
2824.331617823191
 30
0.0
 11
805.2464093219604
 21
3576.053487036232
 31
0.0
  0
LINE
  5
5A2DE
330
5A20C
100
AcDbEntity
  8
DIMS
 62
     0
440
 16777216
370
    -2
100
AcDbLine
 10
12013.01359742024
 20
2824.331617823191
 30
0.0
 11
12013.01359742024
 21
3576.053487036232
 31
0.0
  0
LINE
  5
5A2DF
330
5A20C
100
AcDbEntity
  8
DIMS
 62
     0
440
 16777216
370
    -2
100
AcDbLine
 10
885.2464093219603
 20
3546.053487036232
 30
0.0
 11
11933.01359742024
 21
3546.053487036232
 31
0.0
  0
SOLID
  5
5A2E0
330
5A20C
100
AcDbEntity
  8
DIMS
 62
     0
440
 16777216
370
     5
100
AcDbTrace
 10
885.2464093219603
 20
3559.386820369565
 30
0.0
 11
885.2464093219603
 21
3532.720153702899
 31
0.0
 12
805.2464093219604
 22
3546.053487036232
 32
0.0
 13
805.2464093219604
 23
3546.053487036232
 33
0.0
  0
SOLID
  5
5A2E1
330
5A20C
100
AcDbEntity
  8
DIMS
 62
     0
440
 16777216
370
     5
100
AcDbTrace
 10
11933.01359742024
 20
3559.386820369565
 30
0.0
 11
11933.01359742024
 21
3532.720153702899
 31
0.0
 12
12013.01359742024
 22
3546.053487036232
 32
0.0
 13
12013.01359742024
 23
3546.053487036232
 33
0.0
  0
MTEXT
  5
5A2E2
330
5A20C
100
AcDbEntity
  8
DIMS
440
 16777216
370
    25
100
AcDbMText
 10
6409.1300033711
 20
3630.318837913426
 30
0.0
 40
105.0
 41
0.0
 46
0.0
 71
     5
 72
     1
  1
DIMENSION C
  7
TITLEBOX
 73
     1
 44
1.0
  0
POINT
  5
5A2E3
330
5A20C
100
AcDbEntity
  8
Defpoints
 62
     0
440
 16777216
370
     5
100
AcDbPoint
 10
805.2464093219604
 20
2794.331617823191
 30
0.0
  0
POINT
  5
5A2E4
330
5A20C
100
AcDbEntity
  8
Defpoints
 62
     0
440
 16777216
370
     5
100
AcDbPoint
 10
12013.01359742024
 20
2794.331617823191
 30
0.0
  0
POINT
  5
5A2E5
330
5A20C
100
AcDbEntity
  8
Defpoints
 62
     0
440
 16777216
370
     5
100
AcDbPoint
 10
12013.01359742024
 20
3546.053487036232
 30
0.0
  0
ENDBLK
  5
5A217
330
5A20C
100
AcDbEntity
  8
0
 62
     0
 48
50.0
370
     5
100
AcDbBlockEnd
  0
ENDSEC
  0
SECTION
  2
ENTITIES
  0
LINE
  5
59E62
330
1F
100
AcDbEntity
  8
DETAIL
370
    25
100
AcDbLine
 10
7331.795900621742
 20
5000.371790273901
 30
0.0
 11
8681.795900621741
 21
5000.371790273901
 31
0.0
  0
LINE
  5
59E64
330
1F
100
AcDbEntity
  8
DETAIL
370
    25
100
AcDbLine
 10
8731.795900621742
 20
5000.371790273901
 30
0.0
 11
9081.795900621742
 21
5000.371790273901
 31
0.0
  0
LINE
  5
59E66
330
1F
100
AcDbEntity
  8
DETAIL
370
    25
100
AcDbLine
 10
6931.795900621742
 20
5000.371790273901
 30
0.0
 11
7231.795900621742
 21
5000.371790273901
 31
0.0
  0
LINE
  5
59E67
330
1F
100
AcDbEntity
  8
DETAIL
370
    25
100
AcDbLine
 10
7031.795900621742
 20
5010.3717902739
 30
0.0
 11
7031.795900621742
 21
5000.371790273901
 31
0.0
  0
LINE
  5
59E68
330
1F
100
AcDbEntity
  8
DETAIL
370
    25
100
AcDbLine
 10
7031.795900621742
 20
5015.371790273901
 30
0.0
 11
7231.795900621742
 21
5015.371790273901
 31
0.0
  0
LINE
  5
59E69
330
1F
100
AcDbEntity
  8
DETAIL
370
    25
100
AcDbLine
 10
7331.795900621742
 20
5015.371790273901
 30
0.0
 11
7531.795900621742
 21
5015.371790273901
 31
0.0
  0
LINE
  5
59E6A
330
1F
100
AcDbEntity
  8
DETAIL
370
    25
100
AcDbLine
 10
7531.795900621742
 20
5010.3717902739
 30
0.0
 11
7531.795900621742
 21
5000.371790273901
 31
0.0
  0
LINE
  5
59E6B
330
1F
100
AcDbEntity
  8
DETAIL
370
    25
100
AcDbLine
 10
8481.795900621742
 20
5010.3717902739
 30
0.0
 11
8481.795900621742
 21
5000.371790273901
 31
0.0
  0
LINE
  5
59E6C
330
1F
100
AcDbEntity
  8
DETAIL
370
    25
100
AcDbLine
 10
8481.795900621742
 20
5015.371790273901
 30
0.0
 11
8681.795900621741
 21
5015.371790273901
 31
0.0
  0
LINE
  5
59E6D
330
1F
100
AcDbEntity
  8
DETAIL
370
    25
100
AcDbLine
 10
8781.795900621743
 20
5015.371790273901
 30
0.0
 11
8981.795900621742
 21
5015.371790273901
 31
0.0
  0
LINE
  5
59E6E
330
1F
100
AcDbEntity
  8
DETAIL
370
    25
100
AcDbLine
 10
8981.795900621742
 20
5015.371790273901
 30
0.0
 11
8981.795900621742
 21
5005.371790273901
 31
0.0
  0
LINE
  5
59E6F
330
1F
100
AcDbEntity
  8
DETAIL
370
    25
100
AcDbLine
 10
7031.795900621742
 20
5010.3717902739
 30
0.0
 11
7031.795900621742
 21
5015.371790273901
 31
0.0
  0
LINE
  5
59E70
330
1F
100
AcDbEntity
  8
DETAIL
370
    25
100
AcDbLine
 10
7531.795900621742
 20
5010.3717902739
 30
0.0
 11
7531.795900621742
 21
5015.371790273901
 31
0.0
  0
LINE
  5
59E71
330
1F
100
AcDbEntity
  8
DETAIL
370
    25
100
AcDbLine
 10
8481.795900621742
 20
5010.3717902739
 30
0.0
 11
8481.795900621742
 21
5015.371790273901
 31
0.0
  0
LINE
  5
59E72
330
1F
100
AcDbEntity
  8
DETAIL
370
    25
100
AcDbLine
 10
8981.795900621742
 20
5005.371790273901
 30
0.0
 11
8981.795900621742
 21
5000.371790273901
 31
0.0
  0
LINE
  5
59E73
330
1F
100
AcDbEntity
  8
DETAIL
370
    25
100
AcDbLine
 10
9934.927818960336
 20
5070.371790273901
 30
0.0
 11
9934.927818960336
 21
7077.371790273899
 31
0.0
  0
LINE
  5
59E74
330
1F
100
AcDbEntity
  8
DETAIL
370
    25
100
AcDbLine
 10
9934.927818960336
 20
7077.371790273899
 30
0.0
 11
8791.795900621742
 21
7077.371790275297
 31
0.0
  0
LINE
  5
59E75
330
1F
100
AcDbEntity
  8
DETAIL
370
    25
100
AcDbLine
 10
1999.017957193137
 20
7077.371790273899
 30
0.0
 11
1999.017957193137
 21
5070.371790273901
 31
0.0
  0
LINE
  5
59E76
330
1F
100
AcDbEntity
  8
DETAIL
370
    25
100
AcDbLine
 10
3834.927818960337
 20
5070.371790273901
 30
0.0
 11
7221.795900621741
 21
5070.371790274368
 31
0.0
  0
LINE
  5
59E77
330
1F
100
AcDbEntity
  8
DETAIL
370
    25
100
AcDbLine
 10
2049.017957193137
 20
7027.371790273902
 30
0.0
 11
2049.017957194534
 21
5220.371790273901
 31
0.0
  0
LINE
  5
59E78
330
1F
100
AcDbEntity
  8
DETAIL
370
    25
100
AcDbLine
 10
9884.927818960802
 20
7027.371790274367
 30
0.0
 11
8791.795900621742
 21
7027.371790275298
 31
0.0
  0
LINE
  5
59E79
330
1F
100
AcDbEntity
  8
DETAIL
370
    25
100
AcDbLine
 10
9884.927818961733
 20
5220.371790273901
 30
0.0
 11
9884.927818960335
 21
7027.371790273902
 31
0.0
  0
LINE
  5
59E7A
330
1F
100
AcDbEntity
  8
DETAIL
370
    25
100
AcDbLine
 10
3834.927818960337
 20
5220.371790273901
 30
0.0
 11
7221.795900621741
 21
5220.371790274366
 31
0.0
  0
LINE
  5
59E7B
330
1F
100
AcDbEntity
  8
DETAIL
370
    25
100
AcDbLine
 10
7221.795900621741
 20
7077.371790273899
 30
0.0
 11
3834.927818960337
 21
7077.371790273899
 31
0.0
  0
LINE
  5
59E7C
330
1F
100
AcDbEntity
  8
DETAIL
370
    25
100
AcDbLine
 10
7221.795900621741
 20
7027.371790274367
 30
0.0
 11
4484.927818959405
 21
7027.371790274831
 31
0.0
  0
LINE
  5
59E7D
330
1F
100
AcDbEntity
  8
DETAIL
370
    25
100
AcDbLine
 10
8791.795900621742
 20
5070.371790274368
 30
0.0
 11
9934.927818960336
 21
5070.371790273901
 31
0.0
  0
LINE
  5
59E7E
330
1F
100
AcDbEntity
  8
DETAIL
370
    25
100
AcDbLine
 10
8791.795900621742
 20
5220.371790275297
 30
0.0
 11
9934.927818960336
 21
5220.371790273901
 31
0.0
  0
LINE
  5
59E7F
330
1F
100
AcDbEntity
  8
DETAIL
370
    25
100
AcDbLine
 10
7341.795900622208
 20
5070.371790274368
 30
0.0
 11
8671.795900621743
 21
5070.371790274368
 31
0.0
  0
LINE
  5
59E80
330
1F
100
AcDbEntity
  8
DETAIL
370
    25
100
AcDbLine
 10
9884.927818960802
 20
7027.371790274367
 30
0.0
 11
9934.927818960336
 21
7077.371790273899
 31
0.0
  0
LINE
  5
59E81
330
1F
100
AcDbEntity
  8
DETAIL
370
    25
100
AcDbLine
 10
2049.017957193137
 20
7027.371790273902
 30
0.0
 11
1999.017957193137
 21
7077.371790273899
 31
0.0
  0
LINE
  5
59E82
330
1F
100
AcDbEntity
  8
DETAIL
370
    25
100
AcDbLine
 10
3884.927818960335
 20
7027.371790273902
 30
0.0
 11
4184.927818960335
 21
7027.371790273902
 31
0.0
  0
LINE
  5
59E83
330
1F
100
AcDbEntity
  8
DETAIL
370
    25
100
AcDbLine
 10
4184.927818960335
 20
7027.371790273902
 30
0.0
 11
4284.927818960334
 21
7027.371790273902
 31
0.0
  0
LINE
  5
59E84
330
1F
100
AcDbEntity
  8
DETAIL
370
    25
100
AcDbLine
 10
4284.927818959871
 20
7027.371790274367
 30
0.0
 11
3884.927818960335
 21
7027.371790273902
 31
0.0
  0
LINE
  5
59E85
330
1F
100
AcDbEntity
  8
DETAIL
370
    25
100
AcDbLine
 10
9934.927818960336
 20
7077.371790273899
 30
0.0
 11
8791.795900621742
 21
7077.371790273899
 31
0.0
  0
LINE
  5
59E86
330
1F
100
AcDbEntity
  8
DETAIL
370
    25
100
AcDbLine
 10
994.5141006957857
 20
5015.371790273435
 30
0.0
 11
1094.514100695785
 21
5015.371790273435
 31
0.0
  0
LINE
  5
59E87
330
1F
100
AcDbEntity
  8
DETAIL
370
    25
100
AcDbLine
 10
1094.514100695785
 20
5015.371790273435
 30
0.0
 11
1094.514100695785
 21
5000.371790273901
 31
0.0
  0
LINE
  5
59E88
330
1F
100
AcDbEntity
  8
DETAIL
370
    25
100
AcDbLine
 10
1094.514100695785
 20
5000.371790273901
 30
0.0
 11
794.5141006957856
 21
5000.371790273901
 31
0.0
  0
LINE
  5
59E89
330
1F
100
AcDbEntity
  8
DETAIL
370
    25
100
AcDbLine
 10
994.5141006957857
 20
5015.371790273435
 30
0.0
 11
894.5141006957857
 21
5015.371790273435
 31
0.0
  0
LINE
  5
59E8A
330
1F
100
AcDbEntity
  8
DETAIL
370
    25
100
AcDbLine
 10
894.5141006957857
 20
5015.371790273435
 30
0.0
 11
794.5141006957856
 21
5015.371790273435
 31
0.0
  0
LINE
  5
59E8B
330
1F
100
AcDbEntity
  8
DETAIL
370
    25
100
AcDbLine
 10
794.5141006957856
 20
5015.371790273435
 30
0.0
 11
794.5141006957856
 21
5000.371790273901
 31
0.0
  0
LINE
  5
59E8F
330
1F
100
AcDbEntity
  8
DETAIL
370
    25
100
AcDbLine
 10
9081.795900621742
 20
5000.371790273901
 30
0.0
 11
10314.60587465699
 21
5000.371790273901
 31
0.0
  0
LINE
  5
59E90
330
1F
100
AcDbEntity
  8
DETAIL
370
    25
100
AcDbLine
 10
3884.927818960335
 20
7027.371790273902
 30
0.0
 11
4384.927818960334
 21
7027.371790274367
 31
0.0
  0
LINE
  5
59E91
330
1F
100
AcDbEntity
  8
DETAIL
370
    25
100
AcDbLine
 10
3884.927818960335
 20
7027.371790273902
 30
0.0
 11
4384.927818960334
 21
7027.371790274367
 31
0.0
  0
LINE
  5
59E92
330
1F
100
AcDbEntity
  8
DETAIL
370
    25
100
AcDbLine
 10
4484.927818959405
 20
7027.371790274831
 30
0.0
 11
4434.927818959404
 21
7027.371790274831
 31
0.0
  0
LINE
  5
59E94
330
1F
100
AcDbEntity
  8
DETAIL
370
    25
100
AcDbLine
 10
11642.2173144634
 20
5000.371790273901
 30
0.0
 11
11642.2173144634
 21
5015.371790273901
 31
0.0
  0
LINE
  5
59E95
330
1F
100
AcDbEntity
  8
DETAIL
370
    25
100
AcDbLine
 10
11642.2173144634
 20
5015.371790273901
 30
0.0
 11
11892.2173144634
 21
5015.371790273901
 31
0.0
  0
LINE
  5
59E96
330
1F
100
AcDbEntity
  8
DETAIL
370
    25
100
AcDbLine
 10
11892.2173144634
 20
5015.371790273901
 30
0.0
 11
11892.2173144634
 21
5000.371790273901
 31
0.0
  0
LINE
  5
59E97
330
1F
100
AcDbEntity
  8
DETAIL
370
    25
100
AcDbLine
 10
11817.2173144634
 20
5265.371790273901
 30
0.0
 11
11717.2173144634
 21
5265.371790273901
 31
0.0
  0
LINE
  5
59E98
330
1F
100
AcDbEntity
  8
DETAIL
370
    25
100
AcDbLine
 10
11817.2173144634
 20
5015.371790273901
 30
0.0
 11
11817.2173144634
 21
5265.371790273901
 31
0.0
  0
LINE
  5
59E99
102
{ACAD_REACTORS
330
59E9D
102
}
330
1F
100
AcDbEntity
  8
DETAIL
370
    25
100
AcDbLine
 10
11717.2173144634
 20
5015.371790273901
 30
0.0
 11
11717.2173144634
 21
5265.371790273901
 31
0.0
  0
LINE
  5
59E9A
102
{ACAD_REACTORS
330
59E9D
102
}
330
1F
100
AcDbEntity
  8
DETAIL
370
    25
100
AcDbLine
 10
11717.2173144634
 20
5265.371790273901
 30
0.0
 11
11697.2173144634
 21
5265.371790273901
 31
0.0
  0
ARC
  5
59E9B
102
{ACAD_REACTORS
330
59E9D
102
}
330
1F
100
AcDbEntity
  8
DETAIL
370
    25
100
AcDbCircle
 10
11697.2173144634
 20
5204.371790273901
 30
0.0
 40
61.0
100
AcDbArc
 50
90.0
 51
270.0
  0
LINE
  5
59E9C
102
{ACAD_REACTORS
330
59E9D
102
}
330
1F
100
AcDbEntity
  8
DETAIL
370
    25
100
AcDbLine
 10
11697.2173144634
 20
5143.371790273901
 30
0.0
 11
11717.2173144634
 21
5143.371790273901
 31
0.0
  0
HATCH
  5
59E9D
330
1F
100
AcDbEntity
  8
DETAIL
370
    25
100
AcDbHatch
 10
0.0
 20
0.0
 30
0.0
210
0.0
220
0.0
230
1.0
  2
SOLID
 70
     1
 71
     1
 91
        1
 92
        7
 72
     1
 73
     1
 93
        4
 10
11717.2173144634
 20
5265.371790273901
 42
0.0
 10
11697.2173144634
 20
5265.371790273901
 42
1.0
 10
11697.2173144634
 20
5143.371790273901
 42
0.0
 10
11717.2173144634
 20
5143.371790273901
 42
0.0
 97
        4
330
59E9A
330
59E9B
330
59E9C
330
59E99
 75
     0
 76
     1
 47
2.259840673703695
 98
        1
 10
11687.8370209097
 20
5215.995825822785
450
        0
451
        0
460
0.0
461
0.0
452
        0
462
0.0
453
        0
470

  0
LINE
  5
59E9E
330
1F
100
AcDbEntity
  8
DETAIL
370
    25
100
AcDbLine
 10
11546.9115777894
 20
5000.371790273901
 30
0.0
 11
11316.73803871852
 21
5000.371790273901
 31
0.0
  0
LINE
  5
59E9F
330
1F
100
AcDbEntity
  8
DETAIL
370
    25
100
AcDbLine
 10
4547.427818959405
 20
7027.371790274831
 30
0.0
 11
4572.427818959404
 21
7027.371790274831
 31
0.0
  0
LINE
  5
59EA0
330
1F
100
AcDbEntity
  8
DETAIL
370
    25
100
AcDbLine
 10
4672.427818959405
 20
7027.371790274831
 30
0.0
 11
4697.427818959404
 21
7027.371790274831
 31
0.0
  0
DIMENSION
  5
59EA1
330
1F
100
AcDbEntity
  8
DIMS
370
    25
100
AcDbDimension
280
     0
  2
*D1
 10
10401.71034385898
 20
7077.371790273899
 30
0.0
 11
10317.98227368354
 21
6048.871790273903
 31
0.0
 70
    32
  1
to suit fence height
 71
     5
 42
2056.999999999999
 73
     0
 74
     0
 75
     0
  3
ISO-25
100
AcDbAlignedDimension
 13
10408.87701052596
 23
5020.371790273901
 33
0.0
 14
9934.927818960336
 24
7077.371790273899
 34
0.0
 50
90.0
100
AcDbRotatedDimension
1001
ACAD
1000
DSTYLE
1002
{
1070
    41
1040
80.0
1070
    42
1040
30.0
1070
    44
1040
30.0
1070
   140
1040
80.0
1070
   147
1040
30.0
1070
   173
1070
     1
1070
   178
1070
   256
1070
   340
1005
57C01
1070
   342
1005
0
1002
}
  0
LINE
  5
59EA2
330
1F
100
AcDbEntity
  8
DETAIL
370
    25
100
AcDbLine
 10
3834.927818960337
 20
2456.831617823191
 30
0.0
 11
7256.795890465672
 21
2456.831617823656
 31
0.0
  0
LINE
  5
59EA3
330
1F
100
AcDbEntity
  8
DETAIL
370
    25
100
AcDbLine
 10
3834.927818960337
 20
2381.831617823191
 30
0.0
 11
7221.795900621741
 21
2381.831617823191
 31
0.0
  0
LINE
  5
59EA4
330
1F
100
AcDbEntity
  8
DETAIL
370
    25
100
AcDbLine
 10
9934.927818960336
 20
2381.831617823191
 30
0.0
 11
9934.927818960336
 21
2456.831617823191
 31
0.0
  0
LINE
  5
59EA5
330
1F
100
AcDbEntity
  8
DETAIL
370
    25
100
AcDbLine
 10
1999.017957193137
 20
2381.831617823191
 30
0.0
 11
1999.017957193137
 21
2456.831617823191
 31
0.0
  0
LINE
  5
59EA6
330
1F
100
AcDbEntity
  8
DETAIL
370
    25
100
AcDbLine
 10
8756.795900621742
 20
2381.831617823657
 30
0.0
 11
9934.927818960336
 21
2381.831617823191
 31
0.0
  0
LINE
  5
59EA7
330
1F
100
AcDbEntity
  8
DETAIL
370
    25
100
AcDbLine
 10
8756.795900621742
 20
2456.831617823191
 30
0.0
 11
9934.927818960336
 21
2456.831617823191
 31
0.0
  0
LINE
  5
59EA8
330
1F
100
AcDbEntity
  8
DETAIL
370
    25
100
AcDbLine
 10
9934.927818960336
 20
2456.831617823191
 30
0.0
 11
9934.927818960336
 21
2519.331617823191
 31
0.0
  0
LINE
  5
59EA9
330
1F
100
AcDbEntity
  8
DETAIL
370
    25
100
AcDbLine
 10
9934.927818960336
 20
2519.331617823191
 30
0.0
 11
9864.648547468069
 21
2456.831617823656
 31
0.0
  0
ARC
  5
59EAA
330
1F
100
AcDbEntity
  8
DETAIL
370
    25
100
AcDbCircle
 10
9912.876379370052
 20
2575.581617823191
 30
0.0
 40
56.25
100
AcDbArc
 50
90.0
 51
270.0
  0
LINE
  5
59EAB
330
1F
100
AcDbEntity
  8
DETAIL
370
    25
100
AcDbLine
 10
9912.876379370052
 20
2519.331617823191
 30
0.0
 11
9934.927818960336
 21
2519.331617823191
 31
0.0
  0
LINE
  5
59EAC
330
1F
100
AcDbEntity
  8
DETAIL
370
    25
100
AcDbLine
 10
9912.876379370052
 20
2631.831617823191
 30
0.0
 11
9934.927818960336
 21
2631.831617823191
 31
0.0
  0
LINE
  5
59EAD
330
1F
100
AcDbEntity
  8
DETAIL
370
    25
100
AcDbLine
 10
9934.927818960336
 20
2519.331617823191
 30
0.0
 11
9935.345053304278
 21
2519.331617823191
 31
0.0
  0
LINE
  5
59EAE
330
1F
100
AcDbEntity
  8
DETAIL
370
    25
100
AcDbLine
 10
9934.927818960336
 20
2519.331617823191
 30
0.0
 11
9934.927818960336
 21
2538.062704709679
 31
0.0
  0
LINE
  5
59EAF
330
1F
100
AcDbEntity
  8
DETAIL
370
    25
100
AcDbLine
 10
9934.927818960336
 20
2538.062704709679
 30
0.0
 11
9934.927818960336
 21
2631.831617823191
 31
0.0
  0
ARC
  5
59EB0
102
{ACAD_REACTORS
330
59EB4
102
}
330
1F
100
AcDbEntity
  8
DETAIL
370
    25
100
AcDbCircle
 10
9912.876379370052
 20
2575.581617823191
 30
0.0
 40
56.25
100
AcDbArc
 50
90.0
 51
270.0
  0
LINE
  5
59EB1
102
{ACAD_REACTORS
330
59EB4
102
}
330
1F
100
AcDbEntity
  8
DETAIL
370
    25
100
AcDbLine
 10
9912.876379370052
 20
2519.331617823191
 30
0.0
 11
9934.927818960336
 21
2519.331617823191
 31
0.0
  0
LINE
  5
59EB2
102
{ACAD_REACTORS
330
59EB4
102
}
330
1F
100
AcDbEntity
  8
DETAIL
370
    25
100
AcDbLine
 10
9912.876379370052
 20
2631.831617823191
 30
0.0
 11
9934.927818960336
 21
2631.831617823191
 31
0.0
  0
LINE
  5
59EB3
102
{ACAD_REACTORS
330
59EB4
102
}
330
1F
100
AcDbEntity
  8
DETAIL
370
    25
100
AcDbLine
 10
9934.927818960336
 20
2519.331617823191
 30
0.0
 11
9934.927818960336
 21
2631.831617823191
 31
0.0
  0
HATCH
  5
59EB4
330
1F
100
AcDbEntity
  8
DETAIL
370
    25
100
AcDbHatch
 10
0.0
 20
0.0
 30
0.0
210
0.0
220
0.0
230
1.0
  2
SOLID
 70
     1
 71
     1
 91
        1
 92
        7
 72
     1
 73
     1
 93
        4
 10
9912.876379370052
 20
2519.331617823191
 42
0.0
 10
9934.927818960341
 20
2519.331617823191
 42
0.0
 10
9934.927818960341
 20
2631.831617823191
 42
0.0
 10
9912.876379370052
 20
2631.831617823191
 42
1.0
 97
        4
330
59EB2
330
59EB0
330
59EB1
330
59EB3
 75
     0
 76
     1
 47
0.5283639741589199
 98
        1
 10
9874.070051931603
 20
2567.941100389552
450
        0
451
        0
460
0.0
461
0.0
452
        0
462
0.0
453
        0
470

  0
LINE
  5
59EB5
330
1F
100
AcDbEntity
  8
DETAIL
370
    25
100
AcDbLine
 10
7031.795900621742
 20
5015.371790273901
 30
0.0
 11
7041.795900621742
 21
5015.371790273901
 31
0.0
  0
LINE
  5
59EB6
330
1F
100
AcDbEntity
  8
DETAIL
370
    25
100
AcDbLine
 10
7041.795900621742
 20
5015.371790273901
 30
0.0
 11
7051.795900621742
 21
5015.371790273901
 31
0.0
  0
LINE
  5
59EB7
330
1F
100
AcDbEntity
  8
DETAIL
370
    25
100
AcDbLine
 10
7051.795900621742
 20
5015.371790273901
 30
0.0
 11
7051.795900621742
 21
5025.371790273901
 31
0.0
  0
LINE
  5
59EB8
330
1F
100
AcDbEntity
  8
DETAIL
370
    25
100
AcDbLine
 10
7051.795900621742
 20
5025.371790273901
 30
0.0
 11
7071.795900621744
 21
5025.371790273901
 31
0.0
  0
LINE
  5
59EB9
330
1F
100
AcDbEntity
  8
DETAIL
370
    25
100
AcDbLine
 10
7071.795900621744
 20
5025.371790273901
 30
0.0
 11
7071.795900621744
 21
5015.371790273901
 31
0.0
  0
LINE
  5
59EBA
330
1F
100
AcDbEntity
  8
DETAIL
370
    25
100
AcDbLine
 10
7531.795900621742
 20
5015.371790273901
 30
0.0
 11
7511.795900621743
 21
5015.371790273901
 31
0.0
  0
LINE
  5
59EBB
330
1F
100
AcDbEntity
  8
DETAIL
370
    25
100
AcDbLine
 10
7511.795900621743
 20
5015.371790273901
 30
0.0
 11
7511.795900621743
 21
5025.371790273901
 31
0.0
  0
LINE
  5
59EBC
330
1F
100
AcDbEntity
  8
DETAIL
370
    25
100
AcDbLine
 10
7511.795900621743
 20
5025.371790273901
 30
0.0
 11
7491.795900621743
 21
5025.371790273901
 31
0.0
  0
LINE
  5
59EBD
330
1F
100
AcDbEntity
  8
DETAIL
370
    25
100
AcDbLine
 10
7491.795900621743
 20
5025.371790273901
 30
0.0
 11
7491.795900621743
 21
5015.371790273901
 31
0.0
  0
LINE
  5
59EBE
330
1F
100
AcDbEntity
  8
DETAIL
370
    25
100
AcDbLine
 10
8481.795900621742
 20
5015.371790273901
 30
0.0
 11
8501.795900621742
 21
5015.371790273901
 31
0.0
  0
LINE
  5
59EBF
330
1F
100
AcDbEntity
  8
DETAIL
370
    25
100
AcDbLine
 10
8501.795900621742
 20
5015.371790273901
 30
0.0
 11
8501.795900621742
 21
5025.371790273901
 31
0.0
  0
LINE
  5
59EC0
330
1F
100
AcDbEntity
  8
DETAIL
370
    25
100
AcDbLine
 10
8501.795900621742
 20
5025.371790273901
 30
0.0
 11
8521.795900621743
 21
5025.371790273901
 31
0.0
  0
LINE
  5
59EC1
330
1F
100
AcDbEntity
  8
DETAIL
370
    25
100
AcDbLine
 10
8521.795900621743
 20
5025.371790273901
 30
0.0
 11
8521.795900621743
 21
5015.371790273901
 31
0.0
  0
LINE
  5
59EC2
330
1F
100
AcDbEntity
  8
DETAIL
370
    25
100
AcDbLine
 10
8981.795900621742
 20
5015.371790273901
 30
0.0
 11
8961.795900621742
 21
5015.371790273901
 31
0.0
  0
LINE
  5
59EC3
330
1F
100
AcDbEntity
  8
DETAIL
370
    25
100
AcDbLine
 10
8961.795900621742
 20
5015.371790273901
 30
0.0
 11
8961.795900621742
 21
5025.371790273901
 31
0.0
  0
LINE
  5
59EC4
330
1F
100
AcDbEntity
  8
DETAIL
370
    25
100
AcDbLine
 10
8961.795900621742
 20
5025.371790273901
 30
0.0
 11
8941.795900621743
 21
5025.371790273901
 31
0.0
  0
LINE
  5
59EC5
330
1F
100
AcDbEntity
  8
DETAIL
370
    25
100
AcDbLine
 10
8941.795900621743
 20
5025.371790273901
 30
0.0
 11
8941.795900621743
 21
5015.371790273901
 31
0.0
  0
LINE
  5
59EC6
330
1F
100
AcDbEntity
  8
DETAIL
370
    25
100
AcDbLine
 10
11642.2173144634
 20
5015.371790273901
 30
0.0
 11
11652.2173144634
 21
5015.371790273901
 31
0.0
  0
LINE
  5
59EC7
330
1F
100
AcDbEntity
  8
DETAIL
370
    25
100
AcDbLine
 10
11642.2173144634
 20
5015.371790273901
 30
0.0
 11
11662.2173144634
 21
5015.371790273901
 31
0.0
  0
LINE
  5
59EC8
330
1F
100
AcDbEntity
  8
DETAIL
370
    25
100
AcDbLine
 10
11662.2173144634
 20
5015.371790273901
 30
0.0
 11
11662.2173144634
 21
5025.371790273901
 31
0.0
  0
LINE
  5
59EC9
330
1F
100
AcDbEntity
  8
DETAIL
370
    25
100
AcDbLine
 10
11662.2173144634
 20
5025.371790273901
 30
0.0
 11
11682.2173144634
 21
5025.371790273901
 31
0.0
  0
LINE
  5
59ECA
330
1F
100
AcDbEntity
  8
DETAIL
370
    25
100
AcDbLine
 10
11682.2173144634
 20
5025.371790273901
 30
0.0
 11
11682.2173144634
 21
5015.371790273901
 31
0.0
  0
LINE
  5
59ECB
330
1F
100
AcDbEntity
  8
DETAIL
370
    25
100
AcDbLine
 10
11872.2173144634
 20
5015.371790273901
 30
0.0
 11
11872.2173144634
 21
5025.371790273901
 31
0.0
  0
LINE
  5
59ECC
330
1F
100
AcDbEntity
  8
DETAIL
370
    25
100
AcDbLine
 10
11872.2173144634
 20
5025.371790273901
 30
0.0
 11
11852.2173144634
 21
5025.371790273901
 31
0.0
  0
LINE
  5
59ECD
330
1F
100
AcDbEntity
  8
DETAIL
370
    25
100
AcDbLine
 10
11852.2173144634
 20
5025.371790273901
 30
0.0
 11
11852.2173144634
 21
5015.371790273901
 31
0.0
  0
LINE
  5
59ECE
330
1F
100
AcDbEntity
  8
DETAIL
370
    25
100
AcDbLine
 10
1094.514100695785
 20
5015.371790273901
 30
0.0
 11
1094.514100695785
 21
5000.371790273901
 31
0.0
  0
LINE
  5
59ECF
330
1F
100
AcDbEntity
  8
DETAIL
370
    25
100
AcDbLine
 10
814.5141006957855
 20
5015.371790273901
 30
0.0
 11
814.5141006957855
 21
5025.371790273901
 31
0.0
  0
LINE
  5
59ED0
330
1F
100
AcDbEntity
  8
DETAIL
370
    25
100
AcDbLine
 10
814.5141006957855
 20
5025.371790273901
 30
0.0
 11
834.5141006957856
 21
5025.371790273901
 31
0.0
  0
LINE
  5
59ED1
330
1F
100
AcDbEntity
  8
DETAIL
370
    25
100
AcDbLine
 10
834.5141006957856
 20
5025.371790273901
 30
0.0
 11
834.5141006957856
 21
5015.371790273901
 31
0.0
  0
LINE
  5
59ED2
330
1F
100
AcDbEntity
  8
DETAIL
370
    25
100
AcDbLine
 10
1074.514100695785
 20
5015.371790273901
 30
0.0
 11
1074.514100695785
 21
5025.371790273901
 31
0.0
  0
LINE
  5
59ED3
330
1F
100
AcDbEntity
  8
DETAIL
370
    25
100
AcDbLine
 10
1074.514100695785
 20
5025.371790273901
 30
0.0
 11
1054.514100695785
 21
5025.371790273901
 31
0.0
  0
LINE
  5
59ED4
330
1F
100
AcDbEntity
  8
DETAIL
370
    25
100
AcDbLine
 10
1054.514100695785
 20
5025.371790273901
 30
0.0
 11
1054.514100695785
 21
5015.371790273901
 31
0.0
  0
LINE
  5
59ED5
330
1F
100
AcDbEntity
  8
DETAIL
370
    25
100
AcDbLine
 10
794.5141006957856
 20
5015.371790273435
 30
0.0
 11
814.5141006957855
 21
5015.371790273435
 31
0.0
  0
LINE
  5
59ED6
330
1F
100
AcDbEntity
  8
DETAIL
370
    25
100
AcDbLine
 10
814.5141006957855
 20
5015.371790273435
 30
0.0
 11
814.5141006957855
 21
5020.88847531457
 31
0.0
  0
LINE
  5
59ED7
330
1F
100
AcDbEntity
  8
DETAIL
370
    25
100
AcDbLine
 10
805.2464093219604
 20
2794.331617823191
 30
0.0
 11
805.2464093214949
 21
2044.331617823191
 31
0.0
  0
LINE
  5
59ED8
102
{ACAD_REACTORS
330
59F98
102
}
330
1F
100
AcDbEntity
  8
DETAIL
370
    25
100
AcDbLine
 10
1305.24640932196
 20
2794.331617823191
 30
0.0
 11
805.2464093219604
 21
2794.331617823191
 31
0.0
  0
LINE
  5
59ED9
330
1F
100
AcDbEntity
  8
DETAIL
370
    25
100
AcDbLine
 10
1305.24640932196
 20
2044.331617823191
 30
0.0
 11
805.2464093219604
 21
2044.331617823191
 31
0.0
  0
LINE
  5
59EDA
330
1F
100
AcDbEntity
  8
DETAIL
370
    25
100
AcDbLine
 10
1205.246409321495
 20
2669.331617823191
 30
0.0
 11
905.2464093219604
 21
2669.331617823191
 31
0.0
  0
LINE
  5
59EDB
330
1F
100
AcDbEntity
  8
DETAIL
370
    25
100
AcDbLine
 10
1205.246409321495
 20
2169.331617823191
 30
0.0
 11
905.2464093214947
 21
2169.331617823191
 31
0.0
  0
LINE
  5
59EDC
330
1F
100
AcDbEntity
  8
DETAIL
370
    25
100
AcDbLine
 10
905.2464093219604
 20
2669.331617823191
 30
0.0
 11
905.2464093219604
 21
2169.331617823656
 31
0.0
  0
LINE
  5
59EDD
330
1F
100
AcDbEntity
  8
DETAIL
370
    25
100
AcDbLine
 10
1205.246409321495
 20
2669.331617823191
 30
0.0
 11
1205.246409322426
 21
2169.331617823656
 31
0.0
  0
CIRCLE
  5
59EDE
330
1F
100
AcDbEntity
  8
DETAIL
370
    25
100
AcDbCircle
 10
935.2464093224259
 20
2639.331617823191
 30
0.0
 40
10.0
  0
CIRCLE
  5
59EDF
330
1F
100
AcDbEntity
  8
DETAIL
370
    25
100
AcDbCircle
 10
1175.246409320563
 20
2639.331617823191
 30
0.0
 40
10.0
  0
CIRCLE
  5
59EE0
330
1F
100
AcDbEntity
  8
DETAIL
370
    25
100
AcDbCircle
 10
935.2464093224259
 20
2199.331617821328
 30
0.0
 40
10.0
  0
CIRCLE
  5
59EE1
330
1F
100
AcDbEntity
  8
DETAIL
370
    25
100
AcDbCircle
 10
1175.246409320563
 20
2199.331617821328
 30
0.0
 40
10.0
  0
LINE
  5
59EE2
330
1F
100
AcDbEntity
  8
DETAIL
370
    25
100
AcDbLine
 10
1115.24640932196
 20
2519.331617823191
 30
0.0
 11
995.2464093219603
 21
2519.331617823656
 31
0.0
  0
LINE
  5
59EE3
330
1F
100
AcDbEntity
  8
DETAIL
370
    25
100
AcDbLine
 10
1115.24640932196
 20
2319.331617823657
 30
0.0
 11
995.2464093219603
 21
2319.331617823191
 31
0.0
  0
LINE
  5
59EE4
330
1F
100
AcDbEntity
  8
DETAIL
370
    25
100
AcDbLine
 10
11942.2173144634
 20
2581.831617823191
 30
0.0
 11
11942.2173144634
 21
2231.831617822725
 31
0.0
  0
LINE
  5
59EE5
330
1F
100
AcDbEntity
  8
DETAIL
370
    25
100
AcDbLine
 10
11592.21731446293
 20
2581.831617823191
 30
0.0
 11
11592.2173144634
 21
2231.831617823191
 31
0.0
  0
LINE
  5
59EE6
330
1F
100
AcDbEntity
  8
DETAIL
370
    25
100
AcDbLine
 10
11592.2173144634
 20
2581.831617822726
 30
0.0
 11
11942.2173144634
 21
2581.831617822726
 31
0.0
  0
LINE
  5
59EE7
330
1F
100
AcDbEntity
  8
DETAIL
370
    25
100
AcDbLine
 10
11592.2173144634
 20
2231.831617823191
 30
0.0
 11
11942.2173144634
 21
2231.831617822725
 31
0.0
  0
LINE
  5
59EE8
330
1F
100
AcDbEntity
  8
DETAIL
370
    25
100
AcDbLine
 10
11642.21731446247
 20
2531.831617822725
 30
0.0
 11
11892.2173144634
 21
2531.831617823191
 31
0.0
  0
LINE
  5
59EE9
330
1F
100
AcDbEntity
  8
DETAIL
370
    25
100
AcDbLine
 10
11642.21731446247
 20
2531.831617822725
 30
0.0
 11
11642.2173144634
 21
2281.831617822259
 31
0.0
  0
LINE
  5
59EEA
330
1F
100
AcDbEntity
  8
DETAIL
370
    25
100
AcDbLine
 10
11892.2173144634
 20
2531.831617822725
 30
0.0
 11
11892.21731446386
 21
2281.831617822259
 31
0.0
  0
LINE
  5
59EEB
330
1F
100
AcDbEntity
  8
DETAIL
370
    25
100
AcDbLine
 10
11642.2173144634
 20
2281.831617823191
 30
0.0
 11
11892.2173144634
 21
2281.831617822259
 31
0.0
  0
CIRCLE
  5
59EEC
330
1F
100
AcDbEntity
  8
DETAIL
370
    25
100
AcDbCircle
 10
11672.21731446293
 20
2501.831617822726
 30
0.0
 40
10.0
  0
CIRCLE
  5
59EED
330
1F
100
AcDbEntity
  8
DETAIL
370
    25
100
AcDbCircle
 10
11862.21731446293
 20
2501.831617822726
 30
0.0
 40
10.0
  0
CIRCLE
  5
59EEE
330
1F
100
AcDbEntity
  8
DETAIL
370
    25
100
AcDbCircle
 10
11672.21731446293
 20
2311.831617821794
 30
0.0
 40
10.0
  0
CIRCLE
  5
59EEF
330
1F
100
AcDbEntity
  8
DETAIL
370
    25
100
AcDbCircle
 10
11862.21731446293
 20
2311.831617821794
 30
0.0
 40
10.0
  0
LINE
  5
59EF0
330
1F
100
AcDbEntity
  8
DETAIL
370
    25
100
AcDbLine
 10
11817.2173144634
 20
2456.83161782226
 30
0.0
 11
11817.2173144634
 21
2356.83161782226
 31
0.0
  0
LINE
  5
59EF1
330
1F
100
AcDbEntity
  8
DETAIL
370
    25
100
AcDbLine
 10
11717.2173144634
 20
2456.83161782226
 30
0.0
 11
11717.2173144634
 21
2356.83161782226
 31
0.0
  0
LINE
  5
59EF2
330
1F
100
AcDbEntity
  8
DETAIL
370
    25
100
AcDbLine
 10
11767.21731446293
 20
2456.83161782226
 30
0.0
 11
11817.2173144634
 21
2456.83161782226
 31
0.0
  0
LINE
  5
59EF3
330
1F
100
AcDbEntity
  8
DETAIL
370
    25
100
AcDbLine
 10
11817.2173144634
 20
2456.83161782226
 30
0.0
 11
11717.2173144634
 21
2456.83161782226
 31
0.0
  0
LINE
  5
59EF4
330
1F
100
AcDbEntity
  8
DETAIL
370
    25
100
AcDbLine
 10
11767.2173144634
 20
2356.83161782226
 30
0.0
 11
11817.2173144634
 21
2356.83161782226
 31
0.0
  0
LINE
  5
59EF5
330
1F
100
AcDbEntity
  8
DETAIL
370
    25
100
AcDbLine
 10
11817.2173144634
 20
2356.83161782226
 30
0.0
 11
11717.2173144634
 21
2356.83161782226
 31
0.0
  0
ARC
  5
59EF6
102
{ACAD_REACTORS
330
59EFA
102
}
330
1F
100
AcDbEntity
  8
DETAIL
370
    25
100
AcDbCircle
 10
11700.17118916736
 20
2406.831617822259
 30
0.0
 40
50.0
100
AcDbArc
 50
90.0
 51
270.0
  0
LINE
  5
59EF7
102
{ACAD_REACTORS
330
59EFA
102
}
330
1F
100
AcDbEntity
  8
DETAIL
370
    25
100
AcDbLine
 10
11700.17118916736
 20
2456.83161782226
 30
0.0
 11
11717.2173144634
 21
2456.83161782226
 31
0.0
  0
LINE
  5
59EF8
102
{ACAD_REACTORS
330
59EFA
102
}
330
1F
100
AcDbEntity
  8
DETAIL
370
    25
100
AcDbLine
 10
11700.17118916736
 20
2356.83161782226
 30
0.0
 11
11717.2173144634
 21
2356.83161782226
 31
0.0
  0
LINE
  5
59EF9
102
{ACAD_REACTORS
330
59EFA
102
}
330
1F
100
AcDbEntity
  8
DETAIL
370
    25
100
AcDbLine
 10
11717.2173144634
 20
2356.83161782226
 30
0.0
 11
11717.2173144634
 21
2456.83161782226
 31
0.0
  0
HATCH
  5
59EFA
330
1F
100
AcDbEntity
  8
DETAIL
370
    25
100
AcDbHatch
 10
0.0
 20
0.0
 30
0.0
210
0.0
220
0.0
230
1.0
  2
SOLID
 70
     1
 71
     1
 91
        1
 92
        7
 72
     1
 73
     1
 93
        4
 10
11700.17118916736
 20
2356.83161782226
 42
0.0
 10
11717.2173144634
 20
2356.83161782226
 42
0.0
 10
11717.2173144634
 20
2456.83161782226
 42
0.0
 10
11700.17118916736
 20
2456.83161782226
 42
1.0
 97
        4
330
59EF7
330
59EF6
330
59EF8
330
59EF9
 75
     0
 76
     1
 47
0.3305250713372007
 98
        1
 10
11684.86233431642
 20
2418.659558405023
450
        0
451
        0
460
0.0
461
0.0
452
        0
462
0.0
453
        0
470

  0
LINE
  5
59EFB
330
1F
100
AcDbEntity
  8
DETAIL
370
    25
100
AcDbLine
 10
7341.795900622208
 20
5020.371790273901
 30
0.0
 11
7341.795900621743
 21
7152.371790273902
 31
0.0
  0
LINE
  5
59EFC
330
1F
100
AcDbEntity
  8
DETAIL
370
    25
100
AcDbLine
 10
7221.795900621741
 20
5020.371790273901
 30
0.0
 11
7221.795900621741
 21
7152.371790273902
 31
0.0
  0
LINE
  5
59EFD
330
1F
100
AcDbEntity
  8
DETAIL
370
    25
100
AcDbLine
 10
8791.795900622208
 20
5015.371790273901
 30
0.0
 11
8791.795900621742
 21
7152.371790273902
 31
0.0
  0
LINE
  5
59EFE
330
1F
100
AcDbEntity
  8
DETAIL
370
    25
100
AcDbLine
 10
8671.79590062221
 20
5015.371790273901
 30
0.0
 11
8671.795900621743
 21
7152.371790273902
 31
0.0
  0
LINE
  5
59EFF
330
1F
100
AcDbEntity
  8
DETAIL
370
    25
100
AcDbLine
 10
1004.514100695785
 20
7167.371790274831
 30
0.0
 11
1004.514100695785
 21
5015.371790272968
 31
0.0
  0
LINE
  5
59F00
330
1F
100
AcDbEntity
  8
DETAIL
370
    25
100
AcDbLine
 10
884.5141006962512
 20
7167.371790274831
 30
0.0
 11
884.5141006957858
 21
5015.371790272968
 31
0.0
  0
LINE
  5
59F01
330
1F
100
AcDbEntity
  8
DETAIL
370
    25
100
AcDbLine
 10
1969.017957193137
 20
7047.371790273903
 30
0.0
 11
1969.017957193137
 21
5100.371790273901
 31
0.0
  0
ARC
  5
59F02
330
1F
100
AcDbEntity
  8
DETAIL
370
    25
100
AcDbCircle
 10
1999.017957193137
 20
5100.371790273901
 30
0.0
 40
30.0
100
AcDbArc
 50
180.0
 51
270.0
  0
ARC
  5
59F03
330
1F
100
AcDbEntity
  8
DETAIL
370
    25
100
AcDbCircle
 10
1999.017957193137
 20
7047.371790273903
 30
0.0
 40
30.0
100
AcDbArc
 50
90.0
 51
180.0
  0
LINE
  5
59F04
330
1F
100
AcDbEntity
  8
DETAIL
370
    25
100
AcDbLine
 10
1115.246409322426
 20
2259.331617823191
 30
0.0
 11
1115.246409322426
 21
2319.331617823191
 31
0.0
  0
LINE
  5
59F05
330
1F
100
AcDbEntity
  8
DETAIL
370
    25
100
AcDbLine
 10
995.2464093219603
 20
2259.331617823656
 30
0.0
 11
995.2464093224262
 21
2319.331617822725
 31
0.0
  0
LINE
  5
59F06
330
1F
100
AcDbEntity
  8
DETAIL
370
    25
100
AcDbLine
 10
1055.24640932196
 20
2519.331617823656
 30
0.0
 11
1055.24640932196
 21
2319.331617823191
 31
0.0
  0
LINE
  5
59F07
330
1F
100
AcDbEntity
  8
DETAIL
370
    25
100
AcDbLine
 10
1030.24640932196
 20
2519.331617823656
 30
0.0
 11
1030.24640932196
 21
2319.331617823191
 31
0.0
  0
LINE
  5
59F08
330
1F
100
AcDbEntity
  8
DETAIL
370
    25
100
AcDbLine
 10
1080.24640932196
 20
2519.331617823656
 30
0.0
 11
1080.24640932196
 21
2319.331617823191
 31
0.0
  0
LINE
  5
59F09
330
1F
100
AcDbEntity
  8
DETAIL
370
    25
100
AcDbLine
 10
995.2464093224262
 20
2519.331617824122
 30
0.0
 11
995.2464093228917
 21
2579.331617823191
 31
0.0
  0
LINE
  5
59F0A
330
1F
100
AcDbEntity
  8
DETAIL
370
    25
100
AcDbLine
 10
1115.246409322426
 20
2519.331617823191
 30
0.0
 11
1115.246409322426
 21
2579.331617823657
 31
0.0
  0
ARC
  5
59F0B
330
1F
100
AcDbEntity
  8
DETAIL
370
    25
100
AcDbCircle
 10
1999.017957193137
 20
2419.331617823191
 30
0.0
 40
37.5
100
AcDbArc
 50
89.99984314577293
 51
270.0003025827164
  0
LINE
  5
59F0C
330
1F
100
AcDbEntity
  8
DETAIL
370
    25
100
AcDbLine
 10
1115.246409322426
 20
2519.331617823191
 30
0.0
 11
1115.246409322426
 21
2579.331617823191
 31
0.0
  0
LINE
  5
59F0D
102
{ACAD_REACTORS
330
59F95
102
}
330
1F
100
AcDbEntity
  8
DETAIL
370
    25
100
AcDbLine
 10
1115.246409322426
 20
2579.331617823191
 30
0.0
 11
995.2464093219603
 21
2579.331617823191
 31
0.0
  0
LINE
  5
59F0E
330
1F
100
AcDbEntity
  8
DETAIL
370
    25
100
AcDbLine
 10
1115.246409322426
 20
2319.331617823191
 30
0.0
 11
1115.246409322426
 21
2259.331617823191
 31
0.0
  0
LINE
  5
59F0F
330
1F
100
AcDbEntity
  8
DETAIL
370
    25
100
AcDbLine
 10
1115.246409322426
 20
2259.331617823191
 30
0.0
 11
995.2464093219603
 21
2259.331617823191
 31
0.0
  0
LINE
  5
59F10
330
1F
100
AcDbEntity
  8
DETAIL
370
    25
100
AcDbLine
 10
1004.514100695785
 20
7167.371790274831
 30
0.0
 11
884.5141006957858
 21
7167.371790274831
 31
0.0
  0
LINE
  5
59F11
330
1F
100
AcDbEntity
  8
DETAIL
370
    25
100
AcDbLine
 10
995.2464093219603
 20
2319.331617823191
 30
0.0
 11
995.2464093219603
 21
2519.331617823656
 31
0.0
  0
LINE
  5
59F12
330
1F
100
AcDbEntity
  8
DETAIL
370
    25
100
AcDbLine
 10
1025.24638516485
 20
2519.331617823656
 30
0.0
 11
1025.24638516485
 21
2319.331617823191
 31
0.0
  0
LINE
  5
59F13
330
1F
100
AcDbEntity
  8
DETAIL
370
    25
100
AcDbLine
 10
4434.927818959404
 20
7027.371790274831
 30
0.0
 11
4384.927818960334
 21
7027.371790274367
 31
0.0
  0
LINE
  5
59F14
330
1F
100
AcDbEntity
  8
DETAIL
370
    25
100
AcDbLine
 10
7512.620900621462
 20
5015.371790273435
 30
0.0
 11
7050.970900621556
 21
5015.371790273901
 31
0.0
  0
LINE
  5
59F16
330
1F
100
AcDbEntity
  8
DETAIL
370
    25
100
AcDbLine
 10
9081.795900621742
 20
2794.331617823191
 30
0.0
 11
9620.667737735729
 21
2794.331617823191
 31
0.0
  0
LINE
  5
59F17
330
1F
100
AcDbEntity
  8
DETAIL
370
    25
100
AcDbLine
 10
9081.795900621278
 20
2044.331617823656
 30
0.0
 11
9620.667737735729
 21
2044.331617823191
 31
0.0
  0
LINE
  5
59F18
330
1F
100
AcDbEntity
  8
DETAIL
370
    25
100
AcDbLine
 10
9096.795906640414
 20
2381.831617823657
 30
0.0
 11
9566.795906640416
 21
2381.831617823657
 31
0.0
  0
LINE
  5
59F19
330
1F
100
AcDbEntity
  8
DETAIL
370
    25
100
AcDbLine
 10
9081.795900620811
 20
2381.831617823657
 30
0.0
 11
9581.795912660018
 21
2381.831617823191
 31
0.0
  0
LINE
  5
59F1A
330
1F
100
AcDbEntity
  8
DETAIL
370
     9
100
AcDbLine
 10
3834.927818960337
 20
5070.371790273901
 30
0.0
 11
1999.017957193137
 21
5070.371790273901
 31
0.0
  0
LINE
  5
59F1B
330
1F
100
AcDbEntity
  8
DETAIL
370
     9
100
AcDbLine
 10
3834.927818960337
 20
5220.371790273901
 30
0.0
 11
1999.017957193137
 21
5220.371790273901
 31
0.0
  0
LINE
  5
59F1C
330
1F
100
AcDbEntity
  8
DETAIL
370
     9
100
AcDbLine
 10
3296.084082755552
 20
5000.371790273901
 30
0.0
 11
6931.795900621742
 21
5000.371790273901
 31
0.0
  0
LINE
  5
59F1D
330
1F
100
AcDbEntity
  8
DETAIL
370
     9
100
AcDbLine
 10
3834.927818960337
 20
7077.371790273899
 30
0.0
 11
1999.017957193137
 21
7077.371790273899
 31
0.0
  0
LINE
  5
59F1E
330
1F
100
AcDbEntity
  8
DETAIL
370
     9
100
AcDbLine
 10
3884.927818960335
 20
7027.371790273902
 30
0.0
 11
2049.017957193137
 21
7027.371790273902
 31
0.0
  0
LINE
  5
59F1F
330
1F
100
AcDbEntity
  8
DETAIL
370
     9
100
AcDbLine
 10
3834.927818960337
 20
2456.831617823191
 30
0.0
 11
1999.018059848167
 21
2456.831617823191
 31
0.0
  0
LINE
  5
59F20
330
1F
100
AcDbEntity
  8
DETAIL
370
     9
100
AcDbLine
 10
3834.927818960337
 20
2381.831617823191
 30
0.0
 11
1999.018155235622
 21
2381.831617823657
 31
0.0
  0
LINE
  5
59F21
330
1F
100
AcDbEntity
  8
DETAIL
370
     9
100
AcDbLine
 10
7341.795900622208
 20
5320.371790274368
 30
0.0
 11
7341.795900622208
 21
5070.371790274368
 31
0.0
  0
LINE
  5
59F23
330
1F
100
AcDbEntity
  8
DETAIL
370
     9
100
AcDbLine
 10
1305.24640932196
 20
2794.331617823191
 30
0.0
 11
6931.795900621742
 21
2794.331617823191
 31
0.0
  0
LINE
  5
59F24
330
1F
100
AcDbEntity
  8
DETAIL
370
     9
100
AcDbLine
 10
1305.24640932196
 20
2044.331617823191
 30
0.0
 11
6931.795900621742
 21
2044.331617823191
 31
0.0
  0
LINE
  5
59F25
330
1F
100
AcDbEntity
  8
DETAIL
370
     9
100
AcDbLine
 10
9620.667737735729
 20
2044.331617823191
 30
0.0
 11
10157.58283231529
 21
2044.331617823656
 31
0.0
  0
LINE
  5
59F26
330
1F
100
AcDbEntity
  8
DETAIL
370
     9
100
AcDbLine
 10
9620.667737735729
 20
2794.331617823191
 30
0.0
 11
10411.27714728872
 21
2794.331617822725
 31
0.0
  0
LINE
  5
59F27
102
{ACAD_REACTORS
330
59F98
102
}
330
1F
100
AcDbEntity
  8
DETAIL
370
     9
100
AcDbLine
 10
12013.01359742024
 20
2794.331617823191
 30
0.0
 11
12013.01359741977
 21
2044.331617822725
 31
0.0
  0
LINE
  5
59F28
330
1F
100
AcDbEntity
  8
DETAIL
370
     9
100
AcDbLine
 10
11025.13302831008
 20
2044.331617823191
 30
0.0
 11
11364.44675836182
 21
2044.331617823191
 31
0.0
  0
LINE
  5
59F29
330
1F
100
AcDbEntity
  8
DETAIL
370
     9
100
AcDbLine
 10
11364.44675836182
 20
2794.331617823191
 30
0.0
 11
12013.01359742024
 21
2794.331617822725
 31
0.0
  0
LINE
  5
59F2A
330
1F
100
AcDbEntity
  8
DETAIL
370
     9
100
AcDbLine
 10
11364.44675836182
 20
2044.331617823191
 30
0.0
 11
12013.01359741977
 21
2044.331617822725
 31
0.0
  0
LINE
  5
59F2B
330
1F
100
AcDbEntity
  8
APPLICATION
370
     9
100
AcDbLine
 10
9620.667737735729
 20
4400.371790273901
 30
0.0
 11
10758.28912808309
 21
4400.371790273434
 31
0.0
  0
LINE
  5
59F2C
330
1F
100
AcDbEntity
  8
DETAIL
370
     9
100
AcDbLine
 10
11642.2173144634
 20
5000.371790273901
 30
0.0
 11
11892.2173144634
 21
5000.371790273901
 31
0.0
  0
LINE
  5
59F2D
330
1F
100
AcDbEntity
  8
APPLICATION
370
     9
100
AcDbLine
 10
12013.01359742024
 20
5000.371790273901
 30
0.0
 11
12013.0135974207
 21
4400.371790274365
 31
0.0
  0
LINE
  5
59F2E
330
1F
100
AcDbEntity
  8
APPLICATION
370
     9
100
AcDbLine
 10
694.5141006957856
 20
4400.371790273901
 30
0.0
 11
10758.28912808263
 21
4400.371790273901
 31
0.0
  0
LINE
  5
59F2F
102
{ACAD_REACTORS
330
5A176
102
}
330
1F
100
AcDbEntity
  8
APPLICATION
370
     9
100
AcDbLine
 10
12013.0135974207
 20
4400.371790273901
 30
0.0
 11
12013.0135974207
 21
5000.371790273901
 31
0.0
  0
LINE
  5
59F30
102
{ACAD_REACTORS
330
5A176
102
}
330
1F
100
AcDbEntity
  8
APPLICATION
370
     9
100
AcDbLine
 10
12013.0135974207
 20
5000.371790273901
 30
0.0
 11
11316.73803871806
 21
5000.371790274368
 31
0.0
  0
LINE
  5
59F31
330
1F
100
AcDbEntity
  8
APPLICATION
370
     9
100
AcDbLine
 10
694.5141006957856
 20
5000.371790273901
 30
0.0
 11
694.5141006957856
 21
4400.371790273901
 31
0.0
  0
ARC
  5
59F32
330
1F
100
AcDbEntity
  8
DETAIL
370
     9
100
AcDbCircle
 10
3397.996253875841
 20
5114.185457421786
 30
0.0
 40
93.82242881413548
100
AcDbArc
 50
207.8387638295792
 51
332.1612361704207
  0
ARC
  5
59F33
330
1F
100
AcDbEntity
  8
DETAIL
370
     9
100
AcDbCircle
 10
8764.443872405507
 20
5114.194219087571
 30
0.0
 40
93.82242881413548
100
AcDbArc
 50
286.9495614923476
 51
332.1551851011903
  0
LINE
  5
59F34
330
1F
100
AcDbEntity
  8
DETAIL
370
    25
100
AcDbLine
 10
8671.79590062221
 20
5015.371790273901
 30
0.0
 11
8671.795900621743
 21
7152.371790273902
 31
0.0
  0
LINE
  5
59F35
330
1F
100
AcDbEntity
  8
DETAIL
370
    25
100
AcDbLine
 10
8671.79590062221
 20
5015.371790273901
 30
0.0
 11
8671.795900621743
 21
7152.371790273902
 31
0.0
  0
LINE
  5
59F36
330
1F
100
AcDbEntity
  8
APPLICATION
370
     9
100
AcDbLine
 10
11011.8178280674
 20
5149.882180396321
 30
0.0
 11
10703.51019043737
 21
4238.428061899583
 31
0.0
  0
LINE
  5
59F37
102
{ACAD_REACTORS
330
5A176
102
}
330
1F
100
AcDbEntity
  8
APPLICATION
370
     9
100
AcDbLine
 10
11363.28852292039
 20
5143.723716764565
 30
0.0
 11
11067.31320886343
 21
4232.269578517735
 31
0.0
  0
LINE
  5
59F38
330
1F
100
AcDbEntity
  8
DETAIL
370
     9
100
AcDbLine
 10
10438.82869386702
 20
2875.782634710749
 30
0.0
 11
10130.52105623699
 21
1964.328516214009
 31
0.0
  0
LINE
  5
59F39
330
1F
100
AcDbEntity
  8
DETAIL
370
     9
100
AcDbLine
 10
10790.29938872001
 20
2869.624171078991
 30
0.0
 11
10494.32407466305
 21
1958.17003283216
 31
0.0
  0
LINE
  5
59F3A
330
1F
100
AcDbEntity
  8
DETAIL
370
     9
100
AcDbLine
 10
10961.24458006286
 20
5000.371790273901
 30
0.0
 11
1248.515101200261
 21
5000.371790273901
 31
0.0
  0
LINE
  5
59F3C
330
1F
100
AcDbEntity
  8
APPLICATION
370
     9
100
AcDbLine
 10
11121.90082093357
 20
4400.371790274365
 30
0.0
 11
12013.0135974207
 21
4400.371790273901
 31
0.0
  0
LINE
  5
59F3D
102
{ACAD_REACTORS
330
5A176
102
}
330
1F
100
AcDbEntity
  8
APPLICATION
370
     9
100
AcDbLine
 10
11121.90082093404
 20
4400.371790274365
 30
0.0
 11
12013.0135974207
 21
4400.371790274365
 31
0.0
  0
LINE
  5
59F3E
330
1F
100
AcDbEntity
  8
DETAIL
370
     9
100
AcDbLine
 10
10765.84973605937
 20
2794.331617823191
 30
0.0
 11
11364.44675836182
 21
2794.331617823191
 31
0.0
  0
LINE
  5
59F3F
330
1F
100
AcDbEntity
  8
DETAIL
370
     9
100
AcDbLine
 10
10522.303213829
 20
2044.331617823656
 30
0.0
 11
11025.13302831008
 21
2044.331617823191
 31
0.0
  0
LINE
  5
59F40
330
1F
100
AcDbEntity
  8
DETAIL
370
     9
100
AcDbLine
 10
1961.517957193137
 20
2429.331570129696
 30
0.0
 11
1248.515101200261
 21
2429.331570129696
 31
0.0
  0
LINE
  5
59F41
330
1F
100
AcDbEntity
  8
DETAIL
370
     9
100
AcDbLine
 10
1961.517957193137
 20
2409.331570129696
 30
0.0
 11
1248.515101200261
 21
2409.331570129696
 31
0.0
  0
LINE
  5
59F42
330
1F
100
AcDbEntity
  8
DETAIL
370
     9
100
AcDbLine
 10
1248.515101200261
 20
2429.331570129696
 30
0.0
 11
1248.515101200261
 21
2409.331570129696
 31
0.0
  0
LINE
  5
59F43
330
1F
100
AcDbEntity
  8
DETAIL
370
     9
100
AcDbLine
 10
9934.927818960336
 20
2429.331617823191
 30
0.0
 11
10284.42998980201
 21
2429.331617823191
 31
0.0
  0
LINE
  5
59F44
330
1F
100
AcDbEntity
  8
DETAIL
370
     9
100
AcDbLine
 10
9934.927818960336
 20
2409.331617823191
 30
0.0
 11
10281.04739893536
 21
2409.331617822725
 31
0.0
  0
LINE
  5
59F45
330
1F
100
AcDbEntity
  8
DETAIL
370
     9
100
AcDbLine
 10
10647.32376190723
 20
2429.331617823191
 30
0.0
 11
11546.9115777894
 21
2429.331617823191
 31
0.0
  0
LINE
  5
59F46
330
1F
100
AcDbEntity
  8
DETAIL
370
     9
100
AcDbLine
 10
10644.07647494442
 20
2409.331617823191
 30
0.0
 11
11546.9115777894
 21
2409.331617823191
 31
0.0
  0
LINE
  5
59F47
330
1F
100
AcDbEntity
  8
DETAIL
370
     9
100
AcDbLine
 10
11546.9115777894
 20
2409.331617823191
 30
0.0
 11
11546.9115777894
 21
2429.331617823191
 31
0.0
  0
LINE
  5
59F48
330
1F
100
AcDbEntity
  8
TEXT
370
    18
100
AcDbLine
 10
13032.6024721603
 20
3154.567542760022
 30
0.0
 11
13032.60247215983
 21
1800.105461579602
 31
0.0
  0
MTEXT
  5
59F49
330
1F
100
AcDbEntity
  8
TEXT
370
    18
100
AcDbMText
 10
13087.31245190167
 20
3121.197311912518
 30
0.0
 40
75.0
 41
396.0387173708909
 46
0.0
 71
     1
 72
     5
  1
DIM A
 73
     1
 44
1.0
  0
MTEXT
  5
59F4A
330
1F
100
AcDbEntity
  8
TEXT
370
    18
100
AcDbMText
 10
13527.90011862136
 20
3119.635173506889
 30
0.0
 40
75.0
 41
396.0387
 46
0.0
 71
     1
 72
     5
  1
DIM B
 73
     1
 44
1.0
  0
MTEXT
  5
59F4B
330
1F
100
AcDbEntity
  8
TEXT
370
    18
100
AcDbMText
 10
13987.09522500197
 20
3119.635173506889
 30
0.0
 40
75.0
 41
396.0387
 46
0.0
 71
     1
 72
     5
  1
DIM C
 73
     1
 44
1.0
  0
LINE
  5
59F4C
330
1F
100
AcDbEntity
  8
TEXT
370
    18
100
AcDbLine
 10
13032.6024721603
 20
3154.567542760022
 30
0.0
 11
13480.6024721603
 21
3154.567542760022
 31
0.0
  0
LINE
  5
59F4D
330
1F
100
AcDbEntity
  8
TEXT
370
    18
100
AcDbLine
 10
13480.6024721603
 20
3154.567542760022
 30
0.0
 11
13480.6024721603
 21
1800.105461579602
 31
0.0
  0
LINE
  5
59F4E
330
1F
100
AcDbEntity
  8
TEXT
370
    18
100
AcDbLine
 10
13928.6024721603
 20
3154.567542760022
 30
0.0
 11
13928.60247215937
 21
1800.105461579602
 31
0.0
  0
LINE
  5
59F4F
330
1F
100
AcDbEntity
  8
TEXT
370
    18
100
AcDbLine
 10
14376.6024721603
 20
3154.567542760022
 30
0.0
 11
14376.60247215984
 21
1800.105461579602
 31
0.0
  0
LINE
  5
59F50
330
1F
100
AcDbEntity
  8
TEXT
370
    18
100
AcDbLine
 10
13480.6024721603
 20
3154.567542760022
 30
0.0
 11
14376.6024721603
 21
3154.567542760487
 31
0.0
  0
LINE
  5
59F51
330
1F
100
AcDbEntity
  8
TEXT
370
    18
100
AcDbLine
 10
14376.6024721603
 20
3000.105461580068
 30
0.0
 11
13032.6024721603
 21
3000.105461579603
 31
0.0
  0
LINE
  5
59F52
330
1F
100
AcDbEntity
  8
TEXT
370
    18
100
AcDbLine
 10
14376.6024721603
 20
2850.105461579602
 30
0.0
 11
13032.6024721603
 21
2850.105461579602
 31
0.0
  0
LINE
  5
59F53
330
1F
100
AcDbEntity
  8
TEXT
370
    18
100
AcDbLine
 10
14376.6024721603
 20
2700.105461579602
 30
0.0
 11
13032.6024721603
 21
2700.105461579602
 31
0.0
  0
LINE
  5
59F54
330
1F
100
AcDbEntity
  8
TEXT
370
    18
100
AcDbLine
 10
14376.60247215984
 20
2550.105461580069
 30
0.0
 11
13032.6024721603
 21
2550.105461579602
 31
0.0
  0
LINE
  5
59F55
330
1F
100
AcDbEntity
  8
TEXT
370
    18
100
AcDbLine
 10
14376.60247215984
 20
2400.105461580068
 30
0.0
 11
13032.6024721603
 21
2400.105461579602
 31
0.0
  0
LINE
  5
59F56
330
1F
100
AcDbEntity
  8
TEXT
370
    18
100
AcDbLine
 10
14376.60247215984
 20
2250.105461579602
 30
0.0
 11
13032.6024721603
 21
2250.105461579602
 31
0.0
  0
LINE
  5
59F57
330
1F
100
AcDbEntity
  8
TEXT
370
    18
100
AcDbLine
 10
14376.60247215984
 20
2100.105461579602
 30
0.0
 11
13032.6024721603
 21
2100.105461579602
 31
0.0
  0
LINE
  5
59F58
330
1F
100
AcDbEntity
  8
TEXT
370
    18
100
AcDbLine
 10
14376.60247215984
 20
1950.105461580067
 30
0.0
 11
13032.6024721603
 21
1950.105461579602
 31
0.0
  0
LINE
  5
59F59
330
1F
100
AcDbEntity
  8
TEXT
370
    18
100
AcDbLine
 10
14376.60247215936
 20
1800.105461579602
 30
0.0
 11
13032.60247215983
 21
1800.105461579602
 31
0.0
  0
MTEXT
  5
59F5A
330
1F
100
AcDbEntity
  8
TEXT
370
    18
100
AcDbMText
 10
13127.89905140066
 20
2967.506295093656
 30
0.0
 40
75.0
 41
396.0387
 46
0.0
 71
     1
 72
     5
  1
3000
 73
     1
 44
1.0
  0
LINE
  5
59F5B
330
1F
100
AcDbEntity
  8
TEXT
370
    18
100
AcDbLine
 10
13032.6024721603
 20
3000.105461579603
 30
0.0
 11
13032.6024721603
 21
2850.105461579602
 31
0.0
  0
MTEXT
  5
59F5C
330
1F
100
AcDbEntity
  8
TEXT
370
    18
100
AcDbMText
 10
13127.89901590702
 20
2817.506328621734
 30
0.0
 40
75.0
 41
396.0387
 46
0.0
 71
     1
 72
     5
  1
4000
 73
     1
 44
1.0
  0
LINE
  5
59F5D
330
1F
100
AcDbEntity
  8
TEXT
370
    18
100
AcDbLine
 10
13032.60243666667
 20
2850.10549510768
 30
0.0
 11
13032.60243666667
 21
2700.10549510768
 31
0.0
  0
MTEXT
  5
59F5E
330
1F
100
AcDbEntity
  8
TEXT
370
    18
100
AcDbMText
 10
13127.89901590702
 20
2667.506328621734
 30
0.0
 40
75.0
 41
396.0387
 46
0.0
 71
     1
 72
     5
  1
5000
 73
     1
 44
1.0
  0
LINE
  5
59F5F
330
1F
100
AcDbEntity
  8
TEXT
370
    18
100
AcDbLine
 10
13032.60243666667
 20
2700.10549510768
 30
0.0
 11
13032.60243666667
 21
2550.10549510768
 31
0.0
  0
MTEXT
  5
59F60
330
1F
100
AcDbEntity
  8
TEXT
370
    18
100
AcDbMText
 10
13127.89901590656
 20
2517.506328621734
 30
0.0
 40
75.0
 41
396.0387
 46
0.0
 71
     1
 72
     5
  1
6000
 73
     1
 44
1.0
  0
LINE
  5
59F61
330
1F
100
AcDbEntity
  8
TEXT
370
    18
100
AcDbLine
 10
13032.6024366662
 20
2550.10549510768
 30
0.0
 11
13032.6024366662
 21
2400.105495107681
 31
0.0
  0
MTEXT
  5
59F62
330
1F
100
AcDbEntity
  8
TEXT
370
    18
100
AcDbMText
 10
13127.89901590702
 20
2367.506328621734
 30
0.0
 40
75.0
 41
396.0387
 46
0.0
 71
     1
 72
     5
  1
7000
 73
     1
 44
1.0
  0
LINE
  5
59F63
330
1F
100
AcDbEntity
  8
TEXT
370
    18
100
AcDbLine
 10
13032.60243666667
 20
2400.105495107681
 30
0.0
 11
13032.60243666667
 21
2250.10549510768
 31
0.0
  0
MTEXT
  5
59F64
330
1F
100
AcDbEntity
  8
TEXT
370
    18
100
AcDbMText
 10
13127.89901590702
 20
2217.506328621734
 30
0.0
 40
75.0
 41
396.0387
 46
0.0
 71
     1
 72
     5
  1
8000
 73
     1
 44
1.0
  0
LINE
  5
59F65
330
1F
100
AcDbEntity
  8
TEXT
370
    18
100
AcDbLine
 10
13032.60243666667
 20
2250.10549510768
 30
0.0
 11
13032.60243666667
 21
2100.10549510768
 31
0.0
  0
MTEXT
  5
59F66
330
1F
100
AcDbEntity
  8
TEXT
370
    18
100
AcDbMText
 10
13127.89901590656
 20
2067.506328621734
 30
0.0
 40
75.0
 41
396.0387
 46
0.0
 71
     1
 72
     5
  1
9000
 73
     1
 44
1.0
  0
LINE
  5
59F67
330
1F
100
AcDbEntity
  8
TEXT
370
    18
100
AcDbLine
 10
13032.6024366662
 20
2100.10549510768
 30
0.0
 11
13032.6024366662
 21
1950.10549510768
 31
0.0
  0
MTEXT
  5
59F68
330
1F
100
AcDbEntity
  8
TEXT
370
    18
100
AcDbMText
 10
13127.89901590702
 20
1917.506328621733
 30
0.0
 40
75.0
 41
396.0387
 46
0.0
 71
     1
 72
     5
  1
10000
 73
     1
 44
1.0
  0
LINE
  5
59F69
330
1F
100
AcDbEntity
  8
TEXT
370
    18
100
AcDbLine
 10
13032.60243666667
 20
1950.10549510768
 30
0.0
 11
13032.60243666667
 21
1800.10549510768
 31
0.0
  0
MTEXT
  5
59F6A
330
1F
100
AcDbEntity
  8
TEXT
370
    18
100
AcDbMText
 10
13575.89901590702
 20
2967.506328621734
 30
0.0
 40
75.0
 41
396.0387
 46
0.0
 71
     1
 72
     5
  1
3100
 73
     1
 44
1.0
  0
LINE
  5
59F6B
330
1F
100
AcDbEntity
  8
TEXT
370
    18
100
AcDbLine
 10
13480.60243666667
 20
3000.105495107681
 30
0.0
 11
13480.60243666667
 21
2850.10549510768
 31
0.0
  0
MTEXT
  5
59F6C
330
1F
100
AcDbEntity
  8
TEXT
370
    18
100
AcDbMText
 10
13575.89901590702
 20
2817.506328621734
 30
0.0
 40
75.0
 41
396.0387
 46
0.0
 71
     1
 72
     5
  1
4100
 73
     1
 44
1.0
  0
LINE
  5
59F6D
330
1F
100
AcDbEntity
  8
TEXT
370
    18
100
AcDbLine
 10
13480.60243666667
 20
2850.10549510768
 30
0.0
 11
13480.60243666667
 21
2700.10549510768
 31
0.0
  0
MTEXT
  5
59F6E
330
1F
100
AcDbEntity
  8
TEXT
370
    18
100
AcDbMText
 10
13575.89901590702
 20
2667.506328621734
 30
0.0
 40
75.0
 41
396.0387
 46
0.0
 71
     1
 72
     5
  1
5120
 73
     1
 44
1.0
  0
LINE
  5
59F6F
330
1F
100
AcDbEntity
  8
TEXT
370
    18
100
AcDbLine
 10
13480.60243666667
 20
2700.10549510768
 30
0.0
 11
13480.60243666667
 21
2550.10549510768
 31
0.0
  0
MTEXT
  5
59F70
330
1F
100
AcDbEntity
  8
TEXT
370
    18
100
AcDbMText
 10
13575.89901590702
 20
2517.506328621734
 30
0.0
 40
75.0
 41
396.0387
 46
0.0
 71
     1
 72
     5
  1
6120
 73
     1
 44
1.0
  0
LINE
  5
59F71
330
1F
100
AcDbEntity
  8
TEXT
370
    18
100
AcDbLine
 10
13480.60243666667
 20
2550.10549510768
 30
0.0
 11
13480.60243666667
 21
2400.105495107681
 31
0.0
  0
MTEXT
  5
59F72
330
1F
100
AcDbEntity
  8
TEXT
370
    18
100
AcDbMText
 10
13575.89901590702
 20
2367.506328621734
 30
0.0
 40
75.0
 41
396.0387
 46
0.0
 71
     1
 72
     5
  1
7150
 73
     1
 44
1.0
  0
LINE
  5
59F73
330
1F
100
AcDbEntity
  8
TEXT
370
    18
100
AcDbLine
 10
13480.60243666667
 20
2400.105495107681
 30
0.0
 11
13480.60243666667
 21
2250.10549510768
 31
0.0
  0
MTEXT
  5
59F74
330
1F
100
AcDbEntity
  8
TEXT
370
    18
100
AcDbMText
 10
13575.89901590702
 20
2217.506328621734
 30
0.0
 40
75.0
 41
396.0387
 46
0.0
 71
     1
 72
     5
  1
8150
 73
     1
 44
1.0
  0
LINE
  5
59F75
330
1F
100
AcDbEntity
  8
TEXT
370
    18
100
AcDbLine
 10
13480.60243666667
 20
2250.10549510768
 30
0.0
 11
13480.60243666667
 21
2100.10549510768
 31
0.0
  0
MTEXT
  5
59F76
330
1F
100
AcDbEntity
  8
TEXT
370
    18
100
AcDbMText
 10
13575.89901590702
 20
2067.506328621734
 30
0.0
 40
75.0
 41
396.0387
 46
0.0
 71
     1
 72
     5
  1
9150
 73
     1
 44
1.0
  0
LINE
  5
59F77
330
1F
100
AcDbEntity
  8
TEXT
370
    18
100
AcDbLine
 10
13480.60243666667
 20
2100.10549510768
 30
0.0
 11
13480.60243666667
 21
1950.10549510768
 31
0.0
  0
MTEXT
  5
59F78
330
1F
100
AcDbEntity
  8
TEXT
370
    18
100
AcDbMText
 10
13575.89901590702
 20
1917.506328621733
 30
0.0
 40
75.0
 41
396.0387
 46
0.0
 71
     1
 72
     5
  1
10200
 73
     1
 44
1.0
  0
LINE
  5
59F79
330
1F
100
AcDbEntity
  8
TEXT
370
    18
100
AcDbLine
 10
13480.60243666667
 20
1950.10549510768
 30
0.0
 11
13480.60243666667
 21
1800.10549510768
 31
0.0
  0
MTEXT
  5
59F7A
330
1F
100
AcDbEntity
  8
TEXT
370
    18
100
AcDbMText
 10
14023.89901590702
 20
2967.506328621734
 30
0.0
 40
75.0
 41
396.0387
 46
0.0
 71
     1
 72
     5
  1
7850
 73
     1
 44
1.0
  0
LINE
  5
59F7B
330
1F
100
AcDbEntity
  8
TEXT
370
    18
100
AcDbLine
 10
13928.60243666667
 20
3000.105495107681
 30
0.0
 11
13928.60243666667
 21
2850.10549510768
 31
0.0
  0
MTEXT
  5
59F7C
330
1F
100
AcDbEntity
  8
TEXT
370
    18
100
AcDbMText
 10
14023.89901590702
 20
2817.506328621734
 30
0.0
 40
75.0
 41
396.0387
 46
0.0
 71
     1
 72
     5
  1
10100
 73
     1
 44
1.0
  0
LINE
  5
59F7D
330
1F
100
AcDbEntity
  8
TEXT
370
    18
100
AcDbLine
 10
13928.60243666667
 20
2850.10549510768
 30
0.0
 11
13928.60243666667
 21
2700.10549510768
 31
0.0
  0
LINE
  5
59F7E
330
1F
100
AcDbEntity
  8
TEXT
370
    18
100
AcDbLine
 10
14376.60243666667
 20
3000.105495107681
 30
0.0
 11
14376.60243666667
 21
2850.10549510768
 31
0.0
  0
LINE
  5
59F7F
330
1F
100
AcDbEntity
  8
TEXT
370
    18
100
AcDbLine
 10
14376.60243666667
 20
2850.10549510768
 30
0.0
 11
14376.60243666667
 21
2700.10549510768
 31
0.0
  0
MTEXT
  5
59F80
330
1F
100
AcDbEntity
  8
TEXT
370
    18
100
AcDbMText
 10
14023.89901590702
 20
2667.506328621734
 30
0.0
 40
75.0
 41
396.0387
 46
0.0
 71
     1
 72
     5
  1
12140
 73
     1
 44
1.0
  0
LINE
  5
59F81
330
1F
100
AcDbEntity
  8
TEXT
370
    18
100
AcDbLine
 10
13928.60243666667
 20
2700.10549510768
 30
0.0
 11
13928.60243666667
 21
2550.10549510768
 31
0.0
  0
LINE
  5
59F82
330
1F
100
AcDbEntity
  8
TEXT
370
    18
100
AcDbLine
 10
14376.60243666667
 20
2700.10549510768
 30
0.0
 11
14376.60243666667
 21
2550.10549510768
 31
0.0
  0
MTEXT
  5
59F83
330
1F
100
AcDbEntity
  8
TEXT
370
    18
100
AcDbMText
 10
14023.89901590655
 20
2517.506328621734
 30
0.0
 40
75.0
 41
396.0387
 46
0.0
 71
     1
 72
     5
  1
14290
 73
     1
 44
1.0
  0
LINE
  5
59F84
330
1F
100
AcDbEntity
  8
TEXT
370
    18
100
AcDbLine
 10
13928.6024366662
 20
2550.10549510768
 30
0.0
 11
13928.6024366662
 21
2400.105495107681
 31
0.0
  0
MTEXT
  5
59F85
330
1F
100
AcDbEntity
  8
TEXT
370
    18
100
AcDbMText
 10
14023.89901590702
 20
2367.506328621734
 30
0.0
 40
75.0
 41
396.0387
 46
0.0
 71
     1
 72
     5
  1
16350
 73
     1
 44
1.0
  0
LINE
  5
59F86
330
1F
100
AcDbEntity
  8
TEXT
370
    18
100
AcDbLine
 10
13928.60243666667
 20
2400.105495107681
 30
0.0
 11
13928.60243666667
 21
2250.10549510768
 31
0.0
  0
LINE
  5
59F87
330
1F
100
AcDbEntity
  8
TEXT
370
    18
100
AcDbLine
 10
14376.6024366662
 20
2550.10549510768
 30
0.0
 11
14376.6024366662
 21
2400.105495107681
 31
0.0
  0
LINE
  5
59F88
330
1F
100
AcDbEntity
  8
TEXT
370
    18
100
AcDbLine
 10
14376.6024366662
 20
2400.105495107681
 30
0.0
 11
14376.6024366662
 21
2250.10549510768
 31
0.0
  0
MTEXT
  5
59F89
330
1F
100
AcDbEntity
  8
TEXT
370
    18
100
AcDbMText
 10
14023.89901590702
 20
2217.506328621734
 30
0.0
 40
75.0
 41
396.0387
 46
0.0
 71
     1
 72
     5
  1
18750
 73
     1
 44
1.0
  0
LINE
  5
59F8A
330
1F
100
AcDbEntity
  8
TEXT
370
    18
100
AcDbLine
 10
13928.60243666667
 20
2250.10549510768
 30
0.0
 11
13928.60243666667
 21
2100.10549510768
 31
0.0
  0
MTEXT
  5
59F8B
330
1F
100
AcDbEntity
  8
TEXT
370
    18
100
AcDbMText
 10
13993.58384299633
 20
2067.506328621734
 30
0.0
 40
75.0
 41
396.0387
 46
0.0
 71
     1
 72
     5
  1
20750
 73
     1
 44
1.0
  0
LINE
  5
59F8C
330
1F
100
AcDbEntity
  8
TEXT
370
    18
100
AcDbLine
 10
13928.60243666667
 20
2100.10549510768
 30
0.0
 11
13928.60243666667
 21
1950.10549510768
 31
0.0
  0
MTEXT
  5
59F8D
330
1F
100
AcDbEntity
  8
TEXT
370
    18
100
AcDbMText
 10
13988.53141954617
 20
1917.506328621733
 30
0.0
 40
75.0
 41
396.0387
 46
0.0
 71
     1
 72
     5
  1
22850
 73
     1
 44
1.0
  0
LINE
  5
59F8E
330
1F
100
AcDbEntity
  8
TEXT
370
    18
100
AcDbLine
 10
13928.60243666667
 20
1950.10549510768
 30
0.0
 11
13928.60243666667
 21
1800.10549510768
 31
0.0
  0
LINE
  5
59F8F
330
1F
100
AcDbEntity
  8
TEXT
370
    18
100
AcDbLine
 10
14376.6024366662
 20
2250.10549510768
 30
0.0
 11
14376.6024366662
 21
2100.10549510768
 31
0.0
  0
LINE
  5
59F90
330
1F
100
AcDbEntity
  8
TEXT
370
    18
100
AcDbLine
 10
14376.6024366662
 20
2100.10549510768
 30
0.0
 11
14376.6024366662
 21
1950.10549510768
 31
0.0
  0
LINE
  5
59F91
330
1F
100
AcDbEntity
  8
TEXT
370
    18
100
AcDbLine
 10
14376.6024366662
 20
1950.10549510768
 30
0.0
 11
14376.6024366662
 21
1800.10549510768
 31
0.0
  0
DIMENSION
  5
59F92
330
1F
100
AcDbEntity
  8
DIMS
370
    25
100
AcDbDimension
280
     0
  2
*D2
 10
7221.795900621741
 20
7620.384844967951
 30
0.0
 11
4113.155000658763
 21
7704.650195845143
 31
0.0
 70
    32
  1
DIMENSION A
 71
     5
 42
6217.281799925957
 73
     0
 74
     0
 75
     0
  3
ISO-25
100
AcDbAlignedDimension
 13
1004.514100695785
 23
7167.371790274831
 33
0.0
 14
7221.795900621741
 24
7167.371790274831
 34
0.0
100
AcDbRotatedDimension
1001
ACAD
1000
DSTYLE
1002
{
1070
   340
1005
57C01
1070
    41
1040
80.0
1070
    42
1040
30.0
1070
    44
1040
30.0
1070
   140
1040
80.0
1070
   147
1040
30.0
1070
   173
1070
     1
1070
   178
1070
   256
1070
   342
1005
0
1002
}
  0
DIMENSION
  5
59F93
102
{ACAD_XDICTIONARY
360
59F94
102
}
102
{ACAD_REACTORS
330
59F95
102
}
330
1F
100
AcDbEntity
  8
DIMS
370
    25
100
AcDbDimension
280
     0
  2
*D4
 10
7281.795896558847
 20
3111.466575744882
 30
0.0
 11
4168.521152940519
 21
3195.731926622075
 31
0.0
 70
    32
  1
DIMENSION B
 71
     5
 42
6226.549487236654
 73
     0
 74
     0
 75
     0
  3
ISO-25
100
AcDbAlignedDimension
 13
1055.246409322193
 23
2579.331617823191
 33
0.0
 14
7281.795896558847
 24
2616.831617823657
 34
0.0
100
AcDbRotatedDimension
1001
ACAD
1000
DSTYLE
1002
{
1070
    41
1040
80.0
1070
    42
1040
30.0
1070
    44
1040
30.0
1070
   140
1040
80.0
1070
   147
1040
30.0
1070
   173
1070
     1
1070
   178
1070
   256
1070
   340
1005
57C01
1070
   342
1005
0
1002
}
  0
DIMENSION
  5
59F96
102
{ACAD_XDICTIONARY
360
59F97
102
}
102
{ACAD_REACTORS
330
59F98
102
}
330
1F
100
AcDbEntity
  8
DIMS
370
    25
100
AcDbDimension
280
     0
  2
*D5
 10
12013.01359742024
 20
3546.053487036232
 30
0.0
 11
6409.1300033711
 21
3630.318837913426
 31
0.0
 70
    32
  1
DIMENSION C
 71
     5
 42
11207.76718809828
 73
     0
 74
     0
 75
     0
  3
ISO-25
100
AcDbAlignedDimension
 13
805.2464093219604
 23
2794.331617823191
 33
0.0
 14
12013.01359742024
 24
2794.331617823191
 34
0.0
100
AcDbRotatedDimension
1001
ACAD
1000
DSTYLE
1002
{
1070
    41
1040
80.0
1070
    42
1040
30.0
1070
    44
1040
30.0
1070
   140
1040
80.0
1070
   147
1040
30.0
1070
   173
1070
     1
1070
   178
1070
   256
1070
   340
1005
57C01
1070
   342
1005
0
1002
}
  0
LINE
  5
59F99
330
1F
100
AcDbEntity
  8
DETAIL
370
     9
100
AcDbLine
 10
1248.515101200261
 20
5000.371790273435
 30
0.0
 11
1248.515101200261
 21
5020.371790273435
 31
0.0
  0
LINE
  5
59F9A
330
1F
100
AcDbEntity
  8
DETAIL
370
     9
100
AcDbLine
 10
1248.515101200261
 20
5020.371790273901
 30
0.0
 11
10968.00976179522
 21
5020.371790273901
 31
0.0
  0
LINE
  5
59F9B
330
1F
100
AcDbEntity
  8
DETAIL
370
     9
100
AcDbLine
 10
11546.9115777894
 20
5000.371790273901
 30
0.0
 11
11546.9115777894
 21
5020.371790273901
 31
0.0
  0
LINE
  5
59F9C
330
1F
100
AcDbEntity
  8
DETAIL
370
     9
100
AcDbLine
 10
11546.9115777894
 20
5020.371790273901
 30
0.0
 11
11323.23261264414
 21
5020.371790273901
 31
0.0
  0
LINE
  5
59F9E
330
1F
100
AcDbEntity
  8
DETAIL
370
     9
100
AcDbLine
 10
8681.795900621741
 20
5015.371790273901
 30
0.0
 11
8781.795900621743
 21
5015.371790273901
 31
0.0
  0
LINE
  5
59F9F
330
1F
100
AcDbEntity
  8
DETAIL
370
    25
100
AcDbLine
 10
9884.927818960802
 20
7027.371790274367
 30
0.0
 11
8791.795900621742
 21
7027.371790275298
 31
0.0
  0
LINE
  5
59FA0
330
1F
100
AcDbEntity
  8
DETAIL
370
    25
100
AcDbLine
 10
9884.927818961733
 20
5220.371790273901
 30
0.0
 11
9884.927818960335
 21
7027.371790273902
 31
0.0
  0
LINE
  5
59FA1
330
1F
100
AcDbEntity
  8
DETAIL
370
     9
100
AcDbLine
 10
9834.927770164156
 20
7027.371790274367
 30
0.0
 11
9884.927818961269
 21
7027.371790274367
 31
0.0
  0
LINE
  5
59FA2
330
1F
100
AcDbEntity
  8
DETAIL
370
     9
100
AcDbLine
 10
9884.927818960802
 20
7003.203861054354
 30
0.0
 11
9884.927818960802
 21
7027.371790274367
 31
0.0
  0
LINE
  5
59FA3
330
1F
100
AcDbEntity
  8
DETAIL
370
     9
100
AcDbLine
 10
9884.927818961733
 20
5220.371790273901
 30
0.0
 11
8791.795900621742
 21
5220.371790273901
 31
0.0
  0
LINE
  5
59FA4
330
1F
100
AcDbEntity
  8
DETAIL
370
    25
100
AcDbLine
 10
7221.795900622208
 20
7027.371790274831
 30
0.0
 11
6128.66398228315
 21
7027.371790275764
 31
0.0
  0
LINE
  5
59FA5
330
1F
100
AcDbEntity
  8
DETAIL
370
    25
100
AcDbLine
 10
7221.795900623138
 20
5220.371790274366
 30
0.0
 11
7221.795900621741
 21
7027.371790274367
 31
0.0
  0
LINE
  5
59FA6
330
1F
100
AcDbEntity
  8
DETAIL
370
     9
100
AcDbLine
 10
7221.795900622208
 20
7003.203861054818
 30
0.0
 11
7221.795900622208
 21
7027.371790274831
 31
0.0
  0
LINE
  5
59FA7
330
1F
100
AcDbEntity
  8
DETAIL
370
     9
100
AcDbLine
 10
7221.795900623138
 20
5220.371790274366
 30
0.0
 11
6128.66398228315
 21
5220.371790274366
 31
0.0
  0
LINE
  5
59FA8
330
1F
100
AcDbEntity
  8
DETAIL
370
    25
100
AcDbLine
 10
9884.927818960335
 20
7027.371790273902
 30
0.0
 11
9884.927818960802
 21
5220.371790274366
 31
0.0
  0
LINE
  5
59FA9
330
1F
100
AcDbEntity
  8
DETAIL
370
    25
100
AcDbLine
 10
9834.927818960336
 20
7027.371790273902
 30
0.0
 11
9834.9278189608
 21
5220.371790274832
 31
0.0
  0
LINE
  5
59FAA
330
1F
100
AcDbEntity
  8
DETAIL
370
    25
100
AcDbLine
 10
9784.927818960335
 20
7027.371790273902
 30
0.0
 11
9784.927818960335
 21
5220.371790274832
 31
0.0
  0
LINE
  5
59FAB
330
1F
100
AcDbEntity
  8
DETAIL
370
    25
100
AcDbLine
 10
9734.927818960336
 20
7027.371790273902
 30
0.0
 11
9734.927818960802
 21
5220.371790274832
 31
0.0
  0
LINE
  5
59FAC
330
1F
100
AcDbEntity
  8
DETAIL
370
    25
100
AcDbLine
 10
9684.927818960336
 20
7027.371790273902
 30
0.0
 11
9684.927818960336
 21
5220.371790274832
 31
0.0
  0
LINE
  5
59FAD
330
1F
100
AcDbEntity
  8
DETAIL
370
    25
100
AcDbLine
 10
9634.927818960335
 20
7027.371790273902
 30
0.0
 11
9634.927818960802
 21
5220.371790274832
 31
0.0
  0
LINE
  5
59FAE
330
1F
100
AcDbEntity
  8
DETAIL
370
    25
100
AcDbLine
 10
9584.927818960336
 20
7027.371790273902
 30
0.0
 11
9584.9278189608
 21
5220.371790274832
 31
0.0
  0
LINE
  5
59FAF
330
1F
100
AcDbEntity
  8
DETAIL
370
    25
100
AcDbLine
 10
9534.927818960335
 20
7027.371790273902
 30
0.0
 11
9534.927818960801
 21
5220.371790274832
 31
0.0
  0
LINE
  5
59FB0
330
1F
100
AcDbEntity
  8
DETAIL
370
    25
100
AcDbLine
 10
9484.927818960334
 20
7027.371790273902
 30
0.0
 11
9484.927818960334
 21
5220.371790275297
 31
0.0
  0
LINE
  5
59FB1
330
1F
100
AcDbEntity
  8
DETAIL
370
    25
100
AcDbLine
 10
9434.927818960336
 20
7027.371790273902
 30
0.0
 11
9434.927818960799
 21
5220.371790275297
 31
0.0
  0
LINE
  5
59FB2
330
1F
100
AcDbEntity
  8
DETAIL
370
    25
100
AcDbLine
 10
9384.927818960335
 20
7027.371790273902
 30
0.0
 11
9384.927818960335
 21
5220.371790275297
 31
0.0
  0
LINE
  5
59FB3
330
1F
100
AcDbEntity
  8
DETAIL
370
    25
100
AcDbLine
 10
8934.927787154739
 20
7027.371790396836
 30
0.0
 11
8934.927787154739
 21
5220.371790275764
 31
0.0
  0
LINE
  5
59FB4
330
1F
100
AcDbEntity
  8
DETAIL
370
    25
100
AcDbLine
 10
8884.927787154738
 20
7027.371790396836
 30
0.0
 11
8884.927787155669
 21
5220.371790275764
 31
0.0
  0
LINE
  5
59FB5
330
1F
100
AcDbEntity
  8
DETAIL
370
    25
100
AcDbLine
 10
8834.927787154738
 20
7027.371790396836
 30
0.0
 11
8834.927787155207
 21
5220.371790275764
 31
0.0
  0
LINE
  5
59FB6
330
1F
100
AcDbEntity
  8
DETAIL
370
    25
100
AcDbLine
 10
9384.927818960335
 20
7027.371790274367
 30
0.0
 11
9384.927818960335
 21
5220.371790275297
 31
0.0
  0
LINE
  5
59FB7
330
1F
100
AcDbEntity
  8
DETAIL
370
    25
100
AcDbLine
 10
9334.927818960336
 20
7027.371790274367
 30
0.0
 11
9334.9278189608
 21
5220.371790275297
 31
0.0
  0
LINE
  5
59FB8
330
1F
100
AcDbEntity
  8
DETAIL
370
    25
100
AcDbLine
 10
9284.927818960335
 20
7027.371790274367
 30
0.0
 11
9284.927818960801
 21
5220.371790275297
 31
0.0
  0
LINE
  5
59FB9
330
1F
100
AcDbEntity
  8
DETAIL
370
    25
100
AcDbLine
 10
9234.927818960334
 20
7027.371790274367
 30
0.0
 11
9234.927818960802
 21
5220.371790275297
 31
0.0
  0
LINE
  5
59FBA
330
1F
100
AcDbEntity
  8
DETAIL
370
    25
100
AcDbLine
 10
9184.927818960336
 20
7027.371790274367
 30
0.0
 11
9184.927818960336
 21
5220.371790275297
 31
0.0
  0
LINE
  5
59FBB
330
1F
100
AcDbEntity
  8
DETAIL
370
    25
100
AcDbLine
 10
9134.927818960335
 20
7027.371790274367
 30
0.0
 11
9134.927818960802
 21
5220.371790275297
 31
0.0
  0
LINE
  5
59FBC
330
1F
100
AcDbEntity
  8
DETAIL
370
    25
100
AcDbLine
 10
9084.927818960336
 20
7027.371790274367
 30
0.0
 11
9084.9278189608
 21
5220.371790275764
 31
0.0
  0
LINE
  5
59FBD
330
1F
100
AcDbEntity
  8
DETAIL
370
    25
100
AcDbLine
 10
9034.927818960335
 20
7027.371790274367
 30
0.0
 11
9034.927818960801
 21
5220.371790275764
 31
0.0
  0
LINE
  5
59FBE
330
1F
100
AcDbEntity
  8
DETAIL
370
    25
100
AcDbLine
 10
8984.927818960334
 20
7027.371790274367
 30
0.0
 11
8984.927818960802
 21
5220.371790275764
 31
0.0
  0
LINE
  5
59FBF
330
1F
100
AcDbEntity
  8
DETAIL
370
    25
100
AcDbLine
 10
8934.927818960336
 20
7027.371790274367
 30
0.0
 11
8934.927818960801
 21
5220.371790275764
 31
0.0
  0
LINE
  5
59FC0
330
1F
100
AcDbEntity
  8
DETAIL
370
    25
100
AcDbLine
 10
7171.795900621741
 20
7027.371790274367
 30
0.0
 11
7171.795900622209
 21
5220.371790275297
 31
0.0
  0
LINE
  5
59FC1
330
1F
100
AcDbEntity
  8
DETAIL
370
    25
100
AcDbLine
 10
7121.795900621744
 20
7027.371790274367
 30
0.0
 11
7121.795900621744
 21
5220.371790275297
 31
0.0
  0
LINE
  5
59FC2
330
1F
100
AcDbEntity
  8
DETAIL
370
    25
100
AcDbLine
 10
7071.795900621744
 20
7027.371790274367
 30
0.0
 11
7071.795900622209
 21
5220.371790275297
 31
0.0
  0
LINE
  5
59FC3
330
1F
100
AcDbEntity
  8
DETAIL
370
    25
100
AcDbLine
 10
7021.795900621744
 20
7027.371790274367
 30
0.0
 11
7021.795900621744
 21
5220.371790275297
 31
0.0
  0
LINE
  5
59FC4
330
1F
100
AcDbEntity
  8
DETAIL
370
    25
100
AcDbLine
 10
6971.795900621741
 20
7027.371790274367
 30
0.0
 11
6971.795900622208
 21
5220.371790275297
 31
0.0
  0
LINE
  5
59FC5
330
1F
100
AcDbEntity
  8
DETAIL
370
    25
100
AcDbLine
 10
6921.795900621741
 20
7027.371790274367
 30
0.0
 11
6921.795900622209
 21
5220.371790275297
 31
0.0
  0
LINE
  5
59FC6
330
1F
100
AcDbEntity
  8
DETAIL
370
    25
100
AcDbLine
 10
6871.795900621744
 20
7027.371790274367
 30
0.0
 11
6871.795900622209
 21
5220.371790275297
 31
0.0
  0
LINE
  5
59FC7
330
1F
100
AcDbEntity
  8
DETAIL
370
    25
100
AcDbLine
 10
6821.795900621744
 20
7027.371790274367
 30
0.0
 11
6821.795900621744
 21
5220.371790275764
 31
0.0
  0
LINE
  5
59FC8
330
1F
100
AcDbEntity
  8
DETAIL
370
    25
100
AcDbLine
 10
6771.795900621744
 20
7027.371790274367
 30
0.0
 11
6771.795900622208
 21
5220.371790275764
 31
0.0
  0
LINE
  5
59FC9
330
1F
100
AcDbEntity
  8
DETAIL
370
    25
100
AcDbLine
 10
6721.795900621741
 20
7027.371790274367
 30
0.0
 11
6721.795900621741
 21
5220.371790275764
 31
0.0
  0
LINE
  5
59FCA
330
1F
100
AcDbEntity
  8
DETAIL
370
    25
100
AcDbLine
 10
6271.795868816145
 20
7027.3717903973
 30
0.0
 11
6271.795868816145
 21
5220.371790276229
 31
0.0
  0
LINE
  5
59FCB
330
1F
100
AcDbEntity
  8
DETAIL
370
    25
100
AcDbLine
 10
6221.795868816145
 20
7027.3717903973
 30
0.0
 11
6221.795868817077
 21
5220.371790276229
 31
0.0
  0
LINE
  5
59FCC
330
1F
100
AcDbEntity
  8
DETAIL
370
    25
100
AcDbLine
 10
6171.795868816145
 20
7027.3717903973
 30
0.0
 11
6171.795868816611
 21
5220.371790276229
 31
0.0
  0
LINE
  5
59FCD
330
1F
100
AcDbEntity
  8
DETAIL
370
    25
100
AcDbLine
 10
6721.795900621741
 20
7027.371790274831
 30
0.0
 11
6721.795900621741
 21
5220.371790275764
 31
0.0
  0
LINE
  5
59FCE
330
1F
100
AcDbEntity
  8
DETAIL
370
    25
100
AcDbLine
 10
6671.795900621741
 20
7027.371790274831
 30
0.0
 11
6671.795900622209
 21
5220.371790275764
 31
0.0
  0
LINE
  5
59FCF
330
1F
100
AcDbEntity
  8
DETAIL
370
    25
100
AcDbLine
 10
6621.795900621744
 20
7027.371790274831
 30
0.0
 11
6621.795900622209
 21
5220.371790275764
 31
0.0
  0
LINE
  5
59FD0
330
1F
100
AcDbEntity
  8
DETAIL
370
    25
100
AcDbLine
 10
6571.795900621744
 20
7027.371790274831
 30
0.0
 11
6571.795900622209
 21
5220.371790275764
 31
0.0
  0
LINE
  5
59FD1
330
1F
100
AcDbEntity
  8
DETAIL
370
    25
100
AcDbLine
 10
6521.795900621744
 20
7027.371790274831
 30
0.0
 11
6521.795900621744
 21
5220.371790275764
 31
0.0
  0
LINE
  5
59FD2
330
1F
100
AcDbEntity
  8
DETAIL
370
    25
100
AcDbLine
 10
6471.795900621741
 20
7027.371790274831
 30
0.0
 11
6471.795900622208
 21
5220.371790275764
 31
0.0
  0
LINE
  5
59FD3
330
1F
100
AcDbEntity
  8
DETAIL
370
    25
100
AcDbLine
 10
6421.795900621741
 20
7027.371790274831
 30
0.0
 11
6421.795900622209
 21
5220.371790276229
 31
0.0
  0
LINE
  5
59FD4
330
1F
100
AcDbEntity
  8
DETAIL
370
    25
100
AcDbLine
 10
6371.795900621743
 20
7027.371790274831
 30
0.0
 11
6371.795900622208
 21
5220.371790276229
 31
0.0
  0
LINE
  5
59FD5
330
1F
100
AcDbEntity
  8
DETAIL
370
    25
100
AcDbLine
 10
6321.795900621744
 20
7027.371790274831
 30
0.0
 11
6321.795900622208
 21
5220.371790276229
 31
0.0
  0
LINE
  5
59FD6
330
1F
100
AcDbEntity
  8
DETAIL
370
    25
100
AcDbLine
 10
6271.795900621743
 20
7027.371790274831
 30
0.0
 11
6271.795900622208
 21
5220.371790276229
 31
0.0
  0
LINE
  5
59FD7
330
1F
100
AcDbEntity
  8
DETAIL
370
    25
100
AcDbLine
 10
6171.795868816145
 20
7027.371790274367
 30
0.0
 11
6171.795868816611
 21
5220.371790275297
 31
0.0
  0
LINE
  5
59FD8
330
1F
100
AcDbEntity
  8
DETAIL
370
    25
100
AcDbLine
 10
6121.795868816145
 20
7027.371790274367
 30
0.0
 11
6121.795868816145
 21
5220.371790275297
 31
0.0
  0
LINE
  5
59FD9
330
1F
100
AcDbEntity
  8
DETAIL
370
    25
100
AcDbLine
 10
6071.795868816145
 20
7027.371790274367
 30
0.0
 11
6071.795868816611
 21
5220.371790275297
 31
0.0
  0
LINE
  5
59FDA
330
1F
100
AcDbEntity
  8
DETAIL
370
    25
100
AcDbLine
 10
6021.795868816145
 20
7027.371790274367
 30
0.0
 11
6021.795868816145
 21
5220.371790275297
 31
0.0
  0
LINE
  5
59FDB
330
1F
100
AcDbEntity
  8
DETAIL
370
    25
100
AcDbLine
 10
5971.795868816145
 20
7027.371790274367
 30
0.0
 11
5971.795868816609
 21
5220.371790275297
 31
0.0
  0
LINE
  5
59FDC
330
1F
100
AcDbEntity
  8
DETAIL
370
    25
100
AcDbLine
 10
5921.795868816145
 20
7027.371790274367
 30
0.0
 11
5921.795868816611
 21
5220.371790275297
 31
0.0
  0
LINE
  5
59FDD
330
1F
100
AcDbEntity
  8
DETAIL
370
    25
100
AcDbLine
 10
5871.795868816145
 20
7027.371790274367
 30
0.0
 11
5871.795868816611
 21
5220.371790275297
 31
0.0
  0
LINE
  5
59FDE
330
1F
100
AcDbEntity
  8
DETAIL
370
    25
100
AcDbLine
 10
5821.795868816145
 20
7027.371790274367
 30
0.0
 11
5821.795868816145
 21
5220.371790275764
 31
0.0
  0
LINE
  5
59FDF
330
1F
100
AcDbEntity
  8
DETAIL
370
    25
100
AcDbLine
 10
5771.795868816145
 20
7027.371790274367
 30
0.0
 11
5771.79586881661
 21
5220.371790275764
 31
0.0
  0
LINE
  5
59FE0
330
1F
100
AcDbEntity
  8
DETAIL
370
    25
100
AcDbLine
 10
5721.795868816145
 20
7027.371790274367
 30
0.0
 11
5721.795868816145
 21
5220.371790275764
 31
0.0
  0
LINE
  5
59FE1
330
1F
100
AcDbEntity
  8
DETAIL
370
    25
100
AcDbLine
 10
5271.795837010547
 20
7027.3717903973
 30
0.0
 11
5271.795837010547
 21
5220.371790276229
 31
0.0
  0
LINE
  5
59FE2
330
1F
100
AcDbEntity
  8
DETAIL
370
    25
100
AcDbLine
 10
5221.795837010548
 20
7027.3717903973
 30
0.0
 11
5221.795837011479
 21
5220.371790276229
 31
0.0
  0
LINE
  5
59FE3
330
1F
100
AcDbEntity
  8
DETAIL
370
    25
100
AcDbLine
 10
5171.795837010548
 20
7027.3717903973
 30
0.0
 11
5171.795837011014
 21
5220.371790276229
 31
0.0
  0
LINE
  5
59FE4
330
1F
100
AcDbEntity
  8
DETAIL
370
    25
100
AcDbLine
 10
5721.795868816145
 20
7027.371790274831
 30
0.0
 11
5721.795868816145
 21
5220.371790275764
 31
0.0
  0
LINE
  5
59FE5
330
1F
100
AcDbEntity
  8
DETAIL
370
    25
100
AcDbLine
 10
5671.795868816145
 20
7027.371790274831
 30
0.0
 11
5671.795868816611
 21
5220.371790275764
 31
0.0
  0
LINE
  5
59FE6
330
1F
100
AcDbEntity
  8
DETAIL
370
    25
100
AcDbLine
 10
5621.795868816145
 20
7027.371790274831
 30
0.0
 11
5621.795868816611
 21
5220.371790275764
 31
0.0
  0
LINE
  5
59FE7
330
1F
100
AcDbEntity
  8
DETAIL
370
    25
100
AcDbLine
 10
5571.795868816145
 20
7027.371790274831
 30
0.0
 11
5571.795868816611
 21
5220.371790275764
 31
0.0
  0
LINE
  5
59FE8
330
1F
100
AcDbEntity
  8
DETAIL
370
    25
100
AcDbLine
 10
5521.795868816145
 20
7027.371790274831
 30
0.0
 11
5521.795868816145
 21
5220.371790275764
 31
0.0
  0
LINE
  5
59FE9
330
1F
100
AcDbEntity
  8
DETAIL
370
    25
100
AcDbLine
 10
5471.795868816145
 20
7027.371790274831
 30
0.0
 11
5471.795868816609
 21
5220.371790275764
 31
0.0
  0
LINE
  5
59FEA
330
1F
100
AcDbEntity
  8
DETAIL
370
    25
100
AcDbLine
 10
5421.795868816145
 20
7027.371790274831
 30
0.0
 11
5421.795868816611
 21
5220.371790276229
 31
0.0
  0
LINE
  5
59FEB
330
1F
100
AcDbEntity
  8
DETAIL
370
    25
100
AcDbLine
 10
5371.795868816145
 20
7027.371790274831
 30
0.0
 11
5371.795868816611
 21
5220.371790276229
 31
0.0
  0
LINE
  5
59FEC
330
1F
100
AcDbEntity
  8
DETAIL
370
    25
100
AcDbLine
 10
5321.795868816145
 20
7027.371790274831
 30
0.0
 11
5321.795868816611
 21
5220.371790276229
 31
0.0
  0
LINE
  5
59FED
330
1F
100
AcDbEntity
  8
DETAIL
370
    25
100
AcDbLine
 10
5271.795868816145
 20
7027.371790274831
 30
0.0
 11
5271.79586881661
 21
5220.371790276229
 31
0.0
  0
LINE
  5
59FEE
330
1F
100
AcDbEntity
  8
DETAIL
370
    25
100
AcDbLine
 10
5171.795837010548
 20
7027.37179027623
 30
0.0
 11
5171.795837011014
 21
5220.371790277162
 31
0.0
  0
LINE
  5
59FEF
330
1F
100
AcDbEntity
  8
DETAIL
370
    25
100
AcDbLine
 10
5121.795837010548
 20
7027.37179027623
 30
0.0
 11
5121.795837010548
 21
5220.371790277162
 31
0.0
  0
LINE
  5
59FF0
330
1F
100
AcDbEntity
  8
DETAIL
370
    25
100
AcDbLine
 10
5071.795837010547
 20
7027.37179027623
 30
0.0
 11
5071.795837011014
 21
5220.371790277162
 31
0.0
  0
LINE
  5
59FF1
330
1F
100
AcDbEntity
  8
DETAIL
370
    25
100
AcDbLine
 10
5021.795837010547
 20
7027.37179027623
 30
0.0
 11
5021.795837010547
 21
5220.371790277162
 31
0.0
  0
LINE
  5
59FF2
330
1F
100
AcDbEntity
  8
DETAIL
370
    25
100
AcDbLine
 10
4971.795837010548
 20
7027.37179027623
 30
0.0
 11
4971.795837011014
 21
5220.371790277162
 31
0.0
  0
LINE
  5
59FF3
330
1F
100
AcDbEntity
  8
DETAIL
370
    25
100
AcDbLine
 10
4921.795837010548
 20
7027.37179027623
 30
0.0
 11
4921.795837011014
 21
5220.371790277162
 31
0.0
  0
LINE
  5
59FF4
330
1F
100
AcDbEntity
  8
DETAIL
370
    25
100
AcDbLine
 10
4871.795837010548
 20
7027.37179027623
 30
0.0
 11
4871.795837011013
 21
5220.371790277162
 31
0.0
  0
LINE
  5
59FF5
330
1F
100
AcDbEntity
  8
DETAIL
370
    25
100
AcDbLine
 10
4821.795837010547
 20
7027.37179027623
 30
0.0
 11
4821.795837010547
 21
5220.371790277626
 31
0.0
  0
LINE
  5
59FF6
330
1F
100
AcDbEntity
  8
DETAIL
370
    25
100
AcDbLine
 10
4771.795837010547
 20
7027.37179027623
 30
0.0
 11
4771.795837011014
 21
5220.371790277626
 31
0.0
  0
LINE
  5
59FF7
330
1F
100
AcDbEntity
  8
DETAIL
370
    25
100
AcDbLine
 10
4721.795837010548
 20
7027.37179027623
 30
0.0
 11
4721.795837010548
 21
5220.371790277626
 31
0.0
  0
LINE
  5
59FF8
330
1F
100
AcDbEntity
  8
DETAIL
370
    25
100
AcDbLine
 10
4271.795805204951
 20
7027.371790399164
 30
0.0
 11
4271.795805204951
 21
5220.371790278091
 31
0.0
  0
LINE
  5
59FF9
330
1F
100
AcDbEntity
  8
DETAIL
370
    25
100
AcDbLine
 10
4221.79580520495
 20
7027.371790399164
 30
0.0
 11
4221.795805205881
 21
5220.371790278091
 31
0.0
  0
LINE
  5
59FFA
330
1F
100
AcDbEntity
  8
DETAIL
370
    25
100
AcDbLine
 10
4171.795805204951
 20
7027.371790399164
 30
0.0
 11
4171.795805205416
 21
5220.371790278091
 31
0.0
  0
LINE
  5
59FFB
330
1F
100
AcDbEntity
  8
DETAIL
370
    25
100
AcDbLine
 10
4721.795837010548
 20
7027.371790276696
 30
0.0
 11
4721.795837010548
 21
5220.371790277626
 31
0.0
  0
LINE
  5
59FFC
330
1F
100
AcDbEntity
  8
DETAIL
370
    25
100
AcDbLine
 10
4671.795837010548
 20
7027.371790276696
 30
0.0
 11
4671.795837011012
 21
5220.371790277626
 31
0.0
  0
LINE
  5
59FFD
330
1F
100
AcDbEntity
  8
DETAIL
370
    25
100
AcDbLine
 10
4621.795837010547
 20
7027.371790276696
 30
0.0
 11
4621.795837011013
 21
5220.371790277626
 31
0.0
  0
LINE
  5
59FFE
330
1F
100
AcDbEntity
  8
DETAIL
370
    25
100
AcDbLine
 10
4571.795837010546
 20
7027.371790276696
 30
0.0
 11
4571.795837011014
 21
5220.371790277626
 31
0.0
  0
LINE
  5
59FFF
330
1F
100
AcDbEntity
  8
DETAIL
370
    25
100
AcDbLine
 10
4521.795837010547
 20
7027.371790276696
 30
0.0
 11
4521.795837010547
 21
5220.371790277626
 31
0.0
  0
LINE
  5
5A000
330
1F
100
AcDbEntity
  8
DETAIL
370
    25
100
AcDbLine
 10
4471.795837010548
 20
7027.371790276696
 30
0.0
 11
4471.795837011014
 21
5220.371790277626
 31
0.0
  0
LINE
  5
5A001
330
1F
100
AcDbEntity
  8
DETAIL
370
    25
100
AcDbLine
 10
4421.795837010548
 20
7027.371790276696
 30
0.0
 11
4421.795837011012
 21
5220.371790278091
 31
0.0
  0
LINE
  5
5A002
330
1F
100
AcDbEntity
  8
DETAIL
370
    25
100
AcDbLine
 10
4371.795837010547
 20
7027.371790276696
 30
0.0
 11
4371.795837011013
 21
5220.371790278091
 31
0.0
  0
LINE
  5
5A003
330
1F
100
AcDbEntity
  8
DETAIL
370
    25
100
AcDbLine
 10
4321.795837010546
 20
7027.371790276696
 30
0.0
 11
4321.795837011014
 21
5220.371790278091
 31
0.0
  0
LINE
  5
5A004
330
1F
100
AcDbEntity
  8
DETAIL
370
    25
100
AcDbLine
 10
4271.795837010547
 20
7027.371790276696
 30
0.0
 11
4271.795837011014
 21
5220.371790278091
 31
0.0
  0
LINE
  5
5A005
330
1F
100
AcDbEntity
  8
DETAIL
370
    25
100
AcDbLine
 10
4171.795805204951
 20
7027.371790278092
 30
0.0
 11
4171.795805205416
 21
5220.371790279023
 31
0.0
  0
LINE
  5
5A006
330
1F
100
AcDbEntity
  8
DETAIL
370
    25
100
AcDbLine
 10
4121.795805204951
 20
7027.371790278092
 30
0.0
 11
4121.795805204951
 21
5220.371790279023
 31
0.0
  0
LINE
  5
5A007
330
1F
100
AcDbEntity
  8
DETAIL
370
    25
100
AcDbLine
 10
4071.795805204951
 20
7027.371790278092
 30
0.0
 11
4071.795805205416
 21
5220.371790279023
 31
0.0
  0
LINE
  5
5A008
330
1F
100
AcDbEntity
  8
DETAIL
370
    25
100
AcDbLine
 10
4021.795805204951
 20
7027.371790278092
 30
0.0
 11
4021.795805204951
 21
5220.371790279023
 31
0.0
  0
LINE
  5
5A009
330
1F
100
AcDbEntity
  8
DETAIL
370
    25
100
AcDbLine
 10
3971.795805204951
 20
7027.371790278092
 30
0.0
 11
3971.795805205417
 21
5220.371790279023
 31
0.0
  0
LINE
  5
5A00A
330
1F
100
AcDbEntity
  8
DETAIL
370
    25
100
AcDbLine
 10
3921.795805204951
 20
7027.371790278092
 30
0.0
 11
3921.795805205416
 21
5220.371790279023
 31
0.0
  0
LINE
  5
5A00B
330
1F
100
AcDbEntity
  8
DETAIL
370
    25
100
AcDbLine
 10
3871.795805204951
 20
7027.371790278092
 30
0.0
 11
3871.795805205417
 21
5220.371790279023
 31
0.0
  0
LINE
  5
5A00C
330
1F
100
AcDbEntity
  8
DETAIL
370
    25
100
AcDbLine
 10
3821.795805204951
 20
7027.371790278092
 30
0.0
 11
3821.795805204951
 21
5220.371790279489
 31
0.0
  0
LINE
  5
5A00D
330
1F
100
AcDbEntity
  8
DETAIL
370
    25
100
AcDbLine
 10
3771.795805204951
 20
7027.371790278092
 30
0.0
 11
3771.795805205417
 21
5220.371790279489
 31
0.0
  0
LINE
  5
5A00E
330
1F
100
AcDbEntity
  8
DETAIL
370
    25
100
AcDbLine
 10
3721.795805204951
 20
7027.371790278092
 30
0.0
 11
3721.795805204951
 21
5220.371790279489
 31
0.0
  0
LINE
  5
5A00F
330
1F
100
AcDbEntity
  8
DETAIL
370
    25
100
AcDbLine
 10
3271.795773399354
 20
7027.371790401025
 30
0.0
 11
3271.795773399354
 21
5220.371790279955
 31
0.0
  0
LINE
  5
5A010
330
1F
100
AcDbEntity
  8
DETAIL
370
    25
100
AcDbLine
 10
3221.795773399354
 20
7027.371790401025
 30
0.0
 11
3221.795773400285
 21
5220.371790279955
 31
0.0
  0
LINE
  5
5A011
330
1F
100
AcDbEntity
  8
DETAIL
370
    25
100
AcDbLine
 10
3171.795773399355
 20
7027.371790401025
 30
0.0
 11
3171.79577339982
 21
5220.371790279955
 31
0.0
  0
LINE
  5
5A012
330
1F
100
AcDbEntity
  8
DETAIL
370
    25
100
AcDbLine
 10
3721.795805204951
 20
7027.371790278557
 30
0.0
 11
3721.795805204951
 21
5220.371790279489
 31
0.0
  0
LINE
  5
5A013
330
1F
100
AcDbEntity
  8
DETAIL
370
    25
100
AcDbLine
 10
3671.795805204951
 20
7027.371790278557
 30
0.0
 11
3671.795805205416
 21
5220.371790279489
 31
0.0
  0
LINE
  5
5A014
330
1F
100
AcDbEntity
  8
DETAIL
370
    25
100
AcDbLine
 10
3621.795805204951
 20
7027.371790278557
 30
0.0
 11
3621.795805205417
 21
5220.371790279489
 31
0.0
  0
LINE
  5
5A015
330
1F
100
AcDbEntity
  8
DETAIL
370
    25
100
AcDbLine
 10
3571.795805204951
 20
7027.371790278557
 30
0.0
 11
3571.795805205417
 21
5220.371790279489
 31
0.0
  0
LINE
  5
5A016
330
1F
100
AcDbEntity
  8
DETAIL
370
    25
100
AcDbLine
 10
3521.795805204951
 20
7027.371790278557
 30
0.0
 11
3521.795805204951
 21
5220.371790279489
 31
0.0
  0
LINE
  5
5A017
330
1F
100
AcDbEntity
  8
DETAIL
370
    25
100
AcDbLine
 10
3471.795805204951
 20
7027.371790278557
 30
0.0
 11
3471.795805205417
 21
5220.371790279489
 31
0.0
  0
LINE
  5
5A018
330
1F
100
AcDbEntity
  8
DETAIL
370
    25
100
AcDbLine
 10
3421.795805204951
 20
7027.371790278557
 30
0.0
 11
3421.795805205416
 21
5220.371790279955
 31
0.0
  0
LINE
  5
5A019
330
1F
100
AcDbEntity
  8
DETAIL
370
    25
100
AcDbLine
 10
3371.795805204951
 20
7027.371790278557
 30
0.0
 11
3371.795805205417
 21
5220.371790279955
 31
0.0
  0
LINE
  5
5A01A
330
1F
100
AcDbEntity
  8
DETAIL
370
    25
100
AcDbLine
 10
3321.795805204951
 20
7027.371790278557
 30
0.0
 11
3321.795805205417
 21
5220.371790279955
 31
0.0
  0
LINE
  5
5A01B
330
1F
100
AcDbEntity
  8
DETAIL
370
    25
100
AcDbLine
 10
3271.795805204951
 20
7027.371790278557
 30
0.0
 11
3271.795805205417
 21
5220.371790279955
 31
0.0
  0
LINE
  5
5A01C
330
1F
100
AcDbEntity
  8
DETAIL
370
    25
100
AcDbLine
 10
3621.795805204951
 20
7027.371790279488
 30
0.0
 11
3621.795805205417
 21
5220.37179028042
 31
0.0
  0
LINE
  5
5A01D
330
1F
100
AcDbEntity
  8
DETAIL
370
    25
100
AcDbLine
 10
3571.795805204951
 20
7027.371790279488
 30
0.0
 11
3571.795805204951
 21
5220.37179028042
 31
0.0
  0
LINE
  5
5A01E
330
1F
100
AcDbEntity
  8
DETAIL
370
    25
100
AcDbLine
 10
3521.795805204951
 20
7027.371790279488
 30
0.0
 11
3521.795805205417
 21
5220.37179028042
 31
0.0
  0
LINE
  5
5A01F
330
1F
100
AcDbEntity
  8
DETAIL
370
    25
100
AcDbLine
 10
3471.795805204951
 20
7027.371790279488
 30
0.0
 11
3471.795805204951
 21
5220.37179028042
 31
0.0
  0
LINE
  5
5A020
330
1F
100
AcDbEntity
  8
DETAIL
370
    25
100
AcDbLine
 10
3421.795805204951
 20
7027.371790279488
 30
0.0
 11
3421.795805205416
 21
5220.37179028042
 31
0.0
  0
LINE
  5
5A021
330
1F
100
AcDbEntity
  8
DETAIL
370
    25
100
AcDbLine
 10
3371.795805204951
 20
7027.371790279488
 30
0.0
 11
3371.795805205417
 21
5220.37179028042
 31
0.0
  0
LINE
  5
5A022
330
1F
100
AcDbEntity
  8
DETAIL
370
    25
100
AcDbLine
 10
3321.795805204951
 20
7027.371790279488
 30
0.0
 11
3321.795805205417
 21
5220.37179028042
 31
0.0
  0
LINE
  5
5A023
330
1F
100
AcDbEntity
  8
DETAIL
370
    25
100
AcDbLine
 10
3271.795805204951
 20
7027.371790279488
 30
0.0
 11
3271.795805204951
 21
5220.371790280887
 31
0.0
  0
LINE
  5
5A024
330
1F
100
AcDbEntity
  8
DETAIL
370
    25
100
AcDbLine
 10
3221.795805204951
 20
7027.371790279488
 30
0.0
 11
3221.795805205417
 21
5220.371790280887
 31
0.0
  0
LINE
  5
5A025
330
1F
100
AcDbEntity
  8
DETAIL
370
    25
100
AcDbLine
 10
3171.795805204951
 20
7027.371790279488
 30
0.0
 11
3171.795805204951
 21
5220.371790280887
 31
0.0
  0
LINE
  5
5A026
330
1F
100
AcDbEntity
  8
DETAIL
370
    25
100
AcDbLine
 10
2721.795773399354
 20
7027.371790402423
 30
0.0
 11
2721.795773399354
 21
5220.371790281351
 31
0.0
  0
LINE
  5
5A027
330
1F
100
AcDbEntity
  8
DETAIL
370
    25
100
AcDbLine
 10
2671.795773399354
 20
7027.371790402423
 30
0.0
 11
2671.795773400285
 21
5220.371790281351
 31
0.0
  0
LINE
  5
5A028
330
1F
100
AcDbEntity
  8
DETAIL
370
    25
100
AcDbLine
 10
2621.795773399354
 20
7027.371790402423
 30
0.0
 11
2621.795773399819
 21
5220.371790281351
 31
0.0
  0
LINE
  5
5A029
330
1F
100
AcDbEntity
  8
DETAIL
370
    25
100
AcDbLine
 10
3171.795805204951
 20
7027.371790279953
 30
0.0
 11
3171.795805204951
 21
5220.371790280887
 31
0.0
  0
LINE
  5
5A02A
330
1F
100
AcDbEntity
  8
DETAIL
370
    25
100
AcDbLine
 10
3121.795805204952
 20
7027.371790279953
 30
0.0
 11
3121.795805205417
 21
5220.371790280887
 31
0.0
  0
LINE
  5
5A02B
330
1F
100
AcDbEntity
  8
DETAIL
370
    25
100
AcDbLine
 10
3071.795805204951
 20
7027.371790279953
 30
0.0
 11
3071.795805205417
 21
5220.371790280887
 31
0.0
  0
LINE
  5
5A02C
330
1F
100
AcDbEntity
  8
DETAIL
370
    25
100
AcDbLine
 10
3021.795805204951
 20
7027.371790279953
 30
0.0
 11
3021.795805205417
 21
5220.371790280887
 31
0.0
  0
LINE
  5
5A02D
330
1F
100
AcDbEntity
  8
DETAIL
370
    25
100
AcDbLine
 10
2971.795805204951
 20
7027.371790279953
 30
0.0
 11
2971.795805204951
 21
5220.371790280887
 31
0.0
  0
LINE
  5
5A02E
330
1F
100
AcDbEntity
  8
DETAIL
370
    25
100
AcDbLine
 10
2921.795805204951
 20
7027.371790279953
 30
0.0
 11
2921.795805205416
 21
5220.371790280887
 31
0.0
  0
LINE
  5
5A02F
330
1F
100
AcDbEntity
  8
DETAIL
370
    25
100
AcDbLine
 10
2871.795805204951
 20
7027.371790279953
 30
0.0
 11
2871.795805205417
 21
5220.371790281351
 31
0.0
  0
LINE
  5
5A030
330
1F
100
AcDbEntity
  8
DETAIL
370
    25
100
AcDbLine
 10
2821.795805204951
 20
7027.371790279953
 30
0.0
 11
2821.795805205417
 21
5220.371790281351
 31
0.0
  0
LINE
  5
5A031
330
1F
100
AcDbEntity
  8
DETAIL
370
    25
100
AcDbLine
 10
2771.795805204951
 20
7027.371790279953
 30
0.0
 11
2771.795805205417
 21
5220.371790281351
 31
0.0
  0
LINE
  5
5A032
330
1F
100
AcDbEntity
  8
DETAIL
370
    25
100
AcDbLine
 10
2721.795805204951
 20
7027.371790279953
 30
0.0
 11
2721.795805205417
 21
5220.371790281351
 31
0.0
  0
LINE
  5
5A033
330
1F
100
AcDbEntity
  8
DETAIL
370
    25
100
AcDbLine
 10
9884.927818961733
 20
6827.371731719323
 30
0.0
 11
8791.79590062081
 21
6827.371731721185
 31
0.0
  0
LINE
  5
5A034
330
1F
100
AcDbEntity
  8
DETAIL
370
    25
100
AcDbLine
 10
9884.927818961269
 20
6627.371731719321
 30
0.0
 11
8791.795900620346
 21
6627.371731721185
 31
0.0
  0
LINE
  5
5A035
330
1F
100
AcDbEntity
  8
DETAIL
370
    25
100
AcDbLine
 10
9884.927818960802
 20
6427.371731719322
 30
0.0
 11
8791.795900619879
 21
6427.371731721184
 31
0.0
  0
LINE
  5
5A036
330
1F
100
AcDbEntity
  8
DETAIL
370
    25
100
AcDbLine
 10
9884.927818960335
 20
6227.371731719323
 30
0.0
 11
8791.795900619414
 21
6227.371731721184
 31
0.0
  0
LINE
  5
5A037
330
1F
100
AcDbEntity
  8
DETAIL
370
    25
100
AcDbLine
 10
9884.927818959873
 20
6027.371731719322
 30
0.0
 11
8791.795900618948
 21
6027.371731721185
 31
0.0
  0
LINE
  5
5A038
330
1F
100
AcDbEntity
  8
DETAIL
370
    25
100
AcDbLine
 10
9884.927818960335
 20
6227.371731719323
 30
0.0
 11
8791.795900619414
 21
6227.371731721184
 31
0.0
  0
LINE
  5
5A039
330
1F
100
AcDbEntity
  8
DETAIL
370
    25
100
AcDbLine
 10
9884.927818959404
 20
5827.371731719322
 30
0.0
 11
8791.795900618483
 21
5827.371731721185
 31
0.0
  0
LINE
  5
5A03A
330
1F
100
AcDbEntity
  8
DETAIL
370
    25
100
AcDbLine
 10
9884.927818958942
 20
5627.371731719322
 30
0.0
 11
8791.795900618017
 21
5627.371731721185
 31
0.0
  0
LINE
  5
5A03B
330
1F
100
AcDbEntity
  8
DETAIL
370
    25
100
AcDbLine
 10
9884.927818958471
 20
5427.371731719322
 30
0.0
 11
8791.795900617554
 21
5427.371731721184
 31
0.0
  0
LINE
  5
5A03C
330
1F
100
AcDbEntity
  8
DETAIL
370
     9
100
AcDbLine
 10
3884.927818960335
 20
6827.371790273899
 30
0.0
 11
2599.017957192671
 21
6827.371790273899
 31
0.0
  0
LINE
  5
5A03D
330
1F
100
AcDbEntity
  8
DETAIL
370
    25
100
AcDbLine
 10
7221.795900621741
 20
6827.371790274367
 30
0.0
 11
4484.927818959405
 21
6827.371790274831
 31
0.0
  0
LINE
  5
5A03E
330
1F
100
AcDbEntity
  8
DETAIL
370
     9
100
AcDbLine
 10
2049.017957193137
 20
6827.371790273435
 30
0.0
 11
7221.795900622208
 21
6827.371790274367
 31
0.0
  0
LINE
  5
5A03F
330
1F
100
AcDbEntity
  8
DETAIL
370
     9
100
AcDbLine
 10
2049.017957193137
 20
6627.371790273435
 30
0.0
 11
7221.795900621277
 21
6627.371790274832
 31
0.0
  0
LINE
  5
5A040
330
1F
100
AcDbEntity
  8
DETAIL
370
     9
100
AcDbLine
 10
2049.017957193137
 20
6427.371790274367
 30
0.0
 11
7221.795900621277
 21
6427.371790274832
 31
0.0
  0
LINE
  5
5A041
330
1F
100
AcDbEntity
  8
DETAIL
370
     9
100
AcDbLine
 10
2049.017957193603
 20
6227.371790273435
 30
0.0
 11
7221.795900621277
 21
6227.371790274832
 31
0.0
  0
LINE
  5
5A042
330
1F
100
AcDbEntity
  8
DETAIL
370
     9
100
AcDbLine
 10
2049.017957193603
 20
6027.371790273901
 30
0.0
 11
7221.795900621277
 21
6027.371790274831
 31
0.0
  0
LINE
  5
5A043
330
1F
100
AcDbEntity
  8
DETAIL
370
     9
100
AcDbLine
 10
2049.017957193603
 20
5827.3717902739
 30
0.0
 11
7221.795900621277
 21
5827.371790274831
 31
0.0
  0
LINE
  5
5A044
330
1F
100
AcDbEntity
  8
DETAIL
370
     9
100
AcDbLine
 10
2049.017957194068
 20
5627.371790273901
 30
0.0
 11
7221.795900621277
 21
5627.371790274832
 31
0.0
  0
LINE
  5
5A045
330
1F
100
AcDbEntity
  8
DETAIL
370
     9
100
AcDbLine
 10
2049.017957194068
 20
5427.371790273435
 30
0.0
 11
7221.795900621277
 21
5427.371790274833
 31
0.0
  0
LINE
  5
5A047
330
1F
100
AcDbEntity
  8
DETAIL
370
    25
100
AcDbLine
 10
2171.795741593756
 20
7027.371790524893
 30
0.0
 11
2171.795741593756
 21
5220.37179040382
 31
0.0
  0
LINE
  5
5A048
330
1F
100
AcDbEntity
  8
DETAIL
370
    25
100
AcDbLine
 10
2121.795741593756
 20
7027.371790524893
 30
0.0
 11
2121.795741594688
 21
5220.37179040382
 31
0.0
  0
LINE
  5
5A049
330
1F
100
AcDbEntity
  8
DETAIL
370
    25
100
AcDbLine
 10
2071.795741593756
 20
7027.371790524893
 30
0.0
 11
2071.795741594222
 21
5220.37179040382
 31
0.0
  0
LINE
  5
5A04A
330
1F
100
AcDbEntity
  8
DETAIL
370
    25
100
AcDbLine
 10
2571.795773399354
 20
7027.371790402423
 30
0.0
 11
2571.795773399819
 21
5220.371790403355
 31
0.0
  0
LINE
  5
5A04B
330
1F
100
AcDbEntity
  8
DETAIL
370
    25
100
AcDbLine
 10
2521.795773399354
 20
7027.371790402423
 30
0.0
 11
2521.795773399819
 21
5220.371790403355
 31
0.0
  0
LINE
  5
5A04C
330
1F
100
AcDbEntity
  8
DETAIL
370
    25
100
AcDbLine
 10
2471.795773399354
 20
7027.371790402423
 30
0.0
 11
2471.795773399819
 21
5220.371790403355
 31
0.0
  0
LINE
  5
5A04D
330
1F
100
AcDbEntity
  8
DETAIL
370
    25
100
AcDbLine
 10
2421.795773399354
 20
7027.371790402423
 30
0.0
 11
2421.795773399354
 21
5220.371790403355
 31
0.0
  0
LINE
  5
5A04E
330
1F
100
AcDbEntity
  8
DETAIL
370
    25
100
AcDbLine
 10
2371.795773399353
 20
7027.371790402423
 30
0.0
 11
2371.795773399819
 21
5220.371790403355
 31
0.0
  0
LINE
  5
5A04F
330
1F
100
AcDbEntity
  8
DETAIL
370
    25
100
AcDbLine
 10
2321.795773399354
 20
7027.371790402423
 30
0.0
 11
2321.795773399819
 21
5220.37179040382
 31
0.0
  0
LINE
  5
5A050
330
1F
100
AcDbEntity
  8
DETAIL
370
    25
100
AcDbLine
 10
2271.795773399354
 20
7027.371790402423
 30
0.0
 11
2271.795773399819
 21
5220.37179040382
 31
0.0
  0
LINE
  5
5A051
330
1F
100
AcDbEntity
  8
DETAIL
370
    25
100
AcDbLine
 10
2221.795773399354
 20
7027.371790402423
 30
0.0
 11
2221.795773399819
 21
5220.37179040382
 31
0.0
  0
LINE
  5
5A052
330
1F
100
AcDbEntity
  8
DETAIL
370
    25
100
AcDbLine
 10
2171.795773399354
 20
7027.371790402423
 30
0.0
 11
2171.795773399819
 21
5220.37179040382
 31
0.0
  0
LINE
  5
5A053
330
1F
100
AcDbEntity
  8
DETAIL
370
     9
100
AcDbLine
 10
3369.017989000596
 20
6427.371790273435
 30
0.0
 11
7221.795900622673
 21
6427.371790273435
 31
0.0
  0
LINE
  5
5A054
330
1F
100
AcDbEntity
  8
DETAIL
370
     9
100
AcDbLine
 10
3369.017989001064
 20
6227.371790272504
 30
0.0
 11
7221.795900622673
 21
6227.371790273435
 31
0.0
  0
LINE
  5
5A055
330
1F
100
AcDbEntity
  8
DETAIL
370
     9
100
AcDbLine
 10
3369.017989001064
 20
6027.371790272969
 30
0.0
 11
7221.795900622673
 21
6027.371790274367
 31
0.0
  0
LINE
  5
5A056
330
1F
100
AcDbEntity
  8
DETAIL
370
     9
100
AcDbLine
 10
3369.017989001064
 20
5827.37179027297
 30
0.0
 11
7221.795900623138
 21
5827.3717902739
 31
0.0
  0
LINE
  5
5A057
330
1F
100
AcDbEntity
  8
DETAIL
370
     9
100
AcDbLine
 10
3369.017989001528
 20
5627.371790272968
 30
0.0
 11
7221.795900622673
 21
5627.371790272968
 31
0.0
  0
LINE
  5
5A058
330
1F
100
AcDbEntity
  8
DETAIL
370
     9
100
AcDbLine
 10
3369.017989001528
 20
5427.371790272504
 30
0.0
 11
7221.795900622673
 21
5427.371790272504
 31
0.0
  0
LINE
  5
5A059
330
1F
100
AcDbEntity
  8
DETAIL
370
     9
100
AcDbLine
 10
884.5141006957858
 20
7167.371790274831
 30
0.0
 11
1004.514100695785
 21
7167.371790274831
 31
0.0
  0
DIMENSION
  5
5A05A
330
1F
100
AcDbEntity
  8
DIMS
370
    25
100
AcDbDimension
280
     0
  2
*D3
 10
805.2464093219604
 20
3111.466575744882
 30
0.0
 11
577.1214093219604
 21
3195.194645920321
 31
0.0
 70
    32
 71
     5
 42
250.0
 73
     0
 74
     0
 75
     0
  3
ISO-25
100
AcDbAlignedDimension
 13
1055.24640932196
 23
2609.331617823191
 33
0.0
 14
805.2464093219604
 24
2824.331617823191
 34
0.0
100
AcDbRotatedDimension
1001
ACAD
1000
DSTYLE
1002
{
1070
    41
1040
80.0
1070
    42
1040
30.0
1070
    44
1040
30.0
1070
   140
1040
80.0
1070
   147
1040
30.0
1070
   173
1070
     1
1070
   178
1070
   256
1070
   340
1005
57C01
1070
   342
1005
0
1002
}
  0
LINE
  5
5A05B
330
1F
100
AcDbEntity
  8
DETAIL
370
    25
100
AcDbLine
 10
6931.795900621742
 20
2794.331617823191
 30
0.0
 11
9081.795900621742
 21
2794.331617823191
 31
0.0
  0
LINE
  5
5A05C
330
1F
100
AcDbEntity
  8
DETAIL
370
    25
100
AcDbLine
 10
6931.795900621742
 20
2044.331617823191
 30
0.0
 11
9081.795900621278
 21
2044.331617823656
 31
0.0
  0
LINE
  5
5A05D
330
1F
100
AcDbEntity
  8
DETAIL
370
    25
100
AcDbLine
 10
9081.795900621742
 20
2794.331617823191
 30
0.0
 11
8731.795900621742
 21
2794.331617823191
 31
0.0
  0
LINE
  5
5A05E
330
1F
100
AcDbEntity
  8
DETAIL
370
    25
100
AcDbLine
 10
6931.795900621742
 20
2794.331617823191
 30
0.0
 11
7281.795900621742
 21
2794.331617823191
 31
0.0
  0
LINE
  5
5A05F
330
1F
100
AcDbEntity
  8
DETAIL
370
    25
100
AcDbLine
 10
7031.795900621277
 20
2744.331617823656
 30
0.0
 11
7531.795900621277
 21
2744.331617823656
 31
0.0
  0
LINE
  5
5A060
330
1F
100
AcDbEntity
  8
DETAIL
370
    25
100
AcDbLine
 10
7031.795900621277
 20
2094.331617822725
 30
0.0
 11
7531.795900621277
 21
2094.331617822725
 31
0.0
  0
LINE
  5
5A061
330
1F
100
AcDbEntity
  8
DETAIL
370
    25
100
AcDbLine
 10
8981.795900621742
 20
2744.331617823191
 30
0.0
 11
8981.795900621742
 21
2473.041334749985
 31
0.0
  0
LINE
  5
5A062
330
1F
100
AcDbEntity
  8
DETAIL
370
    25
100
AcDbLine
 10
8481.795900621742
 20
2744.331617823191
 30
0.0
 11
8481.795900621277
 21
2566.831617823657
 31
0.0
  0
LINE
  5
5A063
330
1F
100
AcDbEntity
  8
DETAIL
370
    25
100
AcDbLine
 10
7531.795900621742
 20
2744.331617823191
 30
0.0
 11
7531.795900621742
 21
2566.831617823191
 31
0.0
  0
LINE
  5
5A064
330
1F
100
AcDbEntity
  8
DETAIL
370
    25
100
AcDbLine
 10
8671.795900621274
 20
2566.831626800209
 30
0.0
 11
8671.795900621743
 21
2506.831626800675
 31
0.0
  0
LINE
  5
5A065
330
1F
100
AcDbEntity
  8
DETAIL
370
    25
100
AcDbLine
 10
8481.795900621742
 20
2744.331617823191
 30
0.0
 11
8981.795900621277
 21
2744.331617823191
 31
0.0
  0
LINE
  5
5A066
330
1F
100
AcDbEntity
  8
DETAIL
370
    25
100
AcDbLine
 10
8481.795900621742
 20
2094.331617822725
 30
0.0
 11
8981.795900621277
 21
2094.331617822725
 31
0.0
  0
LINE
  5
5A067
330
1F
100
AcDbEntity
  8
DETAIL
370
    25
100
AcDbLine
 10
7221.795900621277
 20
2506.831617823657
 30
0.0
 11
7331.795900622208
 21
2506.831617824123
 31
0.0
  0
LINE
  5
5A068
330
1F
100
AcDbEntity
  8
DETAIL
370
    25
100
AcDbLine
 10
7221.795900621277
 20
2356.831617823191
 30
0.0
 11
7331.795900621277
 21
2356.831617823191
 31
0.0
  0
LINE
  5
5A069
330
1F
100
AcDbEntity
  8
DETAIL
370
    25
100
AcDbLine
 10
8681.795900622208
 20
2356.831617823191
 30
0.0
 11
8791.795900622208
 21
2356.831617822725
 31
0.0
  0
LINE
  5
5A06A
330
1F
100
AcDbEntity
  8
DETAIL
370
    25
100
AcDbLine
 10
7341.795900621277
 20
2456.831617824122
 30
0.0
 11
8706.795900621278
 21
2456.831617823191
 31
0.0
  0
LINE
  5
5A06B
330
1F
100
AcDbEntity
  8
DETAIL
370
    25
100
AcDbLine
 10
7341.795900621277
 20
2381.831617824122
 30
0.0
 11
8706.795900621278
 21
2381.831617823657
 31
0.0
  0
LINE
  5
5A06C
330
1F
100
AcDbEntity
  8
DETAIL
370
    25
100
AcDbLine
 10
8481.795900621277
 20
2365.621900896396
 30
0.0
 11
8481.795900621277
 21
2356.831617823191
 31
0.0
  0
LINE
  5
5A06D
330
1F
100
AcDbEntity
  8
DETAIL
370
    25
100
AcDbLine
 10
8981.795900621742
 20
2365.621900896396
 30
0.0
 11
8981.795900621742
 21
2094.331617823657
 31
0.0
  0
LINE
  5
5A06E
330
1F
100
AcDbEntity
  8
DETAIL
370
    25
100
AcDbLine
 10
7827.268432650075
 20
2296.831617823191
 30
0.0
 11
7847.268432650075
 21
2296.831617823191
 31
0.0
  0
LINE
  5
5A06F
330
1F
100
AcDbEntity
  8
DETAIL
370
    25
100
AcDbLine
 10
7847.268432650075
 20
2356.831617823191
 30
0.0
 11
7827.268432650075
 21
2356.831617823191
 31
0.0
  0
LINE
  5
5A070
330
1F
100
AcDbEntity
  8
DETAIL
370
    25
100
AcDbLine
 10
7827.268432650075
 20
2296.831617823191
 30
0.0
 11
7341.795900621277
 21
2296.831617823191
 31
0.0
  0
LINE
  5
5A071
330
1F
100
AcDbEntity
  8
DETAIL
370
    25
100
AcDbLine
 10
7827.268432650075
 20
2356.831617823191
 30
0.0
 11
7341.795900622208
 21
2356.831617823191
 31
0.0
  0
LINE
  5
5A072
330
1F
100
AcDbEntity
  8
DETAIL
370
    25
100
AcDbLine
 10
7847.268432650075
 20
2356.831617823191
 30
0.0
 11
8671.795900621743
 21
2356.831617822725
 31
0.0
  0
LINE
  5
5A073
330
1F
100
AcDbEntity
  8
DETAIL
370
    25
100
AcDbLine
 10
7847.268432650075
 20
2296.831617823191
 30
0.0
 11
8671.795900621743
 21
2296.831617823656
 31
0.0
  0
LINE
  5
5A074
330
1F
100
AcDbEntity
  8
DETAIL
370
    25
100
AcDbLine
 10
7531.79590062081
 20
2296.831617823191
 30
0.0
 11
7531.795900621742
 21
2094.331617823191
 31
0.0
  0
LINE
  5
5A075
330
1F
100
AcDbEntity
  8
DETAIL
370
    25
100
AcDbLine
 10
8481.795900621277
 20
2296.831617823656
 30
0.0
 11
8481.795900621742
 21
2094.331617823657
 31
0.0
  0
LINE
  5
5A076
330
1F
100
AcDbEntity
  8
DETAIL
370
    25
100
AcDbLine
 10
7827.268404212141
 20
2506.831626800675
 30
0.0
 11
7847.268404212141
 21
2506.831626800675
 31
0.0
  0
LINE
  5
5A077
330
1F
100
AcDbEntity
  8
DETAIL
370
    25
100
AcDbLine
 10
7847.268404212141
 20
2566.831617823657
 30
0.0
 11
7827.268404212141
 21
2566.831617823657
 31
0.0
  0
LINE
  5
5A078
330
1F
100
AcDbEntity
  8
DETAIL
370
    25
100
AcDbLine
 10
7827.268404212141
 20
2506.831626800675
 30
0.0
 11
7341.795888433989
 21
2506.831626800675
 31
0.0
  0
LINE
  5
5A079
330
1F
100
AcDbEntity
  8
DETAIL
370
    25
100
AcDbLine
 10
7827.268404212141
 20
2566.831617823657
 30
0.0
 11
7341.795892496418
 21
2566.831617823657
 31
0.0
  0
LINE
  5
5A07A
330
1F
100
AcDbEntity
  8
DETAIL
370
    25
100
AcDbLine
 10
7847.268404212141
 20
2566.831617823657
 30
0.0
 11
8671.795892496884
 21
2566.831617823657
 31
0.0
  0
LINE
  5
5A07B
330
1F
100
AcDbEntity
  8
DETAIL
370
    25
100
AcDbLine
 10
7847.268404212141
 20
2506.831626800675
 30
0.0
 11
8671.795900621743
 21
2506.831626800675
 31
0.0
  0
LINE
  5
5A07C
330
1F
100
AcDbEntity
  8
DETAIL
370
    25
100
AcDbLine
 10
7331.795880308665
 20
2506.831626800209
 30
0.0
 11
7341.795880308666
 21
2506.831626800209
 31
0.0
  0
CIRCLE
  5
5A07D
330
1F
100
AcDbEntity
  8
DETAIL
370
    25
100
AcDbCircle
 10
7061.795900621743
 20
2714.331617823657
 30
0.0
 40
10.0
  0
CIRCLE
  5
5A07E
330
1F
100
AcDbEntity
  8
DETAIL
370
    25
100
AcDbCircle
 10
7501.795900621742
 20
2714.331617823657
 30
0.0
 40
10.0
  0
CIRCLE
  5
5A07F
330
1F
100
AcDbEntity
  8
DETAIL
370
    25
100
AcDbCircle
 10
7061.795900621743
 20
2124.331617822725
 30
0.0
 40
10.0
  0
CIRCLE
  5
5A080
330
1F
100
AcDbEntity
  8
DETAIL
370
    25
100
AcDbCircle
 10
7501.795900621742
 20
2124.331617822725
 30
0.0
 40
10.0
  0
CIRCLE
  5
5A081
330
1F
100
AcDbEntity
  8
DETAIL
370
    25
100
AcDbCircle
 10
8511.79590062221
 20
2714.331617823191
 30
0.0
 40
10.0
  0
CIRCLE
  5
5A082
330
1F
100
AcDbEntity
  8
DETAIL
370
    25
100
AcDbCircle
 10
8951.795900622208
 20
2714.331617823191
 30
0.0
 40
10.0
  0
CIRCLE
  5
5A083
330
1F
100
AcDbEntity
  8
DETAIL
370
    25
100
AcDbCircle
 10
8511.79590062221
 20
2124.33161782226
 30
0.0
 40
10.0
  0
CIRCLE
  5
5A084
330
1F
100
AcDbEntity
  8
DETAIL
370
    25
100
AcDbCircle
 10
8951.795900622208
 20
2124.33161782226
 30
0.0
 40
10.0
  0
LINE
  5
5A085
330
1F
100
AcDbEntity
  8
DETAIL
370
     9
100
AcDbLine
 10
8671.79590062221
 20
5030.371790274365
 30
0.0
 11
8671.795900621743
 21
7152.371790273902
 31
0.0
  0
LINE
  5
5A086
330
1F
100
AcDbEntity
  8
DETAIL
370
    25
100
AcDbLine
 10
8791.795900621277
 20
2296.83161782226
 30
0.0
 11
8791.795900621277
 21
2356.831617822725
 31
0.0
  0
LINE
  5
5A087
330
1F
100
AcDbEntity
  8
DETAIL
370
    25
100
AcDbLine
 10
8671.795900621743
 20
2296.831617822725
 30
0.0
 11
8671.795900621743
 21
2356.831617823191
 31
0.0
  0
LINE
  5
5A088
330
1F
100
AcDbEntity
  8
DETAIL
370
    25
100
AcDbLine
 10
7256.795890465205
 20
2506.831618197582
 30
0.0
 11
7256.795890465205
 21
2356.831618197118
 31
0.0
  0
LINE
  5
5A089
330
1F
100
AcDbEntity
  8
DETAIL
370
    25
100
AcDbLine
 10
7306.795890465204
 20
2506.831618197582
 30
0.0
 11
7306.795890465204
 21
2356.831618197118
 31
0.0
  0
LINE
  5
5A08A
330
1F
100
AcDbEntity
  8
DETAIL
370
    25
100
AcDbLine
 10
7341.795900622208
 20
2296.831617823191
 30
0.0
 11
7341.795900621743
 21
2356.831617823191
 31
0.0
  0
LINE
  5
5A08B
330
1F
100
AcDbEntity
  8
DETAIL
370
    25
100
AcDbLine
 10
7341.795892496418
 20
2566.831617824122
 30
0.0
 11
7341.795880308666
 21
2506.831626800209
 31
0.0
  0
LINE
  5
5A08C
330
1F
100
AcDbEntity
  8
DETAIL
370
    25
100
AcDbLine
 10
7341.795900621277
 20
2456.831617824122
 30
0.0
 11
7306.795890464738
 21
2456.831617823656
 31
0.0
  0
LINE
  5
5A08D
330
1F
100
AcDbEntity
  8
DETAIL
370
    25
100
AcDbLine
 10
7341.795900621277
 20
2381.831617824122
 30
0.0
 11
7306.795890464738
 21
2381.831617823657
 31
0.0
  0
LINE
  5
5A08E
330
1F
100
AcDbEntity
  8
DETAIL
370
    25
100
AcDbLine
 10
7221.795900621277
 20
2506.831617823657
 30
0.0
 11
7221.795900620811
 21
2566.831617823657
 31
0.0
  0
LINE
  5
5A08F
330
1F
100
AcDbEntity
  8
DETAIL
370
    25
100
AcDbLine
 10
7221.795900621277
 20
2356.831617823191
 30
0.0
 11
7221.795900621277
 21
2296.831617823191
 31
0.0
  0
LINE
  5
5A090
330
1F
100
AcDbEntity
  8
DETAIL
370
    25
100
AcDbLine
 10
7221.795900621741
 20
2381.831617823191
 30
0.0
 11
7256.795890465205
 21
2381.831617823191
 31
0.0
  0
LINE
  5
5A091
330
1F
100
AcDbEntity
  8
DETAIL
370
    25
100
AcDbLine
 10
7221.795900621277
 20
2506.831617823657
 30
0.0
 11
7341.795880308666
 21
2506.831626800209
 31
0.0
  0
LINE
  5
5A092
330
1F
100
AcDbEntity
  8
DETAIL
370
    25
100
AcDbLine
 10
8706.795900621742
 20
2506.831626800209
 30
0.0
 11
8706.795900621742
 21
2356.831626799744
 31
0.0
  0
LINE
  5
5A093
330
1F
100
AcDbEntity
  8
DETAIL
370
    25
100
AcDbLine
 10
8756.795900621742
 20
2506.831626800209
 30
0.0
 11
8756.795900621742
 21
2356.831626799744
 31
0.0
  0
LINE
  5
5A094
330
1F
100
AcDbEntity
  8
DETAIL
370
    25
100
AcDbLine
 10
8671.795900621743
 20
2506.831626800209
 30
0.0
 11
8791.795900621742
 21
2506.831626800209
 31
0.0
  0
LINE
  5
5A095
330
1F
100
AcDbEntity
  8
DETAIL
370
    25
100
AcDbLine
 10
8671.795900621743
 20
2506.831626800675
 30
0.0
 11
8671.795900621274
 21
2566.831626800209
 31
0.0
  0
LINE
  5
5A096
330
1F
100
AcDbEntity
  8
DETAIL
370
    25
100
AcDbLine
 10
8791.795900621742
 20
2506.831626800675
 30
0.0
 11
8791.795900621742
 21
2566.831626800209
 31
0.0
  0
LINE
  5
5A097
330
1F
100
AcDbEntity
  8
DETAIL
370
    25
100
AcDbLine
 10
8671.795900621743
 20
2356.831617823191
 30
0.0
 11
8671.795900621743
 21
2296.831617822725
 31
0.0
  0
LINE
  5
5A098
330
1F
100
AcDbEntity
  8
DETAIL
370
    25
100
AcDbLine
 10
7221.795900621277
 20
2506.831617823657
 30
0.0
 11
7221.795900621277
 21
2566.831617823657
 31
0.0
  0
LINE
  5
5A099
330
1F
100
AcDbEntity
  8
DETAIL
370
    25
100
AcDbLine
 10
7221.795900621277
 20
2566.831617823657
 30
0.0
 11
7341.795892496418
 21
2566.831617823657
 31
0.0
  0
LINE
  5
5A09A
330
1F
100
AcDbEntity
  8
DETAIL
370
    25
100
AcDbLine
 10
7221.795900621277
 20
2356.831617823191
 30
0.0
 11
7221.795900621277
 21
2296.831617823191
 31
0.0
  0
LINE
  5
5A09B
330
1F
100
AcDbEntity
  8
DETAIL
370
    25
100
AcDbLine
 10
7221.795900621277
 20
2296.831617823191
 30
0.0
 11
7341.795900621743
 21
2296.831617823191
 31
0.0
  0
LINE
  5
5A09C
330
1F
100
AcDbEntity
  8
DETAIL
370
    25
100
AcDbLine
 10
8791.795900621742
 20
2506.831626800209
 30
0.0
 11
8791.795900621742
 21
2566.831626800209
 31
0.0
  0
LINE
  5
5A09D
330
1F
100
AcDbEntity
  8
DETAIL
370
    25
100
AcDbLine
 10
8791.795900621742
 20
2566.831626800209
 30
0.0
 11
8671.795900621743
 21
2566.831626800209
 31
0.0
  0
LINE
  5
5A09E
330
1F
100
AcDbEntity
  8
DETAIL
370
    25
100
AcDbLine
 10
8791.795900622208
 20
2356.831617822725
 30
0.0
 11
8791.795900621277
 21
2296.831617822725
 31
0.0
  0
LINE
  5
5A09F
330
1F
100
AcDbEntity
  8
DETAIL
370
    25
100
AcDbLine
 10
8791.795900621277
 20
2296.831617822725
 30
0.0
 11
8671.795900621743
 21
2296.831617822725
 31
0.0
  0
LINE
  5
5A0A0
330
1F
100
AcDbEntity
  8
DETAIL
370
     9
100
AcDbLine
 10
8671.79590062221
 20
5030.371790274365
 30
0.0
 11
8671.795900621743
 21
7152.371790273902
 31
0.0
  0
LINE
  5
5A0A1
330
1F
100
AcDbEntity
  8
DETAIL
370
     9
100
AcDbLine
 10
8671.79590062221
 20
5030.371790274365
 30
0.0
 11
8671.795900621743
 21
7152.371790273902
 31
0.0
  0
LINE
  5
5A0A2
330
1F
100
AcDbEntity
  8
DETAIL
370
     9
100
AcDbLine
 10
8671.795900621743
 20
7092.371790273901
 30
0.0
 11
8671.795900621743
 21
6842.371790273901
 31
0.0
  0
LINE
  5
5A0A3
330
1F
100
AcDbEntity
  8
DETAIL
370
     9
100
AcDbLine
 10
8671.795900621743
 20
2356.831617823191
 30
0.0
 11
8681.795900622208
 21
2356.831617823191
 31
0.0
  0
LINE
  5
5A0A4
330
1F
100
AcDbEntity
  8
DETAIL
370
     9
100
AcDbLine
 10
7331.795900621277
 20
2356.831617823191
 30
0.0
 11
7341.795900621277
 21
2356.831617823191
 31
0.0
  0
LINE
  5
5A0A5
330
1F
100
AcDbEntity
  8
DETAIL
370
    25
100
AcDbLine
 10
8481.795900621277
 20
2506.831626800675
 30
0.0
 11
8481.795900621742
 21
2473.04133474952
 31
0.0
  0
LINE
  5
5A0A6
330
1F
100
AcDbEntity
  8
APPLICATION
370
     9
100
AcDbLine
 10
13327.6181385739
 20
5000.371790273915
 30
0.0
 11
13327.61813857389
 21
4477.371790273901
 31
0.0
  0
LINE
  5
5A0A7
330
1F
100
AcDbEntity
  8
APPLICATION
370
     9
100
AcDbLine
 10
14077.61813857389
 20
4477.371790273901
 30
0.0
 11
14077.6181385739
 21
5000.371790273915
 31
0.0
  0
LINE
  5
5A0A8
330
1F
100
AcDbEntity
  8
DETAIL
370
     9
100
AcDbLine
 10
13352.61813857389
 20
5015.371790273901
 30
0.0
 11
13352.61813857389
 21
5000.371790273901
 31
0.0
  0
LINE
  5
5A0AA
330
1F
100
AcDbEntity
  8
DETAIL
370
     9
100
AcDbLine
 10
14052.61813857389
 20
5000.371790273901
 30
0.0
 11
14052.61813857389
 21
5015.371790273901
 31
0.0
  0
LINE
  5
5A0AB
330
1F
100
AcDbEntity
  8
DETAIL
370
     9
100
AcDbLine
 10
13665.11813857389
 20
7027.371790273434
 30
0.0
 11
13740.11813857389
 21
7027.371790273902
 31
0.0
  0
LINE
  5
5A0AC
330
1F
100
AcDbEntity
  8
DETAIL
370
     9
100
AcDbLine
 10
13692.61813857528
 20
5050.371790273901
 30
0.0
 11
13692.61813857528
 21
5007.371790273901
 31
0.0
  0
LINE
  5
5A0AD
330
1F
100
AcDbEntity
  8
DETAIL
370
     9
100
AcDbLine
 10
13712.61813857528
 20
5050.371790273901
 30
0.0
 11
13712.61813857528
 21
5007.371790273901
 31
0.0
  0
LINE
  5
5A0AE
330
1F
100
AcDbEntity
  8
DETAIL
370
     9
100
AcDbLine
 10
13690.11813857528
 20
5200.371790274832
 30
0.0
 11
13690.11813857389
 21
7027.371790273434
 31
0.0
  0
LINE
  5
5A0AF
330
1F
100
AcDbEntity
  8
DETAIL
370
     9
100
AcDbLine
 10
13715.11813857528
 20
5200.371790274832
 30
0.0
 11
13715.11813857389
 21
7027.371790273434
 31
0.0
  0
LINE
  5
5A0B1
330
1F
100
AcDbEntity
  8
DETAIL
370
     9
100
AcDbLine
 10
13377.61813857389
 20
5015.371790274365
 30
0.0
 11
13397.61813857389
 21
5015.371790274365
 31
0.0
  0
LINE
  5
5A0B2
330
1F
100
AcDbEntity
  8
DETAIL
370
     9
100
AcDbLine
 10
13372.61813857389
 20
5015.371790274365
 30
0.0
 11
13372.61813857389
 21
5025.371790274366
 31
0.0
  0
LINE
  5
5A0B3
330
1F
100
AcDbEntity
  8
DETAIL
370
     9
100
AcDbLine
 10
13372.61813857389
 20
5025.371790274366
 30
0.0
 11
13392.61813857389
 21
5025.371790274366
 31
0.0
  0
LINE
  5
5A0B4
330
1F
100
AcDbEntity
  8
DETAIL
370
     9
100
AcDbLine
 10
13392.61813857389
 20
5025.371790274366
 30
0.0
 11
13392.61813857389
 21
5015.371790274365
 31
0.0
  0
LINE
  5
5A0B5
330
1F
100
AcDbEntity
  8
DETAIL
370
     9
100
AcDbLine
 10
14027.61813857389
 20
5015.371790273901
 30
0.0
 11
14007.61813857389
 21
5015.371790273901
 31
0.0
  0
LINE
  5
5A0B6
330
1F
100
AcDbEntity
  8
DETAIL
370
     9
100
AcDbLine
 10
14032.61813857389
 20
5015.371790273901
 30
0.0
 11
14032.61813857389
 21
5025.371790273901
 31
0.0
  0
LINE
  5
5A0B7
330
1F
100
AcDbEntity
  8
DETAIL
370
     9
100
AcDbLine
 10
14032.61813857389
 20
5025.371790273901
 30
0.0
 11
14012.61813857389
 21
5025.371790273901
 31
0.0
  0
LINE
  5
5A0B8
330
1F
100
AcDbEntity
  8
DETAIL
370
     9
100
AcDbLine
 10
14012.61813857389
 20
5025.371790273901
 30
0.0
 11
14012.61813857389
 21
5015.371790273435
 31
0.0
  0
LINE
  5
5A0BA
330
1F
100
AcDbEntity
  8
DETAIL
370
     9
100
AcDbLine
 10
14052.61813857389
 20
5000.371790273901
 30
0.0
 11
14052.61813857389
 21
5007.829947012798
 31
0.0
  0
LINE
  5
5A0BB
330
1F
100
AcDbEntity
  8
DETAIL
370
     9
100
AcDbLine
 10
14027.61813857389
 20
5015.371790273435
 30
0.0
 11
14052.61813857389
 21
5015.371790273435
 31
0.0
  0
LINE
  5
5A0BD
330
1F
100
AcDbEntity
  8
DETAIL
370
     9
100
AcDbLine
 10
13377.61813857342
 20
5015.371790274365
 30
0.0
 11
13352.61813857389
 21
5015.371790274365
 31
0.0
  0
LINE
  5
5A0BE
330
1F
100
AcDbEntity
  8
DETAIL
370
     9
100
AcDbLine
 10
13352.61813857389
 20
5000.371790273901
 30
0.0
 11
13692.61813857528
 21
5000.371790273901
 31
0.0
  0
LINE
  5
5A0BF
330
1F
100
AcDbEntity
  8
DETAIL
370
     9
100
AcDbLine
 10
13766.77215200226
 20
7027.37179027297
 30
0.0
 11
13792.77215200226
 21
7027.37179027297
 31
0.0
  0
LINE
  5
5A0C0
330
1F
100
AcDbEntity
  8
DETAIL
370
     9
100
AcDbLine
 10
13765.77215200272
 20
7064.371790272969
 30
0.0
 11
13766.77215200272
 21
7067.371790272969
 31
0.0
  0
LINE
  5
5A0C1
330
1F
100
AcDbEntity
  8
DETAIL
370
     9
100
AcDbLine
 10
13793.77215200273
 20
7064.371790272969
 30
0.0
 11
13792.77215200272
 21
7067.371790272969
 31
0.0
  0
LINE
  5
5A0C2
330
1F
100
AcDbEntity
  8
DETAIL
370
     9
100
AcDbLine
 10
13794.77215200272
 20
7043.37179027297
 30
0.0
 11
13764.77215200272
 21
7043.37179027297
 31
0.0
  0
LINE
  5
5A0C3
330
1F
100
AcDbEntity
  8
DETAIL
370
     9
100
AcDbLine
 10
13794.77215200272
 20
7051.37179027297
 30
0.0
 11
13764.77215200272
 21
7051.37179027297
 31
0.0
  0
LINE
  5
5A0C4
330
1F
100
AcDbEntity
  8
DETAIL
370
     9
100
AcDbLine
 10
13793.77215200273
 20
7064.371790272969
 30
0.0
 11
13794.77215200272
 21
7051.37179027297
 31
0.0
  0
LINE
  5
5A0C5
330
1F
100
AcDbEntity
  8
DETAIL
370
     9
100
AcDbLine
 10
13765.77215200272
 20
7064.371790272969
 30
0.0
 11
13764.77215200272
 21
7051.37179027297
 31
0.0
  0
LINE
  5
5A0C6
330
1F
100
AcDbEntity
  8
DETAIL
370
     9
100
AcDbLine
 10
13765.77215200272
 20
7030.37179027297
 30
0.0
 11
13766.77215200272
 21
7027.37179027297
 31
0.0
  0
LINE
  5
5A0C7
330
1F
100
AcDbEntity
  8
DETAIL
370
     9
100
AcDbLine
 10
13793.77215200273
 20
7030.37179027297
 30
0.0
 11
13792.77215200272
 21
7027.37179027297
 31
0.0
  0
LINE
  5
5A0C8
330
1F
100
AcDbEntity
  8
DETAIL
370
     9
100
AcDbLine
 10
13793.77215200273
 20
7030.37179027297
 30
0.0
 11
13794.77215200272
 21
7043.37179027297
 31
0.0
  0
LINE
  5
5A0C9
330
1F
100
AcDbEntity
  8
DETAIL
370
     9
100
AcDbLine
 10
13765.77215200272
 20
7030.37179027297
 30
0.0
 11
13764.77215200272
 21
7043.37179027297
 31
0.0
  0
LINE
  5
5A0CA
330
1F
100
AcDbEntity
  8
DETAIL
370
     9
100
AcDbLine
 10
13792.77215200272
 20
7067.371790272969
 30
0.0
 11
13766.77215200272
 21
7067.371790272969
 31
0.0
  0
LINE
  5
5A0CB
330
1F
100
AcDbEntity
  8
DETAIL
370
     9
100
AcDbLine
 10
13765.77215200272
 20
7064.371790272969
 30
0.0
 11
13793.77215200273
 21
7064.371790272969
 31
0.0
  0
LINE
  5
5A0CC
330
1F
100
AcDbEntity
  8
DETAIL
370
     9
100
AcDbLine
 10
13793.77215200273
 20
7030.37179027297
 30
0.0
 11
13765.77215200272
 21
7030.37179027297
 31
0.0
  0
LINE
  5
5A0CD
330
1F
100
AcDbEntity
  8
DETAIL
370
     9
100
AcDbLine
 10
13794.77215200272
 20
7043.37179027297
 30
0.0
 11
13795.27215200272
 21
7043.37179027297
 31
0.0
  0
LINE
  5
5A0CE
330
1F
100
AcDbEntity
  8
DETAIL
370
     9
100
AcDbLine
 10
13795.27215200272
 20
7043.37179027297
 30
0.0
 11
13795.27215200226
 21
7051.371790272502
 31
0.0
  0
LINE
  5
5A0CF
330
1F
100
AcDbEntity
  8
DETAIL
370
     9
100
AcDbLine
 10
13794.77215200272
 20
7051.37179027297
 30
0.0
 11
13795.27215200272
 21
7051.37179027297
 31
0.0
  0
LINE
  5
5A0D0
330
1F
100
AcDbEntity
  8
DETAIL
370
     9
100
AcDbLine
 10
13764.77215200272
 20
7043.37179027297
 30
0.0
 11
13764.27215200273
 21
7043.37179027297
 31
0.0
  0
LINE
  5
5A0D1
330
1F
100
AcDbEntity
  8
DETAIL
370
     9
100
AcDbLine
 10
13764.27215200273
 20
7043.37179027297
 30
0.0
 11
13764.27215200319
 21
7051.371790272502
 31
0.0
  0
LINE
  5
5A0D2
330
1F
100
AcDbEntity
  8
DETAIL
370
     9
100
AcDbLine
 10
13764.77215200272
 20
7051.37179027297
 30
0.0
 11
13764.27215200273
 21
7051.37179027297
 31
0.0
  0
LINE
  5
5A0D3
330
1F
100
AcDbEntity
  8
DETAIL
370
     9
100
AcDbLine
 10
13772.77215200273
 20
6996.37179027297
 30
0.0
 11
13772.77215200226
 21
6998.960633007198
 31
0.0
  0
LINE
  5
5A0D4
330
1F
100
AcDbEntity
  8
DETAIL
370
     9
100
AcDbLine
 10
13786.77215200272
 20
6996.37179027297
 30
0.0
 11
13786.77215200272
 21
6998.960633007664
 31
0.0
  0
LINE
  5
5A0D5
330
1F
100
AcDbEntity
  8
DETAIL
370
     9
100
AcDbLine
 10
13785.77215200226
 20
6994.371790272504
 30
0.0
 11
13773.77215200273
 21
6994.37179027297
 31
0.0
  0
LINE
  5
5A0D6
330
1F
100
AcDbEntity
  8
DETAIL
370
     9
100
AcDbLine
 10
13772.77215200273
 20
6996.37179027297
 30
0.0
 11
13773.77215200273
 21
6996.37179027297
 31
0.0
  0
LINE
  5
5A0D7
330
1F
100
AcDbEntity
  8
DETAIL
370
     9
100
AcDbLine
 10
13773.77215200273
 20
6994.37179027297
 30
0.0
 11
13772.77215200273
 21
6996.37179027297
 31
0.0
  0
LINE
  5
5A0D8
330
1F
100
AcDbEntity
  8
DETAIL
370
     9
100
AcDbLine
 10
13785.77215200272
 20
6994.37179027297
 30
0.0
 11
13786.77215200272
 21
6996.37179027297
 31
0.0
  0
LINE
  5
5A0D9
330
1F
100
AcDbEntity
  8
DETAIL
370
     9
100
AcDbLine
 10
13786.77215200272
 20
6996.37179027297
 30
0.0
 11
13772.77215200273
 21
6996.37179027297
 31
0.0
  0
LINE
  5
5A0DA
330
1F
100
AcDbEntity
  8
DETAIL
370
     9
100
AcDbLine
 10
13786.77215200272
 20
6996.37179027297
 30
0.0
 11
13773.77215200273
 21
6994.37179027297
 31
0.0
  0
LINE
  5
5A0DB
330
1F
100
AcDbEntity
  8
DETAIL
370
     9
100
AcDbLine
 10
13786.21758297999
 20
6998.960633073789
 30
0.0
 11
13773.21758297999
 21
6996.960633073787
 31
0.0
  0
LINE
  5
5A0DC
330
1F
100
AcDbEntity
  8
DETAIL
370
     9
100
AcDbLine
 10
13786.77215200272
 20
6996.37179027297
 30
0.0
 11
13786.77215200272
 21
6998.371790272969
 31
0.0
  0
LINE
  5
5A0DD
330
1F
100
AcDbEntity
  8
DETAIL
370
     9
100
AcDbLine
 10
13786.21757888124
 20
7012.872230125445
 30
0.0
 11
13773.21757888124
 21
7010.872230125446
 31
0.0
  0
LINE
  5
5A0DE
330
1F
100
AcDbEntity
  8
DETAIL
370
     9
100
AcDbLine
 10
13786.21757888124
 20
7014.872230125445
 30
0.0
 11
13773.21757888124
 21
7012.872230125445
 31
0.0
  0
LINE
  5
5A0DF
330
1F
100
AcDbEntity
  8
DETAIL
370
     9
100
AcDbLine
 10
13786.21757888124
 20
7016.872230125446
 30
0.0
 11
13773.21757888124
 21
7014.872230125445
 31
0.0
  0
LINE
  5
5A0E0
330
1F
100
AcDbEntity
  8
DETAIL
370
     9
100
AcDbLine
 10
13786.21757888124
 20
7018.872230125445
 30
0.0
 11
13773.21757888124
 21
7016.872230125446
 31
0.0
  0
LINE
  5
5A0E1
330
1F
100
AcDbEntity
  8
DETAIL
370
     9
100
AcDbLine
 10
13786.21757888124
 20
7020.872230125445
 30
0.0
 11
13773.21757888124
 21
7018.872230125445
 31
0.0
  0
LINE
  5
5A0E2
330
1F
100
AcDbEntity
  8
DETAIL
370
     9
100
AcDbLine
 10
13786.21757888124
 20
7022.872230125447
 30
0.0
 11
13773.21757888124
 21
7020.872230125445
 31
0.0
  0
LINE
  5
5A0E3
330
1F
100
AcDbEntity
  8
DETAIL
370
     9
100
AcDbLine
 10
13740.11813857342
 20
7077.37179027297
 30
0.0
 11
13790.11813857342
 21
7077.37179027297
 31
0.0
  0
LINE
  5
5A0E4
330
1F
100
AcDbEntity
  8
DETAIL
370
     9
100
AcDbLine
 10
13807.27215200272
 20
7077.37179027297
 30
0.0
 11
13807.27215200272
 21
7047.37179027297
 31
0.0
  0
LINE
  5
5A0E5
330
1F
100
AcDbEntity
  8
DETAIL
370
     9
100
AcDbLine
 10
13807.27215200272
 20
7047.37179027297
 30
0.0
 11
13807.27215200272
 21
7027.37179027297
 31
0.0
  0
LINE
  5
5A0E6
330
1F
100
AcDbEntity
  8
DETAIL
370
     9
100
AcDbLine
 10
13807.27215200272
 20
7027.37179027297
 30
0.0
 11
13802.27215200272
 21
7027.37179027297
 31
0.0
  0
LINE
  5
5A0E7
330
1F
100
AcDbEntity
  8
DETAIL
370
     9
100
AcDbLine
 10
13802.27215200272
 20
7027.37179027297
 30
0.0
 11
13802.27215200272
 21
7072.371790272971
 31
0.0
  0
LINE
  5
5A0E8
330
1F
100
AcDbEntity
  8
DETAIL
370
     9
100
AcDbLine
 10
13785.11813857342
 20
7072.371790272971
 30
0.0
 11
13740.11813857342
 21
7072.371790272971
 31
0.0
  0
LINE
  5
5A0E9
330
1F
100
AcDbEntity
  8
DETAIL
370
     9
100
AcDbLine
 10
13785.11813857342
 20
7072.371790272971
 30
0.0
 11
13802.27215200272
 21
7072.371790272971
 31
0.0
  0
LINE
  5
5A0EA
330
1F
100
AcDbEntity
  8
DETAIL
370
     9
100
AcDbLine
 10
13790.11813857342
 20
7077.37179027297
 30
0.0
 11
13807.27215200272
 21
7077.37179027297
 31
0.0
  0
LINE
  5
5A0EB
330
1F
100
AcDbEntity
  8
DETAIL
370
     9
100
AcDbLine
 10
13773.21757888124
 20
7008.960633007665
 30
0.0
 11
13815.11813857342
 21
7008.960633007665
 31
0.0
  0
LINE
  5
5A0EC
330
1F
100
AcDbEntity
  8
DETAIL
370
     9
100
AcDbLine
 10
13815.11813857342
 20
6998.960633007664
 30
0.0
 11
13786.77215200272
 21
6998.960633007664
 31
0.0
  0
LINE
  5
5A0ED
330
1F
100
AcDbEntity
  8
DETAIL
370
     9
100
AcDbLine
 10
13786.77215200272
 20
6998.960633007664
 30
0.0
 11
13773.21757888124
 21
6998.960633007664
 31
0.0
  0
LINE
  5
5A0EE
330
1F
100
AcDbEntity
  8
DETAIL
370
     9
100
AcDbLine
 10
13773.21757888124
 20
6998.960633007664
 30
0.0
 11
13763.21757888124
 21
6998.960633007664
 31
0.0
  0
LINE
  5
5A0EF
330
1F
100
AcDbEntity
  8
DETAIL
370
     9
100
AcDbLine
 10
13763.21757888124
 20
6998.960633007664
 30
0.0
 11
13763.21757888124
 21
7008.960633007665
 31
0.0
  0
LINE
  5
5A0F0
330
1F
100
AcDbEntity
  8
DETAIL
370
     9
100
AcDbLine
 10
13763.21757888124
 20
7008.960633007665
 30
0.0
 11
13786.77215200272
 21
7008.960633007665
 31
0.0
  0
LINE
  5
5A0F1
330
1F
100
AcDbEntity
  8
DETAIL
370
     9
100
AcDbLine
 10
13772.77215200226
 20
7008.960633007665
 30
0.0
 11
13772.77215200226
 21
7027.37179027297
 31
0.0
  0
LINE
  5
5A0F2
330
1F
100
AcDbEntity
  8
DETAIL
370
     9
100
AcDbLine
 10
13786.77215200226
 20
7008.960633007665
 30
0.0
 11
13786.77215200226
 21
7027.37179027297
 31
0.0
  0
LINE
  5
5A0F3
330
1F
100
AcDbEntity
  8
DETAIL
370
     9
100
AcDbLine
 10
13786.21755337372
 20
7024.872222269739
 30
0.0
 11
13773.21755337372
 21
7022.872222269739
 31
0.0
  0
LINE
  5
5A0F4
330
1F
100
AcDbEntity
  8
DETAIL
370
     9
100
AcDbLine
 10
13786.21755337372
 20
7026.872222269742
 30
0.0
 11
13773.21755337372
 21
7024.872222269739
 31
0.0
  0
LINE
  5
5A0F5
330
1F
100
AcDbEntity
  8
DETAIL
370
     9
100
AcDbLine
 10
13786.21758369152
 20
7010.871331377741
 30
0.0
 11
13773.21758369153
 21
7008.871331377739
 31
0.0
  0
LINE
  5
5A0F6
330
1F
100
AcDbEntity
  8
DETAIL
370
     9
100
AcDbLine
 10
13740.11813857389
 20
7077.37179027297
 30
0.0
 11
13665.11813857342
 21
7077.37179027297
 31
0.0
  0
LINE
  5
5A0F7
330
1F
100
AcDbEntity
  8
DETAIL
370
     9
100
AcDbLine
 10
13740.11813857389
 20
7027.37179027297
 30
0.0
 11
13740.11813857389
 21
5200.371790274832
 31
0.0
  0
LINE
  5
5A0F8
330
1F
100
AcDbEntity
  8
DETAIL
370
     9
100
AcDbLine
 10
13665.11813857389
 20
7027.37179027297
 30
0.0
 11
13665.11813857528
 21
5200.371790274832
 31
0.0
  0
LINE
  5
5A0F9
330
1F
100
AcDbEntity
  8
DETAIL
370
     9
100
AcDbLine
 10
14052.61813857389
 20
5015.371790273435
 30
0.0
 11
14032.61813857389
 21
5015.371790273435
 31
0.0
  0
LINE
  5
5A0FA
330
1F
100
AcDbEntity
  8
DETAIL
370
     9
100
AcDbLine
 10
14052.61813857389
 20
5015.371790273901
 30
0.0
 11
14032.61813857389
 21
5015.371790272968
 31
0.0
  0
LINE
  5
5A0FC
330
1F
100
AcDbEntity
  8
DETAIL
370
     9
100
AcDbLine
 10
13401.61813857389
 20
5015.371790274365
 30
0.0
 11
13569.61813857389
 21
5015.371790274834
 31
0.0
  0
LINE
  5
5A0FD
330
1F
100
AcDbEntity
  8
DETAIL
370
     9
100
AcDbLine
 10
13618.61813857389
 20
5015.371790273901
 30
0.0
 11
13618.61813857389
 21
5000.371790273901
 31
0.0
  0
LINE
  5
5A0FE
330
1F
100
AcDbEntity
  8
DETAIL
370
     9
100
AcDbLine
 10
13569.61813857389
 20
5015.371790274834
 30
0.0
 11
13618.61813857435
 21
5015.371790274834
 31
0.0
  0
LINE
  5
5A0FF
330
1F
100
AcDbEntity
  8
DETAIL
370
     9
100
AcDbLine
 10
13835.61813857389
 20
5015.371790273901
 30
0.0
 11
14003.61813857389
 21
5015.371790273901
 31
0.0
  0
LINE
  5
5A100
330
1F
100
AcDbEntity
  8
DETAIL
370
     9
100
AcDbLine
 10
13786.61813857389
 20
5000.371790273901
 30
0.0
 11
13786.61813857389
 21
5015.371790273901
 31
0.0
  0
LINE
  5
5A101
330
1F
100
AcDbEntity
  8
DETAIL
370
     9
100
AcDbLine
 10
13811.61813857389
 20
5015.371790273901
 30
0.0
 11
13831.61813857389
 21
5015.371790273901
 31
0.0
  0
LINE
  5
5A102
330
1F
100
AcDbEntity
  8
DETAIL
370
     9
100
AcDbLine
 10
13786.61813857389
 20
5000.371790273901
 30
0.0
 11
13786.61813857389
 21
5007.829947012798
 31
0.0
  0
LINE
  5
5A103
330
1F
100
AcDbEntity
  8
DETAIL
370
     9
100
AcDbLine
 10
13811.61813857389
 20
5015.371790273435
 30
0.0
 11
13786.61813857389
 21
5015.371790273435
 31
0.0
  0
LINE
  5
5A104
330
1F
100
AcDbEntity
  8
DETAIL
370
     9
100
AcDbLine
 10
13786.61813857389
 20
5015.371790273435
 30
0.0
 11
13806.61813857389
 21
5015.371790273435
 31
0.0
  0
LINE
  5
5A105
330
1F
100
AcDbEntity
  8
DETAIL
370
     9
100
AcDbLine
 10
13786.61813857389
 20
5015.371790273901
 30
0.0
 11
13806.61813857389
 21
5015.371790272968
 31
0.0
  0
LINE
  5
5A106
330
1F
100
AcDbEntity
  8
DETAIL
370
     9
100
AcDbLine
 10
13786.61813857389
 20
5015.371790273435
 30
0.0
 11
14052.61813857389
 21
5015.371790273901
 31
0.0
  0
LINE
  5
5A107
330
1F
100
AcDbEntity
  8
DETAIL
370
     9
100
AcDbLine
 10
13627.61813857389
 20
4945.371790273901
 30
0.0
 11
13777.61813857389
 21
4945.371790274368
 31
0.0
  0
LINE
  5
5A108
330
1F
100
AcDbEntity
  8
DETAIL
370
     9
100
AcDbLine
 10
13627.61813857389
 20
5000.371790273901
 30
0.0
 11
13627.61813857389
 21
4945.371790273901
 31
0.0
  0
LINE
  5
5A109
330
1F
100
AcDbEntity
  8
DETAIL
370
     9
100
AcDbLine
 10
13777.61813857389
 20
5000.371790273901
 30
0.0
 11
13777.61813857389
 21
4945.371790273901
 31
0.0
  0
LINE
  5
5A10A
330
1F
100
AcDbEntity
  8
DETAIL
370
     9
100
AcDbLine
 10
13692.61813857528
 20
5030.371790273901
 30
0.0
 11
13692.61813857528
 21
5000.371790273901
 31
0.0
  0
CIRCLE
  5
5A10B
330
1F
100
AcDbEntity
  8
DETAIL
370
     9
100
AcDbCircle
 10
13702.61813857389
 20
5000.371790273901
 30
0.0
 40
9.999999998603016
  0
LINE
  5
5A10C
330
1F
100
AcDbEntity
  8
DETAIL
370
     9
100
AcDbLine
 10
13712.61813857528
 20
5030.371790273901
 30
0.0
 11
13712.61813857249
 21
5000.371790273901
 31
0.0
  0
LINE
  5
5A10D
330
1F
100
AcDbEntity
  8
DETAIL
370
     9
100
AcDbLine
 10
13692.61813857528
 20
5000.371790273901
 30
0.0
 11
13692.61813857482
 21
4960.371790274368
 31
0.0
  0
LINE
  5
5A10E
330
1F
100
AcDbEntity
  8
DETAIL
370
     9
100
AcDbLine
 10
13712.61813857249
 20
5000.37179027297
 30
0.0
 11
13712.61813857296
 21
4960.371790274368
 31
0.0
  0
LINE
  5
5A10F
330
1F
100
AcDbEntity
  8
DETAIL
370
     9
100
AcDbLine
 10
13642.61813857342
 20
4960.371790273899
 30
0.0
 11
13692.61813857482
 21
4960.371790273899
 31
0.0
  0
LINE
  5
5A110
330
1F
100
AcDbEntity
  8
DETAIL
370
     9
100
AcDbLine
 10
13642.61813857342
 20
4960.371790273899
 30
0.0
 11
13642.61813857389
 21
4945.371790273901
 31
0.0
  0
LINE
  5
5A111
330
1F
100
AcDbEntity
  8
DETAIL
370
     9
100
AcDbLine
 10
13762.61813857342
 20
4960.371790274368
 30
0.0
 11
13762.61813857389
 21
4945.371790273901
 31
0.0
  0
LINE
  5
5A112
330
1F
100
AcDbEntity
  8
DETAIL
370
     9
100
AcDbLine
 10
13712.61813857296
 20
4960.371790273899
 30
0.0
 11
13762.61813857342
 21
4960.371790273899
 31
0.0
  0
LINE
  5
5A113
330
1F
100
AcDbEntity
  8
DETAIL
370
     9
100
AcDbLine
 10
13397.61813857389
 20
5015.371790274365
 30
0.0
 11
13401.61813857389
 21
5015.371790274834
 31
0.0
  0
HATCH
  5
5A114
330
1F
100
AcDbEntity
  8
APPLICATION
370
     9
100
AcDbHatch
 10
0.0
 20
0.0
 30
0.0
210
0.0
220
0.0
230
1.0
  2
AR-CONC
 70
     0
 71
     0
 91
        1
 92
        7
 72
     0
 73
     1
 93
       10
 10
13627.61813857389
 20
4906.626083934068
 10
13627.61813857389
 20
4961.626083933603
 10
13352.61813857389
 20
4961.626083934068
 10
13327.61813857389
 20
4961.626083934068
 10
13327.61813857389
 20
4461.626083934068
 10
14077.61813857389
 20
4461.626083934068
 10
14077.61813857389
 20
4961.626083934068
 10
14052.61813857389
 20
4961.626083934068
 10
13777.61813857435
 20
4961.626083933603
 10
13777.61813857389
 20
4906.626083935
 97
        0
 75
     0
 76
     1
 52
0.0
 41
2.0
 77
     0
 78
    13
 53
50.0
 43
-3138366.002301887
 44
-3879017.162645644
 45
364.369337992008
 46
-31.87817107780617
 79
     2
 49
38.1
 49
-419.1
 53
355.0
 43
-3138366.002301887
 44
-3879017.162645644
 45
-70.48565195133398
 46
382.11328576436
 79
     2
 49
30.48
 49
-335.28
 53
100.451
 43
-3138335.638301886
 44
-3879019.819145643
 45
293.8850033319185
 46
350.2333756405838
 79
     2
 49
32.38
 49
-356.18
 53
46.18419999999999
 43
-3138366.002301887
 44
-3878915.562645643
 45
542.1580817842598
 46
-84.0846558654543
 79
     2
 49
57.14999999999999
 49
-628.65
 53
96.63559999999996
 43
-3138320.822501887
 44
-3878922.569645644
 45
474.8084689324742
 46
494.8511117800983
 79
     2
 49
48.56999999999995
 49
-534.2699999999991
 53
351.184
 43
-3138366.002301887
 44
-3878915.562645643
 45
474.8092116278677
 46
494.8502357211952
 79
     2
 49
45.72
 49
-502.92
 53
21.0
 43
-3138315.202301887
 44
-3878940.962645643
 45
303.2297596707666
 46
-204.531037033525
 79
     2
 49
38.1
 49
-419.1
 53
326.0
 43
-3138315.202301887
 44
-3878940.962645643
 45
123.6040566952941
 46
368.3759322446385
 79
     2
 49
30.48
 49
-335.28
 53
71.45140000000002
 43
-3138289.933301887
 44
-3878958.006845643
 45
426.8329815402488
 46
163.8457154321149
 79
     2
 49
32.38
 49
-356.18
 53
37.5
 43
-3138366.002301887
 44
-3879017.162645644
 45
6.177206501183632
 46
169.1100777463062
 79
     6
 49
0.0
 49
-331.216
 49
0.0
 49
-340.36
 49
0.0
 49
-336.55
 53
7.499999999999999
 43
-3138366.002301887
 44
-3879017.162645644
 45
133.6393250206115
 46
200.361149636239
 79
     6
 49
0.0
 49
-194.0559999999999
 49
0.0
 49
-323.596
 49
0.0
 49
-128.27
 53
327.5
 43
-3138479.286301887
 44
-3879017.162645644
 45
271.1811903337427
 46
-11.45748798534693
 79
     6
 49
0.0
 49
-127.0
 49
0.0
 49
-396.24
 49
0.0
 49
-525.7799999999998
 53
317.5
 43
-3138530.086301886
 44
-3879017.162645644
 45
296.2583627720361
 46
50.85298206666603
 79
     6
 49
0.0
 49
-165.1
 49
0.0
 49
-263.144
 49
0.0
 49
-373.38
 47
1.504873587895689
 98
        1
 10
13765.38813977857
 20
4769.230679045286
  0
LINE
  5
5A115
330
1F
100
AcDbEntity
  8
DETAIL
370
     9
100
AcDbLine
 10
13712.61813857249
 20
5000.37179027297
 30
0.0
 11
14052.61813857389
 21
5000.371790273973
 31
0.0
  0
LINE
  5
5A116
330
1F
100
AcDbEntity
  8
DETAIL
370
     9
100
AcDbLine
 10
8481.795900621742
 20
2744.331617823191
 30
0.0
 11
8481.795900621742
 21
2566.831617823657
 31
0.0
  0
LINE
  5
5A117
330
1F
100
AcDbEntity
  8
DETAIL
370
     9
100
AcDbLine
 10
13352.61813857389
 20
5015.371790274365
 30
0.0
 11
13480.11813857389
 21
5015.371790274834
 31
0.0
  0
LINE
  5
5A118
330
1F
100
AcDbEntity
  8
DETAIL
370
     9
100
AcDbLine
 10
13555.11813857435
 20
5015.371790274365
 30
0.0
 11
13555.11813857435
 21
7092.371790273901
 31
0.0
  0
LINE
  5
5A119
330
1F
100
AcDbEntity
  8
DETAIL
370
     9
100
AcDbLine
 10
13875.11813857342
 20
5015.371790273435
 30
0.0
 11
13875.11813857342
 21
7092.371790274366
 31
0.0
  0
LINE
  5
5A11A
330
1F
100
AcDbEntity
  8
DETAIL
370
     9
100
AcDbLine
 10
13665.11813857389
 20
7027.371790273434
 30
0.0
 11
13665.11813857389
 21
7077.371790272504
 31
0.0
  0
LINE
  5
5A11B
330
1F
100
AcDbEntity
  8
DETAIL
370
     9
100
AcDbLine
 10
13740.11813857389
 20
7027.37179027297
 30
0.0
 11
13740.11813857342
 21
7077.37179027297
 31
0.0
  0
LINE
  5
5A11C
330
1F
100
AcDbEntity
  8
DETAIL
370
     9
100
AcDbLine
 10
13615.11813857435
 20
7152.371790273902
 30
0.0
 11
13815.11813857296
 21
7152.371790273902
 31
0.0
  0
LINE
  5
5A11D
330
1F
100
AcDbEntity
  8
DETAIL
370
     9
100
AcDbLine
 10
13615.11813857435
 20
7102.371790273434
 30
0.0
 11
13815.11813857342
 21
7102.371790273434
 31
0.0
  0
LINE
  5
5A11E
330
1F
100
AcDbEntity
  8
DETAIL
370
     9
100
AcDbLine
 10
13615.11813857435
 20
5015.371790274365
 30
0.0
 11
13615.11813857435
 21
7152.371790273902
 31
0.0
  0
LINE
  5
5A11F
330
1F
100
AcDbEntity
  8
DETAIL
370
     9
100
AcDbLine
 10
13815.11813857342
 20
5025.371790273901
 30
0.0
 11
13815.11813857342
 21
7152.371790274367
 31
0.0
  0
LINE
  5
5A122
330
1F
100
AcDbEntity
  8
APPLICATION
370
     9
100
AcDbLine
 10
13327.61813857435
 20
4400.371790274832
 30
0.0
 11
14077.61813857389
 21
4400.371790274832
 31
0.0
  0
LINE
  5
5A123
330
1F
100
AcDbEntity
  8
APPLICATION
370
     9
100
AcDbLine
 10
13327.61813857389
 20
4477.371790273901
 30
0.0
 11
13327.61813857389
 21
4400.371790274365
 31
0.0
  0
LINE
  5
5A124
330
1F
100
AcDbEntity
  8
APPLICATION
370
     9
100
AcDbLine
 10
14077.61813857389
 20
4477.371790273901
 30
0.0
 11
14077.61813857389
 21
4400.371790274365
 31
0.0
  0
LINE
  5
5A125
330
1F
100
AcDbEntity
  8
DETAIL
370
     9
100
AcDbLine
 10
13665.11813857482
 20
5050.371790274367
 30
0.0
 11
13692.61813857575
 21
5050.371790273901
 31
0.0
  0
LINE
  5
5A126
330
1F
100
AcDbEntity
  8
DETAIL
370
     9
100
AcDbLine
 10
13692.61813857528
 20
5043.371790273901
 30
0.0
 11
13692.61813857528
 21
4980.371790273901
 31
0.0
  0
LINE
  5
5A127
330
1F
100
AcDbEntity
  8
DETAIL
370
     9
100
AcDbLine
 10
13712.61813857528
 20
5043.371790273901
 30
0.0
 11
13712.61813857528
 21
4980.371790273901
 31
0.0
  0
LINE
  5
5A128
330
1F
100
AcDbEntity
  8
DETAIL
370
     9
100
AcDbLine
 10
13712.61813857575
 20
5050.371790273901
 30
0.0
 11
13740.11813857528
 21
5050.371790273901
 31
0.0
  0
LINE
  5
5A129
330
1F
100
AcDbEntity
  8
DETAIL
370
     9
100
AcDbLine
 10
13692.61813857575
 20
5043.371790273435
 30
0.0
 11
13692.61813857575
 21
5048.371790273435
 31
0.0
  0
LINE
  5
5A12A
330
1F
100
AcDbEntity
  8
DETAIL
370
     9
100
AcDbLine
 10
13712.61813857528
 20
5043.371790273901
 30
0.0
 11
13712.61813857528
 21
5048.371790272971
 31
0.0
  0
LINE
  5
5A12B
330
1F
100
AcDbEntity
  8
DETAIL
370
     9
100
AcDbLine
 10
13692.61813857575
 20
5048.371790273435
 30
0.0
 11
13692.61813857575
 21
5050.371790273901
 31
0.0
  0
LINE
  5
5A12C
330
1F
100
AcDbEntity
  8
DETAIL
370
     9
100
AcDbLine
 10
13712.61813857528
 20
5048.371790272971
 30
0.0
 11
13712.61813857528
 21
5050.371790273901
 31
0.0
  0
LINE
  5
5A12D
330
1F
100
AcDbEntity
  8
DETAIL
370
     9
100
AcDbLine
 10
13740.11813857528
 20
5050.371790273901
 30
0.0
 11
13740.11813857528
 21
5125.371790273901
 31
0.0
  0
LINE
  5
5A12E
330
1F
100
AcDbEntity
  8
DETAIL
370
     9
100
AcDbLine
 10
13665.11813857389
 20
5050.371790273901
 30
0.0
 11
13740.11813857389
 21
5050.371790273901
 31
0.0
  0
LINE
  5
5A12F
330
1F
100
AcDbEntity
  8
DETAIL
370
     9
100
AcDbLine
 10
13665.11813857482
 20
5050.371790274367
 30
0.0
 11
13665.11813857482
 21
5200.371790274367
 31
0.0
  0
LINE
  5
5A130
330
1F
100
AcDbEntity
  8
DETAIL
370
     9
100
AcDbLine
 10
13665.11813857482
 20
5200.371790274367
 30
0.0
 11
13740.11813857482
 21
5200.371790274367
 31
0.0
  0
LINE
  5
5A131
330
1F
100
AcDbEntity
  8
DETAIL
370
     9
100
AcDbLine
 10
13740.11813857482
 20
5200.371790274367
 30
0.0
 11
13740.11813857528
 21
5125.371790273901
 31
0.0
  0
LINE
  5
5A132
330
1F
100
AcDbEntity
  8
DETAIL
370
     9
100
AcDbLine
 10
13680.11813857482
 20
5050.371790274367
 30
0.0
 11
13680.11813857482
 21
5200.371790274367
 31
0.0
  0
LINE
  5
5A133
330
1F
100
AcDbEntity
  8
DETAIL
370
     9
100
AcDbLine
 10
13725.11813857528
 20
5050.371790273901
 30
0.0
 11
13725.11813857528
 21
5125.371790273901
 31
0.0
  0
LINE
  5
5A134
330
1F
100
AcDbEntity
  8
DETAIL
370
     9
100
AcDbLine
 10
13725.11813857482
 20
5200.371790274367
 30
0.0
 11
13725.11813857528
 21
5125.371790273901
 31
0.0
  0
LINE
  5
5A135
330
1F
100
AcDbEntity
  8
APPLICATION
370
     9
100
AcDbLine
 10
14448.31260141339
 20
5000.371790273901
 30
0.0
 11
12956.92367573437
 21
5000.371790273901
 31
0.0
  0
HATCH
  5
5A136
330
1F
100
AcDbEntity
  8
APPLICATION
370
     9
100
AcDbHatch
 10
0.0
 20
0.0
 30
0.0
210
0.0
220
0.0
230
1.0
  2
ANSI31
 70
     0
 71
     0
 91
        1
 92
        7
 72
     0
 73
     1
 93
        5
 10
13327.61813857389
 20
4977.371790273901
 10
13327.61813857435
 20
5000.371790273901
 10
12956.92367573437
 20
5000.371790273901
 10
12956.92367573437
 20
4900.371790273901
 10
13327.61813857342
 20
4900.371790273435
 97
        0
 75
     0
 76
     1
 52
0.0
 41
30.0
 77
     0
 78
     1
 53
45.0
 43
-3138366.002301887
 44
-3879017.162645644
 45
-67.35192090801864
 46
67.35192090801866
 79
     0
 47
4.366887959295582
 98
        1
 10
13105.52096209238
 20
4942.721601303055
  0
HATCH
  5
5A137
330
1F
100
AcDbEntity
  8
APPLICATION
370
     9
100
AcDbHatch
 10
0.0
 20
0.0
 30
0.0
210
0.0
220
0.0
230
1.0
  2
ANSI31
 70
     0
 71
     0
 91
        1
 92
        7
 72
     0
 73
     1
 93
        5
 10
14448.3126014134
 20
4977.371790273901
 10
14448.31260141387
 20
5000.371790273901
 10
14077.61813857389
 20
5000.371790273901
 10
14077.61813857389
 20
4900.371790273901
 10
14448.31260141294
 20
4900.371790273435
 97
        0
 75
     0
 76
     1
 52
0.0
 41
30.0
 77
     0
 78
     1
 53
45.0
 43
-3137245.307839048
 44
-3879017.162645644
 45
-67.35192090801864
 46
67.35192090801866
 79
     0
 47
4.366887959295582
 98
        1
 10
14226.2154249319
 20
4942.721601303055
  0
LINE
  5
5A139
330
1F
100
AcDbEntity
  8
DETAIL
370
     9
100
AcDbLine
 10
13593.61813857389
 20
5015.371790274365
 30
0.0
 11
13573.61813857389
 21
5015.371790274365
 31
0.0
  0
LINE
  5
5A13A
330
1F
100
AcDbEntity
  8
DETAIL
370
     9
100
AcDbLine
 10
13598.61813857389
 20
5015.371790274365
 30
0.0
 11
13598.61813857389
 21
5025.371790274366
 31
0.0
  0
LINE
  5
5A13B
330
1F
100
AcDbEntity
  8
DETAIL
370
     9
100
AcDbLine
 10
13598.61813857389
 20
5025.371790274366
 30
0.0
 11
13578.61813857389
 21
5025.371790274366
 31
0.0
  0
LINE
  5
5A13C
330
1F
100
AcDbEntity
  8
DETAIL
370
     9
100
AcDbLine
 10
13578.61813857389
 20
5025.371790274366
 30
0.0
 11
13578.61813857389
 21
5015.371790274365
 31
0.0
  0
LINE
  5
5A13D
330
1F
100
AcDbEntity
  8
DETAIL
370
     9
100
AcDbLine
 10
13573.61813857389
 20
5015.371790274365
 30
0.0
 11
13569.61813857389
 21
5015.371790274834
 31
0.0
  0
LINE
  5
5A13E
330
1F
100
AcDbEntity
  8
DETAIL
370
     9
100
AcDbLine
 10
13811.61813857389
 20
5015.371790273901
 30
0.0
 11
13831.61813857389
 21
5015.371790273901
 31
0.0
  0
LINE
  5
5A13F
330
1F
100
AcDbEntity
  8
DETAIL
370
     9
100
AcDbLine
 10
13806.61813857389
 20
5015.371790273901
 30
0.0
 11
13806.61813857389
 21
5025.371790273901
 31
0.0
  0
LINE
  5
5A140
330
1F
100
AcDbEntity
  8
DETAIL
370
     9
100
AcDbLine
 10
13806.61813857389
 20
5025.371790273901
 30
0.0
 11
13826.61813857389
 21
5025.371790273901
 31
0.0
  0
LINE
  5
5A141
330
1F
100
AcDbEntity
  8
DETAIL
370
     9
100
AcDbLine
 10
13826.61813857389
 20
5025.371790273901
 30
0.0
 11
13826.61813857389
 21
5015.371790273435
 31
0.0
  0
LINE
  5
5A142
330
1F
100
AcDbEntity
  8
DETAIL
370
     9
100
AcDbLine
 10
13811.61813857389
 20
5015.371790273435
 30
0.0
 11
13786.61813857389
 21
5015.371790273435
 31
0.0
  0
LINE
  5
5A143
330
1F
100
AcDbEntity
  8
DETAIL
370
     9
100
AcDbLine
 10
13786.61813857389
 20
5015.371790273435
 30
0.0
 11
13806.61813857389
 21
5015.371790273435
 31
0.0
  0
LINE
  5
5A144
330
1F
100
AcDbEntity
  8
DETAIL
370
     9
100
AcDbLine
 10
13786.61813857389
 20
5015.371790273901
 30
0.0
 11
13806.61813857389
 21
5015.371790272968
 31
0.0
  0
LINE
  5
5A145
330
1F
100
AcDbEntity
  8
DETAIL
370
    25
100
AcDbLine
 10
8481.795900621742
 20
2365.621900896396
 30
0.0
 11
8981.795900621277
 21
2365.621900896396
 31
0.0
  0
LINE
  5
5A146
330
1F
100
AcDbEntity
  8
DETAIL
370
    25
100
AcDbLine
 10
8481.795900621742
 20
2473.04133474952
 30
0.0
 11
8706.795900621742
 21
2473.04133474952
 31
0.0
  0
LINE
  5
5A147
330
1F
100
AcDbEntity
  8
DETAIL
370
    25
100
AcDbLine
 10
8756.795900621742
 20
2473.04133474952
 30
0.0
 11
8981.795900621277
 21
2473.04133474952
 31
0.0
  0
ARC
  5
5A148
330
1F
100
AcDbEntity
  8
DETAIL
370
    25
100
AcDbCircle
 10
8511.79590062221
 20
2503.04133474952
 30
0.0
 40
10.0
100
AcDbArc
 50
157.7264376537753
 51
22.27356234622471
  0
CIRCLE
  5
5A149
330
1F
100
AcDbEntity
  8
DETAIL
370
    25
100
AcDbCircle
 10
8951.795900622208
 20
2503.04133474952
 30
0.0
 40
10.0
  0
CIRCLE
  5
5A14A
330
1F
100
AcDbEntity
  8
DETAIL
370
    25
100
AcDbCircle
 10
8951.795900622208
 20
2335.621900897793
 30
0.0
 40
10.0
  0
LINE
  5
5A14B
330
1F
100
AcDbEntity
  8
DETAIL
370
    25
100
AcDbLine
 10
7631.795900621742
 20
2794.331617823658
 30
0.0
 11
7281.795900621742
 21
2794.331617823658
 31
0.0
  0
LINE
  5
5A14C
330
1F
100
AcDbEntity
  8
DETAIL
370
    25
100
AcDbLine
 10
7531.795900621742
 20
2506.831626800209
 30
0.0
 11
7531.795900621742
 21
2473.041334750451
 31
0.0
  0
LINE
  5
5A14D
330
1F
100
AcDbEntity
  8
DETAIL
370
    25
100
AcDbLine
 10
7031.795900621742
 20
2744.331617823656
 30
0.0
 11
7031.795900621277
 21
2566.831617824122
 31
0.0
  0
LINE
  5
5A14E
330
1F
100
AcDbEntity
  8
DETAIL
370
    25
100
AcDbLine
 10
7221.795900621277
 20
2566.831626800675
 30
0.0
 11
7221.795900621741
 21
2506.831626801141
 31
0.0
  0
LINE
  5
5A14F
330
1F
100
AcDbEntity
  8
DETAIL
370
    25
100
AcDbLine
 10
7031.795900621742
 20
2744.331617823656
 30
0.0
 11
7531.795900621277
 21
2744.331617823656
 31
0.0
  0
LINE
  5
5A150
330
1F
100
AcDbEntity
  8
DETAIL
370
    25
100
AcDbLine
 10
7031.795900621742
 20
2094.331617823191
 30
0.0
 11
7531.795900621277
 21
2094.331617823191
 31
0.0
  0
LINE
  5
5A151
330
1F
100
AcDbEntity
  8
DETAIL
370
    25
100
AcDbLine
 10
7231.795900622208
 20
2356.831617823656
 30
0.0
 11
7256.795890465205
 21
2356.831617823191
 31
0.0
  0
LINE
  5
5A152
330
1F
100
AcDbEntity
  8
DETAIL
370
    25
100
AcDbLine
 10
7031.795900621277
 20
2365.621900896862
 30
0.0
 11
7031.795900621277
 21
2356.831617823656
 31
0.0
  0
LINE
  5
5A153
330
1F
100
AcDbEntity
  8
DETAIL
370
    25
100
AcDbLine
 10
7531.795900621742
 20
2365.621900896862
 30
0.0
 11
7531.795900621277
 21
2356.831617823191
 31
0.0
  0
LINE
  5
5A154
330
1F
100
AcDbEntity
  8
DETAIL
370
    25
100
AcDbLine
 10
7031.795900621277
 20
2296.831617824122
 30
0.0
 11
7031.795900621742
 21
2094.331617824122
 31
0.0
  0
CIRCLE
  5
5A155
330
1F
100
AcDbEntity
  8
DETAIL
370
    25
100
AcDbCircle
 10
7061.795900622207
 20
2714.331617823657
 30
0.0
 40
10.0
  0
CIRCLE
  5
5A156
330
1F
100
AcDbEntity
  8
DETAIL
370
    25
100
AcDbCircle
 10
7501.795900622209
 20
2714.331617823657
 30
0.0
 40
10.0
  0
CIRCLE
  5
5A157
330
1F
100
AcDbEntity
  8
DETAIL
370
    25
100
AcDbCircle
 10
7061.795900622207
 20
2124.331617822725
 30
0.0
 40
10.0
  0
CIRCLE
  5
5A158
330
1F
100
AcDbEntity
  8
DETAIL
370
    25
100
AcDbCircle
 10
7501.795900622209
 20
2124.331617822725
 30
0.0
 40
10.0
  0
LINE
  5
5A159
330
1F
100
AcDbEntity
  8
DETAIL
370
    25
100
AcDbLine
 10
7341.795900621277
 20
2296.831617822725
 30
0.0
 11
7341.795900621277
 21
2356.831617823191
 31
0.0
  0
LINE
  5
5A15A
330
1F
100
AcDbEntity
  8
DETAIL
370
    25
100
AcDbLine
 10
7221.795900621741
 20
2296.831617823191
 30
0.0
 11
7221.795900621741
 21
2356.831617823656
 31
0.0
  0
LINE
  5
5A15B
330
1F
100
AcDbEntity
  8
DETAIL
370
    25
100
AcDbLine
 10
7256.795900621742
 20
2506.831626800675
 30
0.0
 11
7256.795900621742
 21
2356.831626800209
 31
0.0
  0
LINE
  5
5A15C
330
1F
100
AcDbEntity
  8
DETAIL
370
    25
100
AcDbLine
 10
7306.795900621742
 20
2506.831626800675
 30
0.0
 11
7306.795900621742
 21
2356.831626800209
 31
0.0
  0
LINE
  5
5A15D
330
1F
100
AcDbEntity
  8
DETAIL
370
    25
100
AcDbLine
 10
7221.795900621741
 20
2506.831626800675
 30
0.0
 11
7341.795900621743
 21
2506.831626800675
 31
0.0
  0
LINE
  5
5A15E
330
1F
100
AcDbEntity
  8
DETAIL
370
    25
100
AcDbLine
 10
7221.795900621741
 20
2506.831626801141
 30
0.0
 11
7221.795900621277
 21
2566.831626800675
 31
0.0
  0
LINE
  5
5A15F
330
1F
100
AcDbEntity
  8
DETAIL
370
    25
100
AcDbLine
 10
7341.795900621743
 20
2506.831626801141
 30
0.0
 11
7341.795900621743
 21
2566.831626800675
 31
0.0
  0
LINE
  5
5A160
330
1F
100
AcDbEntity
  8
DETAIL
370
    25
100
AcDbLine
 10
7221.795900621741
 20
2356.831617823656
 30
0.0
 11
7221.795900621741
 21
2296.831617823191
 31
0.0
  0
LINE
  5
5A161
330
1F
100
AcDbEntity
  8
DETAIL
370
    25
100
AcDbLine
 10
7341.795900621743
 20
2506.831626800675
 30
0.0
 11
7341.795900621743
 21
2566.831626800675
 31
0.0
  0
LINE
  5
5A162
330
1F
100
AcDbEntity
  8
DETAIL
370
    25
100
AcDbLine
 10
7341.795900621743
 20
2566.831626800675
 30
0.0
 11
7221.795900621741
 21
2566.831626800675
 31
0.0
  0
LINE
  5
5A163
330
1F
100
AcDbEntity
  8
DETAIL
370
    25
100
AcDbLine
 10
7341.795900622208
 20
2356.831617823191
 30
0.0
 11
7341.795900621277
 21
2296.831617823191
 31
0.0
  0
LINE
  5
5A164
330
1F
100
AcDbEntity
  8
DETAIL
370
    25
100
AcDbLine
 10
7341.795900621277
 20
2296.831617823191
 30
0.0
 11
7221.795900621741
 21
2296.831617823191
 31
0.0
  0
LINE
  5
5A165
330
1F
100
AcDbEntity
  8
DETAIL
370
     9
100
AcDbLine
 10
7221.795900621741
 20
2356.831617823656
 30
0.0
 11
7231.795900622208
 21
2356.831617823656
 31
0.0
  0
LINE
  5
5A166
330
1F
100
AcDbEntity
  8
DETAIL
370
    25
100
AcDbLine
 10
7031.795900621277
 20
2506.831626801141
 30
0.0
 11
7031.795900621742
 21
2473.041334749985
 31
0.0
  0
LINE
  5
5A167
330
1F
100
AcDbEntity
  8
DETAIL
370
     9
100
AcDbLine
 10
7031.795900621742
 20
2744.331617823656
 30
0.0
 11
7031.795900621742
 21
2566.831617824122
 31
0.0
  0
LINE
  5
5A168
330
1F
100
AcDbEntity
  8
DETAIL
370
    25
100
AcDbLine
 10
7031.795900621742
 20
2365.621900896862
 30
0.0
 11
7256.795890465205
 21
2365.621900896396
 31
0.0
  0
LINE
  5
5A169
330
1F
100
AcDbEntity
  8
DETAIL
370
    25
100
AcDbLine
 10
7031.795900621742
 20
2473.041334749985
 30
0.0
 11
7256.795900621742
 21
2473.041334749985
 31
0.0
  0
LINE
  5
5A16A
330
1F
100
AcDbEntity
  8
DETAIL
370
    25
100
AcDbLine
 10
7306.795900621742
 20
2473.041334749985
 30
0.0
 11
7531.795900621277
 21
2473.041334749985
 31
0.0
  0
ARC
  5
5A16B
330
1F
100
AcDbEntity
  8
DETAIL
370
    25
100
AcDbCircle
 10
7061.795900622207
 20
2503.041334749986
 30
0.0
 40
10.0
100
AcDbArc
 50
157.7264376537753
 51
22.27356234622471
  0
ARC
  5
5A16C
330
1F
100
AcDbEntity
  8
DETAIL
370
    25
100
AcDbCircle
 10
7501.795900622209
 20
2503.041334749986
 30
0.0
 40
10.0
100
AcDbArc
 50
157.7264376537753
 51
22.27356234622471
  0
CIRCLE
  5
5A16D
330
1F
100
AcDbEntity
  8
DETAIL
370
    25
100
AcDbCircle
 10
7061.795900621743
 20
2503.041334749986
 30
0.0
 40
10.0
  0
CIRCLE
  5
5A16E
330
1F
100
AcDbEntity
  8
DETAIL
370
    25
100
AcDbCircle
 10
7061.795900622207
 20
2503.041334749986
 30
0.0
 40
10.0
  0
LINE
  5
5A16F
330
1F
100
AcDbEntity
  8
DETAIL
370
     9
100
AcDbLine
 10
7031.795900621277
 20
2506.831626801141
 30
0.0
 11
7031.795900621742
 21
2566.831617824122
 31
0.0
  0
LINE
  5
5A170
330
1F
100
AcDbEntity
  8
DETAIL
370
     9
100
AcDbLine
 10
7031.795900621277
 20
2356.831617823656
 30
0.0
 11
7031.795900621277
 21
2296.831617824122
 31
0.0
  0
CIRCLE
  5
5A171
330
1F
100
AcDbEntity
  8
DETAIL
370
    25
100
AcDbCircle
 10
7061.795900621743
 20
2335.621900897793
 30
0.0
 40
10.0
  0
CIRCLE
  5
5A172
330
1F
100
AcDbEntity
  8
DETAIL
370
    25
100
AcDbCircle
 10
7061.795900622207
 20
2335.621900897793
 30
0.0
 40
10.0
  0
LINE
  5
5A173
330
1F
100
AcDbEntity
  8
DETAIL
370
    25
100
AcDbLine
 10
7531.795900621742
 20
2296.831617823656
 30
0.0
 11
7531.795900621742
 21
2094.331617824122
 31
0.0
  0
LINE
  5
5A174
330
1F
100
AcDbEntity
  8
DETAIL
370
    25
100
AcDbLine
 10
7306.795890465204
 20
2356.831617823191
 30
0.0
 11
7341.795900622208
 21
2356.831617823191
 31
0.0
  0
LINE
  5
5A175
330
1F
100
AcDbEntity
  8
DETAIL
370
    25
100
AcDbLine
 10
7306.795890465672
 20
2365.621900896396
 30
0.0
 11
7531.795900621277
 21
2365.621900896862
 31
0.0
  0
HATCH
  5
5A176
330
1F
100
AcDbEntity
  8
APPLICATION
370
     9
100
AcDbHatch
 10
0.0
 20
0.0
 30
0.0
210
0.0
220
0.0
230
1.0
  2
AR-CONC
 70
     0
 71
     1
 91
        1
 92
        7
 72
     0
 73
     1
 93
        4
 10
11316.73803871807
 20
5000.371790274368
 10
11121.90082093357
 20
4400.371790274365
 10
12013.01359742071
 20
4400.371790274365
 10
12013.0135974207
 20
5000.371790273901
 97
        4
330
59F30
330
59F37
330
59F3D
330
59F2F
 75
     0
 76
     1
 52
0.0
 41
2.0
 77
     0
 78
    13
 53
50.0
 43
-3138366.002301887
 44
-3879017.162645644
 45
364.369337992008
 46
-31.87817107780617
 79
     2
 49
38.1
 49
-419.1
 53
355.0
 43
-3138366.002301887
 44
-3879017.162645644
 45
-70.48565195133398
 46
382.11328576436
 79
     2
 49
30.48
 49
-335.28
 53
100.451
 43
-3138335.638301886
 44
-3879019.819145643
 45
293.8850033319185
 46
350.2333756405838
 79
     2
 49
32.38
 49
-356.18
 53
46.18419999999999
 43
-3138366.002301887
 44
-3878915.562645643
 45
542.1580817842598
 46
-84.0846558654543
 79
     2
 49
57.14999999999999
 49
-628.65
 53
96.63559999999996
 43
-3138320.822501887
 44
-3878922.569645644
 45
474.8084689324742
 46
494.8511117800983
 79
     2
 49
48.56999999999999
 49
-534.2699999999998
 53
351.184
 43
-3138366.002301887
 44
-3878915.562645643
 45
474.8092116278677
 46
494.8502357211952
 79
     2
 49
45.72
 49
-502.92
 53
21.0
 43
-3138315.202301887
 44
-3878940.962645643
 45
303.2297596707666
 46
-204.531037033525
 79
     2
 49
38.1
 49
-419.1
 53
326.0
 43
-3138315.202301887
 44
-3878940.962645643
 45
123.6040566952941
 46
368.3759322446385
 79
     2
 49
30.48
 49
-335.28
 53
71.45140000000002
 43
-3138289.933301887
 44
-3878958.006845643
 45
426.8329815402488
 46
163.8457154321149
 79
     2
 49
32.38
 49
-356.18
 53
37.5
 43
-3138366.002301887
 44
-3879017.162645644
 45
6.177206501183632
 46
169.1100777463062
 79
     6
 49
0.0
 49
-331.216
 49
0.0
 49
-340.36
 49
0.0
 49
-336.55
 53
7.499999999999999
 43
-3138366.002301887
 44
-3879017.162645644
 45
133.6393250206115
 46
200.361149636239
 79
     6
 49
0.0
 49
-194.0559999999999
 49
0.0
 49
-323.596
 49
0.0
 49
-128.27
 53
327.5
 43
-3138479.286301887
 44
-3879017.162645644
 45
271.1811903337427
 46
-11.45748798534693
 79
     6
 49
0.0
 49
-127.0
 49
0.0
 49
-396.24
 49
0.0
 49
-525.7799999999998
 53
317.5
 43
-3138530.086301886
 44
-3879017.162645644
 45
296.2583627720361
 46
50.85298206666603
 79
     6
 49
0.0
 49
-165.1
 49
0.0
 49
-263.144
 49
0.0
 49
-373.38
 47
7.789153865917831
 98
        1
 10
11658.5781349999
 20
4735.341964078456
  0
LINE
  5
5A177
330
1F
100
AcDbEntity
  8
DETAIL
370
     9
100
AcDbLine
 10
7341.79590062407
 20
5320.371790272968
 30
0.0
 11
7341.79590062407
 21
5070.371790272968
 31
0.0
  0
LINE
  5
5A178
330
1F
100
AcDbEntity
  8
DETAIL
370
     9
100
AcDbLine
 10
7341.795900622208
 20
5070.371790272968
 30
0.0
 11
8671.79590062221
 21
5070.371790274368
 31
0.0
  0
LINE
  5
5A179
330
1F
100
AcDbEntity
  8
DETAIL
370
     9
100
AcDbLine
 10
7341.795900622208
 20
7104.281118864513
 30
0.0
 11
8671.79590062221
 21
7104.281118865912
 31
0.0
  0
HATCH
  5
5A17A
330
1F
100
AcDbEntity
  8
APPLICATION
370
     9
100
AcDbHatch
 10
0.0
 20
0.0
 30
0.0
210
0.0
220
0.0
230
1.0
  2
AR-CONC
 70
     0
 71
     0
 91
        1
 92
        7
 72
     0
 73
     1
 93
        5
 10
694.5141006957856
 20
5000.371790273435
 10
694.5141006962512
 20
4400.371790273901
 10
10758.28912808263
 20
4400.371790272969
 10
10961.24458006286
 20
5000.371790273435
 10
10431.71034385898
 20
5000.371790273901
 97
        0
 75
     0
 76
     1
 52
0.0
 41
2.0
 77
     0
 78
    13
 53
50.0
 43
-3138366.002301887
 44
-3879017.162645644
 45
364.369337992008
 46
-31.87817107780617
 79
     2
 49
38.1
 49
-419.1
 53
355.0
 43
-3138366.002301887
 44
-3879017.162645644
 45
-70.48565195133398
 46
382.11328576436
 79
     2
 49
30.48
 49
-335.28
 53
100.451
 43
-3138335.638301886
 44
-3879019.819145643
 45
293.8850033319185
 46
350.2333756405838
 79
     2
 49
32.38
 49
-356.18
 53
46.18419999999999
 43
-3138366.002301887
 44
-3878915.562645643
 45
542.1580817842598
 46
-84.0846558654543
 79
     2
 49
57.14999999999999
 49
-628.65
 53
96.63559999999996
 43
-3138320.822501887
 44
-3878922.569645644
 45
474.8084689324742
 46
494.8511117800983
 79
     2
 49
48.56999999999999
 49
-534.2699999999998
 53
351.184
 43
-3138366.002301887
 44
-3878915.562645643
 45
474.8092116278677
 46
494.8502357211952
 79
     2
 49
45.72
 49
-502.92
 53
21.0
 43
-3138315.202301887
 44
-3878940.962645643
 45
303.2297596707666
 46
-204.531037033525
 79
     2
 49
38.1
 49
-419.1
 53
326.0
 43
-3138315.202301887
 44
-3878940.962645643
 45
123.6040566952941
 46
368.3759322446385
 79
     2
 49
30.48
 49
-335.28
 53
71.45140000000002
 43
-3138289.933301887
 44
-3878958.006845643
 45
426.8329815402488
 46
163.8457154321149
 79
     2
 49
32.38
 49
-356.18
 53
37.5
 43
-3138366.002301887
 44
-3879017.162645644
 45
6.177206501183632
 46
169.1100777463062
 79
     6
 49
0.0
 49
-331.216
 49
0.0
 49
-340.36
 49
0.0
 49
-336.55
 53
7.499999999999999
 43
-3138366.002301887
 44
-3879017.162645644
 45
133.6393250206115
 46
200.361149636239
 79
     6
 49
0.0
 49
-194.0559999999999
 49
0.0
 49
-323.596
 49
0.0
 49
-128.27
 53
327.5
 43
-3138479.286301887
 44
-3879017.162645644
 45
271.1811903337427
 46
-11.45748798534693
 79
     6
 49
0.0
 49
-127.0
 49
0.0
 49
-396.24
 49
0.0
 49
-525.7799999999998
 53
317.5
 43
-3138530.086301886
 44
-3879017.162645644
 45
296.2583627720361
 46
50.85298206666603
 79
     6
 49
0.0
 49
-165.1
 49
0.0
 49
-263.144
 49
0.0
 49
-373.38
 47
17.25724932054845
 98
        1
 10
5283.916691172692
 20
4771.590183090273
  0
HATCH
  5
5A17B
330
1F
100
AcDbEntity
  8
APPLICATION
370
     9
100
AcDbHatch
 10
0.0
 20
0.0
 30
0.0
210
0.0
220
0.0
230
1.0
  2
ANSI31
 70
     0
 71
     0
 91
        1
 92
        7
 72
     0
 73
     1
 93
        5
 10
12383.70806026022
 20
4977.371790273901
 10
12383.70806026068
 20
5000.371790273901
 10
12013.0135974207
 20
5000.371790273901
 10
12013.0135974207
 20
4900.371790273901
 10
12383.70806025975
 20
4900.371790273435
 97
        0
 75
     0
 76
     1
 52
0.0
 41
30.0
 77
     0
 78
     1
 53
45.0
 43
-3139309.912380202
 44
-3879017.162645644
 45
-67.35192090801864
 46
67.35192090801866
 79
     0
 47
4.366887959295582
 98
        1
 10
12161.61088377871
 20
4942.721601303055
  0
LINE
  5
5A17C
330
1F
100
AcDbEntity
  8
APPLICATION
370
     9
100
AcDbLine
 10
12383.70806026022
 20
5000.371790273901
 30
0.0
 11
12013.0135974207
 21
5000.371790273901
 31
0.0
  0
LINE
  5
5A17D
330
1F
100
AcDbEntity
  8
APPLICATION
370
     9
100
AcDbLine
 10
694.5141006957856
 20
5000.371790273901
 30
0.0
 11
323.8196378562717
 21
5000.371790273901
 31
0.0
  0
HATCH
  5
5A17E
330
1F
100
AcDbEntity
  8
APPLICATION
370
     9
100
AcDbHatch
 10
0.0
 20
0.0
 30
0.0
210
0.0
220
0.0
230
1.0
  2
ANSI31
 70
     0
 71
     0
 91
        1
 92
        7
 72
     0
 73
     1
 93
        5
 10
694.5141006957856
 20
4977.371790273901
 10
694.5141006962512
 20
5000.371790273901
 10
323.8196378562717
 20
5000.371790273901
 10
323.8196378562717
 20
4900.371790273901
 10
694.5141006953198
 20
4900.371790273435
 97
        0
 75
     0
 76
     1
 52
0.0
 41
30.0
 77
     0
 78
     1
 53
45.0
 43
-3150999.106339765
 44
-3879017.162645644
 45
-67.35192090801864
 46
67.35192090801866
 79
     0
 47
4.366887959295582
 98
        1
 10
472.4169242142814
 20
4942.721601303055
  0
LINE
  5
5A17F
330
1F
100
AcDbEntity
  8
DETAIL
370
     9
100
AcDbLine
 10
7341.795900622208
 20
5070.371790272968
 30
0.0
 11
8671.79590062221
 21
5070.371790274368
 31
0.0
  0
LINE
  5
5A180
330
1F
100
AcDbEntity
  8
DETAIL
370
     9
100
AcDbLine
 10
7341.795900620811
 20
7070.371790274366
 30
0.0
 11
8671.795900620812
 21
7070.371790275763
 31
0.0
  0
LINE
  5
5A181
330
1F
100
AcDbEntity
  8
DETAIL
370
     9
100
AcDbLine
 10
7341.795900620811
 20
7020.371790274366
 30
0.0
 11
8671.795900620812
 21
7020.371790275763
 31
0.0
  0
LINE
  5
5A182
330
1F
100
AcDbEntity
  8
DETAIL
370
    25
100
AcDbLine
 10
7391.795900621743
 20
5123.718977256067
 30
0.0
 11
7391.795900621743
 21
7070.371790274366
 31
0.0
  0
LINE
  5
5A183
330
1F
100
AcDbEntity
  8
DETAIL
370
    25
100
AcDbLine
 10
7441.795900622207
 20
5123.718977256067
 30
0.0
 11
7441.795900621743
 21
7070.371790274366
 31
0.0
  0
LINE
  5
5A184
330
1F
100
AcDbEntity
  8
DETAIL
370
     9
100
AcDbLine
 10
7341.795900620811
 20
6970.371790274366
 30
0.0
 11
8671.795900620812
 21
6970.371790275763
 31
0.0
  0
LINE
  5
5A185
330
1F
100
AcDbEntity
  8
DETAIL
370
    25
100
AcDbLine
 10
7491.795900622207
 20
5123.718977256067
 30
0.0
 11
7491.795900621743
 21
7070.371790274366
 31
0.0
  0
LINE
  5
5A186
330
1F
100
AcDbEntity
  8
DETAIL
370
     9
100
AcDbLine
 10
7341.795900620811
 20
6920.371790274366
 30
0.0
 11
8671.795900620812
 21
6920.371790275763
 31
0.0
  0
LINE
  5
5A187
330
1F
100
AcDbEntity
  8
DETAIL
370
    25
100
AcDbLine
 10
7541.795900623141
 20
5123.718977256999
 30
0.0
 11
7541.795900622672
 21
7070.371790274366
 31
0.0
  0
LINE
  5
5A188
330
1F
100
AcDbEntity
  8
DETAIL
370
    25
100
AcDbLine
 10
7591.795900623139
 20
5123.718977256999
 30
0.0
 11
7591.795900622675
 21
7070.371790274366
 31
0.0
  0
LINE
  5
5A189
330
1F
100
AcDbEntity
  8
DETAIL
370
    25
100
AcDbLine
 10
7641.795900622675
 20
5123.718977256999
 30
0.0
 11
7641.795900622675
 21
7070.371790274366
 31
0.0
  0
LINE
  5
5A18A
330
1F
100
AcDbEntity
  8
DETAIL
370
    25
100
AcDbLine
 10
7691.795900622207
 20
5123.718977256999
 30
0.0
 11
7691.795900622207
 21
7070.371790274366
 31
0.0
  0
LINE
  5
5A18B
330
1F
100
AcDbEntity
  8
DETAIL
370
    25
100
AcDbLine
 10
7741.795900622673
 20
5123.718977256999
 30
0.0
 11
7741.795900622207
 21
7070.371790274366
 31
0.0
  0
LINE
  5
5A18C
330
1F
100
AcDbEntity
  8
DETAIL
370
    25
100
AcDbLine
 10
7791.795900622672
 20
5123.718977256999
 30
0.0
 11
7791.795900622208
 21
7070.371790274366
 31
0.0
  0
LINE
  5
5A18D
330
1F
100
AcDbEntity
  8
DETAIL
370
    25
100
AcDbLine
 10
7841.795900623139
 20
5123.718977256999
 30
0.0
 11
7841.795900623139
 21
7070.371790274366
 31
0.0
  0
LINE
  5
5A18E
330
1F
100
AcDbEntity
  8
DETAIL
370
    25
100
AcDbLine
 10
7891.795900623605
 20
5123.718977256999
 30
0.0
 11
7891.795900623141
 21
7070.371790274366
 31
0.0
  0
LINE
  5
5A18F
330
1F
100
AcDbEntity
  8
DETAIL
370
    25
100
AcDbLine
 10
7941.795900623603
 20
5123.718977256999
 30
0.0
 11
7941.795900623141
 21
7070.371790274366
 31
0.0
  0
LINE
  5
5A190
330
1F
100
AcDbEntity
  8
DETAIL
370
    25
100
AcDbLine
 10
8041.79590062314
 20
5123.718977256999
 30
0.0
 11
8041.795900622672
 21
7070.371790274831
 31
0.0
  0
LINE
  5
5A191
330
1F
100
AcDbEntity
  8
DETAIL
370
    25
100
AcDbLine
 10
8091.795900623138
 20
5123.718977256999
 30
0.0
 11
8091.795900622676
 21
7070.371790274831
 31
0.0
  0
LINE
  5
5A192
330
1F
100
AcDbEntity
  8
DETAIL
370
    25
100
AcDbLine
 10
8141.795900624071
 20
5123.718977256999
 30
0.0
 11
8141.795900623604
 21
7070.371790274831
 31
0.0
  0
LINE
  5
5A193
330
1F
100
AcDbEntity
  8
DETAIL
370
    25
100
AcDbLine
 10
8191.79590062407
 20
5123.718977257464
 30
0.0
 11
8191.795900623603
 21
7070.371790274831
 31
0.0
  0
LINE
  5
5A194
330
1F
100
AcDbEntity
  8
DETAIL
370
    25
100
AcDbLine
 10
8241.795900624071
 20
5123.718977257464
 30
0.0
 11
8241.795900623605
 21
7070.371790274831
 31
0.0
  0
LINE
  5
5A195
330
1F
100
AcDbEntity
  8
DETAIL
370
    25
100
AcDbLine
 10
8291.795900623602
 20
5123.718977257464
 30
0.0
 11
8291.79590062314
 21
7070.371790274831
 31
0.0
  0
LINE
  5
5A196
330
1F
100
AcDbEntity
  8
DETAIL
370
    25
100
AcDbLine
 10
8341.795900623138
 20
5123.718977257464
 30
0.0
 11
8341.795900623138
 21
7070.371790274831
 31
0.0
  0
LINE
  5
5A197
330
1F
100
AcDbEntity
  8
DETAIL
370
    25
100
AcDbLine
 10
8391.795900623142
 20
5123.718977257464
 30
0.0
 11
8391.795900623142
 21
7070.371790274831
 31
0.0
  0
LINE
  5
5A198
330
1F
100
AcDbEntity
  8
DETAIL
370
    25
100
AcDbLine
 10
8441.795900624539
 20
5123.718977257464
 30
0.0
 11
8441.79590062407
 21
7070.371790274831
 31
0.0
  0
LINE
  5
5A199
330
1F
100
AcDbEntity
  8
DETAIL
370
    25
100
AcDbLine
 10
8491.795900624536
 20
5123.718977257464
 30
0.0
 11
8491.795900624071
 21
7070.371790274831
 31
0.0
  0
LINE
  5
5A19A
330
1F
100
AcDbEntity
  8
DETAIL
370
    25
100
AcDbLine
 10
8541.795900624538
 20
5123.718977257464
 30
0.0
 11
8541.795900624071
 21
7070.371790274831
 31
0.0
  0
LINE
  5
5A19B
330
1F
100
AcDbEntity
  8
DETAIL
370
    25
100
AcDbLine
 10
7991.795900622673
 20
5123.718977256999
 30
0.0
 11
7991.795900622673
 21
7070.371790274831
 31
0.0
  0
LINE
  5
5A19C
330
1F
100
AcDbEntity
  8
DETAIL
370
    25
100
AcDbLine
 10
8591.795900624537
 20
5123.718977257464
 30
0.0
 11
8591.795900624068
 21
7070.371790275763
 31
0.0
  0
LINE
  5
5A19D
330
1F
100
AcDbEntity
  8
DETAIL
370
    25
100
AcDbLine
 10
8641.795900624536
 20
5123.718977257464
 30
0.0
 11
8641.795900624071
 21
7070.371790275763
 31
0.0
  0
LINE
  5
5A19E
330
1F
100
AcDbEntity
  8
DETAIL
370
     9
100
AcDbLine
 10
7341.795900620811
 20
6870.371790274366
 30
0.0
 11
8671.795900620812
 21
6870.371790275763
 31
0.0
  0
LINE
  5
5A19F
330
1F
100
AcDbEntity
  8
DETAIL
370
     9
100
AcDbLine
 10
7341.795900620811
 20
6820.371790274366
 30
0.0
 11
8671.795900620812
 21
6820.371790275763
 31
0.0
  0
LINE
  5
5A1A0
330
1F
100
AcDbEntity
  8
DETAIL
370
     9
100
AcDbLine
 10
7341.795900620811
 20
6770.371790274366
 30
0.0
 11
8671.795900620812
 21
6770.371790275763
 31
0.0
  0
LINE
  5
5A1A1
330
1F
100
AcDbEntity
  8
DETAIL
370
     9
100
AcDbLine
 10
7341.795900620811
 20
6720.371790274366
 30
0.0
 11
8671.795900620812
 21
6720.371790275763
 31
0.0
  0
LINE
  5
5A1A2
330
1F
100
AcDbEntity
  8
DETAIL
370
     9
100
AcDbLine
 10
7341.795900620811
 20
6670.371790274366
 30
0.0
 11
8671.795900620812
 21
6670.371790275763
 31
0.0
  0
LINE
  5
5A1A3
330
1F
100
AcDbEntity
  8
DETAIL
370
     9
100
AcDbLine
 10
7341.795900622208
 20
6620.371790274366
 30
0.0
 11
8671.79590062221
 21
6620.371790275763
 31
0.0
  0
LINE
  5
5A1A4
330
1F
100
AcDbEntity
  8
DETAIL
370
     9
100
AcDbLine
 10
7341.795900622208
 20
6570.371790274366
 30
0.0
 11
8671.79590062221
 21
6570.371790275763
 31
0.0
  0
LINE
  5
5A1A5
330
1F
100
AcDbEntity
  8
DETAIL
370
     9
100
AcDbLine
 10
7341.795900622208
 20
6520.371790274366
 30
0.0
 11
8671.79590062221
 21
6520.371790275763
 31
0.0
  0
LINE
  5
5A1A6
330
1F
100
AcDbEntity
  8
DETAIL
370
     9
100
AcDbLine
 10
7341.795900622208
 20
6470.371790274366
 30
0.0
 11
8671.79590062221
 21
6470.371790275763
 31
0.0
  0
LINE
  5
5A1A7
330
1F
100
AcDbEntity
  8
DETAIL
370
     9
100
AcDbLine
 10
7341.795900622208
 20
6420.371790274366
 30
0.0
 11
8671.79590062221
 21
6420.371790275763
 31
0.0
  0
LINE
  5
5A1A8
330
1F
100
AcDbEntity
  8
DETAIL
370
     9
100
AcDbLine
 10
7341.795900622208
 20
6370.371790274367
 30
0.0
 11
8671.79590062221
 21
6370.371790275765
 31
0.0
  0
LINE
  5
5A1A9
330
1F
100
AcDbEntity
  8
DETAIL
370
     9
100
AcDbLine
 10
7341.795900622208
 20
6320.371790274367
 30
0.0
 11
8671.79590062221
 21
6320.371790275764
 31
0.0
  0
LINE
  5
5A1AA
330
1F
100
AcDbEntity
  8
DETAIL
370
     9
100
AcDbLine
 10
7341.795900622208
 20
6270.371790274367
 30
0.0
 11
8671.79590062221
 21
6270.371790275762
 31
0.0
  0
LINE
  5
5A1AB
330
1F
100
AcDbEntity
  8
DETAIL
370
     9
100
AcDbLine
 10
7341.795900622208
 20
6220.371790274366
 30
0.0
 11
8671.79590062221
 21
6220.371790275764
 31
0.0
  0
LINE
  5
5A1AC
330
1F
100
AcDbEntity
  8
DETAIL
370
     9
100
AcDbLine
 10
7341.795900622208
 20
6170.371790274367
 30
0.0
 11
8671.79590062221
 21
6170.371790275765
 31
0.0
  0
LINE
  5
5A1AD
330
1F
100
AcDbEntity
  8
DETAIL
370
     9
100
AcDbLine
 10
7341.795900622208
 20
6120.371790274367
 30
0.0
 11
8671.79590062221
 21
6120.371790275765
 31
0.0
  0
LINE
  5
5A1AE
330
1F
100
AcDbEntity
  8
DETAIL
370
     9
100
AcDbLine
 10
7341.795900622208
 20
6070.371790274367
 30
0.0
 11
8671.79590062221
 21
6070.371790275764
 31
0.0
  0
LINE
  5
5A1AF
330
1F
100
AcDbEntity
  8
DETAIL
370
     9
100
AcDbLine
 10
7341.795900622208
 20
6020.371790274367
 30
0.0
 11
8671.79590062221
 21
6020.371790275762
 31
0.0
  0
LINE
  5
5A1B0
330
1F
100
AcDbEntity
  8
DETAIL
370
     9
100
AcDbLine
 10
7341.795900622208
 20
5970.371790274366
 30
0.0
 11
8671.79590062221
 21
5970.371790275764
 31
0.0
  0
LINE
  5
5A1B1
330
1F
100
AcDbEntity
  8
DETAIL
370
     9
100
AcDbLine
 10
7341.795900622208
 20
5920.371790274367
 30
0.0
 11
8671.79590062221
 21
5920.371790275765
 31
0.0
  0
LINE
  5
5A1B2
330
1F
100
AcDbEntity
  8
DETAIL
370
     9
100
AcDbLine
 10
7341.795900622208
 20
5870.371790274367
 30
0.0
 11
8671.79590062221
 21
5870.371790275765
 31
0.0
  0
LINE
  5
5A1B3
330
1F
100
AcDbEntity
  8
DETAIL
370
     9
100
AcDbLine
 10
7341.795900622208
 20
5820.371790274367
 30
0.0
 11
8671.79590062221
 21
5820.371790275764
 31
0.0
  0
LINE
  5
5A1B4
330
1F
100
AcDbEntity
  8
DETAIL
370
     9
100
AcDbLine
 10
7341.795900622208
 20
5770.371790274367
 30
0.0
 11
8671.79590062221
 21
5770.371790275762
 31
0.0
  0
LINE
  5
5A1B5
330
1F
100
AcDbEntity
  8
DETAIL
370
     9
100
AcDbLine
 10
7341.795900622208
 20
5720.371790274366
 30
0.0
 11
8671.79590062221
 21
5720.371790275764
 31
0.0
  0
LINE
  5
5A1B6
330
1F
100
AcDbEntity
  8
DETAIL
370
     9
100
AcDbLine
 10
7341.795900622208
 20
5670.371790274367
 30
0.0
 11
8671.79590062221
 21
5670.371790275765
 31
0.0
  0
LINE
  5
5A1B7
330
1F
100
AcDbEntity
  8
DETAIL
370
     9
100
AcDbLine
 10
7341.795900622208
 20
5620.371790274367
 30
0.0
 11
8671.79590062221
 21
5620.371790275765
 31
0.0
  0
LINE
  5
5A1B8
330
1F
100
AcDbEntity
  8
DETAIL
370
     9
100
AcDbLine
 10
7341.795900622208
 20
5570.371790274367
 30
0.0
 11
8671.79590062221
 21
5570.371790275764
 31
0.0
  0
LINE
  5
5A1B9
330
1F
100
AcDbEntity
  8
DETAIL
370
     9
100
AcDbLine
 10
7341.795900622208
 20
5520.371790274367
 30
0.0
 11
8671.79590062221
 21
5520.371790275762
 31
0.0
  0
LINE
  5
5A1BA
330
1F
100
AcDbEntity
  8
DETAIL
370
     9
100
AcDbLine
 10
7341.795900622208
 20
5470.371790274366
 30
0.0
 11
8671.79590062221
 21
5470.371790275764
 31
0.0
  0
LINE
  5
5A1BB
330
1F
100
AcDbEntity
  8
DETAIL
370
     9
100
AcDbLine
 10
7341.795900622208
 20
5420.371790274367
 30
0.0
 11
8671.79590062221
 21
5420.371790275765
 31
0.0
  0
LINE
  5
5A1BC
330
1F
100
AcDbEntity
  8
DETAIL
370
     9
100
AcDbLine
 10
7341.795900622208
 20
5370.371790274368
 30
0.0
 11
8671.79590062221
 21
5370.371790275765
 31
0.0
  0
LINE
  5
5A1BD
330
1F
100
AcDbEntity
  8
DETAIL
370
     9
100
AcDbLine
 10
7341.795900622208
 20
5320.371790274368
 30
0.0
 11
8671.79590062221
 21
5320.371790275764
 31
0.0
  0
LINE
  5
5A1BE
330
1F
100
AcDbEntity
  8
DETAIL
370
     9
100
AcDbLine
 10
7341.795900622208
 20
5270.371790274367
 30
0.0
 11
8671.79590062221
 21
5270.371790275762
 31
0.0
  0
LINE
  5
5A1BF
330
1F
100
AcDbEntity
  8
DETAIL
370
     9
100
AcDbLine
 10
7341.795900622208
 20
5220.371790274366
 30
0.0
 11
8671.79590062221
 21
5220.371790275764
 31
0.0
  0
LINE
  5
5A1C0
330
1F
100
AcDbEntity
  8
DETAIL
370
     9
100
AcDbLine
 10
7341.795900622208
 20
5170.371790274367
 30
0.0
 11
8671.79590062221
 21
5170.371790275765
 31
0.0
  0
LINE
  5
5A1C1
330
1F
100
AcDbEntity
  8
DETAIL
370
     9
100
AcDbLine
 10
7341.795900622208
 20
5120.371790274368
 30
0.0
 11
8671.79590062221
 21
5120.371790275765
 31
0.0
  0
LINE
  5
5A1C2
330
1F
100
AcDbEntity
  8
DETAIL
370
     9
100
AcDbLine
 10
7341.795900622208
 20
5070.371790274368
 30
0.0
 11
8671.79590062221
 21
5070.371790275764
 31
0.0
  0
LINE
  5
5A1C3
330
1F
100
AcDbEntity
  8
DETAIL
370
     9
100
AcDbLine
 10
13555.11813857389
 20
7092.371790274366
 30
0.0
 11
13615.11813857435
 21
7152.371790273902
 31
0.0
  0
LINE
  5
5A1C4
330
1F
100
AcDbEntity
  8
DETAIL
370
     9
100
AcDbLine
 10
13815.11813857296
 20
7152.371790273902
 30
0.0
 11
13875.11813857389
 21
7092.371790274366
 31
0.0
  0
LINE
  5
5A1C5
330
1F
100
AcDbEntity
  8
DETAIL
370
     9
100
AcDbLine
 10
8791.795900621742
 20
7092.371790274366
 30
0.0
 11
8671.795900621743
 21
7092.371790274366
 31
0.0
  0
LINE
  5
5A1C6
330
1F
100
AcDbEntity
  8
DETAIL
370
     9
100
AcDbLine
 10
7221.795900621741
 20
7152.371790273902
 30
0.0
 11
7341.795900621743
 21
7152.371790273902
 31
0.0
  0
LINE
  5
5A1C7
330
1F
100
AcDbEntity
  8
DETAIL
370
     9
100
AcDbLine
 10
8671.795900621743
 20
7152.371790273902
 30
0.0
 11
8791.795900621742
 21
7152.371790273902
 31
0.0
  0
LINE
  5
5A1C8
330
1F
100
AcDbEntity
  8
DETAIL
370
     9
100
AcDbLine
 10
7341.795900621743
 20
7092.371790274366
 30
0.0
 11
7221.795900621741
 21
7092.371790274366
 31
0.0
  0
LINE
  5
5A22B
330
1F
100
AcDbEntity
  8
DETAIL
370
     9
100
AcDbLine
 10
884.5141006957858
 20
7117.37179027483
 30
0.0
 11
1004.514100695785
 21
7117.37179027483
 31
0.0
  0
MTEXT
  5
5A24F
102
{ACAD_XDICTIONARY
360
5A329
102
}
330
1F
100
AcDbEntity
  8
TEXT
100
AcDbMText
 10
7384.999060916284
 20
486.8201183470374
 30
0.0
 40
100.0
 41
3177.87997086287
 46
0.0
 71
     2
 72
     5
  1
PROCTER SLIDING GATES\PPRO-GLIDE SERIES 10\PWELDED MESH TRACKED GATE 
  7
fastrack
 73
     1
 44
1.0
  0
VIEWPORT
  5
348E6
330
348E5
100
AcDbEntity
 67
     1
  8
0
370
     9
348
34998
100
AcDbViewport
 10
205.8476877443289
 20
153.2670860145498
 30
0.0
 40
624.0590519163808
 41
272.1925098770249
 68
     2
 69
     1
 12
205.8476877443289
 22
153.2670860145498
 13
0.0
 23
0.0
 14
10.0
 24
10.0
 15
10.0
 25
10.0
 16
0.0
 26
0.0
 36
1.0
 17
0.0
 27
0.0
 37
0.0
 42
50.0
 43
0.0
 44
0.0
 45
272.1925098770249
 50
0.0
 51
0.0
 72
   100
 90
    32800
  1

281
     0
 71
     1
 74
     0
110
0.0
120
0.0
130
0.0
111
1.0
121
0.0
131
0.0
112
0.0
122
1.0
132
0.0
 79
     0
146
0.0
170
     0
 61
     5
348
34998
292
     1
282
     1
141
0.0
142
0.0
 63
   250
421
  3355443
  0
MTEXT
  5
38F50
330
348E5
100
AcDbEntity
 67
     1
  8
0
370
     9
100
AcDbMText
 10
338.9939982565306
 20
101.5551677233979
 30
0.0
 40
2.5
 41
60.34559999999999
 46
0.0
 71
     1
 72
     5
  1

 73
     1
 44
1.0
  0
VIEWPORT
  5
5A36F
102
{ACAD_XDICTIONARY
360
5A370
102
}
330
348E5
100
AcDbEntity
 67
     1
  8
0
 48
50.0
370
     5
100
AcDbViewport
 10
205.8579869053545
 20
153.2612470337614
 30
0.0
 40
407.403570145025
 41
270.2291998496796
 68
     1
 69
     2
 12
7386.197193941793
 22
3922.479574361217
 13
0.0
 23
0.0
 14
10.0
 24
10.0
 15
10.0
 25
10.0
 16
0.0
 26
0.0
 36
1.0
 17
0.0
 27
0.0
 37
0.0
 42
50.0
 43
0.0
 44
0.0
 45
9423.966114898401
 50
0.0
 51
0.0
 72
   100
 90
   843840
  1

281
     0
 71
     1
 74
     0
110
0.0
120
0.0
130
0.0
111
1.0
121
0.0
131
0.0
112
0.0
122
1.0
132
0.0
 79
     0
146
0.0
170
     0
 61
     5
348
34998
292
     1
282
     1
141
0.0
142
0.0
 63
   250
421
  3355443
  0
ENDSEC
  0
SECTION
  2
OBJECTS
  0
DICTIONARY
  5
C
330
0
100
AcDbDictionary
281
     1
  3
ACAD_CIP_PREVIOUS_PRODUCT_INFO
350
5A357
  3
ACAD_COLOR
350
349A3
  3
ACAD_DETAILVIEWSTYLE
350
5A351
  3
ACAD_GROUP
350
D
  3
ACAD_LAYOUT
350
1A
  3
ACAD_MATERIAL
350
34979
  3
ACAD_MLEADERSTYLE
350
349C8
  3
ACAD_MLINESTYLE
350
17
  3
ACAD_PLOTSETTINGS
350
19
  3
ACAD_PLOTSTYLENAME
350
E
  3
ACAD_SCALELIST
350
349A6
  3
ACAD_SECTIONVIEWSTYLE
350
5A34F
  3
ACAD_TABLESTYLE
350
349A4
  3
ACAD_VISUALSTYLE
350
34992
  3
AcadDim
350
3DECF
  3
ACDB_RECOMPOSE_DATA
350
5A374
  3
AcDbVariableDictionary
350
D1
  3
AcDsDecomposeData
350
5A37A
  3
AEC_PROPERTY_SET_DEFS
350
35414
  0
DICTIONARY
  5
34A75
330
8
100
AcDbDictionary
280
     1
281
     1
  0
DICTIONARY
  5
393
330
2
100
AcDbDictionary
280
     1
281
     1
  3
ACAD_LAYERFILTERS
360
5A2AB
  3
ACAD_LAYERSTATES
360
2D9CB
  3
ACLYDICTIONARY
360
5A2AA
  0
DICTIONARY
  5
349FE
330
10
100
AcDbDictionary
280
     1
281
     1
  3
ADSK_XREC_LAYER_RECONCILED
360
349FF
  0
DICTIONARY
  5
35450
330
1F
100
AcDbDictionary
280
     1
281
     1
  3
ACAD_SORTENTS
360
35451
  0
DICTIONARY
  5
59F94
330
59F93
100
AcDbDictionary
280
     1
281
     1
  3
ACAD_DIMASSOC
360
59F95
  0
DICTIONARY
  5
59F97
330
59F96
100
AcDbDictionary
280
     1
281
     1
  3
ACAD_DIMASSOC
360
59F98
  0
DICTIONARY
  5
5A329
330
5A24F
100
AcDbDictionary
280
     1
281
     1
  3
ACAD_MTEXT_2008_RT
360
5A373
  0
DICTIONARY
  5
5A370
330
5A36F
100
AcDbDictionary
280
     1
281
     1
  3
ASDK_XREC_ANNOTATION_SCALE_INFO
360
5A371
  0
XRECORD
  5
5A357
102
{ACAD_REACTORS
330
C
102
}
330
C
100
AcDbXrecord
280
     1
300
ACDLT
300
2020
300
ACDLT_F_S
  0
DICTIONARY
  5
349A3
102
{ACAD_REACTORS
330
C
102
}
330
C
100
AcDbDictionary
281
     1
  0
DICTIONARY
  5
5A351
102
{ACAD_REACTORS
330
C
102
}
330
C
100
AcDbDictionary
281
     1
  3
Metric50
350
5A352
  0
DICTIONARY
  5
D
102
{ACAD_REACTORS
330
C
102
}
330
C
100
AcDbDictionary
281
     1
  0
DICTIONARY
  5
1A
102
{ACAD_REACTORS
330
C
102
}
330
C
100
AcDbDictionary
281
     1
  3
Layout 1
350
3491A
  3
Model
350
22
  0
DICTIONARY
  5
34979
102
{ACAD_REACTORS
330
C
102
}
330
C
100
AcDbDictionary
281
     1
  3
ByBlock
350
34982
  3
ByLayer
350
3497A
  3
Global
350
3498A
  0
DICTIONARY
  5
349C8
102
{ACAD_REACTORS
330
C
102
}
330
C
100
AcDbDictionary
281
     1
  3
Standard
350
349C9
  0
DICTIONARY
  5
17
102
{ACAD_REACTORS
330
C
102
}
330
C
100
AcDbDictionary
281
     1
  3
Standard
350
18
  0
DICTIONARY
  5
19
102
{ACAD_REACTORS
330
C
102
}
330
C
100
AcDbDictionary
281
     1
  3
Template A3
350
1831
  0
ACDBDICTIONARYWDFLT
  5
E
102
{ACAD_REACTORS
330
C
102
}
330
C
100
AcDbDictionary
281
     1
  3
Normal
350
F
100
AcDbDictionaryWithDefault
340
F
  0
DICTIONARY
  5
349A6
102
{ACAD_REACTORS
330
C
102
}
330
C
100
AcDbDictionary
281
     1
  3
*A1
350
35298
  3
*A10
350
352A5
  3
*A11
350
352A6
  3
*A12
350
352A7
  3
*A13
350
35299
  3
*A14
350
3529A
  3
*A15
350
3529B
  3
*A16
350
3529C
  3
*A2
350
3529D
  3
*A3
350
3529E
  3
*A4
350
3529F
  3
*A5
350
352A0
  3
*A6
350
352A1
  3
*A7
350
352A2
  3
*A8
350
352A3
  3
*A9
350
352A4
  3
A0
350
349A7
  3
A1
350
349A8
  3
A2
350
349A9
  3
A3
350
349AA
  3
A4
350
349AB
  3
A5
350
349AC
  3
A6
350
349AD
  3
A7
350
349AE
  3
A8
350
349AF
  3
A9
350
349B0
  3
B0
350
349B1
  3
B1
350
349B2
  3
B2
350
349B3
  3
B3
350
349B4
  3
B4
350
349B5
  3
B5
350
349B6
  3
B6
350
349B7
  3
B7
350
349B8
  3
B8
350
349B9
  3
B9
350
349BA
  3
C0
350
349BB
  3
C1
350
349BC
  3
C2
350
349BD
  3
C3
350
349BE
  3
C4
350
349BF
  3
C5
350
349C0
  3
C6
350
349C1
  3
C7
350
349C2
  3
C8
350
349C3
  3
C9
350
349C4
  3
D0
350
349C5
  3
D1
350
349C6
  3
D2
350
349C7
  0
DICTIONARY
  5
5A34F
102
{ACAD_REACTORS
330
C
102
}
330
C
100
AcDbDictionary
281
     1
  3
Metric50
350
5A350
  0
DICTIONARY
  5
349A4
102
{ACAD_REACTORS
330
C
102
}
330
C
100
AcDbDictionary
281
     1
  3
Standard
350
349A5
  0
DICTIONARY
  5
34992
102
{ACAD_REACTORS
330
C
102
}
330
C
100
AcDbDictionary
281
     1
  3
2dWireframe
350
34998
  3
3D Hidden
350
3499A
  3
3dWireframe
350
34999
  3
Basic
350
34997
  3
Brighten
350
3499E
  3
ColorChange
350
349A2
  3
Conceptual
350
3499B
  3
Dim
350
3499D
  3
EdgeColorOff
350
5A34E
  3
Facepattern
350
349A1
  3
Flat
350
34993
  3
FlatWithEdges
350
34994
  3
Gouraud
350
34995
  3
GouraudWithEdges
350
34996
  3
Hidden
350
5A346
  3
JitterOff
350
5A34C
  3
Linepattern
350
349A0
  3
OverhangOff
350
5A34D
  3
Realistic
350
3499C
  3
Shaded
350
5A34B
  3
Shaded with edges
350
5A34A
  3
Shades of Gray
350
5A347
  3
Sketchy
350
5A348
  3
Thicken
350
3499F
  3
Wireframe
350
5A345
  3
X-Ray
350
5A349
  0
XRECORD
  5
3DECF
102
{ACAD_REACTORS
330
C
102
}
330
C
100
AcDbXrecord
280
     1
 90
   990106
  3

 60
     0
 61
     0
 62
     1
 63
     3
 64
     0
 65
     0
 66
     0
 67
     3
 68
     1
 69
     0
 70
     0
 71
     0
 72
     0
 40
1000.0
170
     0
340
0
  0
XRECORD
  5
5A374
102
{ACAD_REACTORS
330
C
102
}
330
C
100
AcDbXrecord
280
     1
 90
        1
330
349A5
330
5A24F
  0
DICTIONARY
  5
D1
102
{ACAD_REACTORS
330
C
102
}
330
C
100
AcDbDictionary
281
     1
  3
CANNOSCALE
350
34A95
  3
CMLEADERSTYLE
350
34A94
  3
CTABLESTYLE
350
34A93
  3
CVIEWDETAILSTYLE
350
5A358
  3
CVIEWSECTIONSTYLE
350
5A359
  3
DIMASSOC
350
D3
  3
HIDETEXT
350
D2
  3
INDEXCTL
350
34A97
  3
LAYEREVAL
350
5A35A
  3
LAYERNOTIFY
350
5A35B
  3
LIGHTINGUNITS
350
35721
  3
MSLTSCALE
350
35720
  3
SORTENTS
350
34A96
  0
DICTIONARY
  5
5A37A
102
{ACAD_REACTORS
330
C
102
}
330
C
100
AcDbDictionary
281
     1
  3
AcDsRecords
350
5A37C
  3
AcDsSchemas
350
5A37B
1001
ACAD
1070
     2
  0
DICTIONARY
  5
35414
102
{ACAD_REACTORS
330
C
102
}
330
C
100
AcDbDictionary
281
     1
  0
DICTIONARY
  5
5A2AB
102
{ACAD_REACTORS
330
393
102
}
330
393
100
AcDbDictionary
281
     1
  0
DICTIONARY
  5
2D9CB
102
{ACAD_REACTORS
330
393
102
}
330
393
100
AcDbDictionary
281
     1
  0
DICTIONARY
  5
5A2AA
102
{ACAD_REACTORS
330
393
102
}
330
393
100
AcDbDictionary
281
     1
1001
ACAD
1000
<All
  0
XRECORD
  5
349FF
102
{ACAD_REACTORS
330
349FE
102
}
330
349FE
100
AcDbXrecord
280
     1
290
     1
  0
SORTENTSTABLE
  5
35451
102
{ACAD_REACTORS
330
35450
102
}
330
35450
100
AcDbSortentsTable
330
1F
  0
DIMASSOC
  5
59F95
102
{ACAD_REACTORS
330
59F94
102
}
330
59F94
100
AcDbDimAssoc
330
59F93
 90
        1
 70
     0
 71
     0
  1
AcDbOsnapPointRef
 72
     2
331
59F0D
 73
     2
 91
        0
 40
0.5000000000019404
 10
46797.42344220361
 20
80504.61083519717
 30
0.0
 75
     0
  0
DIMASSOC
  5
59F98
102
{ACAD_REACTORS
330
59F97
102
}
330
59F97
100
AcDbDimAssoc
330
59F96
 90
        3
 70
     0
 71
     0
  1
AcDbOsnapPointRef
 72
     1
331
59ED8
 73
     2
 91
        0
 40
1.0
 10
46547.42344220338
 20
80719.61083519717
 30
0.0
 75
     0
  1
AcDbOsnapPointRef
 72
    13
331
59F27
 73
     2
 91
        0
 40
0.0
 10
57755.19063030166
 20
80719.61083519717
 30
0.0
 75
     0
  0
XRECORD
  5
5A373
102
{ACAD_REACTORS
330
5A329
102
}
330
5A329
100
AcDbXrecord
280
     1
 40
162890.0
  1
\pxqc;PROCTER SLIDING GATES\PPRO-GLIDE SERIES 10\PWELDED MESH TRACKED GATE 
  0
XRECORD
  5
5A371
102
{ACAD_REACTORS
330
5A370
102
}
330
5A370
100
AcDbXrecord
280
     1
 90
        1
340
349A7
  0
ACDBDETAILVIEWSTYLE
  5
5A352
102
{ACAD_XDICTIONARY
360
5A3B3
102
}
102
{ACAD_REACTORS
330
5A351
102
}
330
5A351
100
AcDbModelDocViewStyle
 70
     0
  3
Metric50
290
     0
100
AcDbDetailViewStyle
 70
     0
 71
     0
 90
        3
 71
     1
340
11
 62
   256
 40
5.0
340
0
 62
   256
 40
5.0
300

 40
0.0
280
     1
 71
     2
340
16
 90
       25
 62
   256
 71
     3
340
11
 62
   256
 40
5.0
 90
        0
 40
15.0
 90
        1
300
%<\AcVar ViewDetailId>% (%<\AcVar ViewScale \f "%sn">%)
 71
     4
340
16
 90
       25
 62
   256
340
16
 90
       25
 62
   256
280
     0
  0
LAYOUT
  5
3491A
102
{ACAD_XDICTIONARY
360
349D7
102
}
102
{ACAD_REACTORS
330
1A
102
}
330
1A
100
AcDbPlotSettings
  1

  2
CutePDF Writer
  4
A3
  6

 40
3.174999952316283
 41
3.174999952316283
 42
3.17498779296875
 43
3.17498779296875
 44
297.0
 45
420.0
 46
0.0
 47
0.0
 48
0.2951330241755841
 49
5.796917231613289
140
397.9429662473851
141
287.3637556150874
142
1.0
143
1.0
 70
   688
 72
     1
 73
     1
 74
     5
  7
monochrome.ctb
 75
     0
147
1.0
 76
     0
 77
     2
 78
   300
148
0.0
149
0.0
100
AcDbLayout
  1
Layout 1
 70
     1
 71
     1
 10
-3.17498779296875
 20
-3.174999952316283
 11
416.8250122070311
 21
293.8250000476837
 12
0.0
 22
0.0
 32
0.0
 14
2.131409675472355
 24
18.1383399974012
 34
-0.0015258207003583
 15
409.5639658131855
 25
288.3958320316984
 35
0.0000000349246037
146
0.0
 13
0.0
 23
0.0
 33
0.0
 16
1.0
 26
0.0
 36
0.0
 17
0.0
 27
1.0
 37
0.0
 76
     0
330
348E5
331
5A36F
  0
LAYOUT
  5
22
102
{ACAD_REACTORS
330
1A
102
}
330
1A
100
AcDbPlotSettings
  1

  2
CutePDF Writer
  4
A4
  6

 40
3.174999999999998
 41
3.174999999999998
 42
3.175002999999998
 43
3.174987999999998
 44
209.888657
 45
297.053009
 46
0.0
 47
0.02
 48
-56804.89904665446
 49
20175.45105326266
140
-56327.55042518879
141
20509.70811681668
142
1.0
143
1.642228918119984
 70
 11956
 72
     1
 73
     1
 74
     4
  7

 75
     0
147
0.6089285050130498
 76
     0
 77
     2
 78
   300
148
56804.89904665446
149
-20175.45105326266
100
AcDbLayout
  1
Model
 70
     1
 71
     0
 10
0.0
 20
0.0
 11
12.0
 21
9.0
 12
0.0
 22
0.0
 32
0.0
 14
0.0
 24
0.0
 34
0.0
 15
0.0
 25
0.0
 35
0.0
146
0.0
 13
0.0
 23
0.0
 33
0.0
 16
1.0
 26
0.0
 36
0.0
 17
0.0
 27
1.0
 37
0.0
 76
     0
330
1F
331
5A22C
  0
MATERIAL
  5
34982
102
{ACAD_XDICTIONARY
360
34983
102
}
102
{ACAD_REACTORS
330
34979
102
}
330
34979
100
AcDbMaterial
  1
ByBlock
 72
     0
 43
0.0008202099737533
 43
0.0
 43
0.0
 43
0.0
 43
0.0
 43
0.0008202099737533
 43
0.0
 43
0.0
 43
0.0
 43
0.0
 43
1.0
 43
0.0
 43
0.0
 43
0.0
 43
0.0
 43
1.0
 77
     0
 47
0.0008202099737533
 47
0.0
 47
0.0
 47
0.0
 47
0.0
 47
0.0008202099737533
 47
0.0
 47
0.0
 47
0.0
 47
0.0
 47
1.0
 47
0.0
 47
0.0
 47
0.0
 47
0.0
 47
1.0
171
     0
 49
0.0008202099737533
 49
0.0
 49
0.0
 49
0.0
 49
0.0
 49
0.0008202099737533
 49
0.0
 49
0.0
 49
0.0
 49
0.0
 49
1.0
 49
0.0
 49
0.0
 49
0.0
 49
0.0
 49
1.0
175
     0
142
0.0008202099737533
142
0.0
142
0.0
142
0.0
142
0.0
142
0.0008202099737533
142
0.0
142
0.0
142
0.0
142
0.0
142
1.0
142
0.0
142
0.0
142
0.0
142
0.0
142
1.0
179
     0
144
0.0008202099737533
144
0.0
144
0.0
144
0.0
144
0.0
144
0.0008202099737533
144
0.0
144
0.0
144
0.0
144
0.0
144
1.0
144
0.0
144
0.0
144
0.0
144
0.0
144
1.0
147
0.0008202099737533
147
0.0
147
0.0
147
0.0
147
0.0
147
0.0008202099737533
147
0.0
147
0.0
147
0.0
147
0.0
147
1.0
147
0.0
147
0.0
147
0.0
147
0.0
147
1.0
  0
MATERIAL
  5
3497A
102
{ACAD_XDICTIONARY
360
3497B
102
}
102
{ACAD_REACTORS
330
34979
102
}
330
34979
100
AcDbMaterial
  1
ByLayer
 72
     0
 43
0.0008202099737533
 43
0.0
 43
0.0
 43
0.0
 43
0.0
 43
0.0008202099737533
 43
0.0
 43
0.0
 43
0.0
 43
0.0
 43
1.0
 43
0.0
 43
0.0
 43
0.0
 43
0.0
 43
1.0
 77
     0
 47
0.0008202099737533
 47
0.0
 47
0.0
 47
0.0
 47
0.0
 47
0.0008202099737533
 47
0.0
 47
0.0
 47
0.0
 47
0.0
 47
1.0
 47
0.0
 47
0.0
 47
0.0
 47
0.0
 47
1.0
171
     0
 49
0.0008202099737533
 49
0.0
 49
0.0
 49
0.0
 49
0.0
 49
0.0008202099737533
 49
0.0
 49
0.0
 49
0.0
 49
0.0
 49
1.0
 49
0.0
 49
0.0
 49
0.0
 49
0.0
 49
1.0
175
     0
142
0.0008202099737533
142
0.0
142
0.0
142
0.0
142
0.0
142
0.0008202099737533
142
0.0
142
0.0
142
0.0
142
0.0
142
1.0
142
0.0
142
0.0
142
0.0
142
0.0
142
1.0
179
     0
144
0.0008202099737533
144
0.0
144
0.0
144
0.0
144
0.0
144
0.0008202099737533
144
0.0
144
0.0
144
0.0
144
0.0
144
1.0
144
0.0
144
0.0
144
0.0
144
0.0
144
1.0
147
0.0008202099737533
147
0.0
147
0.0
147
0.0
147
0.0
147
0.0008202099737533
147
0.0
147
0.0
147
0.0
147
0.0
147
1.0
147
0.0
147
0.0
147
0.0
147
0.0
147
1.0
  0
MATERIAL
  5
3498A
102
{ACAD_XDICTIONARY
360
3498B
102
}
102
{ACAD_REACTORS
330
34979
102
}
330
34979
100
AcDbMaterial
  1
Global
 72
     0
 43
0.0008202099737533
 43
0.0
 43
0.0
 43
0.0
 43
0.0
 43
0.0008202099737533
 43
0.0
 43
0.0
 43
0.0
 43
0.0
 43
1.0
 43
0.0
 43
0.0
 43
0.0
 43
0.0
 43
1.0
 77
     0
 47
0.0008202099737533
 47
0.0
 47
0.0
 47
0.0
 47
0.0
 47
0.0008202099737533
 47
0.0
 47
0.0
 47
0.0
 47
0.0
 47
1.0
 47
0.0
 47
0.0
 47
0.0
 47
0.0
 47
1.0
171
     0
 49
0.0008202099737533
 49
0.0
 49
0.0
 49
0.0
 49
0.0
 49
0.0008202099737533
 49
0.0
 49
0.0
 49
0.0
 49
0.0
 49
1.0
 49
0.0
 49
0.0
 49
0.0
 49
0.0
 49
1.0
175
     0
142
0.0008202099737533
142
0.0
142
0.0
142
0.0
142
0.0
142
0.0008202099737533
142
0.0
142
0.0
142
0.0
142
0.0
142
1.0
142
0.0
142
0.0
142
0.0
142
0.0
142
1.0
179
     0
144
0.0008202099737533
144
0.0
144
0.0
144
0.0
144
0.0
144
0.0008202099737533
144
0.0
144
0.0
144
0.0
144
0.0
144
1.0
144
0.0
144
0.0
144
0.0
144
0.0
144
1.0
147
0.0008202099737533
147
0.0
147
0.0
147
0.0
147
0.0
147
0.0008202099737533
147
0.0
147
0.0
147
0.0
147
0.0
147
1.0
147
0.0
147
0.0
147
0.0
147
0.0
147
1.0
  0
MLEADERSTYLE
  5
349C9
102
{ACAD_REACTORS
330
349C8
102
}
330
349C8
100
AcDbMLeaderStyle
179
     2
170
     2
171
     1
172
     0
 90
        2
 40
0.0
 41
0.0
173
     1
 91
-1056964608
340
14
 92
       -2
290
     1
 42
2.0
291
     1
 43
0.36
  3
Standard
 44
4.0
300

342
11
174
     1
178
     6
175
     1
176
     0
 93
-1056964608
 45
4.0
292
     0
297
     0
 46
4.0
 94
-1056964608
 47
1.0
 49
1.0
140
1.0
293
     1
141
0.0
294
     1
177
     0
142
1.0
295
     0
296
     0
143
0.125
271
     0
272
     9
273
     9
  0
MLINESTYLE
  5
18
102
{ACAD_REACTORS
330
17
102
}
330
17
100
AcDbMlineStyle
  2
STANDARD
 70
     0
  3

 62
   256
 51
90.0
 52
90.0
 71
     2
 49
0.5
 62
   256
  6
BYLAYER
 49
-0.5
 62
   256
  6
BYLAYER
  0
PLOTSETTINGS
  5
1831
102
{ACAD_REACTORS
330
19
102
}
330
19
100
AcDbPlotSettings
  1
Template A3
  2
HP Officejet Pro K8600 Series
  4
A3
  6

 40
5.95841646194458
 41
12.64706611633301
 42
6.0430908203125
 43
20.77508544921875
 44
296.9259948730469
 45
419.9466552734373
 46
-0.6200000000000001
 47
-9.859999999999999
 48
0.0
 49
0.0
140
0.0
141
0.0
142
1.0
143
1.0
 70
   692
 72
     1
 73
     1
 74
     1
  7
monochrome.ctb
 75
    16
147
1.0
 76
     0
 77
     2
 78
   300
148
-2.293687681883284
149
-1.665891456123175
  0
ACDBPLACEHOLDER
  5
F
102
{ACAD_REACTORS
330
E
102
}
330
E
  0
SCALE
  5
35298
102
{ACAD_REACTORS
330
349A6
102
}
330
349A6
100
AcDbScale
 70
     0
300
1/128" = 1'-0"_XREF
140
0.0078125
141
12.0
290
     0
  0
SCALE
  5
352A5
102
{ACAD_REACTORS
330
349A6
102
}
330
349A6
100
AcDbScale
 70
     0
300
1/64" = 1'-0"_XREF
140
0.015625
141
12.0
290
     0
  0
SCALE
  5
352A6
102
{ACAD_REACTORS
330
349A6
102
}
330
349A6
100
AcDbScale
 70
     0
300
1/32" = 1'-0"_XREF
140
0.03125
141
12.0
290
     0
  0
SCALE
  5
352A7
102
{ACAD_REACTORS
330
349A6
102
}
330
349A6
100
AcDbScale
 70
     0
300
1/16" = 1'-0"_XREF
140
0.0625
141
12.0
290
     0
  0
SCALE
  5
35299
102
{ACAD_REACTORS
330
349A6
102
}
330
349A6
100
AcDbScale
 70
     0
300
1" = 1'-0"_XREF
140
1.0
141
12.0
290
     0
  0
SCALE
  5
3529A
102
{ACAD_REACTORS
330
349A6
102
}
330
349A6
100
AcDbScale
 70
     0
300
3/32" = 1'-0"_XREF
140
0.09375
141
12.0
290
     0
  0
SCALE
  5
3529B
102
{ACAD_REACTORS
330
349A6
102
}
330
349A6
100
AcDbScale
 70
     0
300
1/8" = 1'-0"_XREF
140
0.125
141
12.0
290
     0
  0
SCALE
  5
3529C
102
{ACAD_REACTORS
330
349A6
102
}
330
349A6
100
AcDbScale
 70
     0
300
3/16" = 1'-0"_XREF
140
0.1875
141
12.0
290
     0
  0
SCALE
  5
3529D
102
{ACAD_REACTORS
330
349A6
102
}
330
349A6
100
AcDbScale
 70
     0
300
1/4" = 1'-0"_XREF
140
0.25
141
12.0
290
     0
  0
SCALE
  5
3529E
102
{ACAD_REACTORS
330
349A6
102
}
330
349A6
100
AcDbScale
 70
     0
300
1-1/2" = 1'-0"_XREF
140
1.5
141
12.0
290
     0
  0
SCALE
  5
3529F
102
{ACAD_REACTORS
330
349A6
102
}
330
349A6
100
AcDbScale
 70
     0
300
3/8" = 1'-0"_XREF
140
0.375
141
12.0
290
     0
  0
SCALE
  5
352A0
102
{ACAD_REACTORS
330
349A6
102
}
330
349A6
100
AcDbScale
 70
     0
300
1/2" = 1'-0"_XREF
140
0.5
141
12.0
290
     0
  0
SCALE
  5
352A1
102
{ACAD_REACTORS
330
349A6
102
}
330
349A6
100
AcDbScale
 70
     0
300
3/4" = 1'-0"_XREF
140
0.75
141
12.0
290
     0
  0
SCALE
  5
352A2
102
{ACAD_REACTORS
330
349A6
102
}
330
349A6
100
AcDbScale
 70
     0
300
3" = 1'-0"_XREF
140
3.0
141
12.0
290
     0
  0
SCALE
  5
352A3
102
{ACAD_REACTORS
330
349A6
102
}
330
349A6
100
AcDbScale
 70
     0
300
6" = 1'-0"_XREF
140
6.0
141
12.0
290
     0
  0
SCALE
  5
352A4
102
{ACAD_REACTORS
330
349A6
102
}
330
349A6
100
AcDbScale
 70
     0
300
1'-0" = 1'-0"_XREF
140
12.0
141
12.0
290
     0
  0
SCALE
  5
349A7
102
{ACAD_REACTORS
330
349A6
102
}
330
349A6
100
AcDbScale
 70
     0
300
1:1
140
1.0
141
1.0
290
     1
  0
SCALE
  5
349A8
102
{ACAD_REACTORS
330
349A6
102
}
330
349A6
100
AcDbScale
 70
     0
300
1:2
140
1.0
141
2.0
290
     0
  0
SCALE
  5
349A9
102
{ACAD_REACTORS
330
349A6
102
}
330
349A6
100
AcDbScale
 70
     0
300
1:4
140
1.0
141
4.0
290
     0
  0
SCALE
  5
349AA
102
{ACAD_REACTORS
330
349A6
102
}
330
349A6
100
AcDbScale
 70
     0
300
1:5
140
1.0
141
5.0
290
     0
  0
SCALE
  5
349AB
102
{ACAD_REACTORS
330
349A6
102
}
330
349A6
100
AcDbScale
 70
     0
300
1:8
140
1.0
141
8.0
290
     0
  0
SCALE
  5
349AC
102
{ACAD_REACTORS
330
349A6
102
}
330
349A6
100
AcDbScale
 70
     0
300
1:10
140
1.0
141
10.0
290
     0
  0
SCALE
  5
349AD
102
{ACAD_REACTORS
330
349A6
102
}
330
349A6
100
AcDbScale
 70
     0
300
1:16
140
1.0
141
16.0
290
     0
  0
SCALE
  5
349AE
102
{ACAD_REACTORS
330
349A6
102
}
330
349A6
100
AcDbScale
 70
     0
300
1:20
140
1.0
141
20.0
290
     0
  0
SCALE
  5
349AF
102
{ACAD_REACTORS
330
349A6
102
}
330
349A6
100
AcDbScale
 70
     0
300
1:30
140
1.0
141
30.0
290
     0
  0
SCALE
  5
349B0
102
{ACAD_REACTORS
330
349A6
102
}
330
349A6
100
AcDbScale
 70
     0
300
1:40
140
1.0
141
40.0
290
     0
  0
SCALE
  5
349B1
102
{ACAD_REACTORS
330
349A6
102
}
330
349A6
100
AcDbScale
 70
     0
300
1:50
140
1.0
141
50.0
290
     0
  0
SCALE
  5
349B2
102
{ACAD_REACTORS
330
349A6
102
}
330
349A6
100
AcDbScale
 70
     0
300
1:100
140
1.0
141
100.0
290
     0
  0
SCALE
  5
349B3
102
{ACAD_REACTORS
330
349A6
102
}
330
349A6
100
AcDbScale
 70
     0
300
2:1
140
2.0
141
1.0
290
     0
  0
SCALE
  5
349B4
102
{ACAD_REACTORS
330
349A6
102
}
330
349A6
100
AcDbScale
 70
     0
300
4:1
140
4.0
141
1.0
290
     0
  0
SCALE
  5
349B5
102
{ACAD_REACTORS
330
349A6
102
}
330
349A6
100
AcDbScale
 70
     0
300
8:1
140
8.0
141
1.0
290
     0
  0
SCALE
  5
349B6
102
{ACAD_REACTORS
330
349A6
102
}
330
349A6
100
AcDbScale
 70
     0
300
10:1
140
10.0
141
1.0
290
     0
  0
SCALE
  5
349B7
102
{ACAD_REACTORS
330
349A6
102
}
330
349A6
100
AcDbScale
 70
     0
300
100:1
140
100.0
141
1.0
290
     0
  0
SCALE
  5
349B8
102
{ACAD_REACTORS
330
349A6
102
}
330
349A6
100
AcDbScale
 70
     0
300
1/128" = 1'-0"
140
0.0078125
141
12.0
290
     0
  0
SCALE
  5
349B9
102
{ACAD_REACTORS
330
349A6
102
}
330
349A6
100
AcDbScale
 70
     0
300
1/64" = 1'-0"
140
0.015625
141
12.0
290
     0
  0
SCALE
  5
349BA
102
{ACAD_REACTORS
330
349A6
102
}
330
349A6
100
AcDbScale
 70
     0
300
1/32" = 1'-0"
140
0.03125
141
12.0
290
     0
  0
SCALE
  5
349BB
102
{ACAD_REACTORS
330
349A6
102
}
330
349A6
100
AcDbScale
 70
     0
300
1/16" = 1'-0"
140
0.0625
141
12.0
290
     0
  0
SCALE
  5
349BC
102
{ACAD_REACTORS
330
349A6
102
}
330
349A6
100
AcDbScale
 70
     0
300
3/32" = 1'-0"
140
0.09375
141
12.0
290
     0
  0
SCALE
  5
349BD
102
{ACAD_REACTORS
330
349A6
102
}
330
349A6
100
AcDbScale
 70
     0
300
1/8" = 1'-0"
140
0.125
141
12.0
290
     0
  0
SCALE
  5
349BE
102
{ACAD_REACTORS
330
349A6
102
}
330
349A6
100
AcDbScale
 70
     0
300
3/16" = 1'-0"
140
0.1875
141
12.0
290
     0
  0
SCALE
  5
349BF
102
{ACAD_REACTORS
330
349A6
102
}
330
349A6
100
AcDbScale
 70
     0
300
1/4" = 1'-0"
140
0.25
141
12.0
290
     0
  0
SCALE
  5
349C0
102
{ACAD_REACTORS
330
349A6
102
}
330
349A6
100
AcDbScale
 70
     0
300
3/8" = 1'-0"
140
0.375
141
12.0
290
     0
  0
SCALE
  5
349C1
102
{ACAD_REACTORS
330
349A6
102
}
330
349A6
100
AcDbScale
 70
     0
300
1/2" = 1'-0"
140
0.5
141
12.0
290
     0
  0
SCALE
  5
349C2
102
{ACAD_REACTORS
330
349A6
102
}
330
349A6
100
AcDbScale
 70
     0
300
3/4" = 1'-0"
140
0.75
141
12.0
290
     0
  0
SCALE
  5
349C3
102
{ACAD_REACTORS
330
349A6
102
}
330
349A6
100
AcDbScale
 70
     0
300
1" = 1'-0"
140
1.0
141
12.0
290
     0
  0
SCALE
  5
349C4
102
{ACAD_REACTORS
330
349A6
102
}
330
349A6
100
AcDbScale
 70
     0
300
1-1/2" = 1'-0"
140
1.5
141
12.0
290
     0
  0
SCALE
  5
349C5
102
{ACAD_REACTORS
330
349A6
102
}
330
349A6
100
AcDbScale
 70
     0
300
3" = 1'-0"
140
3.0
141
12.0
290
     0
  0
SCALE
  5
349C6
102
{ACAD_REACTORS
330
349A6
102
}
330
349A6
100
AcDbScale
 70
     0
300
6" = 1'-0"
140
6.0
141
12.0
290
     0
  0
SCALE
  5
349C7
102
{ACAD_REACTORS
330
349A6
102
}
330
349A6
100
AcDbScale
 70
     0
300
1'-0" = 1'-0"
140
12.0
141
12.0
290
     0
  0
ACDBSECTIONVIEWSTYLE
  5
5A350
102
{ACAD_XDICTIONARY
360
5A3B1
102
}
102
{ACAD_REACTORS
330
5A34F
102
}
330
5A34F
100
AcDbModelDocViewStyle
 70
     0
  3
Metric50
290
     0
100
AcDbSectionViewStyle
 70
     0
 71
     0
 90
      102
 71
     1
340
11
 62
   256
 40
5.0
340
0
340
0
 62
   256
 40
5.0
300
I, O, Q, S, X, Z
 40
10.0
 90
        0
 40
2.5
 90
        0
 71
     2
340
16
 90
       25
 62
   256
340
16
 90
       50
 62
   256
 40
5.0
 40
2.5
 40
5.0
 71
     3
340
11
 62
   256
 40
5.0
 90
        0
 40
15.0
 90
        1
300
%<\AcVar ViewSectionStartId>%-%<\AcVar ViewSectionEndId>% (%<\AcVar ViewScale \f "%sn">%)
 71
     4
 62
   256
 62
   257
300
ANSI31
 40
1.0
 90
        0
290
     0
290
     0
 90
        6
 40
0.0
 40
1.570796326794896
 40
0.2617993877991494
 40
1.308996938995747
 40
-0.2617993877991494
 40
1.832595714594045
  0
TABLESTYLE
  5
349A5
102
{ACAD_XDICTIONARY
360
34A71
102
}
102
{ACAD_REACTORS
330
349A4
102
}
330
349A4
100
AcDbTableStyle
280
     0
  3
Standard
 70
     0
 71
     0
 40
1.5
 41
1.5
280
     0
281
     0
  7
Standard
140
4.5
170
     2
 62
     0
 63
     7
283
     0
 90
      512
 91
        0
  1

274
    -2
284
     1
 64
     0
275
    -2
285
     1
 65
     0
276
    -2
286
     1
 66
     0
277
    -2
287
     1
 67
     0
278
    -2
288
     1
 68
     0
279
    -2
289
     1
 69
     0
  7
Standard
140
6.0
170
     5
 62
     0
 63
     7
283
     0
 90
      512
 91
        0
  1

274
    -2
284
     1
 64
     0
275
    -2
285
     1
 65
     0
276
    -2
286
     1
 66
     0
277
    -2
287
     1
 67
     0
278
    -2
288
     1
 68
     0
279
    -2
289
     1
 69
     0
  7
Standard
140
4.5
170
     5
 62
     0
 63
     7
283
     0
 90
      512
 91
        0
  1

274
    -2
284
     1
 64
     0
275
    -2
285
     1
 65
     0
276
    -2
286
     1
 66
     0
277
    -2
287
     1
 67
     0
278
    -2
288
     1
 68
     0
279
    -2
289
     1
 69
     0
  0
VISUALSTYLE
  5
34998
102
{ACAD_XDICTIONARY
360
5A387
102
}
102
{ACAD_REACTORS
330
34992
102
}
330
34992
100
AcDbVisualStyle
  2
2dWireframe
 70
     4
177
     2
291
     0
 71
     0
176
     1
 72
     2
176
     1
 73
     0
176
     1
 90
        0
176
     1
 40
0.6
176
     1
 41
30.0
176
     1
 63
     7
176
     1
 74
     1
176
     1
 91
        4
176
     1
 64
     7
176
     1
 65
   257
176
     1
 75
     1
176
     1
175
     1
176
     1
 42
1.0
176
     1
 92
        0
176
     1
 66
   257
176
     1
 43
1.0
176
     1
 76
     1
176
     1
 77
     6
176
     1
 78
     2
176
     1
 67
     7
176
     1
 79
     5
176
     1
170
     0
176
     1
171
     0
176
     1
290
     0
176
     1
 93
        1
176
     1
 44
0.0
176
     1
173
     0
176
     1
1001
ACAD
1000
AcDbSavedByObjectVersion
1070
     0
  0
VISUALSTYLE
  5
3499A
102
{ACAD_XDICTIONARY
360
5A38B
102
}
102
{ACAD_REACTORS
330
34992
102
}
330
34992
100
AcDbVisualStyle
  2
3D Hidden
 70
     6
177
     2
291
     0
 71
     1
176
     1
 72
     2
176
     1
 73
     2
176
     1
 90
        0
176
     1
 40
0.6
176
     1
 41
30.0
176
     1
 63
     7
176
     1
 74
     2
176
     1
 91
        2
176
     1
 64
     7
176
     1
 65
   257
176
     1
 75
     2
176
     1
175
     1
176
     1
 42
40.0
176
     1
 92
        0
176
     1
 66
   257
176
     1
 43
1.0
176
     1
 76
     1
176
     1
 77
     6
176
     1
 78
     2
176
     1
 67
     7
176
     1
 79
     3
176
     1
170
     0
176
     1
171
     0
176
     1
290
     0
176
     1
 93
        1
176
     1
 44
0.0
176
     1
173
     0
176
     1
1001
ACAD
1000
AcDbSavedByObjectVersion
1070
     0
  0
VISUALSTYLE
  5
34999
102
{ACAD_XDICTIONARY
360
5A389
102
}
102
{ACAD_REACTORS
330
34992
102
}
330
34992
100
AcDbVisualStyle
  2
3dWireframe
 70
     5
177
     2
291
     0
 71
     0
176
     1
 72
     2
176
     1
 73
     0
176
     1
 90
        0
176
     1
 40
0.6
176
     1
 41
30.0
176
     1
 63
     7
176
     1
 74
     1
176
     1
 91
        4
176
     1
 64
     7
176
     1
 65
   257
176
     1
 75
     1
176
     1
175
     1
176
     1
 42
1.0
176
     1
 92
        0
176
     1
 66
   257
176
     1
 43
1.0
176
     1
 76
     1
176
     1
 77
     6
176
     1
 78
     2
176
     1
 67
     7
176
     1
 79
     5
176
     1
170
     0
176
     1
171
     0
176
     1
290
     0
176
     1
 93
        1
176
     1
 44
0.0
176
     1
173
     0
176
     1
1001
ACAD
1000
AcDbSavedByObjectVersion
1070
     0
  0
VISUALSTYLE
  5
34997
102
{ACAD_XDICTIONARY
360
5A385
102
}
102
{ACAD_REACTORS
330
34992
102
}
330
34992
100
AcDbVisualStyle
  2
Basic
 70
     7
177
     2
291
     1
 71
     1
176
     1
 72
     0
176
     1
 73
     1
176
     1
 90
        0
176
     1
 40
0.6
176
     1
 41
30.0
176
     1
 63
     7
176
     1
 74
     0
176
     1
 91
        4
176
     1
 64
     7
176
     1
 65
   257
176
     1
 75
     1
176
     1
175
     1
176
     1
 42
1.0
176
     1
 92
        8
176
     1
 66
     7
176
     1
 43
1.0
176
     1
 76
     1
176
     1
 77
     6
176
     1
 78
     2
176
     1
 67
     7
176
     1
 79
     5
176
     1
170
     0
176
     1
171
     0
176
     1
290
     0
176
     1
 93
        1
176
     1
 44
0.0
176
     1
173
     0
176
     1
1001
ACAD
1000
AcDbSavedByObjectVersion
1070
     0
  0
VISUALSTYLE
  5
3499E
102
{ACAD_XDICTIONARY
360
5A393
102
}
102
{ACAD_REACTORS
330
34992
102
}
330
34992
100
AcDbVisualStyle
  2
Brighten
 70
    12
177
     2
291
     1
 71
     2
176
     1
 72
     2
176
     1
 73
     0
176
     1
 90
        0
176
     1
 40
0.6
176
     1
 41
30.0
176
     1
 63
     7
176
     1
 74
     1
176
     1
 91
        4
176
     1
 64
     7
176
     1
 65
   257
176
     1
 75
     1
176
     1
175
     1
176
     1
 42
1.0
176
     1
 92
        8
176
     1
 66
     7
176
     1
 43
1.0
176
     1
 76
     1
176
     1
 77
     6
176
     1
 78
     2
176
     1
 67
     7
176
     1
 79
     5
176
     1
170
     0
176
     1
171
     0
176
     1
290
     0
176
     1
 93
        1
176
     1
 44
50.0
176
     1
173
     0
176
     1
1001
ACAD
1000
AcDbSavedByObjectVersion
1070
     0
  0
VISUALSTYLE
  5
349A2
102
{ACAD_XDICTIONARY
360
5A39B
102
}
102
{ACAD_REACTORS
330
34992
102
}
330
34992
100
AcDbVisualStyle
  2
ColorChange
 70
    16
177
     2
291
     1
 71
     2
176
     1
 72
     2
176
     1
 73
     3
176
     1
 90
        0
176
     1
 40
0.6
176
     1
 41
30.0
176
     1
 63
     8
176
     1
 74
     1
176
     1
 91
        4
176
     1
 64
     7
176
     1
 65
   257
176
     1
 75
     1
176
     1
175
     1
176
     1
 42
1.0
176
     1
 92
        8
176
     1
 66
     8
176
     1
 43
1.0
176
     1
 76
     1
176
     1
 77
     6
176
     1
 78
     2
176
     1
 67
     7
176
     1
 79
     5
176
     1
170
     0
176
     1
171
     0
176
     1
290
     0
176
     1
 93
        1
176
     1
 44
0.0
176
     1
173
     0
176
     1
1001
ACAD
1000
AcDbSavedByObjectVersion
1070
     0
  0
VISUALSTYLE
  5
3499B
102
{ACAD_XDICTIONARY
360
5A38D
102
}
102
{ACAD_REACTORS
330
34992
102
}
330
34992
100
AcDbVisualStyle
  2
Conceptual
 70
     9
177
     2
291
     0
 71
     3
176
     1
 72
     2
176
     1
 73
     0
176
     1
 90
        0
176
     1
 40
0.6
176
     1
 41
30.0
176
     1
 63
     7
176
     1
 74
     2
176
     1
 91
        2
176
     1
 64
     7
176
     1
 65
   257
176
     1
 75
     1
176
     1
175
     1
176
     1
 42
40.0
176
     1
 92
        8
176
     1
 66
     7
176
     1
 43
1.0
176
     1
 76
     1
176
     1
 77
     6
176
     1
 78
     2
176
     1
 67
     7
176
     1
 79
     3
176
     1
170
     0
176
     1
171
     0
176
     1
290
     0
176
     1
 93
        1
176
     1
 44
0.0
176
     1
173
     0
176
     1
1001
ACAD
1000
AcDbSavedByObjectVersion
1070
     0
  0
VISUALSTYLE
  5
3499D
102
{ACAD_XDICTIONARY
360
5A391
102
}
102
{ACAD_REACTORS
330
34992
102
}
330
34992
100
AcDbVisualStyle
  2
Dim
 70
    11
177
     2
291
     1
 71
     2
176
     1
 72
     2
176
     1
 73
     0
176
     1
 90
        0
176
     1
 40
0.6
176
     1
 41
30.0
176
     1
 63
     7
176
     1
 74
     1
176
     1
 91
        4
176
     1
 64
     7
176
     1
 65
   257
176
     1
 75
     1
176
     1
175
     1
176
     1
 42
1.0
176
     1
 92
        8
176
     1
 66
     7
176
     1
 43
1.0
176
     1
 76
     1
176
     1
 77
     6
176
     1
 78
     2
176
     1
 67
     7
176
     1
 79
     5
176
     1
170
     0
176
     1
171
     0
176
     1
290
     0
176
     1
 93
        1
176
     1
 44
-50.0
176
     1
173
     0
176
     1
1001
ACAD
1000
AcDbSavedByObjectVersion
1070
     0
  0
VISUALSTYLE
  5
5A34E
102
{ACAD_XDICTIONARY
360
5A3AF
102
}
102
{ACAD_REACTORS
330
34992
102
}
330
34992
100
AcDbVisualStyle
  2
EdgeColorOff
 70
    22
177
     2
291
     1
 71
     2
176
     0
 72
     2
176
     0
 73
     0
176
     0
 90
        0
176
     0
 40
0.6
176
     0
 41
30.0
176
     0
 63
     7
421
 16777215
176
     0
 74
     1
176
     0
 91
        4
176
     0
 64
     7
176
     0
 65
   257
176
     0
 75
     1
176
     0
175
     1
176
     0
 42
1.0
176
     0
 92
        8
176
     2
 66
     7
176
     0
 43
1.0
176
     0
 76
     1
176
     0
 77
     6
176
     0
 78
     2
176
     0
 67
     7
176
     0
 79
     5
176
     0
170
     0
176
     0
171
     0
176
     0
290
     0
176
     0
 93
        1
176
     0
 44
0.0
176
     0
173
     0
176
     0
1001
ACAD
1000
AcDbSavedByObjectVersion
1070
     0
  0
VISUALSTYLE
  5
349A1
102
{ACAD_XDICTIONARY
360
5A399
102
}
102
{ACAD_REACTORS
330
34992
102
}
330
34992
100
AcDbVisualStyle
  2
Facepattern
 70
    15
177
     2
291
     1
 71
     2
176
     1
 72
     2
176
     1
 73
     0
176
     1
 90
        0
176
     1
 40
0.6
176
     1
 41
30.0
176
     1
 63
     7
176
     1
 74
     1
176
     1
 91
        4
176
     1
 64
     7
176
     1
 65
   257
176
     1
 75
     1
176
     1
175
     1
176
     1
 42
1.0
176
     1
 92
        8
176
     1
 66
     7
176
     1
 43
1.0
176
     1
 76
     1
176
     1
 77
     6
176
     1
 78
     2
176
     1
 67
     7
176
     1
 79
     5
176
     1
170
     0
176
     1
171
     0
176
     1
290
     0
176
     1
 93
        1
176
     1
 44
0.0
176
     1
173
     0
176
     1
1001
ACAD
1000
AcDbSavedByObjectVersion
1070
     0
  0
VISUALSTYLE
  5
34993
102
{ACAD_XDICTIONARY
360
5A37D
102
}
102
{ACAD_REACTORS
330
34992
102
}
330
34992
100
AcDbVisualStyle
  2
Flat
 70
     0
177
     2
291
     1
 71
     2
176
     1
 72
     1
176
     1
 73
     1
176
     1
 90
        2
176
     1
 40
0.6
176
     1
 41
30.0
176
     1
 63
     7
176
     1
 74
     0
176
     1
 91
        4
176
     1
 64
     7
176
     1
 65
   257
176
     1
 75
     1
176
     1
175
     1
176
     1
 42
1.0
176
     1
 92
        8
176
     1
 66
     7
176
     1
 43
1.0
176
     1
 76
     1
176
     1
 77
     6
176
     1
 78
     2
176
     1
 67
     7
176
     1
 79
     5
176
     1
170
     0
176
     1
171
     0
176
     1
290
     0
176
     1
 93
       13
176
     1
 44
0.0
176
     1
173
     0
176
     1
1001
ACAD
1000
AcDbSavedByObjectVersion
1070
     0
  0
VISUALSTYLE
  5
34994
102
{ACAD_XDICTIONARY
360
5A37F
102
}
102
{ACAD_REACTORS
330
34992
102
}
330
34992
100
AcDbVisualStyle
  2
FlatWithEdges
 70
     1
177
     2
291
     1
 71
     2
176
     1
 72
     1
176
     1
 73
     1
176
     1
 90
        2
176
     1
 40
0.6
176
     1
 41
30.0
176
     1
 63
     7
176
     1
 74
     1
176
     1
 91
        4
176
     1
 64
     7
176
     1
 65
   257
176
     1
 75
     1
176
     1
175
     1
176
     1
 42
1.0
176
     1
 92
        0
176
     1
 66
   257
176
     1
 43
1.0
176
     1
 76
     1
176
     1
 77
     6
176
     1
 78
     2
176
     1
 67
     7
176
     1
 79
     5
176
     1
170
     0
176
     1
171
     0
176
     1
290
     0
176
     1
 93
       13
176
     1
 44
0.0
176
     1
173
     0
176
     1
1001
ACAD
1000
AcDbSavedByObjectVersion
1070
     0
  0
VISUALSTYLE
  5
34995
102
{ACAD_XDICTIONARY
360
5A381
102
}
102
{ACAD_REACTORS
330
34992
102
}
330
34992
100
AcDbVisualStyle
  2
Gouraud
 70
     2
177
     2
291
     1
 71
     2
176
     1
 72
     2
176
     1
 73
     1
176
     1
 90
        2
176
     1
 40
0.6
176
     1
 41
30.0
176
     1
 63
     7
176
     1
 74
     0
176
     1
 91
        4
176
     1
 64
     7
176
     1
 65
   257
176
     1
 75
     1
176
     1
175
     1
176
     1
 42
1.0
176
     1
 92
        0
176
     1
 66
     7
176
     1
 43
1.0
176
     1
 76
     1
176
     1
 77
     6
176
     1
 78
     2
176
     1
 67
     7
176
     1
 79
     5
176
     1
170
     0
176
     1
171
     0
176
     1
290
     0
176
     1
 93
       13
176
     1
 44
0.0
176
     1
173
     0
176
     1
1001
ACAD
1000
AcDbSavedByObjectVersion
1070
     0
  0
VISUALSTYLE
  5
34996
102
{ACAD_XDICTIONARY
360
5A383
102
}
102
{ACAD_REACTORS
330
34992
102
}
330
34992
100
AcDbVisualStyle
  2
GouraudWithEdges
 70
     3
177
     2
291
     1
 71
     2
176
     1
 72
     2
176
     1
 73
     1
176
     1
 90
        2
176
     1
 40
0.6
176
     1
 41
30.0
176
     1
 63
     7
176
     1
 74
     1
176
     1
 91
        4
176
     1
 64
     7
176
     1
 65
   257
176
     1
 75
     1
176
     1
175
     1
176
     1
 42
1.0
176
     1
 92
        0
176
     1
 66
   257
176
     1
 43
1.0
176
     1
 76
     1
176
     1
 77
     6
176
     1
 78
     2
176
     1
 67
     7
176
     1
 79
     5
176
     1
170
     0
176
     1
171
     0
176
     1
290
     0
176
     1
 93
       13
176
     1
 44
0.0
176
     1
173
     0
176
     1
1001
ACAD
1000
AcDbSavedByObjectVersion
1070
     0
  0
VISUALSTYLE
  5
5A346
102
{ACAD_XDICTIONARY
360
5A39F
102
}
102
{ACAD_REACTORS
330
34992
102
}
330
34992
100
AcDbVisualStyle
  2
Hidden
 70
     6
177
     2
291
     0
 71
     1
176
     1
 72
     2
176
     1
 73
     2
176
     1
 90
        0
176
     1
 40
0.6
176
     1
 41
30.0
176
     1
 63
     7
421
 16777215
176
     1
 74
     2
176
     1
 91
        2
176
     1
 64
     7
176
     1
 65
   257
176
     1
 75
     2
176
     1
175
     1
176
     1
 42
40.0
176
     1
 92
        0
176
     1
 66
   257
176
     1
 43
1.0
176
     1
 76
     1
176
     1
 77
     6
176
     1
 78
     2
176
     1
 67
     7
176
     1
 79
     3
176
     1
170
     0
176
     1
171
     0
176
     1
290
     0
176
     1
 93
        1
176
     1
 44
0.0
176
     1
173
     0
176
     1
1001
ACAD
1000
AcDbSavedByObjectVersion
1070
     0
  0
VISUALSTYLE
  5
5A34C
102
{ACAD_XDICTIONARY
360
5A3AB
102
}
102
{ACAD_REACTORS
330
34992
102
}
330
34992
100
AcDbVisualStyle
  2
JitterOff
 70
    20
177
     2
291
     1
 71
     2
176
     0
 72
     2
176
     0
 73
     0
176
     0
 90
        0
176
     0
 40
0.6
176
     0
 41
30.0
176
     0
 63
     7
421
 16777215
176
     0
 74
     1
176
     0
 91
        4
176
     0
 64
     7
176
     0
 65
   257
176
     0
 75
     1
176
     0
175
     1
176
     0
 42
1.0
176
     0
 92
       10
176
     2
 66
     7
176
     0
 43
1.0
176
     0
 76
     1
176
     0
 77
     6
176
     0
 78
     2
176
     0
 67
     7
176
     0
 79
     5
176
     0
170
     0
176
     0
171
     0
176
     0
290
     0
176
     0
 93
        1
176
     0
 44
0.0
176
     0
173
     0
176
     0
1001
ACAD
1000
AcDbSavedByObjectVersion
1070
     0
  0
VISUALSTYLE
  5
349A0
102
{ACAD_XDICTIONARY
360
5A397
102
}
102
{ACAD_REACTORS
330
34992
102
}
330
34992
100
AcDbVisualStyle
  2
Linepattern
 70
    14
177
     2
291
     1
 71
     2
176
     1
 72
     2
176
     1
 73
     0
176
     1
 90
        0
176
     1
 40
0.6
176
     1
 41
30.0
176
     1
 63
     7
176
     1
 74
     1
176
     1
 91
        4
176
     1
 64
     7
176
     1
 65
   257
176
     1
 75
     7
176
     1
175
     7
176
     1
 42
1.0
176
     1
 92
        8
176
     1
 66
     7
176
     1
 43
1.0
176
     1
 76
     1
176
     1
 77
     6
176
     1
 78
     2
176
     1
 67
     7
176
     1
 79
     5
176
     1
170
     0
176
     1
171
     0
176
     1
290
     0
176
     1
 93
        1
176
     1
 44
0.0
176
     1
173
     0
176
     1
1001
ACAD
1000
AcDbSavedByObjectVersion
1070
     0
  0
VISUALSTYLE
  5
5A34D
102
{ACAD_XDICTIONARY
360
5A3AD
102
}
102
{ACAD_REACTORS
330
34992
102
}
330
34992
100
AcDbVisualStyle
  2
OverhangOff
 70
    21
177
     2
291
     1
 71
     2
176
     0
 72
     2
176
     0
 73
     0
176
     0
 90
        0
176
     0
 40
0.6
176
     0
 41
30.0
176
     0
 63
     7
421
 16777215
176
     0
 74
     1
176
     0
 91
        4
176
     0
 64
     7
176
     0
 65
   257
176
     0
 75
     1
176
     0
175
     1
176
     0
 42
1.0
176
     0
 92
        9
176
     2
 66
     7
176
     0
 43
1.0
176
     0
 76
     1
176
     0
 77
     6
176
     0
 78
     2
176
     0
 67
     7
176
     0
 79
     5
176
     0
170
     0
176
     0
171
     0
176
     0
290
     0
176
     0
 93
        1
176
     0
 44
0.0
176
     0
173
     0
176
     0
1001
ACAD
1000
AcDbSavedByObjectVersion
1070
     0
  0
VISUALSTYLE
  5
3499C
102
{ACAD_XDICTIONARY
360
5A38F
102
}
102
{ACAD_REACTORS
330
34992
102
}
330
34992
100
AcDbVisualStyle
  2
Realistic
 70
     8
177
     2
291
     0
 71
     2
176
     1
 72
     2
176
     1
 73
     0
176
     1
 90
        0
176
     1
 40
0.6
176
     1
 41
30.0
176
     1
 63
     7
176
     1
 74
     1
176
     1
 91
        0
176
     1
 64
     7
176
     1
 65
   257
176
     1
 75
     1
176
     1
175
     1
176
     1
 42
1.0
176
     1
 92
        8
176
     1
 66
     8
176
     1
 43
1.0
176
     1
 76
     1
176
     1
 77
     6
176
     1
 78
     2
176
     1
 67
     7
176
     1
 79
     5
176
     1
170
     0
176
     1
171
     0
176
     1
290
     0
176
     1
 93
       13
176
     1
 44
0.0
176
     1
173
     0
176
     1
1001
ACAD
1000
AcDbSavedByObjectVersion
1070
     0
  0
VISUALSTYLE
  5
5A34B
102
{ACAD_XDICTIONARY
360
5A3A9
102
}
102
{ACAD_REACTORS
330
34992
102
}
330
34992
100
AcDbVisualStyle
  2
Shaded
 70
    27
177
     2
291
     0
 71
     2
176
     1
 72
     2
176
     1
 73
     1
176
     1
 90
        2
176
     1
 40
0.6
176
     1
 41
30.0
176
     1
 63
     7
421
 16777215
176
     1
 74
     0
176
     1
 91
        4
176
     1
 64
     7
176
     1
 65
   257
176
     1
 75
     1
176
     1
175
     1
176
     1
 42
1.0
176
     1
 92
        8
176
     1
 66
   257
176
     1
 43
1.0
176
     1
 76
     1
176
     1
 77
     6
176
     1
 78
     2
176
     1
 67
     8
425
  7895160
176
     1
 79
     3
176
     1
170
     0
176
     1
171
     0
176
     1
290
     0
176
     1
 93
        5
176
     1
 44
0.0
176
     1
173
     0
176
     1
1001
ACAD
1000
AcDbSavedByObjectVersion
1070
     0
  0
VISUALSTYLE
  5
5A34A
102
{ACAD_XDICTIONARY
360
5A3A7
102
}
102
{ACAD_REACTORS
330
34992
102
}
330
34992
100
AcDbVisualStyle
  2
Shaded with edges
 70
    26
177
     2
291
     0
 71
     2
176
     1
 72
     2
176
     1
 73
     1
176
     1
 90
        2
176
     1
 40
0.6
176
     1
 41
30.0
176
     1
 63
     7
421
 16777215
176
     1
 74
     1
176
     1
 91
        2
176
     1
 64
     7
176
     1
 65
   257
176
     1
 75
     2
176
     1
175
     1
176
     1
 42
1.0
176
     1
 92
        8
176
     1
 66
   257
176
     1
 43
1.0
176
     1
 76
     1
176
     1
 77
     6
176
     1
 78
     2
176
     1
 67
     7
176
     1
 79
     3
176
     1
170
     0
176
     1
171
     0
176
     1
290
     0
176
     1
 93
        5
176
     1
 44
0.0
176
     1
173
     0
176
     1
1001
ACAD
1000
AcDbSavedByObjectVersion
1070
     0
  0
VISUALSTYLE
  5
5A347
102
{ACAD_XDICTIONARY
360
5A3A1
102
}
102
{ACAD_REACTORS
330
34992
102
}
330
34992
100
AcDbVisualStyle
  2
Shades of Gray
 70
    23
177
     2
291
     0
 71
     2
176
     1
 72
     2
176
     1
 73
     3
176
     1
 90
        0
176
     1
 40
0.6
176
     1
 41
30.0
176
     1
 63
     7
421
 16777215
176
     1
 74
     2
176
     1
 91
        2
176
     1
 64
     7
176
     1
 65
     7
176
     1
 75
     1
176
     1
175
     1
176
     1
 42
40.0
176
     1
 92
        8
176
     1
 66
     7
176
     1
 43
1.0
176
     1
 76
     1
176
     1
 77
     6
176
     1
 78
     2
176
     1
 67
     7
176
     1
 79
     3
176
     1
170
     0
176
     1
171
     0
176
     1
290
     0
176
     1
 93
        1
176
     1
 44
0.0
176
     1
173
     0
176
     1
1001
ACAD
1000
AcDbSavedByObjectVersion
1070
     0
  0
VISUALSTYLE
  5
5A348
102
{ACAD_XDICTIONARY
360
5A3A3
102
}
102
{ACAD_REACTORS
330
34992
102
}
330
34992
100
AcDbVisualStyle
  2
Sketchy
 70
    24
177
     2
291
     0
 71
     1
176
     1
 72
     2
176
     1
 73
     2
176
     1
 90
        0
176
     1
 40
0.6
176
     1
 41
30.0
176
     1
 63
     7
421
 16777215
176
     1
 74
     2
176
     1
 91
        2
176
     1
 64
     7
176
     1
 65
     7
176
     1
 75
     1
176
     1
175
     1
176
     1
 42
40.0
176
     1
 92
       11
176
     1
 66
     7
176
     1
 43
1.0
176
     1
 76
     1
176
     1
 77
     6
176
     1
 78
     2
176
     1
 67
     7
176
     1
 79
     6
176
     1
170
     0
176
     1
171
     0
176
     1
290
     0
176
     1
 93
        1
176
     1
 44
0.0
176
     1
173
     0
176
     1
1001
ACAD
1000
AcDbSavedByObjectVersion
1070
     0
  0
VISUALSTYLE
  5
3499F
102
{ACAD_XDICTIONARY
360
5A395
102
}
102
{ACAD_REACTORS
330
34992
102
}
330
34992
100
AcDbVisualStyle
  2
Thicken
 70
    13
177
     2
291
     1
 71
     2
176
     1
 72
     2
176
     1
 73
     0
176
     1
 90
        0
176
     1
 40
0.6
176
     1
 41
30.0
176
     1
 63
     7
176
     1
 74
     1
176
     1
 91
        4
176
     1
 64
     7
176
     1
 65
   257
176
     1
 75
     1
176
     1
175
     1
176
     1
 42
1.0
176
     1
 92
       12
176
     1
 66
     7
176
     1
 43
1.0
176
     1
 76
     1
176
     1
 77
     6
176
     1
 78
     2
176
     1
 67
     7
176
     1
 79
     5
176
     1
170
     0
176
     1
171
     0
176
     1
290
     0
176
     1
 93
        1
176
     1
 44
0.0
176
     1
173
     0
176
     1
1001
ACAD
1000
AcDbSavedByObjectVersion
1070
     0
  0
VISUALSTYLE
  5
5A345
102
{ACAD_XDICTIONARY
360
5A39D
102
}
102
{ACAD_REACTORS
330
34992
102
}
330
34992
100
AcDbVisualStyle
  2
Wireframe
 70
     5
177
     2
291
     0
 71
     0
176
     1
 72
     2
176
     1
 73
     0
176
     1
 90
        0
176
     1
 40
0.6
176
     1
 41
30.0
176
     1
 63
     7
421
 16777215
176
     1
 74
     1
176
     1
 91
        4
176
     1
 64
     7
176
     1
 65
   257
176
     1
 75
     1
176
     1
175
     1
176
     1
 42
1.0
176
     1
 92
        0
176
     1
 66
   257
176
     1
 43
1.0
176
     1
 76
     1
176
     1
 77
     6
176
     1
 78
     2
176
     1
 67
     7
176
     1
 79
     3
176
     1
170
     0
176
     1
171
     0
176
     1
290
     0
176
     1
 93
        1
176
     1
 44
0.0
176
     1
173
     0
176
     1
1001
ACAD
1000
AcDbSavedByObjectVersion
1070
     0
  0
VISUALSTYLE
  5
5A349
102
{ACAD_XDICTIONARY
360
5A3A5
102
}
102
{ACAD_REACTORS
330
34992
102
}
330
34992
100
AcDbVisualStyle
  2
X-Ray
 70
    25
177
     2
291
     0
 71
     2
176
     1
 72
     2
176
     1
 73
     1
176
     1
 90
        1
176
     1
 40
0.5
176
     1
 41
30.0
176
     1
 63
     7
421
 16777215
176
     1
 74
     1
176
     1
 91
        0
176
     1
 64
     7
176
     1
 65
   257
176
     1
 75
     1
176
     1
175
     1
176
     1
 42
1.0
176
     1
 92
        8
176
     1
 66
     7
176
     1
 43
1.0
176
     1
 76
     1
176
     1
 77
     6
176
     1
 78
     2
176
     1
 67
     7
176
     1
 79
     3
176
     1
170
     0
176
     1
171
     0
176
     1
290
     0
176
     1
 93
       13
176
     1
 44
0.0
176
     1
173
     0
176
     1
1001
ACAD
1000
AcDbSavedByObjectVersion
1070
     0
  0
DICTIONARYVAR
  5
34A95
102
{ACAD_REACTORS
330
D1
102
}
330
D1
100
DictionaryVariables
280
     0
  1
1:1
  0
DICTIONARYVAR
  5
34A94
102
{ACAD_REACTORS
330
D1
102
}
330
D1
100
DictionaryVariables
280
     0
  1
STANDARD
  0
DICTIONARYVAR
  5
34A93
102
{ACAD_REACTORS
330
D1
102
}
330
D1
100
DictionaryVariables
280
     0
  1
STANDARD
  0
DICTIONARYVAR
  5
5A358
102
{ACAD_REACTORS
330
D1
102
}
330
D1
100
DictionaryVariables
280
     0
  1
Metric50
  0
DICTIONARYVAR
  5
5A359
102
{ACAD_REACTORS
330
D1
102
}
330
D1
100
DictionaryVariables
280
     0
  1
Metric50
  0
DICTIONARYVAR
  5
D3
102
{ACAD_REACTORS
330
D1
102
}
330
D1
100
DictionaryVariables
280
     0
  1
2
  0
DICTIONARYVAR
  5
D2
102
{ACAD_REACTORS
330
D1
102
}
330
D1
100
DictionaryVariables
280
     0
  1
1
  0
DICTIONARYVAR
  5
34A97
102
{ACAD_REACTORS
330
D1
102
}
330
D1
100
DictionaryVariables
280
     0
  1
0
  0
DICTIONARYVAR
  5
5A35A
102
{ACAD_REACTORS
330
D1
102
}
330
D1
100
DictionaryVariables
280
     0
  1
1
  0
DICTIONARYVAR
  5
5A35B
102
{ACAD_REACTORS
330
D1
102
}
330
D1
100
DictionaryVariables
280
     0
  1
15
  0
DICTIONARYVAR
  5
35721
102
{ACAD_REACTORS
330
D1
102
}
330
D1
100
DictionaryVariables
280
     0
  1
0
  0
DICTIONARYVAR
  5
35720
102
{ACAD_REACTORS
330
D1
102
}
330
D1
100
DictionaryVariables
280
     0
  1
0
  0
DICTIONARYVAR
  5
34A96
102
{ACAD_REACTORS
330
D1
102
}
330
D1
100
DictionaryVariables
280
     0
  1
127
  0
DICTIONARY
  5
5A37C
102
{ACAD_REACTORS
330
5A37A
102
}
330
5A37A
100
AcDbDictionary
281
     1
  0
DICTIONARY
  5
5A37B
102
{ACAD_REACTORS
330
5A37A
102
}
330
5A37A
100
AcDbDictionary
281
     1
  3
2785559759696
350
5A375
  3
2785559759712
350
5A376
  3
2785559759728
350
5A377
  3
2785559759744
350
5A378
  3
2785559759760
350
5A379
  0
DICTIONARY
  5
5A3B3
330
5A352
100
AcDbDictionary
280
     1
281
     1
  3
ACAD_XREC_ROUNDTRIP
360
5A3B4
  0
DICTIONARY
  5
349D7
330
3491A
100
AcDbDictionary
280
     1
281
     1
  0
DICTIONARY
  5
34983
330
34982
100
AcDbDictionary
280
     1
281
     1
  3
BUMPTILE
360
34985
  3
DIFFUSETILE
360
34984
  3
OPACITYTILE
360
34988
  3
REFLECTIONTILE
360
34987
  3
REFRACTIONTILE
360
34989
  3
SPECULARTILE
360
34986
  0
DICTIONARY
  5
3497B
330
3497A
100
AcDbDictionary
280
     1
281
     1
  3
BUMPTILE
360
3497D
  3
DIFFUSETILE
360
3497C
  3
OPACITYTILE
360
34980
  3
REFLECTIONTILE
360
3497F
  3
REFRACTIONTILE
360
34981
  3
SPECULARTILE
360
3497E
  0
DICTIONARY
  5
3498B
330
3498A
100
AcDbDictionary
280
     1
281
     1
  3
BUMPTILE
360
3498D
  3
DIFFUSETILE
360
3498C
  3
OPACITYTILE
360
34990
  3
REFLECTIONTILE
360
3498F
  3
REFRACTIONTILE
360
34991
  3
SPECULARTILE
360
3498E
  0
DICTIONARY
  5
5A3B1
330
5A350
100
AcDbDictionary
280
     1
281
     1
  3
ACAD_XREC_ROUNDTRIP
360
5A3B2
  0
DICTIONARY
  5
34A71
330
349A5
100
AcDbDictionary
280
     1
281
     1
  3
ACAD_ROUNDTRIP_2008_TABLESTYLE_CELLSTYLEMAP
360
5A372
  0
DICTIONARY
  5
5A387
330
34998
100
AcDbDictionary
280
     1
281
     1
  3
ACAD_XREC_ROUNDTRIP
360
5A388
  0
DICTIONARY
  5
5A38B
330
3499A
100
AcDbDictionary
280
     1
281
     1
  3
ACAD_XREC_ROUNDTRIP
360
5A38C
  0
DICTIONARY
  5
5A389
330
34999
100
AcDbDictionary
280
     1
281
     1
  3
ACAD_XREC_ROUNDTRIP
360
5A38A
  0
DICTIONARY
  5
5A385
330
34997
100
AcDbDictionary
280
     1
281
     1
  3
ACAD_XREC_ROUNDTRIP
360
5A386
  0
DICTIONARY
  5
5A393
330
3499E
100
AcDbDictionary
280
     1
281
     1
  3
ACAD_XREC_ROUNDTRIP
360
5A394
  0
DICTIONARY
  5
5A39B
330
349A2
100
AcDbDictionary
280
     1
281
     1
  3
ACAD_XREC_ROUNDTRIP
360
5A39C
  0
DICTIONARY
  5
5A38D
330
3499B
100
AcDbDictionary
280
     1
281
     1
  3
ACAD_XREC_ROUNDTRIP
360
5A38E
  0
DICTIONARY
  5
5A391
330
3499D
100
AcDbDictionary
280
     1
281
     1
  3
ACAD_XREC_ROUNDTRIP
360
5A392
  0
DICTIONARY
  5
5A3AF
330
5A34E
100
AcDbDictionary
280
     1
281
     1
  3
ACAD_XREC_ROUNDTRIP
360
5A3B0
  0
DICTIONARY
  5
5A399
330
349A1
100
AcDbDictionary
280
     1
281
     1
  3
ACAD_XREC_ROUNDTRIP
360
5A39A
  0
DICTIONARY
  5
5A37D
330
34993
100
AcDbDictionary
280
     1
281
     1
  3
ACAD_XREC_ROUNDTRIP
360
5A37E
  0
DICTIONARY
  5
5A37F
330
34994
100
AcDbDictionary
280
     1
281
     1
  3
ACAD_XREC_ROUNDTRIP
360
5A380
  0
DICTIONARY
  5
5A381
330
34995
100
AcDbDictionary
280
     1
281
     1
  3
ACAD_XREC_ROUNDTRIP
360
5A382
  0
DICTIONARY
  5
5A383
330
34996
100
AcDbDictionary
280
     1
281
     1
  3
ACAD_XREC_ROUNDTRIP
360
5A384
  0
DICTIONARY
  5
5A39F
330
5A346
100
AcDbDictionary
280
     1
281
     1
  3
ACAD_XREC_ROUNDTRIP
360
5A3A0
  0
DICTIONARY
  5
5A3AB
330
5A34C
100
AcDbDictionary
280
     1
281
     1
  3
ACAD_XREC_ROUNDTRIP
360
5A3AC
  0
DICTIONARY
  5
5A397
330
349A0
100
AcDbDictionary
280
     1
281
     1
  3
ACAD_XREC_ROUNDTRIP
360
5A398
  0
DICTIONARY
  5
5A3AD
330
5A34D
100
AcDbDictionary
280
     1
281
     1
  3
ACAD_XREC_ROUNDTRIP
360
5A3AE
  0
DICTIONARY
  5
5A38F
330
3499C
100
AcDbDictionary
280
     1
281
     1
  3
ACAD_XREC_ROUNDTRIP
360
5A390
  0
DICTIONARY
  5
5A3A9
330
5A34B
100
AcDbDictionary
280
     1
281
     1
  3
ACAD_XREC_ROUNDTRIP
360
5A3AA
  0
DICTIONARY
  5
5A3A7
330
5A34A
100
AcDbDictionary
280
     1
281
     1
  3
ACAD_XREC_ROUNDTRIP
360
5A3A8
  0
DICTIONARY
  5
5A3A1
330
5A347
100
AcDbDictionary
280
     1
281
     1
  3
ACAD_XREC_ROUNDTRIP
360
5A3A2
  0
DICTIONARY
  5
5A3A3
330
5A348
100
AcDbDictionary
280
     1
281
     1
  3
ACAD_XREC_ROUNDTRIP
360
5A3A4
  0
DICTIONARY
  5
5A395
330
3499F
100
AcDbDictionary
280
     1
281
     1
  3
ACAD_XREC_ROUNDTRIP
360
5A396
  0
DICTIONARY
  5
5A39D
330
5A345
100
AcDbDictionary
280
     1
281
     1
  3
ACAD_XREC_ROUNDTRIP
360
5A39E
  0
DICTIONARY
  5
5A3A5
330
5A349
100
AcDbDictionary
280
     1
281
     1
  3
ACAD_XREC_ROUNDTRIP
360
5A3A6
  0
XRECORD
  5
5A375
102
{ACAD_REACTORS
330
5A37B
102
}
330
5A37B
100
AcDbXrecord
280
     1
  1
AcDb_Thumbnail_Schema
102
{ATTRRECORD
341
5A376
  2
AcDbDs::TreatedAsObjectData
280
     1
291
     1
102
ATTRRECORD}
102
{ATTRRECORD
341
5A377
  2
AcDbDs::Legacy
280
     1
291
     1
102
ATTRRECORD}
  2
AcDbDs::ID
280
    10
 91
        8
102
{ATTRRECORD
341
5A378
  2
AcDs:Indexable
280
     1
291
     1
102
ATTRRECORD}
102
{ATTRRECORD
341
5A379
  2
AcDbDs::HandleAttribute
280
     7
282
     1
102
ATTRRECORD}
  2
Thumbnail_Data
280
    15
 91
        0
  0
XRECORD
  5
5A376
102
{ACAD_REACTORS
330
5A37B
102
}
330
5A37B
100
AcDbXrecord
280
     1
  1
AcDbDs::TreatedAsObjectDataSchema
  2
AcDbDs::TreatedAsObjectData
280
     1
 91
        0
  0
XRECORD
  5
5A377
102
{ACAD_REACTORS
330
5A37B
102
}
330
5A37B
100
AcDbXrecord
280
     1
  1
AcDbDs::LegacySchema
  2
AcDbDs::Legacy
280
     1
 91
        0
  0
XRECORD
  5
5A378
102
{ACAD_REACTORS
330
5A37B
102
}
330
5A37B
100
AcDbXrecord
280
     1
  1
AcDbDs::IndexedPropertySchema
  2
AcDs:Indexable
280
     1
 91
        0
  0
XRECORD
  5
5A379
102
{ACAD_REACTORS
330
5A37B
102
}
330
5A37B
100
AcDbXrecord
280
     1
  1
AcDbDs::HandleAttributeSchema
  2
AcDbDs::HandleAttribute
280
     7
 91
        1
284
     1
  0
XRECORD
  5
5A3B4
102
{ACAD_REACTORS
330
5A3B3
102
}
330
5A3B3
100
AcDbXrecord
280
     1
102
DISPLAYNAME
  1
Metric50
102
FLAGS
 90
        0
  0
XRECORD
  5
34985
102
{ACAD_REACTORS
330
34983
102
}
330
34983
100
AcDbXrecord
280
     1
270
     1
271
     1
  0
XRECORD
  5
34984
102
{ACAD_REACTORS
330
34983
102
}
330
34983
100
AcDbXrecord
280
     1
270
     1
271
     1
  0
XRECORD
  5
34988
102
{ACAD_REACTORS
330
34983
102
}
330
34983
100
AcDbXrecord
280
     1
270
     1
271
     1
  0
XRECORD
  5
34987
102
{ACAD_REACTORS
330
34983
102
}
330
34983
100
AcDbXrecord
280
     1
270
     1
271
     1
  0
XRECORD
  5
34989
102
{ACAD_REACTORS
330
34983
102
}
330
34983
100
AcDbXrecord
280
     1
270
     1
271
     1
  0
XRECORD
  5
34986
102
{ACAD_REACTORS
330
34983
102
}
330
34983
100
AcDbXrecord
280
     1
270
     1
271
     1
  0
XRECORD
  5
3497D
102
{ACAD_REACTORS
330
3497B
102
}
330
3497B
100
AcDbXrecord
280
     1
270
     1
271
     1
  0
XRECORD
  5
3497C
102
{ACAD_REACTORS
330
3497B
102
}
330
3497B
100
AcDbXrecord
280
     1
270
     1
271
     1
  0
XRECORD
  5
34980
102
{ACAD_REACTORS
330
3497B
102
}
330
3497B
100
AcDbXrecord
280
     1
270
     1
271
     1
  0
XRECORD
  5
3497F
102
{ACAD_REACTORS
330
3497B
102
}
330
3497B
100
AcDbXrecord
280
     1
270
     1
271
     1
  0
XRECORD
  5
34981
102
{ACAD_REACTORS
330
3497B
102
}
330
3497B
100
AcDbXrecord
280
     1
270
     1
271
     1
  0
XRECORD
  5
3497E
102
{ACAD_REACTORS
330
3497B
102
}
330
3497B
100
AcDbXrecord
280
     1
270
     1
271
     1
  0
XRECORD
  5
3498D
102
{ACAD_REACTORS
330
3498B
102
}
330
3498B
100
AcDbXrecord
280
     1
270
     1
271
     1
  0
XRECORD
  5
3498C
102
{ACAD_REACTORS
330
3498B
102
}
330
3498B
100
AcDbXrecord
280
     1
270
     1
271
     1
  0
XRECORD
  5
34990
102
{ACAD_REACTORS
330
3498B
102
}
330
3498B
100
AcDbXrecord
280
     1
270
     1
271
     1
  0
XRECORD
  5
3498F
102
{ACAD_REACTORS
330
3498B
102
}
330
3498B
100
AcDbXrecord
280
     1
270
     1
271
     1
  0
XRECORD
  5
34991
102
{ACAD_REACTORS
330
3498B
102
}
330
3498B
100
AcDbXrecord
280
     1
270
     1
271
     1
  0
XRECORD
  5
3498E
102
{ACAD_REACTORS
330
3498B
102
}
330
3498B
100
AcDbXrecord
280
     1
270
     1
271
     1
  0
XRECORD
  5
5A3B2
102
{ACAD_REACTORS
330
5A3B1
102
}
330
5A3B1
100
AcDbXrecord
280
     1
102
DISPLAYNAME
  1
Metric50
102
FLAGS
 90
        0
  0
CELLSTYLEMAP
  5
5A372
102
{ACAD_REACTORS
330
34A71
102
}
330
34A71
100
AcDbCellStyleMap
 90
        3
300
CELLSTYLE
  1
TABLEFORMAT_BEGIN
 90
        5
170
     1
 91
        0
 92
    32768
 62
   257
 93
        1
300
CONTENTFORMAT
  1
CONTENTFORMAT_BEGIN
 90
        0
 91
        0
 92
      512
 93
        0
300

 40
0.0
140
1.0
 94
        5
 62
     0
340
11
144
6.0
309
CONTENTFORMAT_END
171
     1
301
MARGIN
  1
CELLMARGIN_BEGIN
 40
1.5
 40
1.5
 40
1.5
 40
1.5
 40
0.18
 40
0.18
309
CELLMARGIN_END
 94
        6
 95
        1
302
GRIDFORMAT
  1
GRIDFORMAT_BEGIN
 90
        0
 91
        1
 62
     0
 92
       -2
340
0
 93
        0
 40
1.125
309
GRIDFORMAT_END
 95
        2
302
GRIDFORMAT
  1
GRIDFORMAT_BEGIN
 90
        0
 91
        1
 62
     0
 92
       -2
340
0
 93
        0
 40
1.125
309
GRIDFORMAT_END
 95
        4
302
GRIDFORMAT
  1
GRIDFORMAT_BEGIN
 90
        0
 91
        1
 62
     0
 92
       -2
340
0
 93
        0
 40
1.125
309
GRIDFORMAT_END
 95
        8
302
GRIDFORMAT
  1
GRIDFORMAT_BEGIN
 90
        0
 91
        1
 62
     0
 92
       -2
340
0
 93
        0
 40
1.125
309
GRIDFORMAT_END
 95
       16
302
GRIDFORMAT
  1
GRIDFORMAT_BEGIN
 90
        0
 91
        1
 62
     0
 92
       -2
340
0
 93
        0
 40
1.125
309
GRIDFORMAT_END
 95
       32
302
GRIDFORMAT
  1
GRIDFORMAT_BEGIN
 90
        0
 91
        1
 62
     0
 92
       -2
340
0
 93
        0
 40
1.125
309
GRIDFORMAT_END
309
TABLEFORMAT_END
  1
CELLSTYLE_BEGIN
 90
        1
 91
        1
300
_TITLE
309
CELLSTYLE_END
300
CELLSTYLE
  1
TABLEFORMAT_BEGIN
 90
        5
170
     1
 91
        0
 92
        0
 62
   257
 93
        1
300
CONTENTFORMAT
  1
CONTENTFORMAT_BEGIN
 90
        0
 91
        0
 92
      512
 93
        0
300

 40
0.0
140
1.0
 94
        5
 62
     0
340
11
144
4.5
309
CONTENTFORMAT_END
171
     1
301
MARGIN
  1
CELLMARGIN_BEGIN
 40
1.5
 40
1.5
 40
1.5
 40
1.5
 40
0.18
 40
0.18
309
CELLMARGIN_END
 94
        6
 95
        1
302
GRIDFORMAT
  1
GRIDFORMAT_BEGIN
 90
        0
 91
        1
 62
     0
 92
       -2
340
0
 93
        0
 40
1.125
309
GRIDFORMAT_END
 95
        2
302
GRIDFORMAT
  1
GRIDFORMAT_BEGIN
 90
        0
 91
        1
 62
     0
 92
       -2
340
0
 93
        0
 40
1.125
309
GRIDFORMAT_END
 95
        4
302
GRIDFORMAT
  1
GRIDFORMAT_BEGIN
 90
        0
 91
        1
 62
     0
 92
       -2
340
0
 93
        0
 40
1.125
309
GRIDFORMAT_END
 95
        8
302
GRIDFORMAT
  1
GRIDFORMAT_BEGIN
 90
        0
 91
        1
 62
     0
 92
       -2
340
0
 93
        0
 40
1.125
309
GRIDFORMAT_END
 95
       16
302
GRIDFORMAT
  1
GRIDFORMAT_BEGIN
 90
        0
 91
        1
 62
     0
 92
       -2
340
0
 93
        0
 40
1.125
309
GRIDFORMAT_END
 95
       32
302
GRIDFORMAT
  1
GRIDFORMAT_BEGIN
 90
        0
 91
        1
 62
     0
 92
       -2
340
0
 93
        0
 40
1.125
309
GRIDFORMAT_END
309
TABLEFORMAT_END
  1
CELLSTYLE_BEGIN
 90
        2
 91
        1
300
_HEADER
309
CELLSTYLE_END
300
CELLSTYLE
  1
TABLEFORMAT_BEGIN
 90
        5
170
     1
 91
        0
 92
        0
 62
   257
 93
        1
300
CONTENTFORMAT
  1
CONTENTFORMAT_BEGIN
 90
        0
 91
        0
 92
      512
 93
        0
300

 40
0.0
140
1.0
 94
        2
 62
     0
340
11
144
4.5
309
CONTENTFORMAT_END
171
     1
301
MARGIN
  1
CELLMARGIN_BEGIN
 40
1.5
 40
1.5
 40
1.5
 40
1.5
 40
0.18
 40
0.18
309
CELLMARGIN_END
 94
        6
 95
        1
302
GRIDFORMAT
  1
GRIDFORMAT_BEGIN
 90
        0
 91
        1
 62
     0
 92
       -2
340
0
 93
        0
 40
1.125
309
GRIDFORMAT_END
 95
        2
302
GRIDFORMAT
  1
GRIDFORMAT_BEGIN
 90
        0
 91
        1
 62
     0
 92
       -2
340
0
 93
        0
 40
1.125
309
GRIDFORMAT_END
 95
        4
302
GRIDFORMAT
  1
GRIDFORMAT_BEGIN
 90
        0
 91
        1
 62
     0
 92
       -2
340
0
 93
        0
 40
1.125
309
GRIDFORMAT_END
 95
        8
302
GRIDFORMAT
  1
GRIDFORMAT_BEGIN
 90
        0
 91
        1
 62
     0
 92
       -2
340
0
 93
        0
 40
1.125
309
GRIDFORMAT_END
 95
       16
302
GRIDFORMAT
  1
GRIDFORMAT_BEGIN
 90
        0
 91
        1
 62
     0
 92
       -2
340
0
 93
        0
 40
1.125
309
GRIDFORMAT_END
 95
       32
302
GRIDFORMAT
  1
GRIDFORMAT_BEGIN
 90
        0
 91
        1
 62
     0
 92
       -2
340
0
 93
        0
 40
1.125
309
GRIDFORMAT_END
309
TABLEFORMAT_END
  1
CELLSTYLE_BEGIN
 90
        3
 91
        2
300
_DATA
309
CELLSTYLE_END
  0
XRECORD
  5
5A388
102
{ACAD_REACTORS
330
5A387
102
}
330
5A387
100
AcDbXrecord
280
     1
102
RTVSPost2010Prop28
280
     1
102
RTVSPost2010PropOp28
 70
     1
102
RTVSPost2010Prop29
280
     1
102
RTVSPost2010PropOp29
 70
     1
102
RTVSPost2010Prop30
280
     0
102
RTVSPost2010PropOp30
 70
     1
102
RTVSPost2010Prop31
280
     0
102
RTVSPost2010PropOp31
 70
     1
102
RTVSPost2010Prop32
280
     0
102
RTVSPost2010PropOp32
 70
     1
102
RTVSPost2010Prop33
280
     0
102
RTVSPost2010PropOp33
 70
     1
102
RTVSPost2010Prop34
280
     0
102
RTVSPost2010PropOp34
 70
     1
102
RTVSPost2010Prop35
280
     0
102
RTVSPost2010PropOp35
 70
     1
102
RTVSPost2010Prop36
280
     0
102
RTVSPost2010PropOp36
 70
     1
102
RTVSPost2010Prop37
 90
       50
102
RTVSPost2010PropOp37
 70
     1
102
RTVSPost2010Prop38
140
0.0
102
RTVSPost2010PropOp38
 70
     1
102
RTVSPost2010Prop39
140
1.0
102
RTVSPost2010PropOp39
 70
     1
102
RTVSPost2010Prop40
 90
        0
102
RTVSPost2010PropOp40
 70
     1
102
RTVSPost2010Prop41ColorIndex
 90
       18
102
RTVSPost2010Prop41ColorRGB
 90
-16777216
102
RTVSPost2010PropOp41
 70
     1
102
RTVSPost2010Prop42
 90
       50
102
RTVSPost2010PropOp42
 70
     1
102
RTVSPost2010Prop43
 90
        3
102
RTVSPost2010PropOp43
 70
     1
102
RTVSPost2010Prop44ColorIndex
 90
        5
102
RTVSPost2010Prop44ColorRGB
 90
      255
102
RTVSPost2010PropOp44
 70
     1
102
RTVSPost2010Prop45
280
     0
102
RTVSPost2010PropOp45
 70
     1
102
RTVSPost2010Prop46
 90
       50
102
RTVSPost2010PropOp46
 70
     1
102
RTVSPost2010Prop47
 90
       50
102
RTVSPost2010PropOp47
 70
     1
102
RTVSPost2010Prop48
 90
       50
102
RTVSPost2010PropOp48
 70
     1
102
RTVSPost2010Prop49
280
     0
102
RTVSPost2010PropOp49
 70
     1
102
RTVSPost2010Prop50
 90
       50
102
RTVSPost2010PropOp50
 70
     1
102
RTVSPost2010Prop51ColorIndex
 90
      256
102
RTVSPost2010Prop51ColorRGB
 90
-16777216
102
RTVSPost2010PropOp51
 70
     0
102
RTVSPost2010Prop52
140
1.0
102
RTVSPost2010PropOp52
 70
     0
102
RTVSPost2010Prop53
 90
        2
102
RTVSPost2010PropOp53
 70
     1
102
RTVSPost2010Prop54
  1
strokes_ogs.tif
102
RTVSPost2010PropOp54
 70
     1
102
RTVSPost2010Prop55
280
     0
102
RTVSPost2010PropOp55
 70
     1
102
RTVSPost2010Prop56
140
1.0
102
RTVSPost2010PropOp56
 70
     1
102
RTVSPost2010Prop57
140
1.0
102
RTVSPost2010PropOp57
 70
     1
  0
XRECORD
  5
5A38C
102
{ACAD_REACTORS
330
5A38B
102
}
330
5A38B
100
AcDbXrecord
280
     1
102
RTVSPost2010Prop28
280
     0
102
RTVSPost2010PropOp28
 70
     1
102
RTVSPost2010Prop29
280
     1
102
RTVSPost2010PropOp29
 70
     1
102
RTVSPost2010Prop30
280
     1
102
RTVSPost2010PropOp30
 70
     1
102
RTVSPost2010Prop31
280
     0
102
RTVSPost2010PropOp31
 70
     1
102
RTVSPost2010Prop32
280
     0
102
RTVSPost2010PropOp32
 70
     1
102
RTVSPost2010Prop33
280
     0
102
RTVSPost2010PropOp33
 70
     1
102
RTVSPost2010Prop34
280
     0
102
RTVSPost2010PropOp34
 70
     1
102
RTVSPost2010Prop35
280
     0
102
RTVSPost2010PropOp35
 70
     1
102
RTVSPost2010Prop36
280
     0
102
RTVSPost2010PropOp36
 70
     1
102
RTVSPost2010Prop37
 90
       50
102
RTVSPost2010PropOp37
 70
     1
102
RTVSPost2010Prop38
140
0.0
102
RTVSPost2010PropOp38
 70
     1
102
RTVSPost2010Prop39
140
1.0
102
RTVSPost2010PropOp39
 70
     1
102
RTVSPost2010Prop40
 90
        0
102
RTVSPost2010PropOp40
 70
     1
102
RTVSPost2010Prop41ColorIndex
 90
       18
102
RTVSPost2010Prop41ColorRGB
 90
-16777216
102
RTVSPost2010PropOp41
 70
     1
102
RTVSPost2010Prop42
 90
       50
102
RTVSPost2010PropOp42
 70
     1
102
RTVSPost2010Prop43
 90
        3
102
RTVSPost2010PropOp43
 70
     1
102
RTVSPost2010Prop44ColorIndex
 90
        5
102
RTVSPost2010Prop44ColorRGB
 90
      255
102
RTVSPost2010PropOp44
 70
     1
102
RTVSPost2010Prop45
280
     0
102
RTVSPost2010PropOp45
 70
     1
102
RTVSPost2010Prop46
 90
       50
102
RTVSPost2010PropOp46
 70
     1
102
RTVSPost2010Prop47
 90
       50
102
RTVSPost2010PropOp47
 70
     1
102
RTVSPost2010Prop48
 90
       50
102
RTVSPost2010PropOp48
 70
     1
102
RTVSPost2010Prop49
280
     0
102
RTVSPost2010PropOp49
 70
     1
102
RTVSPost2010Prop50
 90
       50
102
RTVSPost2010PropOp50
 70
     1
102
RTVSPost2010Prop51ColorIndex
 90
      256
102
RTVSPost2010Prop51ColorRGB
 90
-16777216
102
RTVSPost2010PropOp51
 70
     0
102
RTVSPost2010Prop52
140
1.0
102
RTVSPost2010PropOp52
 70
     0
102
RTVSPost2010Prop53
 90
        2
102
RTVSPost2010PropOp53
 70
     1
102
RTVSPost2010Prop54
  1
strokes_ogs.tif
102
RTVSPost2010PropOp54
 70
     1
102
RTVSPost2010Prop55
280
     0
102
RTVSPost2010PropOp55
 70
     1
102
RTVSPost2010Prop56
140
1.0
102
RTVSPost2010PropOp56
 70
     1
102
RTVSPost2010Prop57
140
1.0
102
RTVSPost2010PropOp57
 70
     1
  0
XRECORD
  5
5A38A
102
{ACAD_REACTORS
330
5A389
102
}
330
5A389
100
AcDbXrecord
280
     1
102
RTVSPost2010Prop28
280
     0
102
RTVSPost2010PropOp28
 70
     1
102
RTVSPost2010Prop29
280
     1
102
RTVSPost2010PropOp29
 70
     1
102
RTVSPost2010Prop30
280
     1
102
RTVSPost2010PropOp30
 70
     1
102
RTVSPost2010Prop31
280
     0
102
RTVSPost2010PropOp31
 70
     1
102
RTVSPost2010Prop32
280
     0
102
RTVSPost2010PropOp32
 70
     1
102
RTVSPost2010Prop33
280
     0
102
RTVSPost2010PropOp33
 70
     1
102
RTVSPost2010Prop34
280
     0
102
RTVSPost2010PropOp34
 70
     1
102
RTVSPost2010Prop35
280
     0
102
RTVSPost2010PropOp35
 70
     1
102
RTVSPost2010Prop36
280
     0
102
RTVSPost2010PropOp36
 70
     1
102
RTVSPost2010Prop37
 90
       50
102
RTVSPost2010PropOp37
 70
     1
102
RTVSPost2010Prop38
140
0.0
102
RTVSPost2010PropOp38
 70
     1
102
RTVSPost2010Prop39
140
1.0
102
RTVSPost2010PropOp39
 70
     1
102
RTVSPost2010Prop40
 90
        0
102
RTVSPost2010PropOp40
 70
     1
102
RTVSPost2010Prop41ColorIndex
 90
       18
102
RTVSPost2010Prop41ColorRGB
 90
-16777216
102
RTVSPost2010PropOp41
 70
     1
102
RTVSPost2010Prop42
 90
       50
102
RTVSPost2010PropOp42
 70
     1
102
RTVSPost2010Prop43
 90
        3
102
RTVSPost2010PropOp43
 70
     1
102
RTVSPost2010Prop44ColorIndex
 90
        5
102
RTVSPost2010Prop44ColorRGB
 90
      255
102
RTVSPost2010PropOp44
 70
     1
102
RTVSPost2010Prop45
280
     0
102
RTVSPost2010PropOp45
 70
     1
102
RTVSPost2010Prop46
 90
       50
102
RTVSPost2010PropOp46
 70
     1
102
RTVSPost2010Prop47
 90
       50
102
RTVSPost2010PropOp47
 70
     1
102
RTVSPost2010Prop48
 90
       50
102
RTVSPost2010PropOp48
 70
     1
102
RTVSPost2010Prop49
280
     0
102
RTVSPost2010PropOp49
 70
     1
102
RTVSPost2010Prop50
 90
       50
102
RTVSPost2010PropOp50
 70
     1
102
RTVSPost2010Prop51ColorIndex
 90
      256
102
RTVSPost2010Prop51ColorRGB
 90
-16777216
102
RTVSPost2010PropOp51
 70
     0
102
RTVSPost2010Prop52
140
1.0
102
RTVSPost2010PropOp52
 70
     0
102
RTVSPost2010Prop53
 90
        2
102
RTVSPost2010PropOp53
 70
     1
102
RTVSPost2010Prop54
  1
strokes_ogs.tif
102
RTVSPost2010PropOp54
 70
     1
102
RTVSPost2010Prop55
280
     0
102
RTVSPost2010PropOp55
 70
     1
102
RTVSPost2010Prop56
140
1.0
102
RTVSPost2010PropOp56
 70
     1
102
RTVSPost2010Prop57
140
1.0
102
RTVSPost2010PropOp57
 70
     1
  0
XRECORD
  5
5A386
102
{ACAD_REACTORS
330
5A385
102
}
330
5A385
100
AcDbXrecord
280
     1
102
RTVSPost2010Prop28
280
     0
102
RTVSPost2010PropOp28
 70
     1
102
RTVSPost2010Prop29
280
     1
102
RTVSPost2010PropOp29
 70
     1
102
RTVSPost2010Prop30
280
     1
102
RTVSPost2010PropOp30
 70
     1
102
RTVSPost2010Prop31
280
     0
102
RTVSPost2010PropOp31
 70
     1
102
RTVSPost2010Prop32
280
     0
102
RTVSPost2010PropOp32
 70
     1
102
RTVSPost2010Prop33
280
     0
102
RTVSPost2010PropOp33
 70
     1
102
RTVSPost2010Prop34
280
     0
102
RTVSPost2010PropOp34
 70
     1
102
RTVSPost2010Prop35
280
     0
102
RTVSPost2010PropOp35
 70
     1
102
RTVSPost2010Prop36
280
     0
102
RTVSPost2010PropOp36
 70
     1
102
RTVSPost2010Prop37
 90
       50
102
RTVSPost2010PropOp37
 70
     1
102
RTVSPost2010Prop38
140
0.0
102
RTVSPost2010PropOp38
 70
     1
102
RTVSPost2010Prop39
140
1.0
102
RTVSPost2010PropOp39
 70
     1
102
RTVSPost2010Prop40
 90
        0
102
RTVSPost2010PropOp40
 70
     1
102
RTVSPost2010Prop41ColorIndex
 90
       18
102
RTVSPost2010Prop41ColorRGB
 90
-16777216
102
RTVSPost2010PropOp41
 70
     1
102
RTVSPost2010Prop42
 90
       50
102
RTVSPost2010PropOp42
 70
     1
102
RTVSPost2010Prop43
 90
        3
102
RTVSPost2010PropOp43
 70
     1
102
RTVSPost2010Prop44ColorIndex
 90
        5
102
RTVSPost2010Prop44ColorRGB
 90
      255
102
RTVSPost2010PropOp44
 70
     1
102
RTVSPost2010Prop45
280
     0
102
RTVSPost2010PropOp45
 70
     1
102
RTVSPost2010Prop46
 90
       50
102
RTVSPost2010PropOp46
 70
     1
102
RTVSPost2010Prop47
 90
       50
102
RTVSPost2010PropOp47
 70
     1
102
RTVSPost2010Prop48
 90
       50
102
RTVSPost2010PropOp48
 70
     1
102
RTVSPost2010Prop49
280
     0
102
RTVSPost2010PropOp49
 70
     1
102
RTVSPost2010Prop50
 90
       50
102
RTVSPost2010PropOp50
 70
     1
102
RTVSPost2010Prop51ColorIndex
 90
      256
102
RTVSPost2010Prop51ColorRGB
 90
-16777216
102
RTVSPost2010PropOp51
 70
     0
102
RTVSPost2010Prop52
140
1.0
102
RTVSPost2010PropOp52
 70
     0
102
RTVSPost2010Prop53
 90
        2
102
RTVSPost2010PropOp53
 70
     1
102
RTVSPost2010Prop54
  1
strokes_ogs.tif
102
RTVSPost2010PropOp54
 70
     1
102
RTVSPost2010Prop55
280
     0
102
RTVSPost2010PropOp55
 70
     1
102
RTVSPost2010Prop56
140
1.0
102
RTVSPost2010PropOp56
 70
     1
102
RTVSPost2010Prop57
140
1.0
102
RTVSPost2010PropOp57
 70
     1
  0
XRECORD
  5
5A394
102
{ACAD_REACTORS
330
5A393
102
}
330
5A393
100
AcDbXrecord
280
     1
102
RTVSPost2010Prop28
280
     0
102
RTVSPost2010PropOp28
 70
     1
102
RTVSPost2010Prop29
280
     1
102
RTVSPost2010PropOp29
 70
     1
102
RTVSPost2010Prop30
280
     1
102
RTVSPost2010PropOp30
 70
     1
102
RTVSPost2010Prop31
280
     0
102
RTVSPost2010PropOp31
 70
     1
102
RTVSPost2010Prop32
280
     0
102
RTVSPost2010PropOp32
 70
     1
102
RTVSPost2010Prop33
280
     0
102
RTVSPost2010PropOp33
 70
     1
102
RTVSPost2010Prop34
280
     0
102
RTVSPost2010PropOp34
 70
     1
102
RTVSPost2010Prop35
280
     0
102
RTVSPost2010PropOp35
 70
     1
102
RTVSPost2010Prop36
280
     0
102
RTVSPost2010PropOp36
 70
     1
102
RTVSPost2010Prop37
 90
       50
102
RTVSPost2010PropOp37
 70
     1
102
RTVSPost2010Prop38
140
0.0
102
RTVSPost2010PropOp38
 70
     1
102
RTVSPost2010Prop39
140
1.0
102
RTVSPost2010PropOp39
 70
     1
102
RTVSPost2010Prop40
 90
        0
102
RTVSPost2010PropOp40
 70
     1
102
RTVSPost2010Prop41ColorIndex
 90
       18
102
RTVSPost2010Prop41ColorRGB
 90
-16777216
102
RTVSPost2010PropOp41
 70
     1
102
RTVSPost2010Prop42
 90
       50
102
RTVSPost2010PropOp42
 70
     1
102
RTVSPost2010Prop43
 90
        3
102
RTVSPost2010PropOp43
 70
     1
102
RTVSPost2010Prop44ColorIndex
 90
        5
102
RTVSPost2010Prop44ColorRGB
 90
      255
102
RTVSPost2010PropOp44
 70
     1
102
RTVSPost2010Prop45
280
     0
102
RTVSPost2010PropOp45
 70
     1
102
RTVSPost2010Prop46
 90
       50
102
RTVSPost2010PropOp46
 70
     1
102
RTVSPost2010Prop47
 90
       50
102
RTVSPost2010PropOp47
 70
     1
102
RTVSPost2010Prop48
 90
       50
102
RTVSPost2010PropOp48
 70
     1
102
RTVSPost2010Prop49
280
     0
102
RTVSPost2010PropOp49
 70
     1
102
RTVSPost2010Prop50
 90
       50
102
RTVSPost2010PropOp50
 70
     1
102
RTVSPost2010Prop51ColorIndex
 90
      256
102
RTVSPost2010Prop51ColorRGB
 90
-16777216
102
RTVSPost2010PropOp51
 70
     0
102
RTVSPost2010Prop52
140
1.0
102
RTVSPost2010PropOp52
 70
     0
102
RTVSPost2010Prop53
 90
        2
102
RTVSPost2010PropOp53
 70
     1
102
RTVSPost2010Prop54
  1
strokes_ogs.tif
102
RTVSPost2010PropOp54
 70
     1
102
RTVSPost2010Prop55
280
     0
102
RTVSPost2010PropOp55
 70
     1
102
RTVSPost2010Prop56
140
1.0
102
RTVSPost2010PropOp56
 70
     1
102
RTVSPost2010Prop57
140
1.0
102
RTVSPost2010PropOp57
 70
     1
  0
XRECORD
  5
5A39C
102
{ACAD_REACTORS
330
5A39B
102
}
330
5A39B
100
AcDbXrecord
280
     1
102
RTVSPost2010Prop28
280
     0
102
RTVSPost2010PropOp28
 70
     1
102
RTVSPost2010Prop29
280
     1
102
RTVSPost2010PropOp29
 70
     1
102
RTVSPost2010Prop30
280
     1
102
RTVSPost2010PropOp30
 70
     1
102
RTVSPost2010Prop31
280
     0
102
RTVSPost2010PropOp31
 70
     1
102
RTVSPost2010Prop32
280
     0
102
RTVSPost2010PropOp32
 70
     1
102
RTVSPost2010Prop33
280
     0
102
RTVSPost2010PropOp33
 70
     1
102
RTVSPost2010Prop34
280
     0
102
RTVSPost2010PropOp34
 70
     1
102
RTVSPost2010Prop35
280
     0
102
RTVSPost2010PropOp35
 70
     1
102
RTVSPost2010Prop36
280
     0
102
RTVSPost2010PropOp36
 70
     1
102
RTVSPost2010Prop37
 90
       50
102
RTVSPost2010PropOp37
 70
     1
102
RTVSPost2010Prop38
140
0.0
102
RTVSPost2010PropOp38
 70
     1
102
RTVSPost2010Prop39
140
1.0
102
RTVSPost2010PropOp39
 70
     1
102
RTVSPost2010Prop40
 90
        0
102
RTVSPost2010PropOp40
 70
     1
102
RTVSPost2010Prop41ColorIndex
 90
       18
102
RTVSPost2010Prop41ColorRGB
 90
-16777216
102
RTVSPost2010PropOp41
 70
     1
102
RTVSPost2010Prop42
 90
       50
102
RTVSPost2010PropOp42
 70
     1
102
RTVSPost2010Prop43
 90
        3
102
RTVSPost2010PropOp43
 70
     1
102
RTVSPost2010Prop44ColorIndex
 90
        5
102
RTVSPost2010Prop44ColorRGB
 90
      255
102
RTVSPost2010PropOp44
 70
     1
102
RTVSPost2010Prop45
280
     0
102
RTVSPost2010PropOp45
 70
     1
102
RTVSPost2010Prop46
 90
       50
102
RTVSPost2010PropOp46
 70
     1
102
RTVSPost2010Prop47
 90
       50
102
RTVSPost2010PropOp47
 70
     1
102
RTVSPost2010Prop48
 90
       50
102
RTVSPost2010PropOp48
 70
     1
102
RTVSPost2010Prop49
280
     0
102
RTVSPost2010PropOp49
 70
     1
102
RTVSPost2010Prop50
 90
       50
102
RTVSPost2010PropOp50
 70
     1
102
RTVSPost2010Prop51ColorIndex
 90
      256
102
RTVSPost2010Prop51ColorRGB
 90
-16777216
102
RTVSPost2010PropOp51
 70
     0
102
RTVSPost2010Prop52
140
1.0
102
RTVSPost2010PropOp52
 70
     0
102
RTVSPost2010Prop53
 90
        2
102
RTVSPost2010PropOp53
 70
     1
102
RTVSPost2010Prop54
  1
strokes_ogs.tif
102
RTVSPost2010PropOp54
 70
     1
102
RTVSPost2010Prop55
280
     0
102
RTVSPost2010PropOp55
 70
     1
102
RTVSPost2010Prop56
140
1.0
102
RTVSPost2010PropOp56
 70
     1
102
RTVSPost2010Prop57
140
1.0
102
RTVSPost2010PropOp57
 70
     1
  0
XRECORD
  5
5A38E
102
{ACAD_REACTORS
330
5A38D
102
}
330
5A38D
100
AcDbXrecord
280
     1
102
RTVSPost2010Prop28
280
     0
102
RTVSPost2010PropOp28
 70
     1
102
RTVSPost2010Prop29
280
     1
102
RTVSPost2010PropOp29
 70
     1
102
RTVSPost2010Prop30
280
     1
102
RTVSPost2010PropOp30
 70
     1
102
RTVSPost2010Prop31
280
     0
102
RTVSPost2010PropOp31
 70
     1
102
RTVSPost2010Prop32
280
     0
102
RTVSPost2010PropOp32
 70
     1
102
RTVSPost2010Prop33
280
     0
102
RTVSPost2010PropOp33
 70
     1
102
RTVSPost2010Prop34
280
     0
102
RTVSPost2010PropOp34
 70
     1
102
RTVSPost2010Prop35
280
     0
102
RTVSPost2010PropOp35
 70
     1
102
RTVSPost2010Prop36
280
     0
102
RTVSPost2010PropOp36
 70
     1
102
RTVSPost2010Prop37
 90
       50
102
RTVSPost2010PropOp37
 70
     1
102
RTVSPost2010Prop38
140
0.0
102
RTVSPost2010PropOp38
 70
     1
102
RTVSPost2010Prop39
140
1.0
102
RTVSPost2010PropOp39
 70
     1
102
RTVSPost2010Prop40
 90
        0
102
RTVSPost2010PropOp40
 70
     1
102
RTVSPost2010Prop41ColorIndex
 90
       18
102
RTVSPost2010Prop41ColorRGB
 90
-16777216
102
RTVSPost2010PropOp41
 70
     1
102
RTVSPost2010Prop42
 90
       50
102
RTVSPost2010PropOp42
 70
     1
102
RTVSPost2010Prop43
 90
        3
102
RTVSPost2010PropOp43
 70
     1
102
RTVSPost2010Prop44ColorIndex
 90
        5
102
RTVSPost2010Prop44ColorRGB
 90
      255
102
RTVSPost2010PropOp44
 70
     1
102
RTVSPost2010Prop45
280
     0
102
RTVSPost2010PropOp45
 70
     1
102
RTVSPost2010Prop46
 90
       50
102
RTVSPost2010PropOp46
 70
     1
102
RTVSPost2010Prop47
 90
       50
102
RTVSPost2010PropOp47
 70
     1
102
RTVSPost2010Prop48
 90
       50
102
RTVSPost2010PropOp48
 70
     1
102
RTVSPost2010Prop49
280
     0
102
RTVSPost2010PropOp49
 70
     1
102
RTVSPost2010Prop50
 90
       50
102
RTVSPost2010PropOp50
 70
     1
102
RTVSPost2010Prop51ColorIndex
 90
      256
102
RTVSPost2010Prop51ColorRGB
 90
-16777216
102
RTVSPost2010PropOp51
 70
     0
102
RTVSPost2010Prop52
140
1.0
102
RTVSPost2010PropOp52
 70
     0
102
RTVSPost2010Prop53
 90
        2
102
RTVSPost2010PropOp53
 70
     1
102
RTVSPost2010Prop54
  1
strokes_ogs.tif
102
RTVSPost2010PropOp54
 70
     1
102
RTVSPost2010Prop55
280
     0
102
RTVSPost2010PropOp55
 70
     1
102
RTVSPost2010Prop56
140
1.0
102
RTVSPost2010PropOp56
 70
     1
102
RTVSPost2010Prop57
140
1.0
102
RTVSPost2010PropOp57
 70
     1
  0
XRECORD
  5
5A392
102
{ACAD_REACTORS
330
5A391
102
}
330
5A391
100
AcDbXrecord
280
     1
102
RTVSPost2010Prop28
280
     0
102
RTVSPost2010PropOp28
 70
     1
102
RTVSPost2010Prop29
280
     1
102
RTVSPost2010PropOp29
 70
     1
102
RTVSPost2010Prop30
280
     1
102
RTVSPost2010PropOp30
 70
     1
102
RTVSPost2010Prop31
280
     0
102
RTVSPost2010PropOp31
 70
     1
102
RTVSPost2010Prop32
280
     0
102
RTVSPost2010PropOp32
 70
     1
102
RTVSPost2010Prop33
280
     0
102
RTVSPost2010PropOp33
 70
     1
102
RTVSPost2010Prop34
280
     0
102
RTVSPost2010PropOp34
 70
     1
102
RTVSPost2010Prop35
280
     0
102
RTVSPost2010PropOp35
 70
     1
102
RTVSPost2010Prop36
280
     0
102
RTVSPost2010PropOp36
 70
     1
102
RTVSPost2010Prop37
 90
       50
102
RTVSPost2010PropOp37
 70
     1
102
RTVSPost2010Prop38
140
0.0
102
RTVSPost2010PropOp38
 70
     1
102
RTVSPost2010Prop39
140
1.0
102
RTVSPost2010PropOp39
 70
     1
102
RTVSPost2010Prop40
 90
        0
102
RTVSPost2010PropOp40
 70
     1
102
RTVSPost2010Prop41ColorIndex
 90
       18
102
RTVSPost2010Prop41ColorRGB
 90
-16777216
102
RTVSPost2010PropOp41
 70
     1
102
RTVSPost2010Prop42
 90
       50
102
RTVSPost2010PropOp42
 70
     1
102
RTVSPost2010Prop43
 90
        3
102
RTVSPost2010PropOp43
 70
     1
102
RTVSPost2010Prop44ColorIndex
 90
        5
102
RTVSPost2010Prop44ColorRGB
 90
      255
102
RTVSPost2010PropOp44
 70
     1
102
RTVSPost2010Prop45
280
     0
102
RTVSPost2010PropOp45
 70
     1
102
RTVSPost2010Prop46
 90
       50
102
RTVSPost2010PropOp46
 70
     1
102
RTVSPost2010Prop47
 90
       50
102
RTVSPost2010PropOp47
 70
     1
102
RTVSPost2010Prop48
 90
       50
102
RTVSPost2010PropOp48
 70
     1
102
RTVSPost2010Prop49
280
     0
102
RTVSPost2010PropOp49
 70
     1
102
RTVSPost2010Prop50
 90
       50
102
RTVSPost2010PropOp50
 70
     1
102
RTVSPost2010Prop51ColorIndex
 90
      256
102
RTVSPost2010Prop51ColorRGB
 90
-16777216
102
RTVSPost2010PropOp51
 70
     0
102
RTVSPost2010Prop52
140
1.0
102
RTVSPost2010PropOp52
 70
     0
102
RTVSPost2010Prop53
 90
        2
102
RTVSPost2010PropOp53
 70
     1
102
RTVSPost2010Prop54
  1
strokes_ogs.tif
102
RTVSPost2010PropOp54
 70
     1
102
RTVSPost2010Prop55
280
     0
102
RTVSPost2010PropOp55
 70
     1
102
RTVSPost2010Prop56
140
1.0
102
RTVSPost2010PropOp56
 70
     1
102
RTVSPost2010Prop57
140
1.0
102
RTVSPost2010PropOp57
 70
     1
  0
XRECORD
  5
5A3B0
102
{ACAD_REACTORS
330
5A3AF
102
}
330
5A3AF
100
AcDbXrecord
280
     1
102
RTVSPost2010Prop28
280
     0
102
RTVSPost2010PropOp28
 70
     0
102
RTVSPost2010Prop29
280
     1
102
RTVSPost2010PropOp29
 70
     0
102
RTVSPost2010Prop30
280
     1
102
RTVSPost2010PropOp30
 70
     0
102
RTVSPost2010Prop31
280
     0
102
RTVSPost2010PropOp31
 70
     0
102
RTVSPost2010Prop32
280
     0
102
RTVSPost2010PropOp32
 70
     0
102
RTVSPost2010Prop33
280
     0
102
RTVSPost2010PropOp33
 70
     0
102
RTVSPost2010Prop34
280
     0
102
RTVSPost2010PropOp34
 70
     0
102
RTVSPost2010Prop35
280
     0
102
RTVSPost2010PropOp35
 70
     0
102
RTVSPost2010Prop36
280
     0
102
RTVSPost2010PropOp36
 70
     0
102
RTVSPost2010Prop37
 90
       50
102
RTVSPost2010PropOp37
 70
     0
102
RTVSPost2010Prop38
140
0.0
102
RTVSPost2010PropOp38
 70
     0
102
RTVSPost2010Prop39
140
1.0
102
RTVSPost2010PropOp39
 70
     0
102
RTVSPost2010Prop40
 90
        0
102
RTVSPost2010PropOp40
 70
     0
102
RTVSPost2010Prop41ColorIndex
 90
       18
102
RTVSPost2010Prop41ColorRGB
 90
-16777216
102
RTVSPost2010PropOp41
 70
     0
102
RTVSPost2010Prop42
 90
       50
102
RTVSPost2010PropOp42
 70
     0
102
RTVSPost2010Prop43
 90
        3
102
RTVSPost2010PropOp43
 70
     0
102
RTVSPost2010Prop44ColorIndex
 90
        5
102
RTVSPost2010Prop44ColorRGB
 90
      255
102
RTVSPost2010PropOp44
 70
     0
102
RTVSPost2010Prop45
280
     0
102
RTVSPost2010PropOp45
 70
     0
102
RTVSPost2010Prop46
 90
       50
102
RTVSPost2010PropOp46
 70
     0
102
RTVSPost2010Prop47
 90
       50
102
RTVSPost2010PropOp47
 70
     0
102
RTVSPost2010Prop48
 90
       50
102
RTVSPost2010PropOp48
 70
     0
102
RTVSPost2010Prop49
280
     0
102
RTVSPost2010PropOp49
 70
     0
102
RTVSPost2010Prop50
 90
       50
102
RTVSPost2010PropOp50
 70
     0
102
RTVSPost2010Prop51ColorIndex
 90
      256
102
RTVSPost2010Prop51ColorRGB
 90
-16777216
102
RTVSPost2010PropOp51
 70
     0
102
RTVSPost2010Prop52
140
1.0
102
RTVSPost2010PropOp52
 70
     0
102
RTVSPost2010Prop53
 90
        2
102
RTVSPost2010PropOp53
 70
     0
102
RTVSPost2010Prop54
  1
strokes_ogs.tif
102
RTVSPost2010PropOp54
 70
     0
102
RTVSPost2010Prop55
280
     0
102
RTVSPost2010PropOp55
 70
     0
102
RTVSPost2010Prop56
140
1.0
102
RTVSPost2010PropOp56
 70
     0
102
RTVSPost2010Prop57
140
1.0
102
RTVSPost2010PropOp57
 70
     0
  0
XRECORD
  5
5A39A
102
{ACAD_REACTORS
330
5A399
102
}
330
5A399
100
AcDbXrecord
280
     1
102
RTVSPost2010Prop28
280
     0
102
RTVSPost2010PropOp28
 70
     1
102
RTVSPost2010Prop29
280
     1
102
RTVSPost2010PropOp29
 70
     1
102
RTVSPost2010Prop30
280
     1
102
RTVSPost2010PropOp30
 70
     1
102
RTVSPost2010Prop31
280
     0
102
RTVSPost2010PropOp31
 70
     1
102
RTVSPost2010Prop32
280
     0
102
RTVSPost2010PropOp32
 70
     1
102
RTVSPost2010Prop33
280
     0
102
RTVSPost2010PropOp33
 70
     1
102
RTVSPost2010Prop34
280
     0
102
RTVSPost2010PropOp34
 70
     1
102
RTVSPost2010Prop35
280
     0
102
RTVSPost2010PropOp35
 70
     1
102
RTVSPost2010Prop36
280
     0
102
RTVSPost2010PropOp36
 70
     1
102
RTVSPost2010Prop37
 90
       50
102
RTVSPost2010PropOp37
 70
     1
102
RTVSPost2010Prop38
140
0.0
102
RTVSPost2010PropOp38
 70
     1
102
RTVSPost2010Prop39
140
1.0
102
RTVSPost2010PropOp39
 70
     1
102
RTVSPost2010Prop40
 90
        0
102
RTVSPost2010PropOp40
 70
     1
102
RTVSPost2010Prop41ColorIndex
 90
       18
102
RTVSPost2010Prop41ColorRGB
 90
-16777216
102
RTVSPost2010PropOp41
 70
     1
102
RTVSPost2010Prop42
 90
       50
102
RTVSPost2010PropOp42
 70
     1
102
RTVSPost2010Prop43
 90
        3
102
RTVSPost2010PropOp43
 70
     1
102
RTVSPost2010Prop44ColorIndex
 90
        5
102
RTVSPost2010Prop44ColorRGB
 90
      255
102
RTVSPost2010PropOp44
 70
     1
102
RTVSPost2010Prop45
280
     0
102
RTVSPost2010PropOp45
 70
     1
102
RTVSPost2010Prop46
 90
       50
102
RTVSPost2010PropOp46
 70
     1
102
RTVSPost2010Prop47
 90
       50
102
RTVSPost2010PropOp47
 70
     1
102
RTVSPost2010Prop48
 90
       50
102
RTVSPost2010PropOp48
 70
     1
102
RTVSPost2010Prop49
280
     0
102
RTVSPost2010PropOp49
 70
     1
102
RTVSPost2010Prop50
 90
       50
102
RTVSPost2010PropOp50
 70
     1
102
RTVSPost2010Prop51ColorIndex
 90
      256
102
RTVSPost2010Prop51ColorRGB
 90
-16777216
102
RTVSPost2010PropOp51
 70
     0
102
RTVSPost2010Prop52
140
1.0
102
RTVSPost2010PropOp52
 70
     0
102
RTVSPost2010Prop53
 90
        2
102
RTVSPost2010PropOp53
 70
     1
102
RTVSPost2010Prop54
  1
strokes_ogs.tif
102
RTVSPost2010PropOp54
 70
     1
102
RTVSPost2010Prop55
280
     0
102
RTVSPost2010PropOp55
 70
     1
102
RTVSPost2010Prop56
140
1.0
102
RTVSPost2010PropOp56
 70
     1
102
RTVSPost2010Prop57
140
1.0
102
RTVSPost2010PropOp57
 70
     1
  0
XRECORD
  5
5A37E
102
{ACAD_REACTORS
330
5A37D
102
}
330
5A37D
100
AcDbXrecord
280
     1
102
RTVSPost2010Prop28
280
     0
102
RTVSPost2010PropOp28
 70
     1
102
RTVSPost2010Prop29
280
     1
102
RTVSPost2010PropOp29
 70
     1
102
RTVSPost2010Prop30
280
     1
102
RTVSPost2010PropOp30
 70
     1
102
RTVSPost2010Prop31
280
     0
102
RTVSPost2010PropOp31
 70
     1
102
RTVSPost2010Prop32
280
     0
102
RTVSPost2010PropOp32
 70
     1
102
RTVSPost2010Prop33
280
     0
102
RTVSPost2010PropOp33
 70
     1
102
RTVSPost2010Prop34
280
     0
102
RTVSPost2010PropOp34
 70
     1
102
RTVSPost2010Prop35
280
     0
102
RTVSPost2010PropOp35
 70
     1
102
RTVSPost2010Prop36
280
     0
102
RTVSPost2010PropOp36
 70
     1
102
RTVSPost2010Prop37
 90
       50
102
RTVSPost2010PropOp37
 70
     1
102
RTVSPost2010Prop38
140
0.0
102
RTVSPost2010PropOp38
 70
     1
102
RTVSPost2010Prop39
140
1.0
102
RTVSPost2010PropOp39
 70
     1
102
RTVSPost2010Prop40
 90
        0
102
RTVSPost2010PropOp40
 70
     1
102
RTVSPost2010Prop41ColorIndex
 90
       18
102
RTVSPost2010Prop41ColorRGB
 90
-16777216
102
RTVSPost2010PropOp41
 70
     1
102
RTVSPost2010Prop42
 90
       50
102
RTVSPost2010PropOp42
 70
     1
102
RTVSPost2010Prop43
 90
        3
102
RTVSPost2010PropOp43
 70
     1
102
RTVSPost2010Prop44ColorIndex
 90
        5
102
RTVSPost2010Prop44ColorRGB
 90
      255
102
RTVSPost2010PropOp44
 70
     1
102
RTVSPost2010Prop45
280
     0
102
RTVSPost2010PropOp45
 70
     1
102
RTVSPost2010Prop46
 90
       50
102
RTVSPost2010PropOp46
 70
     1
102
RTVSPost2010Prop47
 90
       50
102
RTVSPost2010PropOp47
 70
     1
102
RTVSPost2010Prop48
 90
       50
102
RTVSPost2010PropOp48
 70
     1
102
RTVSPost2010Prop49
280
     0
102
RTVSPost2010PropOp49
 70
     1
102
RTVSPost2010Prop50
 90
       50
102
RTVSPost2010PropOp50
 70
     1
102
RTVSPost2010Prop51ColorIndex
 90
      256
102
RTVSPost2010Prop51ColorRGB
 90
-16777216
102
RTVSPost2010PropOp51
 70
     0
102
RTVSPost2010Prop52
140
1.0
102
RTVSPost2010PropOp52
 70
     0
102
RTVSPost2010Prop53
 90
        2
102
RTVSPost2010PropOp53
 70
     1
102
RTVSPost2010Prop54
  1
strokes_ogs.tif
102
RTVSPost2010PropOp54
 70
     1
102
RTVSPost2010Prop55
280
     0
102
RTVSPost2010PropOp55
 70
     1
102
RTVSPost2010Prop56
140
1.0
102
RTVSPost2010PropOp56
 70
     1
102
RTVSPost2010Prop57
140
1.0
102
RTVSPost2010PropOp57
 70
     1
  0
XRECORD
  5
5A380
102
{ACAD_REACTORS
330
5A37F
102
}
330
5A37F
100
AcDbXrecord
280
     1
102
RTVSPost2010Prop28
280
     0
102
RTVSPost2010PropOp28
 70
     1
102
RTVSPost2010Prop29
280
     1
102
RTVSPost2010PropOp29
 70
     1
102
RTVSPost2010Prop30
280
     1
102
RTVSPost2010PropOp30
 70
     1
102
RTVSPost2010Prop31
280
     0
102
RTVSPost2010PropOp31
 70
     1
102
RTVSPost2010Prop32
280
     0
102
RTVSPost2010PropOp32
 70
     1
102
RTVSPost2010Prop33
280
     0
102
RTVSPost2010PropOp33
 70
     1
102
RTVSPost2010Prop34
280
     0
102
RTVSPost2010PropOp34
 70
     1
102
RTVSPost2010Prop35
280
     0
102
RTVSPost2010PropOp35
 70
     1
102
RTVSPost2010Prop36
280
     0
102
RTVSPost2010PropOp36
 70
     1
102
RTVSPost2010Prop37
 90
       50
102
RTVSPost2010PropOp37
 70
     1
102
RTVSPost2010Prop38
140
0.0
102
RTVSPost2010PropOp38
 70
     1
102
RTVSPost2010Prop39
140
1.0
102
RTVSPost2010PropOp39
 70
     1
102
RTVSPost2010Prop40
 90
        0
102
RTVSPost2010PropOp40
 70
     1
102
RTVSPost2010Prop41ColorIndex
 90
       18
102
RTVSPost2010Prop41ColorRGB
 90
-16777216
102
RTVSPost2010PropOp41
 70
     1
102
RTVSPost2010Prop42
 90
       50
102
RTVSPost2010PropOp42
 70
     1
102
RTVSPost2010Prop43
 90
        3
102
RTVSPost2010PropOp43
 70
     1
102
RTVSPost2010Prop44ColorIndex
 90
        5
102
RTVSPost2010Prop44ColorRGB
 90
      255
102
RTVSPost2010PropOp44
 70
     1
102
RTVSPost2010Prop45
280
     0
102
RTVSPost2010PropOp45
 70
     1
102
RTVSPost2010Prop46
 90
       50
102
RTVSPost2010PropOp46
 70
     1
102
RTVSPost2010Prop47
 90
       50
102
RTVSPost2010PropOp47
 70
     1
102
RTVSPost2010Prop48
 90
       50
102
RTVSPost2010PropOp48
 70
     1
102
RTVSPost2010Prop49
280
     0
102
RTVSPost2010PropOp49
 70
     1
102
RTVSPost2010Prop50
 90
       50
102
RTVSPost2010PropOp50
 70
     1
102
RTVSPost2010Prop51ColorIndex
 90
      256
102
RTVSPost2010Prop51ColorRGB
 90
-16777216
102
RTVSPost2010PropOp51
 70
     0
102
RTVSPost2010Prop52
140
1.0
102
RTVSPost2010PropOp52
 70
     0
102
RTVSPost2010Prop53
 90
        2
102
RTVSPost2010PropOp53
 70
     1
102
RTVSPost2010Prop54
  1
strokes_ogs.tif
102
RTVSPost2010PropOp54
 70
     1
102
RTVSPost2010Prop55
280
     0
102
RTVSPost2010PropOp55
 70
     1
102
RTVSPost2010Prop56
140
1.0
102
RTVSPost2010PropOp56
 70
     1
102
RTVSPost2010Prop57
140
1.0
102
RTVSPost2010PropOp57
 70
     1
  0
XRECORD
  5
5A382
102
{ACAD_REACTORS
330
5A381
102
}
330
5A381
100
AcDbXrecord
280
     1
102
RTVSPost2010Prop28
280
     0
102
RTVSPost2010PropOp28
 70
     1
102
RTVSPost2010Prop29
280
     1
102
RTVSPost2010PropOp29
 70
     1
102
RTVSPost2010Prop30
280
     1
102
RTVSPost2010PropOp30
 70
     1
102
RTVSPost2010Prop31
280
     0
102
RTVSPost2010PropOp31
 70
     1
102
RTVSPost2010Prop32
280
     0
102
RTVSPost2010PropOp32
 70
     1
102
RTVSPost2010Prop33
280
     0
102
RTVSPost2010PropOp33
 70
     1
102
RTVSPost2010Prop34
280
     0
102
RTVSPost2010PropOp34
 70
     1
102
RTVSPost2010Prop35
280
     0
102
RTVSPost2010PropOp35
 70
     1
102
RTVSPost2010Prop36
280
     0
102
RTVSPost2010PropOp36
 70
     1
102
RTVSPost2010Prop37
 90
       50
102
RTVSPost2010PropOp37
 70
     1
102
RTVSPost2010Prop38
140
0.0
102
RTVSPost2010PropOp38
 70
     1
102
RTVSPost2010Prop39
140
1.0
102
RTVSPost2010PropOp39
 70
     1
102
RTVSPost2010Prop40
 90
        0
102
RTVSPost2010PropOp40
 70
     1
102
RTVSPost2010Prop41ColorIndex
 90
       18
102
RTVSPost2010Prop41ColorRGB
 90
-16777216
102
RTVSPost2010PropOp41
 70
     1
102
RTVSPost2010Prop42
 90
       50
102
RTVSPost2010PropOp42
 70
     1
102
RTVSPost2010Prop43
 90
        3
102
RTVSPost2010PropOp43
 70
     1
102
RTVSPost2010Prop44ColorIndex
 90
        5
102
RTVSPost2010Prop44ColorRGB
 90
      255
102
RTVSPost2010PropOp44
 70
     1
102
RTVSPost2010Prop45
280
     0
102
RTVSPost2010PropOp45
 70
     1
102
RTVSPost2010Prop46
 90
       50
102
RTVSPost2010PropOp46
 70
     1
102
RTVSPost2010Prop47
 90
       50
102
RTVSPost2010PropOp47
 70
     1
102
RTVSPost2010Prop48
 90
       50
102
RTVSPost2010PropOp48
 70
     1
102
RTVSPost2010Prop49
280
     0
102
RTVSPost2010PropOp49
 70
     1
102
RTVSPost2010Prop50
 90
       50
102
RTVSPost2010PropOp50
 70
     1
102
RTVSPost2010Prop51ColorIndex
 90
      256
102
RTVSPost2010Prop51ColorRGB
 90
-16777216
102
RTVSPost2010PropOp51
 70
     0
102
RTVSPost2010Prop52
140
1.0
102
RTVSPost2010PropOp52
 70
     0
102
RTVSPost2010Prop53
 90
        2
102
RTVSPost2010PropOp53
 70
     1
102
RTVSPost2010Prop54
  1
strokes_ogs.tif
102
RTVSPost2010PropOp54
 70
     1
102
RTVSPost2010Prop55
280
     0
102
RTVSPost2010PropOp55
 70
     1
102
RTVSPost2010Prop56
140
1.0
102
RTVSPost2010PropOp56
 70
     1
102
RTVSPost2010Prop57
140
1.0
102
RTVSPost2010PropOp57
 70
     1
  0
XRECORD
  5
5A384
102
{ACAD_REACTORS
330
5A383
102
}
330
5A383
100
AcDbXrecord
280
     1
102
RTVSPost2010Prop28
280
     0
102
RTVSPost2010PropOp28
 70
     1
102
RTVSPost2010Prop29
280
     1
102
RTVSPost2010PropOp29
 70
     1
102
RTVSPost2010Prop30
280
     1
102
RTVSPost2010PropOp30
 70
     1
102
RTVSPost2010Prop31
280
     0
102
RTVSPost2010PropOp31
 70
     1
102
RTVSPost2010Prop32
280
     0
102
RTVSPost2010PropOp32
 70
     1
102
RTVSPost2010Prop33
280
     0
102
RTVSPost2010PropOp33
 70
     1
102
RTVSPost2010Prop34
280
     0
102
RTVSPost2010PropOp34
 70
     1
102
RTVSPost2010Prop35
280
     0
102
RTVSPost2010PropOp35
 70
     1
102
RTVSPost2010Prop36
280
     0
102
RTVSPost2010PropOp36
 70
     1
102
RTVSPost2010Prop37
 90
       50
102
RTVSPost2010PropOp37
 70
     1
102
RTVSPost2010Prop38
140
0.0
102
RTVSPost2010PropOp38
 70
     1
102
RTVSPost2010Prop39
140
1.0
102
RTVSPost2010PropOp39
 70
     1
102
RTVSPost2010Prop40
 90
        0
102
RTVSPost2010PropOp40
 70
     1
102
RTVSPost2010Prop41ColorIndex
 90
       18
102
RTVSPost2010Prop41ColorRGB
 90
-16777216
102
RTVSPost2010PropOp41
 70
     1
102
RTVSPost2010Prop42
 90
       50
102
RTVSPost2010PropOp42
 70
     1
102
RTVSPost2010Prop43
 90
        3
102
RTVSPost2010PropOp43
 70
     1
102
RTVSPost2010Prop44ColorIndex
 90
        5
102
RTVSPost2010Prop44ColorRGB
 90
      255
102
RTVSPost2010PropOp44
 70
     1
102
RTVSPost2010Prop45
280
     0
102
RTVSPost2010PropOp45
 70
     1
102
RTVSPost2010Prop46
 90
       50
102
RTVSPost2010PropOp46
 70
     1
102
RTVSPost2010Prop47
 90
       50
102
RTVSPost2010PropOp47
 70
     1
102
RTVSPost2010Prop48
 90
       50
102
RTVSPost2010PropOp48
 70
     1
102
RTVSPost2010Prop49
280
     0
102
RTVSPost2010PropOp49
 70
     1
102
RTVSPost2010Prop50
 90
       50
102
RTVSPost2010PropOp50
 70
     1
102
RTVSPost2010Prop51ColorIndex
 90
      256
102
RTVSPost2010Prop51ColorRGB
 90
-16777216
102
RTVSPost2010PropOp51
 70
     0
102
RTVSPost2010Prop52
140
1.0
102
RTVSPost2010PropOp52
 70
     0
102
RTVSPost2010Prop53
 90
        2
102
RTVSPost2010PropOp53
 70
     1
102
RTVSPost2010Prop54
  1
strokes_ogs.tif
102
RTVSPost2010PropOp54
 70
     1
102
RTVSPost2010Prop55
280
     0
102
RTVSPost2010PropOp55
 70
     1
102
RTVSPost2010Prop56
140
1.0
102
RTVSPost2010PropOp56
 70
     1
102
RTVSPost2010Prop57
140
1.0
102
RTVSPost2010PropOp57
 70
     1
  0
XRECORD
  5
5A3A0
102
{ACAD_REACTORS
330
5A39F
102
}
330
5A39F
100
AcDbXrecord
280
     1
102
RTVSPost2010Prop28
280
     0
102
RTVSPost2010PropOp28
 70
     1
102
RTVSPost2010Prop29
280
     1
102
RTVSPost2010PropOp29
 70
     1
102
RTVSPost2010Prop30
280
     1
102
RTVSPost2010PropOp30
 70
     1
102
RTVSPost2010Prop31
280
     0
102
RTVSPost2010PropOp31
 70
     1
102
RTVSPost2010Prop32
280
     0
102
RTVSPost2010PropOp32
 70
     1
102
RTVSPost2010Prop33
280
     0
102
RTVSPost2010PropOp33
 70
     1
102
RTVSPost2010Prop34
280
     0
102
RTVSPost2010PropOp34
 70
     1
102
RTVSPost2010Prop35
280
     0
102
RTVSPost2010PropOp35
 70
     1
102
RTVSPost2010Prop36
280
     0
102
RTVSPost2010PropOp36
 70
     1
102
RTVSPost2010Prop37
 90
       50
102
RTVSPost2010PropOp37
 70
     1
102
RTVSPost2010Prop38
140
0.0
102
RTVSPost2010PropOp38
 70
     1
102
RTVSPost2010Prop39
140
1.0
102
RTVSPost2010PropOp39
 70
     1
102
RTVSPost2010Prop40
 90
        0
102
RTVSPost2010PropOp40
 70
     1
102
RTVSPost2010Prop41ColorIndex
 90
       18
102
RTVSPost2010Prop41ColorRGB
 90
-16777216
102
RTVSPost2010PropOp41
 70
     1
102
RTVSPost2010Prop42
 90
       50
102
RTVSPost2010PropOp42
 70
     1
102
RTVSPost2010Prop43
 90
        3
102
RTVSPost2010PropOp43
 70
     1
102
RTVSPost2010Prop44ColorIndex
 90
        5
102
RTVSPost2010Prop44ColorRGB
 90
      255
102
RTVSPost2010PropOp44
 70
     1
102
RTVSPost2010Prop45
280
     0
102
RTVSPost2010PropOp45
 70
     1
102
RTVSPost2010Prop46
 90
       50
102
RTVSPost2010PropOp46
 70
     1
102
RTVSPost2010Prop47
 90
       50
102
RTVSPost2010PropOp47
 70
     1
102
RTVSPost2010Prop48
 90
       50
102
RTVSPost2010PropOp48
 70
     1
102
RTVSPost2010Prop49
280
     0
102
RTVSPost2010PropOp49
 70
     1
102
RTVSPost2010Prop50
 90
       50
102
RTVSPost2010PropOp50
 70
     1
102
RTVSPost2010Prop51ColorIndex
 90
      256
102
RTVSPost2010Prop51ColorRGB
 90
-16777216
102
RTVSPost2010PropOp51
 70
     0
102
RTVSPost2010Prop52
140
1.0
102
RTVSPost2010PropOp52
 70
     0
102
RTVSPost2010Prop53
 90
        2
102
RTVSPost2010PropOp53
 70
     1
102
RTVSPost2010Prop54
  1
strokes_ogs.tif
102
RTVSPost2010PropOp54
 70
     1
102
RTVSPost2010Prop55
280
     0
102
RTVSPost2010PropOp55
 70
     1
102
RTVSPost2010Prop56
140
1.0
102
RTVSPost2010PropOp56
 70
     1
102
RTVSPost2010Prop57
140
1.0
102
RTVSPost2010PropOp57
 70
     1
  0
XRECORD
  5
5A3AC
102
{ACAD_REACTORS
330
5A3AB
102
}
330
5A3AB
100
AcDbXrecord
280
     1
102
RTVSPost2010Prop28
280
     0
102
RTVSPost2010PropOp28
 70
     0
102
RTVSPost2010Prop29
280
     1
102
RTVSPost2010PropOp29
 70
     0
102
RTVSPost2010Prop30
280
     1
102
RTVSPost2010PropOp30
 70
     0
102
RTVSPost2010Prop31
280
     0
102
RTVSPost2010PropOp31
 70
     0
102
RTVSPost2010Prop32
280
     0
102
RTVSPost2010PropOp32
 70
     0
102
RTVSPost2010Prop33
280
     0
102
RTVSPost2010PropOp33
 70
     0
102
RTVSPost2010Prop34
280
     0
102
RTVSPost2010PropOp34
 70
     0
102
RTVSPost2010Prop35
280
     0
102
RTVSPost2010PropOp35
 70
     0
102
RTVSPost2010Prop36
280
     0
102
RTVSPost2010PropOp36
 70
     0
102
RTVSPost2010Prop37
 90
       50
102
RTVSPost2010PropOp37
 70
     0
102
RTVSPost2010Prop38
140
0.0
102
RTVSPost2010PropOp38
 70
     0
102
RTVSPost2010Prop39
140
1.0
102
RTVSPost2010PropOp39
 70
     0
102
RTVSPost2010Prop40
 90
        0
102
RTVSPost2010PropOp40
 70
     0
102
RTVSPost2010Prop41ColorIndex
 90
       18
102
RTVSPost2010Prop41ColorRGB
 90
-16777216
102
RTVSPost2010PropOp41
 70
     0
102
RTVSPost2010Prop42
 90
       50
102
RTVSPost2010PropOp42
 70
     0
102
RTVSPost2010Prop43
 90
        3
102
RTVSPost2010PropOp43
 70
     0
102
RTVSPost2010Prop44ColorIndex
 90
        5
102
RTVSPost2010Prop44ColorRGB
 90
      255
102
RTVSPost2010PropOp44
 70
     0
102
RTVSPost2010Prop45
280
     0
102
RTVSPost2010PropOp45
 70
     0
102
RTVSPost2010Prop46
 90
       50
102
RTVSPost2010PropOp46
 70
     0
102
RTVSPost2010Prop47
 90
       50
102
RTVSPost2010PropOp47
 70
     0
102
RTVSPost2010Prop48
 90
       50
102
RTVSPost2010PropOp48
 70
     0
102
RTVSPost2010Prop49
280
     0
102
RTVSPost2010PropOp49
 70
     0
102
RTVSPost2010Prop50
 90
       50
102
RTVSPost2010PropOp50
 70
     0
102
RTVSPost2010Prop51ColorIndex
 90
      256
102
RTVSPost2010Prop51ColorRGB
 90
-16777216
102
RTVSPost2010PropOp51
 70
     0
102
RTVSPost2010Prop52
140
1.0
102
RTVSPost2010PropOp52
 70
     0
102
RTVSPost2010Prop53
 90
        2
102
RTVSPost2010PropOp53
 70
     0
102
RTVSPost2010Prop54
  1
strokes_ogs.tif
102
RTVSPost2010PropOp54
 70
     0
102
RTVSPost2010Prop55
280
     0
102
RTVSPost2010PropOp55
 70
     0
102
RTVSPost2010Prop56
140
1.0
102
RTVSPost2010PropOp56
 70
     0
102
RTVSPost2010Prop57
140
1.0
102
RTVSPost2010PropOp57
 70
     0
  0
XRECORD
  5
5A398
102
{ACAD_REACTORS
330
5A397
102
}
330
5A397
100
AcDbXrecord
280
     1
102
RTVSPost2010Prop28
280
     0
102
RTVSPost2010PropOp28
 70
     1
102
RTVSPost2010Prop29
280
     1
102
RTVSPost2010PropOp29
 70
     1
102
RTVSPost2010Prop30
280
     1
102
RTVSPost2010PropOp30
 70
     1
102
RTVSPost2010Prop31
280
     0
102
RTVSPost2010PropOp31
 70
     1
102
RTVSPost2010Prop32
280
     0
102
RTVSPost2010PropOp32
 70
     1
102
RTVSPost2010Prop33
280
     0
102
RTVSPost2010PropOp33
 70
     1
102
RTVSPost2010Prop34
280
     0
102
RTVSPost2010PropOp34
 70
     1
102
RTVSPost2010Prop35
280
     0
102
RTVSPost2010PropOp35
 70
     1
102
RTVSPost2010Prop36
280
     0
102
RTVSPost2010PropOp36
 70
     1
102
RTVSPost2010Prop37
 90
       50
102
RTVSPost2010PropOp37
 70
     1
102
RTVSPost2010Prop38
140
0.0
102
RTVSPost2010PropOp38
 70
     1
102
RTVSPost2010Prop39
140
1.0
102
RTVSPost2010PropOp39
 70
     1
102
RTVSPost2010Prop40
 90
        0
102
RTVSPost2010PropOp40
 70
     1
102
RTVSPost2010Prop41ColorIndex
 90
       18
102
RTVSPost2010Prop41ColorRGB
 90
-16777216
102
RTVSPost2010PropOp41
 70
     1
102
RTVSPost2010Prop42
 90
       50
102
RTVSPost2010PropOp42
 70
     1
102
RTVSPost2010Prop43
 90
        3
102
RTVSPost2010PropOp43
 70
     1
102
RTVSPost2010Prop44ColorIndex
 90
        5
102
RTVSPost2010Prop44ColorRGB
 90
      255
102
RTVSPost2010PropOp44
 70
     1
102
RTVSPost2010Prop45
280
     0
102
RTVSPost2010PropOp45
 70
     1
102
RTVSPost2010Prop46
 90
       50
102
RTVSPost2010PropOp46
 70
     1
102
RTVSPost2010Prop47
 90
       50
102
RTVSPost2010PropOp47
 70
     1
102
RTVSPost2010Prop48
 90
       50
102
RTVSPost2010PropOp48
 70
     1
102
RTVSPost2010Prop49
280
     0
102
RTVSPost2010PropOp49
 70
     1
102
RTVSPost2010Prop50
 90
       50
102
RTVSPost2010PropOp50
 70
     1
102
RTVSPost2010Prop51ColorIndex
 90
      256
102
RTVSPost2010Prop51ColorRGB
 90
-16777216
102
RTVSPost2010PropOp51
 70
     0
102
RTVSPost2010Prop52
140
1.0
102
RTVSPost2010PropOp52
 70
     0
102
RTVSPost2010Prop53
 90
        2
102
RTVSPost2010PropOp53
 70
     1
102
RTVSPost2010Prop54
  1
strokes_ogs.tif
102
RTVSPost2010PropOp54
 70
     1
102
RTVSPost2010Prop55
280
     0
102
RTVSPost2010PropOp55
 70
     1
102
RTVSPost2010Prop56
140
1.0
102
RTVSPost2010PropOp56
 70
     1
102
RTVSPost2010Prop57
140
1.0
102
RTVSPost2010PropOp57
 70
     1
  0
XRECORD
  5
5A3AE
102
{ACAD_REACTORS
330
5A3AD
102
}
330
5A3AD
100
AcDbXrecord
280
     1
102
RTVSPost2010Prop28
280
     0
102
RTVSPost2010PropOp28
 70
     0
102
RTVSPost2010Prop29
280
     1
102
RTVSPost2010PropOp29
 70
     0
102
RTVSPost2010Prop30
280
     1
102
RTVSPost2010PropOp30
 70
     0
102
RTVSPost2010Prop31
280
     0
102
RTVSPost2010PropOp31
 70
     0
102
RTVSPost2010Prop32
280
     0
102
RTVSPost2010PropOp32
 70
     0
102
RTVSPost2010Prop33
280
     0
102
RTVSPost2010PropOp33
 70
     0
102
RTVSPost2010Prop34
280
     0
102
RTVSPost2010PropOp34
 70
     0
102
RTVSPost2010Prop35
280
     0
102
RTVSPost2010PropOp35
 70
     0
102
RTVSPost2010Prop36
280
     0
102
RTVSPost2010PropOp36
 70
     0
102
RTVSPost2010Prop37
 90
       50
102
RTVSPost2010PropOp37
 70
     0
102
RTVSPost2010Prop38
140
0.0
102
RTVSPost2010PropOp38
 70
     0
102
RTVSPost2010Prop39
140
1.0
102
RTVSPost2010PropOp39
 70
     0
102
RTVSPost2010Prop40
 90
        0
102
RTVSPost2010PropOp40
 70
     0
102
RTVSPost2010Prop41ColorIndex
 90
       18
102
RTVSPost2010Prop41ColorRGB
 90
-16777216
102
RTVSPost2010PropOp41
 70
     0
102
RTVSPost2010Prop42
 90
       50
102
RTVSPost2010PropOp42
 70
     0
102
RTVSPost2010Prop43
 90
        3
102
RTVSPost2010PropOp43
 70
     0
102
RTVSPost2010Prop44ColorIndex
 90
        5
102
RTVSPost2010Prop44ColorRGB
 90
      255
102
RTVSPost2010PropOp44
 70
     0
102
RTVSPost2010Prop45
280
     0
102
RTVSPost2010PropOp45
 70
     0
102
RTVSPost2010Prop46
 90
       50
102
RTVSPost2010PropOp46
 70
     0
102
RTVSPost2010Prop47
 90
       50
102
RTVSPost2010PropOp47
 70
     0
102
RTVSPost2010Prop48
 90
       50
102
RTVSPost2010PropOp48
 70
     0
102
RTVSPost2010Prop49
280
     0
102
RTVSPost2010PropOp49
 70
     0
102
RTVSPost2010Prop50
 90
       50
102
RTVSPost2010PropOp50
 70
     0
102
RTVSPost2010Prop51ColorIndex
 90
      256
102
RTVSPost2010Prop51ColorRGB
 90
-16777216
102
RTVSPost2010PropOp51
 70
     0
102
RTVSPost2010Prop52
140
1.0
102
RTVSPost2010PropOp52
 70
     0
102
RTVSPost2010Prop53
 90
        2
102
RTVSPost2010PropOp53
 70
     0
102
RTVSPost2010Prop54
  1
strokes_ogs.tif
102
RTVSPost2010PropOp54
 70
     0
102
RTVSPost2010Prop55
280
     0
102
RTVSPost2010PropOp55
 70
     0
102
RTVSPost2010Prop56
140
1.0
102
RTVSPost2010PropOp56
 70
     0
102
RTVSPost2010Prop57
140
1.0
102
RTVSPost2010PropOp57
 70
     0
  0
XRECORD
  5
5A390
102
{ACAD_REACTORS
330
5A38F
102
}
330
5A38F
100
AcDbXrecord
280
     1
102
RTVSPost2010Prop28
280
     0
102
RTVSPost2010PropOp28
 70
     1
102
RTVSPost2010Prop29
280
     1
102
RTVSPost2010PropOp29
 70
     1
102
RTVSPost2010Prop30
280
     1
102
RTVSPost2010PropOp30
 70
     1
102
RTVSPost2010Prop31
280
     0
102
RTVSPost2010PropOp31
 70
     1
102
RTVSPost2010Prop32
280
     0
102
RTVSPost2010PropOp32
 70
     1
102
RTVSPost2010Prop33
280
     0
102
RTVSPost2010PropOp33
 70
     1
102
RTVSPost2010Prop34
280
     0
102
RTVSPost2010PropOp34
 70
     1
102
RTVSPost2010Prop35
280
     0
102
RTVSPost2010PropOp35
 70
     1
102
RTVSPost2010Prop36
280
     0
102
RTVSPost2010PropOp36
 70
     1
102
RTVSPost2010Prop37
 90
       50
102
RTVSPost2010PropOp37
 70
     1
102
RTVSPost2010Prop38
140
0.0
102
RTVSPost2010PropOp38
 70
     1
102
RTVSPost2010Prop39
140
1.0
102
RTVSPost2010PropOp39
 70
     1
102
RTVSPost2010Prop40
 90
        0
102
RTVSPost2010PropOp40
 70
     1
102
RTVSPost2010Prop41ColorIndex
 90
       18
102
RTVSPost2010Prop41ColorRGB
 90
-16777216
102
RTVSPost2010PropOp41
 70
     1
102
RTVSPost2010Prop42
 90
       50
102
RTVSPost2010PropOp42
 70
     1
102
RTVSPost2010Prop43
 90
        3
102
RTVSPost2010PropOp43
 70
     1
102
RTVSPost2010Prop44ColorIndex
 90
        5
102
RTVSPost2010Prop44ColorRGB
 90
      255
102
RTVSPost2010PropOp44
 70
     1
102
RTVSPost2010Prop45
280
     0
102
RTVSPost2010PropOp45
 70
     1
102
RTVSPost2010Prop46
 90
       50
102
RTVSPost2010PropOp46
 70
     1
102
RTVSPost2010Prop47
 90
       50
102
RTVSPost2010PropOp47
 70
     1
102
RTVSPost2010Prop48
 90
       50
102
RTVSPost2010PropOp48
 70
     1
102
RTVSPost2010Prop49
280
     0
102
RTVSPost2010PropOp49
 70
     1
102
RTVSPost2010Prop50
 90
       50
102
RTVSPost2010PropOp50
 70
     1
102
RTVSPost2010Prop51ColorIndex
 90
      256
102
RTVSPost2010Prop51ColorRGB
 90
-16777216
102
RTVSPost2010PropOp51
 70
     0
102
RTVSPost2010Prop52
140
1.0
102
RTVSPost2010PropOp52
 70
     0
102
RTVSPost2010Prop53
 90
        2
102
RTVSPost2010PropOp53
 70
     1
102
RTVSPost2010Prop54
  1
strokes_ogs.tif
102
RTVSPost2010PropOp54
 70
     1
102
RTVSPost2010Prop55
280
     0
102
RTVSPost2010PropOp55
 70
     1
102
RTVSPost2010Prop56
140
1.0
102
RTVSPost2010PropOp56
 70
     1
102
RTVSPost2010Prop57
140
1.0
102
RTVSPost2010PropOp57
 70
     1
  0
XRECORD
  5
5A3AA
102
{ACAD_REACTORS
330
5A3A9
102
}
330
5A3A9
100
AcDbXrecord
280
     1
102
RTVSPost2010Prop28
280
     0
102
RTVSPost2010PropOp28
 70
     1
102
RTVSPost2010Prop29
280
     1
102
RTVSPost2010PropOp29
 70
     1
102
RTVSPost2010Prop30
280
     1
102
RTVSPost2010PropOp30
 70
     1
102
RTVSPost2010Prop31
280
     0
102
RTVSPost2010PropOp31
 70
     1
102
RTVSPost2010Prop32
280
     0
102
RTVSPost2010PropOp32
 70
     1
102
RTVSPost2010Prop33
280
     0
102
RTVSPost2010PropOp33
 70
     1
102
RTVSPost2010Prop34
280
     0
102
RTVSPost2010PropOp34
 70
     1
102
RTVSPost2010Prop35
280
     0
102
RTVSPost2010PropOp35
 70
     1
102
RTVSPost2010Prop36
280
     0
102
RTVSPost2010PropOp36
 70
     1
102
RTVSPost2010Prop37
 90
       50
102
RTVSPost2010PropOp37
 70
     1
102
RTVSPost2010Prop38
140
0.0
102
RTVSPost2010PropOp38
 70
     1
102
RTVSPost2010Prop39
140
1.0
102
RTVSPost2010PropOp39
 70
     1
102
RTVSPost2010Prop40
 90
        0
102
RTVSPost2010PropOp40
 70
     1
102
RTVSPost2010Prop41ColorIndex
 90
       18
102
RTVSPost2010Prop41ColorRGB
 90
-16777216
102
RTVSPost2010PropOp41
 70
     1
102
RTVSPost2010Prop42
 90
       50
102
RTVSPost2010PropOp42
 70
     1
102
RTVSPost2010Prop43
 90
        3
102
RTVSPost2010PropOp43
 70
     1
102
RTVSPost2010Prop44ColorIndex
 90
        5
102
RTVSPost2010Prop44ColorRGB
 90
      255
102
RTVSPost2010PropOp44
 70
     1
102
RTVSPost2010Prop45
280
     0
102
RTVSPost2010PropOp45
 70
     1
102
RTVSPost2010Prop46
 90
       50
102
RTVSPost2010PropOp46
 70
     1
102
RTVSPost2010Prop47
 90
       50
102
RTVSPost2010PropOp47
 70
     1
102
RTVSPost2010Prop48
 90
       50
102
RTVSPost2010PropOp48
 70
     1
102
RTVSPost2010Prop49
280
     0
102
RTVSPost2010PropOp49
 70
     1
102
RTVSPost2010Prop50
 90
       50
102
RTVSPost2010PropOp50
 70
     1
102
RTVSPost2010Prop51ColorIndex
 90
      256
102
RTVSPost2010Prop51ColorRGB
 90
-16777216
102
RTVSPost2010PropOp51
 70
     0
102
RTVSPost2010Prop52
140
1.0
102
RTVSPost2010PropOp52
 70
     0
102
RTVSPost2010Prop53
 90
        2
102
RTVSPost2010PropOp53
 70
     1
102
RTVSPost2010Prop54
  1
strokes_ogs.tif
102
RTVSPost2010PropOp54
 70
     1
102
RTVSPost2010Prop55
280
     0
102
RTVSPost2010PropOp55
 70
     1
102
RTVSPost2010Prop56
140
1.0
102
RTVSPost2010PropOp56
 70
     1
102
RTVSPost2010Prop57
140
1.0
102
RTVSPost2010PropOp57
 70
     1
  0
XRECORD
  5
5A3A8
102
{ACAD_REACTORS
330
5A3A7
102
}
330
5A3A7
100
AcDbXrecord
280
     1
102
RTVSPost2010Prop28
280
     0
102
RTVSPost2010PropOp28
 70
     1
102
RTVSPost2010Prop29
280
     1
102
RTVSPost2010PropOp29
 70
     1
102
RTVSPost2010Prop30
280
     1
102
RTVSPost2010PropOp30
 70
     1
102
RTVSPost2010Prop31
280
     0
102
RTVSPost2010PropOp31
 70
     1
102
RTVSPost2010Prop32
280
     0
102
RTVSPost2010PropOp32
 70
     1
102
RTVSPost2010Prop33
280
     0
102
RTVSPost2010PropOp33
 70
     1
102
RTVSPost2010Prop34
280
     0
102
RTVSPost2010PropOp34
 70
     1
102
RTVSPost2010Prop35
280
     0
102
RTVSPost2010PropOp35
 70
     1
102
RTVSPost2010Prop36
280
     0
102
RTVSPost2010PropOp36
 70
     1
102
RTVSPost2010Prop37
 90
       50
102
RTVSPost2010PropOp37
 70
     1
102
RTVSPost2010Prop38
140
0.0
102
RTVSPost2010PropOp38
 70
     1
102
RTVSPost2010Prop39
140
1.0
102
RTVSPost2010PropOp39
 70
     1
102
RTVSPost2010Prop40
 90
        0
102
RTVSPost2010PropOp40
 70
     1
102
RTVSPost2010Prop41ColorIndex
 90
       18
102
RTVSPost2010Prop41ColorRGB
 90
-16777216
102
RTVSPost2010PropOp41
 70
     1
102
RTVSPost2010Prop42
 90
       50
102
RTVSPost2010PropOp42
 70
     1
102
RTVSPost2010Prop43
 90
        3
102
RTVSPost2010PropOp43
 70
     1
102
RTVSPost2010Prop44ColorIndex
 90
        5
102
RTVSPost2010Prop44ColorRGB
 90
      255
102
RTVSPost2010PropOp44
 70
     1
102
RTVSPost2010Prop45
280
     0
102
RTVSPost2010PropOp45
 70
     1
102
RTVSPost2010Prop46
 90
       50
102
RTVSPost2010PropOp46
 70
     1
102
RTVSPost2010Prop47
 90
       50
102
RTVSPost2010PropOp47
 70
     1
102
RTVSPost2010Prop48
 90
       50
102
RTVSPost2010PropOp48
 70
     1
102
RTVSPost2010Prop49
280
     0
102
RTVSPost2010PropOp49
 70
     1
102
RTVSPost2010Prop50
 90
       50
102
RTVSPost2010PropOp50
 70
     1
102
RTVSPost2010Prop51ColorIndex
 90
      256
102
RTVSPost2010Prop51ColorRGB
 90
-16777216
102
RTVSPost2010PropOp51
 70
     0
102
RTVSPost2010Prop52
140
1.0
102
RTVSPost2010PropOp52
 70
     0
102
RTVSPost2010Prop53
 90
        2
102
RTVSPost2010PropOp53
 70
     1
102
RTVSPost2010Prop54
  1
strokes_ogs.tif
102
RTVSPost2010PropOp54
 70
     1
102
RTVSPost2010Prop55
280
     0
102
RTVSPost2010PropOp55
 70
     1
102
RTVSPost2010Prop56
140
1.0
102
RTVSPost2010PropOp56
 70
     1
102
RTVSPost2010Prop57
140
1.0
102
RTVSPost2010PropOp57
 70
     1
  0
XRECORD
  5
5A3A2
102
{ACAD_REACTORS
330
5A3A1
102
}
330
5A3A1
100
AcDbXrecord
280
     1
102
RTVSPost2010Prop28
280
     0
102
RTVSPost2010PropOp28
 70
     1
102
RTVSPost2010Prop29
280
     1
102
RTVSPost2010PropOp29
 70
     1
102
RTVSPost2010Prop30
280
     1
102
RTVSPost2010PropOp30
 70
     1
102
RTVSPost2010Prop31
280
     0
102
RTVSPost2010PropOp31
 70
     1
102
RTVSPost2010Prop32
280
     0
102
RTVSPost2010PropOp32
 70
     1
102
RTVSPost2010Prop33
280
     0
102
RTVSPost2010PropOp33
 70
     1
102
RTVSPost2010Prop34
280
     0
102
RTVSPost2010PropOp34
 70
     1
102
RTVSPost2010Prop35
280
     0
102
RTVSPost2010PropOp35
 70
     1
102
RTVSPost2010Prop36
280
     0
102
RTVSPost2010PropOp36
 70
     1
102
RTVSPost2010Prop37
 90
       50
102
RTVSPost2010PropOp37
 70
     1
102
RTVSPost2010Prop38
140
0.0
102
RTVSPost2010PropOp38
 70
     1
102
RTVSPost2010Prop39
140
1.0
102
RTVSPost2010PropOp39
 70
     1
102
RTVSPost2010Prop40
 90
        0
102
RTVSPost2010PropOp40
 70
     1
102
RTVSPost2010Prop41ColorIndex
 90
       18
102
RTVSPost2010Prop41ColorRGB
 90
-16777216
102
RTVSPost2010PropOp41
 70
     1
102
RTVSPost2010Prop42
 90
       50
102
RTVSPost2010PropOp42
 70
     1
102
RTVSPost2010Prop43
 90
        3
102
RTVSPost2010PropOp43
 70
     1
102
RTVSPost2010Prop44ColorIndex
 90
        5
102
RTVSPost2010Prop44ColorRGB
 90
      255
102
RTVSPost2010PropOp44
 70
     1
102
RTVSPost2010Prop45
280
     0
102
RTVSPost2010PropOp45
 70
     1
102
RTVSPost2010Prop46
 90
       50
102
RTVSPost2010PropOp46
 70
     1
102
RTVSPost2010Prop47
 90
       50
102
RTVSPost2010PropOp47
 70
     1
102
RTVSPost2010Prop48
 90
       50
102
RTVSPost2010PropOp48
 70
     1
102
RTVSPost2010Prop49
280
     0
102
RTVSPost2010PropOp49
 70
     1
102
RTVSPost2010Prop50
 90
       50
102
RTVSPost2010PropOp50
 70
     1
102
RTVSPost2010Prop51ColorIndex
 90
      256
102
RTVSPost2010Prop51ColorRGB
 90
-16777216
102
RTVSPost2010PropOp51
 70
     0
102
RTVSPost2010Prop52
140
1.0
102
RTVSPost2010PropOp52
 70
     0
102
RTVSPost2010Prop53
 90
        2
102
RTVSPost2010PropOp53
 70
     1
102
RTVSPost2010Prop54
  1
strokes_ogs.tif
102
RTVSPost2010PropOp54
 70
     1
102
RTVSPost2010Prop55
280
     0
102
RTVSPost2010PropOp55
 70
     1
102
RTVSPost2010Prop56
140
1.0
102
RTVSPost2010PropOp56
 70
     1
102
RTVSPost2010Prop57
140
1.0
102
RTVSPost2010PropOp57
 70
     1
  0
XRECORD
  5
5A3A4
102
{ACAD_REACTORS
330
5A3A3
102
}
330
5A3A3
100
AcDbXrecord
280
     1
102
RTVSPost2010Prop28
280
     0
102
RTVSPost2010PropOp28
 70
     1
102
RTVSPost2010Prop29
280
     1
102
RTVSPost2010PropOp29
 70
     1
102
RTVSPost2010Prop30
280
     1
102
RTVSPost2010PropOp30
 70
     1
102
RTVSPost2010Prop31
280
     0
102
RTVSPost2010PropOp31
 70
     1
102
RTVSPost2010Prop32
280
     0
102
RTVSPost2010PropOp32
 70
     1
102
RTVSPost2010Prop33
280
     0
102
RTVSPost2010PropOp33
 70
     1
102
RTVSPost2010Prop34
280
     0
102
RTVSPost2010PropOp34
 70
     1
102
RTVSPost2010Prop35
280
     0
102
RTVSPost2010PropOp35
 70
     1
102
RTVSPost2010Prop36
280
     0
102
RTVSPost2010PropOp36
 70
     1
102
RTVSPost2010Prop37
 90
       50
102
RTVSPost2010PropOp37
 70
     1
102
RTVSPost2010Prop38
140
0.0
102
RTVSPost2010PropOp38
 70
     1
102
RTVSPost2010Prop39
140
1.0
102
RTVSPost2010PropOp39
 70
     1
102
RTVSPost2010Prop40
 90
        0
102
RTVSPost2010PropOp40
 70
     1
102
RTVSPost2010Prop41ColorIndex
 90
       18
102
RTVSPost2010Prop41ColorRGB
 90
-16777216
102
RTVSPost2010PropOp41
 70
     1
102
RTVSPost2010Prop42
 90
       50
102
RTVSPost2010PropOp42
 70
     1
102
RTVSPost2010Prop43
 90
        3
102
RTVSPost2010PropOp43
 70
     1
102
RTVSPost2010Prop44ColorIndex
 90
        5
102
RTVSPost2010Prop44ColorRGB
 90
      255
102
RTVSPost2010PropOp44
 70
     1
102
RTVSPost2010Prop45
280
     0
102
RTVSPost2010PropOp45
 70
     1
102
RTVSPost2010Prop46
 90
       50
102
RTVSPost2010PropOp46
 70
     1
102
RTVSPost2010Prop47
 90
       50
102
RTVSPost2010PropOp47
 70
     1
102
RTVSPost2010Prop48
 90
       50
102
RTVSPost2010PropOp48
 70
     1
102
RTVSPost2010Prop49
280
     0
102
RTVSPost2010PropOp49
 70
     1
102
RTVSPost2010Prop50
 90
       50
102
RTVSPost2010PropOp50
 70
     1
102
RTVSPost2010Prop51ColorIndex
 90
      256
102
RTVSPost2010Prop51ColorRGB
 90
-16777216
102
RTVSPost2010PropOp51
 70
     0
102
RTVSPost2010Prop52
140
1.0
102
RTVSPost2010PropOp52
 70
     0
102
RTVSPost2010Prop53
 90
        2
102
RTVSPost2010PropOp53
 70
     1
102
RTVSPost2010Prop54
  1
strokes_ogs.tif
102
RTVSPost2010PropOp54
 70
     1
102
RTVSPost2010Prop55
280
     0
102
RTVSPost2010PropOp55
 70
     1
102
RTVSPost2010Prop56
140
1.0
102
RTVSPost2010PropOp56
 70
     1
102
RTVSPost2010Prop57
140
1.0
102
RTVSPost2010PropOp57
 70
     1
  0
XRECORD
  5
5A396
102
{ACAD_REACTORS
330
5A395
102
}
330
5A395
100
AcDbXrecord
280
     1
102
RTVSPost2010Prop28
280
     0
102
RTVSPost2010PropOp28
 70
     1
102
RTVSPost2010Prop29
280
     1
102
RTVSPost2010PropOp29
 70
     1
102
RTVSPost2010Prop30
280
     1
102
RTVSPost2010PropOp30
 70
     1
102
RTVSPost2010Prop31
280
     0
102
RTVSPost2010PropOp31
 70
     1
102
RTVSPost2010Prop32
280
     0
102
RTVSPost2010PropOp32
 70
     1
102
RTVSPost2010Prop33
280
     0
102
RTVSPost2010PropOp33
 70
     1
102
RTVSPost2010Prop34
280
     0
102
RTVSPost2010PropOp34
 70
     1
102
RTVSPost2010Prop35
280
     0
102
RTVSPost2010PropOp35
 70
     1
102
RTVSPost2010Prop36
280
     0
102
RTVSPost2010PropOp36
 70
     1
102
RTVSPost2010Prop37
 90
       50
102
RTVSPost2010PropOp37
 70
     1
102
RTVSPost2010Prop38
140
0.0
102
RTVSPost2010PropOp38
 70
     1
102
RTVSPost2010Prop39
140
1.0
102
RTVSPost2010PropOp39
 70
     1
102
RTVSPost2010Prop40
 90
        0
102
RTVSPost2010PropOp40
 70
     1
102
RTVSPost2010Prop41ColorIndex
 90
       18
102
RTVSPost2010Prop41ColorRGB
 90
-16777216
102
RTVSPost2010PropOp41
 70
     1
102
RTVSPost2010Prop42
 90
       50
102
RTVSPost2010PropOp42
 70
     1
102
RTVSPost2010Prop43
 90
        3
102
RTVSPost2010PropOp43
 70
     1
102
RTVSPost2010Prop44ColorIndex
 90
        5
102
RTVSPost2010Prop44ColorRGB
 90
      255
102
RTVSPost2010PropOp44
 70
     1
102
RTVSPost2010Prop45
280
     0
102
RTVSPost2010PropOp45
 70
     1
102
RTVSPost2010Prop46
 90
       50
102
RTVSPost2010PropOp46
 70
     1
102
RTVSPost2010Prop47
 90
       50
102
RTVSPost2010PropOp47
 70
     1
102
RTVSPost2010Prop48
 90
       50
102
RTVSPost2010PropOp48
 70
     1
102
RTVSPost2010Prop49
280
     0
102
RTVSPost2010PropOp49
 70
     1
102
RTVSPost2010Prop50
 90
       50
102
RTVSPost2010PropOp50
 70
     1
102
RTVSPost2010Prop51ColorIndex
 90
      256
102
RTVSPost2010Prop51ColorRGB
 90
-16777216
102
RTVSPost2010PropOp51
 70
     0
102
RTVSPost2010Prop52
140
1.0
102
RTVSPost2010PropOp52
 70
     0
102
RTVSPost2010Prop53
 90
        2
102
RTVSPost2010PropOp53
 70
     1
102
RTVSPost2010Prop54
  1
strokes_ogs.tif
102
RTVSPost2010PropOp54
 70
     1
102
RTVSPost2010Prop55
280
     0
102
RTVSPost2010PropOp55
 70
     1
102
RTVSPost2010Prop56
140
1.0
102
RTVSPost2010PropOp56
 70
     1
102
RTVSPost2010Prop57
140
1.0
102
RTVSPost2010PropOp57
 70
     1
  0
XRECORD
  5
5A39E
102
{ACAD_REACTORS
330
5A39D
102
}
330
5A39D
100
AcDbXrecord
280
     1
102
RTVSPost2010Prop28
280
     0
102
RTVSPost2010PropOp28
 70
     1
102
RTVSPost2010Prop29
280
     1
102
RTVSPost2010PropOp29
 70
     1
102
RTVSPost2010Prop30
280
     1
102
RTVSPost2010PropOp30
 70
     1
102
RTVSPost2010Prop31
280
     0
102
RTVSPost2010PropOp31
 70
     1
102
RTVSPost2010Prop32
280
     0
102
RTVSPost2010PropOp32
 70
     1
102
RTVSPost2010Prop33
280
     0
102
RTVSPost2010PropOp33
 70
     1
102
RTVSPost2010Prop34
280
     0
102
RTVSPost2010PropOp34
 70
     1
102
RTVSPost2010Prop35
280
     0
102
RTVSPost2010PropOp35
 70
     1
102
RTVSPost2010Prop36
280
     0
102
RTVSPost2010PropOp36
 70
     1
102
RTVSPost2010Prop37
 90
       50
102
RTVSPost2010PropOp37
 70
     1
102
RTVSPost2010Prop38
140
0.0
102
RTVSPost2010PropOp38
 70
     1
102
RTVSPost2010Prop39
140
1.0
102
RTVSPost2010PropOp39
 70
     1
102
RTVSPost2010Prop40
 90
        0
102
RTVSPost2010PropOp40
 70
     1
102
RTVSPost2010Prop41ColorIndex
 90
       18
102
RTVSPost2010Prop41ColorRGB
 90
-16777216
102
RTVSPost2010PropOp41
 70
     1
102
RTVSPost2010Prop42
 90
       50
102
RTVSPost2010PropOp42
 70
     1
102
RTVSPost2010Prop43
 90
        3
102
RTVSPost2010PropOp43
 70
     1
102
RTVSPost2010Prop44ColorIndex
 90
        5
102
RTVSPost2010Prop44ColorRGB
 90
      255
102
RTVSPost2010PropOp44
 70
     1
102
RTVSPost2010Prop45
280
     0
102
RTVSPost2010PropOp45
 70
     1
102
RTVSPost2010Prop46
 90
       50
102
RTVSPost2010PropOp46
 70
     1
102
RTVSPost2010Prop47
 90
       50
102
RTVSPost2010PropOp47
 70
     1
102
RTVSPost2010Prop48
 90
       50
102
RTVSPost2010PropOp48
 70
     1
102
RTVSPost2010Prop49
280
     0
102
RTVSPost2010PropOp49
 70
     1
102
RTVSPost2010Prop50
 90
       50
102
RTVSPost2010PropOp50
 70
     1
102
RTVSPost2010Prop51ColorIndex
 90
      256
102
RTVSPost2010Prop51ColorRGB
 90
-16777216
102
RTVSPost2010PropOp51
 70
     0
102
RTVSPost2010Prop52
140
1.0
102
RTVSPost2010PropOp52
 70
     0
102
RTVSPost2010Prop53
 90
        2
102
RTVSPost2010PropOp53
 70
     1
102
RTVSPost2010Prop54
  1
strokes_ogs.tif
102
RTVSPost2010PropOp54
 70
     1
102
RTVSPost2010Prop55
280
     0
102
RTVSPost2010PropOp55
 70
     1
102
RTVSPost2010Prop56
140
1.0
102
RTVSPost2010PropOp56
 70
     1
102
RTVSPost2010Prop57
140
1.0
102
RTVSPost2010PropOp57
 70
     1
  0
XRECORD
  5
5A3A6
102
{ACAD_REACTORS
330
5A3A5
102
}
330
5A3A5
100
AcDbXrecord
280
     1
102
RTVSPost2010Prop28
280
     0
102
RTVSPost2010PropOp28
 70
     1
102
RTVSPost2010Prop29
280
     1
102
RTVSPost2010PropOp29
 70
     1
102
RTVSPost2010Prop30
280
     1
102
RTVSPost2010PropOp30
 70
     1
102
RTVSPost2010Prop31
280
     0
102
RTVSPost2010PropOp31
 70
     1
102
RTVSPost2010Prop32
280
     0
102
RTVSPost2010PropOp32
 70
     1
102
RTVSPost2010Prop33
280
     0
102
RTVSPost2010PropOp33
 70
     1
102
RTVSPost2010Prop34
280
     0
102
RTVSPost2010PropOp34
 70
     1
102
RTVSPost2010Prop35
280
     0
102
RTVSPost2010PropOp35
 70
     1
102
RTVSPost2010Prop36
280
     0
102
RTVSPost2010PropOp36
 70
     1
102
RTVSPost2010Prop37
 90
       50
102
RTVSPost2010PropOp37
 70
     1
102
RTVSPost2010Prop38
140
0.0
102
RTVSPost2010PropOp38
 70
     1
102
RTVSPost2010Prop39
140
1.0
102
RTVSPost2010PropOp39
 70
     1
102
RTVSPost2010Prop40
 90
        0
102
RTVSPost2010PropOp40
 70
     1
102
RTVSPost2010Prop41ColorIndex
 90
       18
102
RTVSPost2010Prop41ColorRGB
 90
-16777216
102
RTVSPost2010PropOp41
 70
     1
102
RTVSPost2010Prop42
 90
       50
102
RTVSPost2010PropOp42
 70
     1
102
RTVSPost2010Prop43
 90
        3
102
RTVSPost2010PropOp43
 70
     1
102
RTVSPost2010Prop44ColorIndex
 90
        5
102
RTVSPost2010Prop44ColorRGB
 90
      255
102
RTVSPost2010PropOp44
 70
     1
102
RTVSPost2010Prop45
280
     0
102
RTVSPost2010PropOp45
 70
     1
102
RTVSPost2010Prop46
 90
       50
102
RTVSPost2010PropOp46
 70
     1
102
RTVSPost2010Prop47
 90
       50
102
RTVSPost2010PropOp47
 70
     1
102
RTVSPost2010Prop48
 90
       50
102
RTVSPost2010PropOp48
 70
     1
102
RTVSPost2010Prop49
280
     0
102
RTVSPost2010PropOp49
 70
     1
102
RTVSPost2010Prop50
 90
       50
102
RTVSPost2010PropOp50
 70
     1
102
RTVSPost2010Prop51ColorIndex
 90
      256
102
RTVSPost2010Prop51ColorRGB
 90
-16777216
102
RTVSPost2010PropOp51
 70
     0
102
RTVSPost2010Prop52
140
1.0
102
RTVSPost2010PropOp52
 70
     0
102
RTVSPost2010Prop53
 90
        2
102
RTVSPost2010PropOp53
 70
     1
102
RTVSPost2010Prop54
  1
strokes_ogs.tif
102
RTVSPost2010PropOp54
 70
     1
102
RTVSPost2010Prop55
280
     0
102
RTVSPost2010PropOp55
 70
     1
102
RTVSPost2010Prop56
140
1.0
102
RTVSPost2010PropOp56
 70
     1
102
RTVSPost2010Prop57
140
1.0
102
RTVSPost2010PropOp57
 70
     1
  0
ENDSEC
  0
EOF
