  0
SECTION
  2
HEADER
  9
$ACADVER
  1
AC1024
  9
$ACADMAINTVER
 70
   226
  9
$DWGCODEPAGE
  3
ANSI_1252
  9
$LASTSAVEDBY
  1
mhumphreys
  9
$INSBASE
 10
0.0
 20
0.0
 30
0.0
  9
$EXTMIN
 10
388.11463974047
 20
261.387195700725
 30
-0.0015258207003583
  9
$EXTMAX
 10
13952.96498072843
 20
8243.884886361582
 30
0.0000000349246037
  9
$LIMMIN
 10
0.0
 20
0.0
  9
$LIMMAX
 10
420.0
 20
297.0
  9
$ORTHOMODE
 70
     1
  9
$REGENMODE
 70
     1
  9
$FILLMODE
 70
     1
  9
$QTEXTMODE
 70
     0
  9
$MIRRTEXT
 70
     0
  9
$LTSCALE
 40
1.0
  9
$ATTMODE
 70
     1
  9
$TEXTSIZE
 40
2.5
  9
$TRACEWID
 40
1.0
  9
$TEXTSTYLE
  7
Standard
  9
$CLAYER
  8
0
  9
$CELTYPE
  6
ByLayer
  9
$CECOLOR
 62
   256
  9
$CELTSCALE
 40
50.0
  9
$DISPSILH
 70
     0
  9
$DIMSCALE
 40
1.0
  9
$DIMASZ
 40
0.18
  9
$DIMEXO
 40
0.0625
  9
$DIMDLI
 40
0.38
  9
$DIMRND
 40
0.0
  9
$DIMDLE
 40
0.0
  9
$DIMEXE
 40
0.18
  9
$DIMTP
 40
0.0
  9
$DIMTM
 40
0.0
  9
$DIMTXT
 40
0.18
  9
$DIMCEN
 40
0.09
  9
$DIMTSZ
 40
0.0
  9
$DIMTOL
 70
     0
  9
$DIMLIM
 70
     0
  9
$DIMTIH
 70
     1
  9
$DIMTOH
 70
     1
  9
$DIMSE1
 70
     0
  9
$DIMSE2
 70
     0
  9
$DIMTAD
 70
     0
  9
$DIMZIN
 70
     0
  9
$DIMBLK
  1

  9
$DIMASO
 70
     1
  9
$DIMSHO
 70
     1
  9
$DIMPOST
  1

  9
$DIMAPOST
  1

  9
$DIMALT
 70
     0
  9
$DIMALTD
 70
     2
  9
$DIMALTF
 40
25.4
  9
$DIMLFAC
 40
1.0
  9
$DIMTOFL
 70
     0
  9
$DIMTVP
 40
0.0
  9
$DIMTIX
 70
     0
  9
$DIMSOXD
 70
     0
  9
$DIMSAH
 70
     0
  9
$DIMBLK1
  1

  9
$DIMBLK2
  1

  9
$DIMSTYLE
  2
Standard
  9
$DIMCLRD
 70
     0
  9
$DIMCLRE
 70
     0
  9
$DIMCLRT
 70
     0
  9
$DIMTFAC
 40
1.0
  9
$DIMGAP
 40
0.09
  9
$DIMJUST
 70
     0
  9
$DIMSD1
 70
     0
  9
$DIMSD2
 70
     0
  9
$DIMTOLJ
 70
     1
  9
$DIMTZIN
 70
     0
  9
$DIMALTZ
 70
     0
  9
$DIMALTTZ
 70
     0
  9
$DIMUPT
 70
     0
  9
$DIMDEC
 70
     0
  9
$DIMTDEC
 70
     0
  9
$DIMALTU
 70
     2
  9
$DIMALTTD
 70
     2
  9
$DIMTXSTY
  7
Standard
  9
$DIMAUNIT
 70
     0
  9
$DIMADEC
 70
     0
  9
$DIMALTRND
 40
0.0
  9
$DIMAZIN
 70
     0
  9
$DIMDSEP
 70
    46
  9
$DIMATFIT
 70
     3
  9
$DIMFRAC
 70
     0
  9
$DIMLDRBLK
  1

  9
$DIMLUNIT
 70
     2
  9
$DIMLWD
 70
    -2
  9
$DIMLWE
 70
    -2
  9
$DIMTMOVE
 70
     0
  9
$DIMFXL
 40
1.0
  9
$DIMFXLON
 70
     0
  9
$DIMJOGANG
 40
0.7853981633974483
  9
$DIMTFILL
 70
     0
  9
$DIMTFILLCLR
 70
     0
  9
$DIMARCSYM
 70
     0
  9
$DIMLTYPE
  6

  9
$DIMLTEX1
  6

  9
$DIMLTEX2
  6

  9
$DIMTXTDIRECTION
 70
     0
  9
$LUNITS
 70
     2
  9
$LUPREC
 70
     4
  9
$SKETCHINC
 40
1.0
  9
$FILLETRAD
 40
20.0
  9
$AUNITS
 70
     0
  9
$AUPREC
 70
     0
  9
$MENU
  1
.
  9
$ELEVATION
 40
0.0
  9
$PELEVATION
 40
0.0
  9
$THICKNESS
 40
0.0
  9
$LIMCHECK
 70
     0
  9
$CHAMFERA
 40
0.0
  9
$CHAMFERB
 40
0.0
  9
$CHAMFERC
 40
20.0
  9
$CHAMFERD
 40
0.0
  9
$SKPOLY
 70
     0
  9
$TDCREATE
 40
2454761.433460648
  9
$TDUCREATE
 40
2454761.391795914
  9
$TDUPDATE
 40
2458815.591423611
  9
$TDUUPDATE
 40
2458815.591423611
  9
$TDINDWG
 40
11.4316188079
  9
$TDUSRTIMER
 40
11.4316113889
  9
$USRTIMER
 70
     1
  9
$ANGBASE
 50
0.0
  9
$ANGDIR
 70
     0
  9
$PDMODE
 70
     0
  9
$PDSIZE
 40
0.0
  9
$PLINEWID
 40
0.0
  9
$SPLFRAME
 70
     0
  9
$SPLINETYPE
 70
     6
  9
$SPLINESEGS
 70
     8
  9
$HANDSEED
  5
59C4C
  9
$SURFTAB1
 70
     6
  9
$SURFTAB2
 70
     6
  9
$SURFTYPE
 70
     6
  9
$SURFU
 70
     6
  9
$SURFV
 70
     6
  9
$UCSBASE
  2

  9
$UCSNAME
  2

  9
$UCSORG
 10
0.0
 20
0.0
 30
0.0
  9
$UCSXDIR
 10
1.0
 20
0.0
 30
0.0
  9
$UCSYDIR
 10
0.0
 20
1.0
 30
0.0
  9
$UCSORTHOREF
  2

  9
$UCSORTHOVIEW
 70
     0
  9
$UCSORGTOP
 10
0.0
 20
0.0
 30
0.0
  9
$UCSORGBOTTOM
 10
0.0
 20
0.0
 30
0.0
  9
$UCSORGLEFT
 10
0.0
 20
0.0
 30
0.0
  9
$UCSORGRIGHT
 10
0.0
 20
0.0
 30
0.0
  9
$UCSORGFRONT
 10
0.0
 20
0.0
 30
0.0
  9
$UCSORGBACK
 10
0.0
 20
0.0
 30
0.0
  9
$PUCSBASE
  2

  9
$PUCSNAME
  2

  9
$PUCSORG
 10
0.0
 20
0.0
 30
0.0
  9
$PUCSXDIR
 10
1.0
 20
0.0
 30
0.0
  9
$PUCSYDIR
 10
0.0
 20
1.0
 30
0.0
  9
$PUCSORTHOREF
  2

  9
$PUCSORTHOVIEW
 70
     0
  9
$PUCSORGTOP
 10
0.0
 20
0.0
 30
0.0
  9
$PUCSORGBOTTOM
 10
0.0
 20
0.0
 30
0.0
  9
$PUCSORGLEFT
 10
0.0
 20
0.0
 30
0.0
  9
$PUCSORGRIGHT
 10
0.0
 20
0.0
 30
0.0
  9
$PUCSORGFRONT
 10
0.0
 20
0.0
 30
0.0
  9
$PUCSORGBACK
 10
0.0
 20
0.0
 30
0.0
  9
$USERI1
 70
     0
  9
$USERI2
 70
     0
  9
$USERI3
 70
     0
  9
$USERI4
 70
     0
  9
$USERI5
 70
     0
  9
$USERR1
 40
0.0
  9
$USERR2
 40
0.0
  9
$USERR3
 40
0.0
  9
$USERR4
 40
0.0
  9
$USERR5
 40
0.0
  9
$WORLDVIEW
 70
     1
  9
$SHADEDGE
 70
     3
  9
$SHADEDIF
 70
    70
  9
$TILEMODE
 70
     0
  9
$MAXACTVP
 70
    64
  9
$PINSBASE
 10
0.0
 20
0.0
 30
0.0
  9
$PLIMCHECK
 70
     0
  9
$PEXTMIN
 10
1.746888190649769
 20
16.14432144039233
 30
-0.0015258207003583
  9
$PEXTMAX
 10
413.5373544896862
 20
289.9819831565918
 30
0.0000000349246037
  9
$PLIMMIN
 10
-3.17498779296875
 20
-3.174999952316283
  9
$PLIMMAX
 10
416.8250122070311
 20
293.8250000476837
  9
$UNITMODE
 70
     0
  9
$VISRETAIN
 70
     1
  9
$PLINEGEN
 70
     0
  9
$PSLTSCALE
 70
     1
  9
$TREEDEPTH
 70
  3020
  9
$CMLSTYLE
  2
Standard
  9
$CMLJUST
 70
     0
  9
$CMLSCALE
 40
20.0
  9
$PROXYGRAPHICS
 70
     1
  9
$MEASUREMENT
 70
     1
  9
$CELWEIGHT
370
     5
  9
$ENDCAPS
280
     0
  9
$JOINSTYLE
280
     0
  9
$LWDISPLAY
290
     1
  9
$INSUNITS
 70
     4
  9
$HYPERLINKBASE
  1

  9
$STYLESHEET
  1

  9
$XEDIT
290
     1
  9
$CEPSNTYPE
380
     0
  9
$PSTYLEMODE
290
     1
  9
$FINGERPRINTGUID
  2
{524C90F3-A786-4345-9921-3B1287DDCEAC}
  9
$VERSIONGUID
  2
{4442718E-F401-034F-848F-CFE0BB97D935}
  9
$EXTNAMES
290
     1
  9
$PSVPSCALE
 40
0.25
  9
$OLESTARTUP
290
     0
  9
$SORTENTS
280
   127
  9
$INDEXCTL
280
     0
  9
$HIDETEXT
280
     1
  9
$XCLIPFRAME
280
     2
  9
$HALOGAP
280
     0
  9
$OBSCOLOR
 70
   257
  9
$OBSLTYPE
280
     0
  9
$INTERSECTIONDISPLAY
280
     0
  9
$INTERSECTIONCOLOR
 70
   257
  9
$DIMASSOC
280
     2
  9
$PROJECTNAME
  1

  9
$CAMERADISPLAY
290
     0
  9
$LENSLENGTH
 40
50.0
  9
$CAMERAHEIGHT
 40
0.0
  9
$STEPSPERSEC
 40
2.0
  9
$STEPSIZE
 40
6.0
  9
$3DDWFPREC
 40
2.0
  9
$PSOLWIDTH
 40
0.25
  9
$PSOLHEIGHT
 40
4.0
  9
$LOFTANG1
 40
1.570796326794896
  9
$LOFTANG2
 40
1.570796326794896
  9
$LOFTMAG1
 40
0.0
  9
$LOFTMAG2
 40
0.0
  9
$LOFTPARAM
 70
     7
  9
$LOFTNORMALS
280
     1
  9
$LATITUDE
 40
37.795
  9
$LONGITUDE
 40
-122.394
  9
$NORTHDIRECTION
 40
0.0
  9
$TIMEZONE
 70
 -8000
  9
$LIGHTGLYPHDISPLAY
280
     1
  9
$TILEMODELIGHTSYNCH
280
     1
  9
$CMATERIAL
347
3497A
  9
$SOLIDHIST
280
     0
  9
$SHOWHIST
280
     1
  9
$DWFFRAME
280
     2
  9
$DGNFRAME
280
     0
  9
$REALWORLDSCALE
290
     1
  9
$INTERFERECOLOR
 62
     1
  9
$INTERFEREOBJVS
345
3499C
  9
$INTERFEREVPVS
346
59BD1
  9
$CSHADOW
280
     0
  9
$SHADOWPLANELOCATION
 40
0.0
  0
ENDSEC
  0
SECTION
  2
CLASSES
  0
CLASS
  1
ACDBDICTIONARYWDFLT
  2
AcDbDictionaryWithDefault
  3
ObjectDBX Classes
 90
        0
 91
        1
280
     0
281
     0
  0
CLASS
  1
DIMASSOC
  2
AcDbDimAssoc
  3
"AcDbDimAssoc|Product Desc:     AcDim ARX App For Dimension|Company:          Autodesk, Inc.|WEB Address:      www.autodesk.com"
 90
        0
 91
        1
280
     0
281
     0
  0
CLASS
  1
DICTIONARYVAR
  2
AcDbDictionaryVar
  3
ObjectDBX Classes
 90
        0
 91
       13
280
     0
281
     0
  0
CLASS
  1
PLOTSETTINGS
  2
AcDbPlotSettings
  3
ObjectDBX Classes
 90
        0
 91
        1
280
     0
281
     0
  0
CLASS
  1
MATERIAL
  2
AcDbMaterial
  3
ObjectDBX Classes
 90
     1153
 91
        3
280
     0
281
     0
  0
CLASS
  1
VISUALSTYLE
  2
AcDbVisualStyle
  3
ObjectDBX Classes
 90
     4095
 91
       26
280
     0
281
     0
  0
CLASS
  1
TABLESTYLE
  2
AcDbTableStyle
  3
ObjectDBX Classes
 90
     4095
 91
        1
280
     0
281
     0
  0
CLASS
  1
SCALE
  2
AcDbScale
  3
ObjectDBX Classes
 90
     1153
 91
       49
280
     0
281
     0
  0
CLASS
  1
MLEADERSTYLE
  2
AcDbMLeaderStyle
  3
ACDB_MLEADERSTYLE_CLASS
 90
     4095
 91
        1
280
     0
281
     0
  0
CLASS
  1
CELLSTYLEMAP
  2
AcDbCellStyleMap
  3
ObjectDBX Classes
 90
     1152
 91
        2
280
     0
281
     0
  0
CLASS
  1
SORTENTSTABLE
  2
AcDbSortentsTable
  3
ObjectDBX Classes
 90
        0
 91
        1
280
     0
281
     0
  0
CLASS
  1
ACDBSECTIONVIEWSTYLE
  2
AcDbSectionViewStyle
  3
ObjectDBX Classes
 90
     1025
 91
        1
280
     0
281
     0
  0
CLASS
  1
ACDBDETAILVIEWSTYLE
  2
AcDbDetailViewStyle
  3
ObjectDBX Classes
 90
     1025
 91
        1
280
     0
281
     0
  0
ENDSEC
  0
SECTION
  2
TABLES
  0
TABLE
  2
VPORT
  5
8
102
{ACAD_XDICTIONARY
360
34A75
102
}
330
0
100
AcDbSymbolTable
 70
     1
  0
VPORT
  5
59AB8
330
8
100
AcDbSymbolTableRecord
100
AcDbViewportTableRecord
  2
*Active
 70
     0
 10
0.0
 20
0.0
 11
1.0
 21
1.0
 12
12693.58139655698
 22
5555.960976558276
 13
0.0
 23
0.0
 14
10.0
 24
10.0
 15
10.0
 25
10.0
 16
0.0
 26
0.0
 36
1.0
 17
0.0
 27
0.0
 37
0.0
 40
11330.38533009944
 41
2.292712066905615
 42
50.0
 43
0.0
 44
0.0
 50
0.0
 51
0.0
 71
     0
 72
   100
 73
     1
 74
     2
 75
     0
 76
     0
 77
     0
 78
     2
281
     0
 65
     1
110
0.0
120
0.0
130
0.0
111
1.0
121
0.0
131
0.0
112
0.0
122
1.0
132
0.0
 79
     0
146
0.0
348
34998
 60
     3
 61
     5
292
     1
282
     1
141
0.0
142
0.0
 63
   250
421
  3355443
1001
ACAD_NAV_VCDISPLAY
1070
     3
  0
ENDTAB
  0
TABLE
  2
LTYPE
  5
5
330
0
100
AcDbSymbolTable
 70
     1
  0
LTYPE
  5
14
330
5
100
AcDbSymbolTableRecord
100
AcDbLinetypeTableRecord
  2
ByBlock
 70
     0
  3

 72
    65
 73
     0
 40
0.0
  0
LTYPE
  5
15
330
5
100
AcDbSymbolTableRecord
100
AcDbLinetypeTableRecord
  2
ByLayer
 70
     0
  3

 72
    65
 73
     0
 40
0.0
  0
LTYPE
  5
16
330
5
100
AcDbSymbolTableRecord
100
AcDbLinetypeTableRecord
  2
Continuous
 70
     0
  3
Solid line
 72
    65
 73
     0
 40
0.0
  0
ENDTAB
  0
TABLE
  2
LAYER
  5
2
102
{ACAD_XDICTIONARY
360
393
102
}
330
0
100
AcDbSymbolTable
 70
     7
  0
LAYER
  5
10
102
{ACAD_XDICTIONARY
360
349FE
102
}
330
2
100
AcDbSymbolTableRecord
100
AcDbLayerTableRecord
  2
0
 70
     0
 62
     7
  6
Continuous
370
    -3
390
F
347
3498A
  0
LAYER
  5
34
330
2
100
AcDbSymbolTableRecord
100
AcDbLayerTableRecord
  2
Defpoints
 70
     0
 62
     7
  6
Continuous
290
     0
370
    -3
390
F
347
3498A
  0
LAYER
  5
3A0F9
330
2
100
AcDbSymbolTableRecord
100
AcDbLayerTableRecord
  2
Wheels
 70
     0
 62
     6
  6
Continuous
370
    -3
390
F
347
3498A
  0
LAYER
  5
59AD0
330
2
100
AcDbSymbolTableRecord
100
AcDbLayerTableRecord
  2
TEXT
 70
     0
 62
     7
  6
Continuous
370
    -3
390
F
347
3498A
  0
LAYER
  5
59AE1
330
2
100
AcDbSymbolTableRecord
100
AcDbLayerTableRecord
  2
DIMS
 70
     0
 62
     7
  6
Continuous
370
    -3
390
F
347
3498A
1001
AcAecLayerStandard
1000

1000

  0
LAYER
  5
59AE2
330
2
100
AcDbSymbolTableRecord
100
AcDbLayerTableRecord
  2
DETAIL
 70
     0
 62
     2
  6
Continuous
370
    -3
390
F
347
3498A
1001
AcAecLayerStandard
1000

1000

  0
LAYER
  5
59AE3
330
2
100
AcDbSymbolTableRecord
100
AcDbLayerTableRecord
  2
APPLICATION
 70
     0
 62
     3
  6
Continuous
370
    -3
390
F
347
3498A
1001
AcAecLayerStandard
1000

1000

  0
ENDTAB
  0
TABLE
  2
STYLE
  5
3
330
0
100
AcDbSymbolTable
 70
     3
  0
STYLE
  5
11
330
3
100
AcDbSymbolTableRecord
100
AcDbTextStyleTableRecord
  2
Standard
 70
     0
 40
0.0
 41
1.0
 50
0.0
 71
     0
 42
2.5
  3
txt
  4

  0
STYLE
  5
57C01
330
3
100
AcDbSymbolTableRecord
100
AcDbTextStyleTableRecord
  2
TITLEBOX
 70
     0
 40
105.0
 41
1.0
 50
0.0
 71
     0
 42
105.0
  3
techb___.ttf
  4

1001
ACAD
1000
TechnicBold
1071
      514
  0
STYLE
  5
59AD2
330
3
100
AcDbSymbolTableRecord
100
AcDbTextStyleTableRecord
  2
fastrack
 70
     0
 40
0.0
 41
1.0
 50
0.0
 71
     0
 42
2.5
  3
simplex.shx
  4

  0
ENDTAB
  0
TABLE
  2
VIEW
  5
6
330
0
100
AcDbSymbolTable
 70
     1
  0
ENDTAB
  0
TABLE
  2
UCS
  5
7
330
0
100
AcDbSymbolTable
 70
     0
  0
ENDTAB
  0
TABLE
  2
APPID
  5
9
330
0
100
AcDbSymbolTable
 70
     9
  0
APPID
  5
12
330
9
100
AcDbSymbolTableRecord
100
AcDbRegAppTableRecord
  2
ACAD
 70
     0
  0
APPID
  5
2D9CA
330
9
100
AcDbSymbolTableRecord
100
AcDbRegAppTableRecord
  2
ACAD_PSEXT
 70
     0
  0
APPID
  5
349CA
330
9
100
AcDbSymbolTableRecord
100
AcDbRegAppTableRecord
  2
ACAD_MLEADERVER
 70
     0
  0
APPID
  5
35295
330
9
100
AcDbSymbolTableRecord
100
AcDbRegAppTableRecord
  2
RAK
 70
     0
  0
APPID
  5
35296
330
9
100
AcDbSymbolTableRecord
100
AcDbRegAppTableRecord
  2
AcAecLayerStandard
 70
     0
  0
APPID
  5
35297
330
9
100
AcDbSymbolTableRecord
100
AcDbRegAppTableRecord
  2
ACAD_DSTYLE_DIMJOGGED_JOGANGLE_SYMBOL
 70
     0
  0
APPID
  5
35527
330
9
100
AcDbSymbolTableRecord
100
AcDbRegAppTableRecord
  2
ACAD_DSTYLE_DIMEXT_LENGTH
 70
     0
  0
APPID
  5
357AB
330
9
100
AcDbSymbolTableRecord
100
AcDbRegAppTableRecord
  2
ACAD_EXEMPT_FROM_CAD_STANDARDS
 70
     0
  0
APPID
  5
59BEB
330
9
100
AcDbSymbolTableRecord
100
AcDbRegAppTableRecord
  2
ACAD_NAV_VCDISPLAY
 70
     0
  0
ENDTAB
  0
TABLE
  2
DIMSTYLE
  5
A
330
0
100
AcDbSymbolTable
 70
     2
100
AcDbDimStyleTable
 71
     2
340
39B
340
27
  0
DIMSTYLE
105
27
102
{ACAD_REACTORS
330
5976B
330
597A2
330
59900
330
59901
330
59902
330
59903
330
596E8
102
}
330
A
100
AcDbSymbolTableRecord
100
AcDbDimStyleTableRecord
  2
ISO-25
 70
     0
 41
2.5
 42
0.625
 43
3.75
 44
1.25
 73
     0
 74
     0
 77
     1
 78
     8
140
6.0
141
2.5
143
0.03937007874016
147
0.625
171
     3
172
     1
271
     0
272
     0
274
     3
278
    44
283
     0
284
     8
340
11
342
1A67
  0
DIMSTYLE
105
39B
330
A
100
AcDbSymbolTableRecord
100
AcDbDimStyleTableRecord
  2
Standard
 70
     0
271
     0
272
     0
340
11
  0
ENDTAB
  0
TABLE
  2
BLOCK_RECORD
  5
1
330
0
100
AcDbSymbolTable
 70
     8
  0
BLOCK_RECORD
  5
1F
102
{ACAD_XDICTIONARY
360
35450
102
}
330
1
100
AcDbSymbolTableRecord
100
AcDbBlockTableRecord
  2
*Model_Space
340
22
 70
     0
280
     1
281
     0
  0
BLOCK_RECORD
  5
348E5
330
1
100
AcDbSymbolTableRecord
100
AcDbBlockTableRecord
  2
*Paper_Space
340
3491A
 70
     0
280
     1
281
     0
  0
BLOCK_RECORD
  5
1A67
330
1
100
AcDbSymbolTableRecord
100
AcDbBlockTableRecord
  2
_ArchTick
340
0
 70
     0
280
     1
281
     0
  0
BLOCK_RECORD
  5
59A2D
330
1
100
AcDbSymbolTableRecord
100
AcDbBlockTableRecord
  2
*D1
340
0
 70
     0
280
     1
281
     0
  0
BLOCK_RECORD
  5
59A39
330
1
100
AcDbSymbolTableRecord
100
AcDbBlockTableRecord
  2
*D2
340
0
 70
     0
280
     1
281
     0
  0
BLOCK_RECORD
  5
59A45
330
1
100
AcDbSymbolTableRecord
100
AcDbBlockTableRecord
  2
*D3
340
0
 70
     0
280
     1
281
     0
  0
BLOCK_RECORD
  5
59A51
330
1
100
AcDbSymbolTableRecord
100
AcDbBlockTableRecord
  2
*D4
340
0
 70
     0
280
     1
281
     0
  0
BLOCK_RECORD
  5
59A5D
330
1
100
AcDbSymbolTableRecord
100
AcDbBlockTableRecord
  2
*D5
340
0
 70
     0
280
     1
281
     0
  0
BLOCK_RECORD
  5
59A69
330
1
100
AcDbSymbolTableRecord
100
AcDbBlockTableRecord
  2
*D6
340
0
 70
     0
280
     1
281
     0
  0
BLOCK_RECORD
  5
59A7E
330
1
100
AcDbSymbolTableRecord
100
AcDbBlockTableRecord
  2
*D7
340
0
 70
     0
280
     1
281
     0
  0
ENDTAB
  0
ENDSEC
  0
SECTION
  2
BLOCKS
  0
BLOCK
  5
20
330
1F
100
AcDbEntity
  8
0
100
AcDbBlockBegin
  2
*Model_Space
 70
     0
 10
0.0
 20
0.0
 30
0.0
  3
*Model_Space
  1

  0
ENDBLK
  5
21
330
1F
100
AcDbEntity
  8
0
100
AcDbBlockEnd
  0
BLOCK
  5
34918
330
348E5
100
AcDbEntity
 67
     1
  8
0
100
AcDbBlockBegin
  2
*Paper_Space
 70
     0
 10
0.0
 20
0.0
 30
0.0
  3
*Paper_Space
  1

  0
ENDBLK
  5
34919
330
348E5
100
AcDbEntity
 67
     1
  8
0
100
AcDbBlockEnd
  0
BLOCK
  5
1A69
330
1A67
100
AcDbEntity
  8
0
100
AcDbBlockBegin
  2
_ArchTick
 70
     0
 10
0.0
 20
0.0
 30
0.0
  3
_ArchTick
  1

  0
LWPOLYLINE
  5
1A68
330
1A67
100
AcDbEntity
  8
0
  6
ByBlock
 62
     0
100
AcDbPolyline
 90
        2
 70
     0
 43
0.15
 10
-0.5
 20
-0.5
 10
0.5
 20
0.5
  0
ENDBLK
  5
1A6A
330
1A67
100
AcDbEntity
  8
0
100
AcDbBlockEnd
  0
BLOCK
  5
59A37
330
59A2D
100
AcDbEntity
  8
0
 62
     0
 48
50.0
370
     5
100
AcDbBlockBegin
  2
*D1
 70
     1
 10
0.0
 20
0.0
 30
0.0
  3
*D1
  1

  0
LINE
  5
59B3A
330
59A2D
100
AcDbEntity
  8
DIMS
 62
     0
440
 16777216
370
    -2
100
AcDbLine
 10
10029.61745580724
 20
5541.200511711111
 30
0.0
 11
10496.39998070588
 21
5541.200511711109
 31
0.0
  0
LINE
  5
59B3B
330
59A2D
100
AcDbEntity
  8
DIMS
 62
     0
440
 16777216
370
    -2
100
AcDbLine
 10
10029.61745580724
 20
7641.200511711111
 30
0.0
 11
10496.39998070588
 21
7641.200511711111
 31
0.0
  0
LINE
  5
59B3C
330
59A2D
100
AcDbEntity
  8
DIMS
 62
     0
440
 16777216
370
    -2
100
AcDbLine
 10
10466.39998070588
 20
5621.200511711109
 30
0.0
 11
10466.39998070588
 21
7561.200511711111
 31
0.0
  0
SOLID
  5
59B3D
330
59A2D
100
AcDbEntity
  8
DIMS
 62
     0
440
 16777216
370
     5
100
AcDbTrace
 10
10453.06664737255
 20
5621.200511711109
 30
0.0
 11
10479.73331403922
 21
5621.200511711109
 31
0.0
 12
10466.39998070588
 22
5541.200511711109
 32
0.0
 13
10466.39998070588
 23
5541.200511711109
 33
0.0
  0
SOLID
  5
59B3E
330
59A2D
100
AcDbEntity
  8
DIMS
 62
     0
440
 16777216
370
     5
100
AcDbTrace
 10
10453.06664737255
 20
7561.200511711111
 30
0.0
 11
10479.73331403922
 21
7561.200511711111
 31
0.0
 12
10466.39998070588
 22
7641.200511711111
 32
0.0
 13
10466.39998070588
 23
7641.200511711111
 33
0.0
  0
MTEXT
  5
59B3F
330
59A2D
100
AcDbEntity
  8
DIMS
440
 16777216
370
    25
100
AcDbMText
 10
10382.67191053044
 20
6591.200511711112
 30
0.0
 40
105.0
 41
0.0
 46
0.0
 71
     5
 72
     1
  1
to suit fence height
  7
TITLEBOX
 11
0.0000000000000001
 21
1.0
 31
0.0
 73
     1
 44
1.0
  0
POINT
  5
59B40
330
59A2D
100
AcDbEntity
  8
Defpoints
 62
     0
440
 16777216
370
     5
100
AcDbPoint
 10
9999.617455807239
 20
5541.200511711111
 30
0.0
  0
POINT
  5
59B41
330
59A2D
100
AcDbEntity
  8
Defpoints
 62
     0
440
 16777216
370
     5
100
AcDbPoint
 10
9999.617455807239
 20
7641.200511711111
 30
0.0
  0
POINT
  5
59B42
330
59A2D
100
AcDbEntity
  8
Defpoints
 62
     0
440
 16777216
370
     5
100
AcDbPoint
 10
10466.39998070588
 20
7641.200511711111
 30
0.0
  0
ENDBLK
  5
59A38
330
59A2D
100
AcDbEntity
  8
0
 62
     0
 48
50.0
370
     5
100
AcDbBlockEnd
  0
BLOCK
  5
59A43
330
59A39
100
AcDbEntity
  8
0
 62
     0
 48
50.0
370
     5
100
AcDbBlockBegin
  2
*D2
 70
     1
 10
0.0
 20
0.0
 30
0.0
  3
*D2
  1

  0
LINE
  5
59B4C
330
59A39
100
AcDbEntity
  8
DIMS
 62
     0
440
 16777216
370
    -2
100
AcDbLine
 10
1069.20374678327
 20
7761.200516504162
 30
0.0
 11
1069.20374678327
 21
8102.558730041071
 31
0.0
  0
LINE
  5
59B4D
330
59A39
100
AcDbEntity
  8
DIMS
 62
     0
440
 16777216
370
    -2
100
AcDbLine
 10
7286.485537468646
 20
7761.200511711577
 30
0.0
 11
7286.485537468646
 21
8102.558730041071
 31
0.0
  0
LINE
  5
59B4E
330
59A39
100
AcDbEntity
  8
DIMS
 62
     0
440
 16777216
370
    -2
100
AcDbLine
 10
1149.20374678327
 20
8072.558730041071
 30
0.0
 11
7206.485537468644
 21
8072.558730041071
 31
0.0
  0
SOLID
  5
59B4F
330
59A39
100
AcDbEntity
  8
DIMS
 62
     0
440
 16777216
370
     5
100
AcDbTrace
 10
1149.20374678327
 20
8085.892063374403
 30
0.0
 11
1149.20374678327
 21
8059.225396707736
 31
0.0
 12
1069.20374678327
 22
8072.558730041071
 32
0.0
 13
1069.20374678327
 23
8072.558730041071
 33
0.0
  0
SOLID
  5
59B50
330
59A39
100
AcDbEntity
  8
DIMS
 62
     0
440
 16777216
370
     5
100
AcDbTrace
 10
7206.485537468644
 20
8085.892063374403
 30
0.0
 11
7206.485537468644
 21
8059.225396707736
 31
0.0
 12
7286.485537468646
 22
8072.558730041071
 32
0.0
 13
7286.485537468646
 23
8072.558730041071
 33
0.0
  0
MTEXT
  5
59B51
330
59A39
100
AcDbEntity
  8
DIMS
440
 16777216
370
    25
100
AcDbMText
 10
4177.844642125958
 20
8156.82408091826
 30
0.0
 40
105.0
 41
0.0
 46
0.0
 71
     5
 72
     1
  1
DIMENSION A
  7
TITLEBOX
 73
     1
 44
1.0
  0
POINT
  5
59B52
330
59A39
100
AcDbEntity
  8
Defpoints
 62
     0
440
 16777216
370
     5
100
AcDbPoint
 10
1069.20374678327
 20
7731.200516504163
 30
0.0
  0
POINT
  5
59B53
330
59A39
100
AcDbEntity
  8
Defpoints
 62
     0
440
 16777216
370
     5
100
AcDbPoint
 10
7286.485537468646
 20
7731.200511711577
 30
0.0
  0
POINT
  5
59B54
330
59A39
100
AcDbEntity
  8
Defpoints
 62
     0
440
 16777216
370
     5
100
AcDbPoint
 10
7286.485537468646
 20
8072.558730041071
 30
0.0
  0
ENDBLK
  5
59A44
330
59A39
100
AcDbEntity
  8
0
 62
     0
 48
50.0
370
     5
100
AcDbBlockEnd
  0
BLOCK
  5
59A4F
330
59A45
100
AcDbEntity
  8
0
 62
     0
 48
50.0
370
     5
100
AcDbBlockBegin
  2
*D3
 70
     1
 10
0.0
 20
0.0
 30
0.0
  3
*D3
  1

  0
LINE
  5
59B55
330
59A45
100
AcDbEntity
  8
DIMS
 62
     0
440
 16777216
370
    -2
100
AcDbLine
 10
6996.485537468645
 20
2578.160339260402
 30
0.0
 11
6996.485537468645
 21
1878.601941272078
 31
0.0
  0
LINE
  5
59B56
330
59A45
100
AcDbEntity
  8
DIMS
 62
     0
440
 16777216
370
    -2
100
AcDbLine
 10
9696.35737458263
 20
2578.160339260402
 30
0.0
 11
9696.35737458263
 21
1878.601941272078
 31
0.0
  0
LINE
  5
59B57
330
59A45
100
AcDbEntity
  8
DIMS
 62
     0
440
 16777216
370
    -2
100
AcDbLine
 10
7076.485537468645
 20
1908.601941272078
 30
0.0
 11
9616.357374582628
 21
1908.601941272078
 31
0.0
  0
SOLID
  5
59B58
330
59A45
100
AcDbEntity
  8
DIMS
 62
     0
440
 16777216
370
     5
100
AcDbTrace
 10
7076.485537468645
 20
1921.935274605411
 30
0.0
 11
7076.485537468645
 21
1895.268607938745
 31
0.0
 12
6996.485537468645
 22
1908.601941272078
 32
0.0
 13
6996.485537468645
 23
1908.601941272078
 33
0.0
  0
SOLID
  5
59B59
330
59A45
100
AcDbEntity
  8
DIMS
 62
     0
440
 16777216
370
     5
100
AcDbTrace
 10
9616.357374582628
 20
1921.935274605411
 30
0.0
 11
9616.357374582628
 21
1895.268607938745
 31
0.0
 12
9696.35737458263
 22
1908.601941272078
 32
0.0
 13
9696.35737458263
 23
1908.601941272078
 33
0.0
  0
MTEXT
  5
59B5A
330
59A45
100
AcDbEntity
  8
DIMS
440
 16777216
370
    25
100
AcDbMText
 10
8346.421456025636
 20
1992.867292149271
 30
0.0
 40
105.0
 41
0.0
 46
0.0
 71
     5
 72
     1
  1
DIMENSION D
  7
TITLEBOX
 73
     1
 44
1.0
  0
POINT
  5
59B5B
330
59A45
100
AcDbEntity
  8
Defpoints
 62
     0
440
 16777216
370
     5
100
AcDbPoint
 10
6996.485537468645
 20
2608.160339260401
 30
0.0
  0
POINT
  5
59B5C
330
59A45
100
AcDbEntity
  8
Defpoints
 62
     0
440
 16777216
370
     5
100
AcDbPoint
 10
9696.35737458263
 20
2608.160339260401
 30
0.0
  0
POINT
  5
59B5D
330
59A45
100
AcDbEntity
  8
Defpoints
 62
     0
440
 16777216
370
     5
100
AcDbPoint
 10
9696.35737458263
 20
1908.601941272078
 30
0.0
  0
ENDBLK
  5
59A50
330
59A45
100
AcDbEntity
  8
0
 62
     0
 48
50.0
370
     5
100
AcDbBlockEnd
  0
BLOCK
  5
59A5B
330
59A51
100
AcDbEntity
  8
0
 62
     0
 48
50.0
370
     5
100
AcDbBlockBegin
  2
*D4
 70
     1
 10
0.0
 20
0.0
 30
0.0
  3
*D4
  1

  0
LINE
  5
59B5E
330
59A51
100
AcDbEntity
  8
DIMS
 62
     0
440
 16777216
370
    -2
100
AcDbLine
 10
6996.485537468645
 20
2578.160339260402
 30
0.0
 11
6996.485537468645
 21
2239.760372176694
 31
0.0
  0
LINE
  5
59B5F
330
59A51
100
AcDbEntity
  8
DIMS
 62
     0
440
 16777216
370
    -2
100
AcDbLine
 10
7346.485537468179
 20
2755.660339260401
 30
0.0
 11
7346.485537468179
 21
2239.760372176694
 31
0.0
  0
LINE
  5
59B60
330
59A51
100
AcDbEntity
  8
DIMS
 62
     0
440
 16777216
370
    -2
100
AcDbLine
 10
7076.485537468645
 20
2269.760372176694
 30
0.0
 11
7266.485537468177
 21
2269.760372176694
 31
0.0
  0
SOLID
  5
59B61
330
59A51
100
AcDbEntity
  8
DIMS
 62
     0
440
 16777216
370
     5
100
AcDbTrace
 10
7076.485537468645
 20
2283.093705510027
 30
0.0
 11
7076.485537468645
 21
2256.42703884336
 31
0.0
 12
6996.485537468645
 22
2269.760372176694
 32
0.0
 13
6996.485537468645
 23
2269.760372176694
 33
0.0
  0
SOLID
  5
59B62
330
59A51
100
AcDbEntity
  8
DIMS
 62
     0
440
 16777216
370
     5
100
AcDbTrace
 10
7266.485537468177
 20
2283.093705510027
 30
0.0
 11
7266.485537468177
 21
2256.42703884336
 31
0.0
 12
7346.485537468179
 22
2269.760372176694
 32
0.0
 13
7346.485537468179
 23
2269.760372176694
 33
0.0
  0
MTEXT
  5
59B63
330
59A51
100
AcDbEntity
  8
DIMS
440
 16777216
370
    25
100
AcDbMText
 10
7171.485537468412
 20
2353.488442352132
 30
0.0
 40
105.0
 41
0.0
 46
0.0
 71
     5
 72
     1
  1
350
  7
TITLEBOX
 73
     1
 44
1.0
  0
POINT
  5
59B64
330
59A51
100
AcDbEntity
  8
Defpoints
 62
     0
440
 16777216
370
     5
100
AcDbPoint
 10
6996.485537468645
 20
2608.160339260401
 30
0.0
  0
POINT
  5
59B65
330
59A51
100
AcDbEntity
  8
Defpoints
 62
     0
440
 16777216
370
     5
100
AcDbPoint
 10
7346.485537468179
 20
2785.660339260401
 30
0.0
  0
POINT
  5
59B66
330
59A51
100
AcDbEntity
  8
Defpoints
 62
     0
440
 16777216
370
     5
100
AcDbPoint
 10
7346.485537468179
 20
2269.760372176694
 30
0.0
  0
ENDBLK
  5
59A5C
330
59A51
100
AcDbEntity
  8
0
 62
     0
 48
50.0
370
     5
100
AcDbBlockEnd
  0
BLOCK
  5
59A67
330
59A5D
100
AcDbEntity
  8
0
 62
     0
 48
50.0
370
     5
100
AcDbBlockBegin
  2
*D5
 70
     1
 10
0.0
 20
0.0
 30
0.0
  3
*D5
  1

  0
LINE
  5
59B67
330
59A5D
100
AcDbEntity
  8
DIMS
 62
     0
440
 16777216
370
    -2
100
AcDbLine
 10
7346.485537468179
 20
2755.035339260401
 30
0.0
 11
7346.485537468179
 21
2241.010372176694
 31
0.0
  0
LINE
  5
59B68
330
59A5D
100
AcDbEntity
  8
DIMS
 62
     0
440
 16777216
370
    -2
100
AcDbLine
 10
9396.485543487315
 20
2853.160339260401
 30
0.0
 11
9396.485543487315
 21
2241.010372176694
 31
0.0
  0
LINE
  5
59B69
330
59A5D
100
AcDbEntity
  8
DIMS
 62
     0
440
 16777216
370
    -2
100
AcDbLine
 10
7426.48553746818
 20
2271.010372176694
 30
0.0
 11
9316.485543487315
 21
2271.010372176694
 31
0.0
  0
SOLID
  5
59B6A
330
59A5D
100
AcDbEntity
  8
DIMS
 62
     0
440
 16777216
370
     5
100
AcDbTrace
 10
7426.48553746818
 20
2284.343705510027
 30
0.0
 11
7426.48553746818
 21
2257.67703884336
 31
0.0
 12
7346.485537468179
 22
2271.010372176694
 32
0.0
 13
7346.485537468179
 23
2271.010372176694
 33
0.0
  0
SOLID
  5
59B6B
330
59A5D
100
AcDbEntity
  8
DIMS
 62
     0
440
 16777216
370
     5
100
AcDbTrace
 10
9316.485543487315
 20
2284.343705510027
 30
0.0
 11
9316.485543487315
 21
2257.67703884336
 31
0.0
 12
9396.485543487315
 22
2271.010372176694
 32
0.0
 13
9396.485543487315
 23
2271.010372176694
 33
0.0
  0
MTEXT
  5
59B6C
330
59A5D
100
AcDbEntity
  8
DIMS
440
 16777216
370
    25
100
AcDbMText
 10
8371.485540477747
 20
2355.275723053887
 30
0.0
 40
105.0
 41
0.0
 46
0.0
 71
     5
 72
     1
  1
DIMENSION C
  7
TITLEBOX
 73
     1
 44
1.0
  0
POINT
  5
59B6D
330
59A5D
100
AcDbEntity
  8
Defpoints
 62
     0
440
 16777216
370
     5
100
AcDbPoint
 10
7346.485537468179
 20
2785.035339260401
 30
0.0
  0
POINT
  5
59B6E
330
59A5D
100
AcDbEntity
  8
Defpoints
 62
     0
440
 16777216
370
     5
100
AcDbPoint
 10
9396.485543487315
 20
2883.160339260401
 30
0.0
  0
POINT
  5
59B6F
330
59A5D
100
AcDbEntity
  8
Defpoints
 62
     0
440
 16777216
370
     5
100
AcDbPoint
 10
9396.485543487315
 20
2271.010372176694
 30
0.0
  0
ENDBLK
  5
59A68
330
59A5D
100
AcDbEntity
  8
0
 62
     0
 48
50.0
370
     5
100
AcDbBlockEnd
  0
BLOCK
  5
59A73
330
59A69
100
AcDbEntity
  8
0
 62
     0
 48
50.0
370
     5
100
AcDbBlockBegin
  2
*D6
 70
     1
 10
0.0
 20
0.0
 30
0.0
  3
*D6
  1

  0
LINE
  5
59B70
330
59A69
100
AcDbEntity
  8
DIMS
 62
     0
440
 16777216
370
    -2
100
AcDbLine
 10
9396.485543487315
 20
2852.535339260401
 30
0.0
 11
9396.485543487315
 21
2242.260372176694
 31
0.0
  0
LINE
  5
59B71
330
59A69
100
AcDbEntity
  8
DIMS
 62
     0
440
 16777216
370
    -2
100
AcDbLine
 10
9696.35737458263
 20
2578.160339260402
 30
0.0
 11
9696.35737458263
 21
2242.260372176694
 31
0.0
  0
LINE
  5
59B72
330
59A69
100
AcDbEntity
  8
DIMS
 62
     0
440
 16777216
370
    -2
100
AcDbLine
 10
9476.485543487315
 20
2272.260372176694
 30
0.0
 11
9616.357374582628
 21
2272.260372176694
 31
0.0
  0
SOLID
  5
59B73
330
59A69
100
AcDbEntity
  8
DIMS
 62
     0
440
 16777216
370
     5
100
AcDbTrace
 10
9476.485543487315
 20
2285.593705510027
 30
0.0
 11
9476.485543487315
 21
2258.92703884336
 31
0.0
 12
9396.485543487315
 22
2272.260372176694
 32
0.0
 13
9396.485543487315
 23
2272.260372176694
 33
0.0
  0
SOLID
  5
59B74
330
59A69
100
AcDbEntity
  8
DIMS
 62
     0
440
 16777216
370
     5
100
AcDbTrace
 10
9616.357374582628
 20
2285.593705510027
 30
0.0
 11
9616.357374582628
 21
2258.92703884336
 31
0.0
 12
9696.35737458263
 22
2272.260372176694
 32
0.0
 13
9696.35737458263
 23
2272.260372176694
 33
0.0
  0
MTEXT
  5
59B75
330
59A69
100
AcDbEntity
  8
DIMS
440
 16777216
370
    25
100
AcDbMText
 10
9546.421459034972
 20
2355.758179194237
 30
0.0
 40
105.0
 41
0.0
 46
0.0
 71
     5
 72
     1
  1
300
  7
TITLEBOX
 73
     1
 44
1.0
  0
POINT
  5
59B76
330
59A69
100
AcDbEntity
  8
Defpoints
 62
     0
440
 16777216
370
     5
100
AcDbPoint
 10
9396.485543487315
 20
2882.535339260401
 30
0.0
  0
POINT
  5
59B77
330
59A69
100
AcDbEntity
  8
Defpoints
 62
     0
440
 16777216
370
     5
100
AcDbPoint
 10
9696.35737458263
 20
2608.160339260401
 30
0.0
  0
POINT
  5
59B78
330
59A69
100
AcDbEntity
  8
Defpoints
 62
     0
440
 16777216
370
     5
100
AcDbPoint
 10
9696.35737458263
 20
2272.260372176694
 30
0.0
  0
ENDBLK
  5
59A74
330
59A69
100
AcDbEntity
  8
0
 62
     0
 48
50.0
370
     5
100
AcDbBlockEnd
  0
BLOCK
  5
59A88
330
59A7E
100
AcDbEntity
  8
0
 62
     0
 48
50.0
370
     5
100
AcDbBlockBegin
  2
*D7
 70
     1
 10
0.0
 20
0.0
 30
0.0
  3
*D7
  1

  0
LINE
  5
59B43
330
59A7E
100
AcDbEntity
  8
DIMS
 62
     0
440
 16777216
370
    -2
100
AcDbLine
 10
2063.707594040039
 20
3050.660339260401
 30
0.0
 11
2063.707594040039
 21
4217.138602768929
 31
0.0
  0
LINE
  5
59B44
330
59A7E
100
AcDbEntity
  8
DIMS
 62
     0
440
 16777216
370
    -2
100
AcDbLine
 10
9999.617455807239
 20
3225.660339260401
 30
0.0
 11
9999.617455807239
 21
4217.138602768929
 31
0.0
  0
LINE
  5
59B45
330
59A7E
100
AcDbEntity
  8
DIMS
 62
     0
440
 16777216
370
    -2
100
AcDbLine
 10
2143.707594040039
 20
4187.138602768929
 30
0.0
 11
9919.617455807241
 21
4187.138602768929
 31
0.0
  0
SOLID
  5
59B46
330
59A7E
100
AcDbEntity
  8
DIMS
 62
     0
440
 16777216
370
     5
100
AcDbTrace
 10
2143.707594040039
 20
4200.471936102263
 30
0.0
 11
2143.707594040039
 21
4173.805269435596
 31
0.0
 12
2063.707594040039
 22
4187.138602768929
 32
0.0
 13
2063.707594040039
 23
4187.138602768929
 33
0.0
  0
SOLID
  5
59B47
330
59A7E
100
AcDbEntity
  8
DIMS
 62
     0
440
 16777216
370
     5
100
AcDbTrace
 10
9919.617455807241
 20
4200.471936102263
 30
0.0
 11
9919.617455807241
 21
4173.805269435596
 31
0.0
 12
9999.617455807239
 22
4187.138602768929
 32
0.0
 13
9999.617455807239
 23
4187.138602768929
 33
0.0
  0
MTEXT
  5
59B48
330
59A7E
100
AcDbEntity
  8
DIMS
440
 16777216
370
    25
100
AcDbMText
 10
6031.662524923639
 20
4271.403953646121
 30
0.0
 40
105.0
 41
0.0
 46
0.0
 71
     5
 72
     1
  1
DIMENSION B
  7
TITLEBOX
 73
     1
 44
1.0
  0
POINT
  5
59B49
330
59A7E
100
AcDbEntity
  8
Defpoints
 62
     0
440
 16777216
370
     5
100
AcDbPoint
 10
2063.707594040039
 20
3020.660339260401
 30
0.0
  0
POINT
  5
59B4A
330
59A7E
100
AcDbEntity
  8
Defpoints
 62
     0
440
 16777216
370
     5
100
AcDbPoint
 10
9999.617455807239
 20
3195.660339260401
 30
0.0
  0
POINT
  5
59B4B
330
59A7E
100
AcDbEntity
  8
Defpoints
 62
     0
440
 16777216
370
     5
100
AcDbPoint
 10
9999.617455807239
 20
4187.138602768929
 30
0.0
  0
ENDBLK
  5
59A89
330
59A7E
100
AcDbEntity
  8
0
 62
     0
 48
50.0
370
     5
100
AcDbBlockEnd
  0
ENDSEC
  0
SECTION
  2
ENTITIES
  0
LINE
  5
596AB
330
1F
100
AcDbEntity
  8
DETAIL
370
    25
100
AcDbLine
 10
7596.485537468652
 20
5541.200511711111
 30
0.0
 11
7096.485537468645
 21
5541.200511711111
 31
0.0
  0
LINE
  5
596AD
330
1F
100
AcDbEntity
  8
DETAIL
370
    25
100
AcDbLine
 10
8546.485537468653
 20
5541.200511711111
 30
0.0
 11
9046.485537468653
 21
5541.200511711111
 31
0.0
  0
LINE
  5
596B0
330
1F
100
AcDbEntity
  8
APPLICATION
370
    25
100
AcDbLine
 10
9685.357374582629
 20
5541.200511711111
 30
0.0
 11
9685.357374582629
 21
4941.200511711111
 31
0.0
  0
LINE
  5
596B1
330
1F
100
AcDbEntity
  8
APPLICATION
370
    25
100
AcDbLine
 10
9146.485537468644
 20
4941.200511711111
 30
0.0
 11
6996.485537468645
 21
4941.200511711111
 31
0.0
  0
LINE
  5
596B2
330
1F
100
AcDbEntity
  8
APPLICATION
370
    25
100
AcDbLine
 10
6996.485537468645
 20
4941.200511711111
 30
0.0
 11
6996.485537468645
 21
5541.200511711111
 31
0.0
  0
LINE
  5
596B5
330
1F
100
AcDbEntity
  8
DETAIL
370
    25
100
AcDbLine
 10
7096.485537468645
 20
5556.200511711111
 30
0.0
 11
7296.485537468645
 21
5556.200511711111
 31
0.0
  0
LINE
  5
596B6
330
1F
100
AcDbEntity
  8
DETAIL
370
    25
100
AcDbLine
 10
7396.485537468645
 20
5556.200511711111
 30
0.0
 11
7596.485537468645
 21
5556.200511711111
 31
0.0
  0
LINE
  5
596B8
330
1F
100
AcDbEntity
  8
DETAIL
370
    25
100
AcDbLine
 10
8546.485537468646
 20
5551.200511711112
 30
0.0
 11
8546.485537468646
 21
5541.200511711111
 31
0.0
  0
LINE
  5
596B9
330
1F
100
AcDbEntity
  8
DETAIL
370
    25
100
AcDbLine
 10
8546.485537468646
 20
5556.200511711111
 30
0.0
 11
8746.485537468645
 21
5556.200511711111
 31
0.0
  0
LINE
  5
596BA
330
1F
100
AcDbEntity
  8
DETAIL
370
    25
100
AcDbLine
 10
8846.485537468645
 20
5556.200511711111
 30
0.0
 11
9046.485537468646
 21
5556.200511711111
 31
0.0
  0
LINE
  5
596BB
330
1F
100
AcDbEntity
  8
DETAIL
370
    25
100
AcDbLine
 10
9046.485537468646
 20
5556.200511711111
 30
0.0
 11
9046.485537468646
 21
5546.200511711111
 31
0.0
  0
LINE
  5
596BC
330
1F
100
AcDbEntity
  8
DETAIL
370
    25
100
AcDbLine
 10
7096.485537468645
 20
5541.200511711111
 30
0.0
 11
7096.485537468645
 21
5556.200511711111
 31
0.0
  0
LINE
  5
596BD
330
1F
100
AcDbEntity
  8
DETAIL
370
    25
100
AcDbLine
 10
7596.485537468652
 20
5541.200511711111
 30
0.0
 11
7596.485537468645
 21
5556.200511711111
 31
0.0
  0
LINE
  5
596BE
330
1F
100
AcDbEntity
  8
DETAIL
370
    25
100
AcDbLine
 10
8546.485537468646
 20
5551.200511711112
 30
0.0
 11
8546.485537468646
 21
5556.200511711111
 31
0.0
  0
LINE
  5
596BF
330
1F
100
AcDbEntity
  8
DETAIL
370
    25
100
AcDbLine
 10
9046.485537468646
 20
5546.200511711111
 30
0.0
 11
9046.485537468646
 21
5541.200511711111
 31
0.0
  0
LINE
  5
596C0
330
1F
100
AcDbEntity
  8
DETAIL
370
    25
100
AcDbLine
 10
9999.617455807239
 20
5634.200511711111
 30
0.0
 11
9999.617455807239
 21
7641.200511711111
 31
0.0
  0
LINE
  5
596C1
330
1F
100
AcDbEntity
  8
DETAIL
370
    25
100
AcDbLine
 10
9999.617455807239
 20
7641.200511711111
 30
0.0
 11
8856.485537468643
 21
7641.200511712508
 31
0.0
  0
LINE
  5
596C2
330
1F
100
AcDbEntity
  8
DETAIL
370
    25
100
AcDbLine
 10
2063.707594040039
 20
7641.200511711111
 30
0.0
 11
2063.707594040039
 21
5634.200511711111
 31
0.0
  0
LINE
  5
596C3
330
1F
100
AcDbEntity
  8
DETAIL
370
    25
100
AcDbLine
 10
3899.617455807238
 20
5634.200511711111
 30
0.0
 11
7286.485537468646
 21
5634.200511711576
 31
0.0
  0
LINE
  5
596C4
330
1F
100
AcDbEntity
  8
DETAIL
370
    25
100
AcDbLine
 10
2113.707594040039
 20
7591.200511711111
 30
0.0
 11
2113.707594041436
 21
5784.200511711111
 31
0.0
  0
LINE
  5
596C5
330
1F
100
AcDbEntity
  8
DETAIL
370
    25
100
AcDbLine
 10
9949.617455807704
 20
7591.200511711575
 30
0.0
 11
8856.485537468643
 21
7591.200511712507
 31
0.0
  0
LINE
  5
596C6
330
1F
100
AcDbEntity
  8
DETAIL
370
    25
100
AcDbLine
 10
9949.617455808636
 20
5784.200511711111
 30
0.0
 11
9949.617455807238
 21
7591.200511711111
 31
0.0
  0
LINE
  5
596C7
330
1F
100
AcDbEntity
  8
DETAIL
370
    25
100
AcDbLine
 10
3899.617455807238
 20
5684.200511711111
 30
0.0
 11
7286.485537468646
 21
5684.200511712043
 31
0.0
  0
LINE
  5
596C8
330
1F
100
AcDbEntity
  8
DETAIL
370
    25
100
AcDbLine
 10
3899.617455807238
 20
5784.200511711111
 30
0.0
 11
7286.485537468646
 21
5784.200511711577
 31
0.0
  0
LINE
  5
596C9
330
1F
100
AcDbEntity
  8
DETAIL
370
    25
100
AcDbLine
 10
7286.485537468646
 20
7641.200511711111
 30
0.0
 11
3899.617455807238
 21
7641.200511711111
 31
0.0
  0
LINE
  5
596CA
330
1F
100
AcDbEntity
  8
DETAIL
370
    25
100
AcDbLine
 10
7286.485537468646
 20
7591.200511711575
 30
0.0
 11
4549.617455806306
 21
7591.200511712043
 31
0.0
  0
LINE
  5
596CB
330
1F
100
AcDbEntity
  8
DETAIL
370
    25
100
AcDbLine
 10
8856.485537468643
 20
5634.200511711576
 30
0.0
 11
9999.617455807239
 21
5634.200511711111
 31
0.0
  0
LINE
  5
596CC
330
1F
100
AcDbEntity
  8
DETAIL
370
    25
100
AcDbLine
 10
8856.485537468643
 20
5684.200511712043
 30
0.0
 11
9999.617455807239
 21
5684.200511711111
 31
0.0
  0
LINE
  5
596CD
330
1F
100
AcDbEntity
  8
DETAIL
370
    25
100
AcDbLine
 10
8856.485537468643
 20
5784.200511712509
 30
0.0
 11
9999.617455807239
 21
5784.200511711111
 31
0.0
  0
LINE
  5
596CE
330
1F
100
AcDbEntity
  8
DETAIL
370
    25
100
AcDbLine
 10
9949.617455807704
 20
7591.200511711575
 30
0.0
 11
9999.617455807239
 21
7641.200511711111
 31
0.0
  0
LINE
  5
596CF
330
1F
100
AcDbEntity
  8
DETAIL
370
    25
100
AcDbLine
 10
2113.707594040039
 20
7591.200511711111
 30
0.0
 11
2063.707594040039
 21
7641.200511711111
 31
0.0
  0
LINE
  5
596D0
330
1F
100
AcDbEntity
  8
DETAIL
370
    25
100
AcDbLine
 10
3949.617455807238
 20
7591.200511711111
 30
0.0
 11
4249.617455807238
 21
7591.200511711111
 31
0.0
  0
LINE
  5
596D1
330
1F
100
AcDbEntity
  8
DETAIL
370
    25
100
AcDbLine
 10
4249.617455807238
 20
7591.200511711111
 30
0.0
 11
4349.617455807238
 21
7591.200511711111
 31
0.0
  0
LINE
  5
596D2
330
1F
100
AcDbEntity
  8
DETAIL
370
    25
100
AcDbLine
 10
4349.617455806771
 20
7591.200511711575
 30
0.0
 11
3949.617455807238
 21
7591.200511711111
 31
0.0
  0
LINE
  5
596D3
330
1F
100
AcDbEntity
  8
DETAIL
370
    25
100
AcDbLine
 10
9999.617455807239
 20
7641.200511711111
 30
0.0
 11
8856.485537468643
 21
7641.200511711111
 31
0.0
  0
LINE
  5
596D4
330
1F
100
AcDbEntity
  8
DETAIL
370
    25
100
AcDbLine
 10
7286.485537468646
 20
7641.200511712042
 30
0.0
 11
3899.617455807238
 21
7641.200511711111
 31
0.0
  0
LINE
  5
596D5
330
1F
100
AcDbEntity
  8
APPLICATION
370
    25
100
AcDbLine
 10
4759.203737542688
 20
5541.200511711111
 30
0.0
 11
388.5092747036397
 21
5541.200511711111
 31
0.0
  0
LINE
  5
596D6
330
1F
100
AcDbEntity
  8
DETAIL
370
    25
100
AcDbLine
 10
7296.485537468645
 20
5556.200511711111
 30
0.0
 11
7396.485537468645
 21
5556.200511711111
 31
0.0
  0
LINE
  5
596D7
330
1F
100
AcDbEntity
  8
DETAIL
370
    25
100
AcDbLine
 10
8746.485537468645
 20
5556.200511711111
 30
0.0
 11
8846.485537468645
 21
5556.200511711111
 31
0.0
  0
LINE
  5
596D8
330
1F
100
AcDbEntity
  8
DETAIL
370
    25
100
AcDbLine
 10
1059.203737542688
 20
5556.200511710644
 30
0.0
 11
1159.203737542688
 21
5556.200511710644
 31
0.0
  0
LINE
  5
596D9
330
1F
100
AcDbEntity
  8
DETAIL
370
    25
100
AcDbLine
 10
1159.203737542688
 20
5556.200511710644
 30
0.0
 11
1159.203737542688
 21
5541.200511711111
 31
0.0
  0
LINE
  5
596DA
330
1F
100
AcDbEntity
  8
DETAIL
370
    25
100
AcDbLine
 10
1159.203737542688
 20
5541.200511711111
 30
0.0
 11
859.203737542688
 21
5541.200511711111
 31
0.0
  0
LINE
  5
596DB
330
1F
100
AcDbEntity
  8
DETAIL
370
    25
100
AcDbLine
 10
1059.203737542688
 20
5556.200511710644
 30
0.0
 11
959.203737542688
 21
5556.200511710644
 31
0.0
  0
LINE
  5
596DC
330
1F
100
AcDbEntity
  8
DETAIL
370
    25
100
AcDbLine
 10
959.203737542688
 20
5556.200511710644
 30
0.0
 11
859.203737542688
 21
5556.200511710644
 31
0.0
  0
LINE
  5
596DD
330
1F
100
AcDbEntity
  8
DETAIL
370
    25
100
AcDbLine
 10
859.203737542688
 20
5556.200511710644
 30
0.0
 11
859.203737542688
 21
5541.200511711111
 31
0.0
  0
LINE
  5
596DF
330
1F
100
AcDbEntity
  8
APPLICATION
370
    25
100
AcDbLine
 10
1259.203737542688
 20
5541.200511711111
 30
0.0
 11
1259.203737542688
 21
4941.200511711111
 31
0.0
  0
LINE
  5
596E0
330
1F
100
AcDbEntity
  8
APPLICATION
370
    25
100
AcDbLine
 10
1259.203737542688
 20
4941.200511711111
 30
0.0
 11
759.203737542688
 21
4941.200511711111
 31
0.0
  0
LINE
  5
596E1
330
1F
100
AcDbEntity
  8
APPLICATION
370
    25
100
AcDbLine
 10
759.203737542688
 20
4941.200511711111
 30
0.0
 11
759.203737542688
 21
5541.200511711111
 31
0.0
  0
LINE
  5
596E3
330
1F
100
AcDbEntity
  8
DETAIL
370
    25
100
AcDbLine
 10
3949.617455807238
 20
7591.200511711111
 30
0.0
 11
4449.617455807238
 21
7591.200511711575
 31
0.0
  0
LINE
  5
596E4
330
1F
100
AcDbEntity
  8
DETAIL
370
    25
100
AcDbLine
 10
3949.617455807238
 20
7591.200511711111
 30
0.0
 11
4449.617455807238
 21
7591.200511711575
 31
0.0
  0
LINE
  5
596E5
330
1F
100
AcDbEntity
  8
DETAIL
370
    25
100
AcDbLine
 10
4549.617455806306
 20
7591.200511712043
 30
0.0
 11
4499.617455806307
 21
7591.200511712043
 31
0.0
  0
LINE
  5
596E6
330
1F
100
AcDbEntity
  8
DETAIL
370
    25
100
AcDbLine
 10
4612.117455806306
 20
7591.200511712043
 30
0.0
 11
4637.117455806307
 21
7591.200511712043
 31
0.0
  0
LINE
  5
596E7
330
1F
100
AcDbEntity
  8
DETAIL
370
    25
100
AcDbLine
 10
4737.117455806306
 20
7591.200511712043
 30
0.0
 11
4762.117455806307
 21
7591.200511712043
 31
0.0
  0
DIMENSION
  5
596E8
330
1F
100
AcDbEntity
  8
DIMS
370
    25
100
AcDbDimension
280
     0
  2
*D1
 10
10466.39998070588
 20
7641.200511711111
 30
0.0
 11
10382.67191053044
 21
6591.200511711112
 31
0.0
 70
    32
  1
to suit fence height
 71
     5
 42
2100.0
 73
     0
 74
     0
 75
     0
  3
ISO-25
100
AcDbAlignedDimension
 13
9999.617455807239
 23
5541.200511711111
 33
0.0
 14
9999.617455807239
 24
7641.200511711111
 34
0.0
 50
90.0
100
AcDbRotatedDimension
1001
ACAD
1000
DSTYLE
1002
{
1070
    41
1040
80.0
1070
    42
1040
30.0
1070
    44
1040
30.0
1070
   140
1040
80.0
1070
   147
1040
30.0
1070
   173
1070
     1
1070
   178
1070
   256
1070
   340
1005
57C01
1070
   342
1005
0
1002
}
  0
LINE
  5
596E9
330
1F
100
AcDbEntity
  8
DETAIL
370
    25
100
AcDbLine
 10
6996.485537468645
 20
3358.160339260401
 30
0.0
 11
9146.485537468644
 21
3358.160339260401
 31
0.0
  0
LINE
  5
596EA
330
1F
100
AcDbEntity
  8
DETAIL
370
    25
100
AcDbLine
 10
6996.485537468179
 20
2945.660339259936
 30
0.0
 11
6996.485537468645
 21
2608.160339260401
 31
0.0
  0
LINE
  5
596EB
330
1F
100
AcDbEntity
  8
DETAIL
370
    25
100
AcDbLine
 10
6996.485537468645
 20
2608.160339260401
 30
0.0
 11
9146.485537468178
 21
2608.160339260868
 31
0.0
  0
LINE
  5
596EC
330
1F
100
AcDbEntity
  8
DETAIL
370
    25
100
AcDbLine
 10
9696.357374582165
 20
2945.660339261332
 30
0.0
 11
9696.35737458263
 21
2608.160339260401
 31
0.0
  0
LINE
  5
596ED
330
1F
100
AcDbEntity
  8
DETAIL
370
    25
100
AcDbLine
 10
6996.485537468179
 20
3020.660339260401
 30
0.0
 11
6996.485537468645
 21
3358.160339260401
 31
0.0
  0
LINE
  5
596EE
330
1F
100
AcDbEntity
  8
DETAIL
370
    25
100
AcDbLine
 10
9696.35737458263
 20
3020.660339260401
 30
0.0
 11
9696.35737458263
 21
3358.160339260401
 31
0.0
  0
LINE
  5
596EF
330
1F
100
AcDbEntity
  8
DETAIL
370
    25
100
AcDbLine
 10
9146.485537468644
 20
3358.160339260401
 30
0.0
 11
8796.485537468646
 21
3358.160339260401
 31
0.0
  0
LINE
  5
596F0
330
1F
100
AcDbEntity
  8
DETAIL
370
    25
100
AcDbLine
 10
6996.485537468645
 20
3358.160339260401
 30
0.0
 11
7346.485537468645
 21
3358.160339260401
 31
0.0
  0
LINE
  5
596F1
330
1F
100
AcDbEntity
  8
DETAIL
370
    25
100
AcDbLine
 10
3899.617455807238
 20
3020.660339260401
 30
0.0
 11
7321.485527312572
 21
3020.660339260867
 31
0.0
  0
LINE
  5
596F2
330
1F
100
AcDbEntity
  8
DETAIL
370
    25
100
AcDbLine
 10
3899.617455807238
 20
2945.660339260401
 30
0.0
 11
7286.485537468646
 21
2945.660339260401
 31
0.0
  0
LINE
  5
596F3
330
1F
100
AcDbEntity
  8
DETAIL
370
    25
100
AcDbLine
 10
9999.617455807239
 20
2945.660339260401
 30
0.0
 11
9999.617455807239
 21
3020.660339260401
 31
0.0
  0
LINE
  5
596F4
102
{ACAD_REACTORS
330
5976D
102
}
330
1F
100
AcDbEntity
  8
DETAIL
370
    25
100
AcDbLine
 10
2063.707594040039
 20
2945.660339260401
 30
0.0
 11
2063.707594040039
 21
3020.660339260401
 31
0.0
  0
LINE
  5
596F5
330
1F
100
AcDbEntity
  8
DETAIL
370
    25
100
AcDbLine
 10
7096.485537468179
 20
3308.160339260867
 30
0.0
 11
7596.485537468179
 21
3308.160339260867
 31
0.0
  0
LINE
  5
596F6
330
1F
100
AcDbEntity
  8
DETAIL
370
    25
100
AcDbLine
 10
7096.485537468179
 20
2658.160339259936
 30
0.0
 11
7596.485537468179
 21
2658.160339259936
 31
0.0
  0
LINE
  5
596F7
330
1F
100
AcDbEntity
  8
DETAIL
370
    25
100
AcDbLine
 10
9046.485537468646
 20
3308.160339260401
 30
0.0
 11
9046.485537469113
 21
3020.660339260867
 31
0.0
  0
LINE
  5
596F8
330
1F
100
AcDbEntity
  8
DETAIL
370
    25
100
AcDbLine
 10
8546.485537468646
 20
3308.160339260401
 30
0.0
 11
8546.485537468177
 21
3180.660339260867
 31
0.0
  0
LINE
  5
596F9
330
1F
100
AcDbEntity
  8
DETAIL
370
    25
100
AcDbLine
 10
7596.485537468645
 20
3308.160339260401
 30
0.0
 11
7596.485537468645
 21
3180.660339260401
 31
0.0
  0
LINE
  5
596FA
330
1F
100
AcDbEntity
  8
DETAIL
370
    25
100
AcDbLine
 10
7096.485537468645
 20
3308.160339260401
 30
0.0
 11
7096.485537468645
 21
3020.660339260867
 31
0.0
  0
LINE
  5
596FB
330
1F
100
AcDbEntity
  8
DETAIL
370
    25
100
AcDbLine
 10
8736.48553746818
 20
3180.660348237419
 30
0.0
 11
8736.485537468645
 21
3120.660348237886
 31
0.0
  0
LINE
  5
596FC
330
1F
100
AcDbEntity
  8
DETAIL
370
    25
100
AcDbLine
 10
8546.485537468646
 20
3308.160339260401
 30
0.0
 11
9046.485537468177
 21
3308.160339260401
 31
0.0
  0
LINE
  5
596FD
330
1F
100
AcDbEntity
  8
DETAIL
370
    25
100
AcDbLine
 10
8546.485537468646
 20
2658.160339259936
 30
0.0
 11
9046.485537468177
 21
2658.160339259936
 31
0.0
  0
LINE
  5
596FE
330
1F
100
AcDbEntity
  8
DETAIL
370
    25
100
AcDbLine
 10
7286.48553746818
 20
3120.660339260867
 30
0.0
 11
7396.485537469111
 21
3120.660339261333
 31
0.0
  0
LINE
  5
596FF
330
1F
100
AcDbEntity
  8
DETAIL
370
    25
100
AcDbLine
 10
7286.48553746818
 20
2845.660339260401
 30
0.0
 11
7396.485537468179
 21
2845.660339260401
 31
0.0
  0
LINE
  5
59700
330
1F
100
AcDbEntity
  8
DETAIL
370
    25
100
AcDbLine
 10
8746.485537469109
 20
2845.660339260401
 30
0.0
 11
8856.48553746911
 21
2845.660339259936
 31
0.0
  0
LINE
  5
59701
330
1F
100
AcDbEntity
  8
DETAIL
370
    25
100
AcDbLine
 10
7406.48553746818
 20
3020.660339261333
 30
0.0
 11
8771.485537468178
 21
3020.660339260401
 31
0.0
  0
LINE
  5
59702
330
1F
100
AcDbEntity
  8
DETAIL
370
    25
100
AcDbLine
 10
7406.48553746818
 20
2945.660339261332
 30
0.0
 11
8771.485537468178
 21
2945.660339260867
 31
0.0
  0
LINE
  5
59703
330
1F
100
AcDbEntity
  8
DETAIL
370
    25
100
AcDbLine
 10
8821.485537468644
 20
2945.660339260867
 30
0.0
 11
9999.617455807239
 21
2945.660339260401
 31
0.0
  0
LINE
  5
59704
330
1F
100
AcDbEntity
  8
DETAIL
370
    25
100
AcDbLine
 10
8821.485537468644
 20
3020.660339260401
 30
0.0
 11
9999.617455807239
 21
3020.660339260401
 31
0.0
  0
LINE
  5
59705
330
1F
100
AcDbEntity
  8
DETAIL
370
    25
100
AcDbLine
 10
8546.485537468646
 20
2945.660339260867
 30
0.0
 11
8546.485537468177
 21
2845.660339260401
 31
0.0
  0
LINE
  5
59706
330
1F
100
AcDbEntity
  8
DETAIL
370
    25
100
AcDbLine
 10
9046.485537469113
 20
2945.660339261798
 30
0.0
 11
9046.485537468646
 21
2658.160339260867
 31
0.0
  0
LINE
  5
59707
330
1F
100
AcDbEntity
  8
DETAIL
370
    25
100
AcDbLine
 10
7596.485537468645
 20
2945.660339260867
 30
0.0
 11
7596.485537468179
 21
2845.660339260401
 31
0.0
  0
LINE
  5
59708
330
1F
100
AcDbEntity
  8
DETAIL
370
    25
100
AcDbLine
 10
7096.485537468645
 20
2945.660339260867
 30
0.0
 11
7096.485537468645
 21
2658.160339260402
 31
0.0
  0
LINE
  5
59709
330
1F
100
AcDbEntity
  8
DETAIL
370
    25
100
AcDbLine
 10
7886.958069496976
 20
2785.660339260401
 30
0.0
 11
7906.958069496977
 21
2785.660339260401
 31
0.0
  0
LINE
  5
5970A
330
1F
100
AcDbEntity
  8
DETAIL
370
    25
100
AcDbLine
 10
7911.958069496977
 20
2845.660339260401
 30
0.0
 11
7891.958069496978
 21
2845.660339260401
 31
0.0
  0
LINE
  5
5970B
330
1F
100
AcDbEntity
  8
DETAIL
370
    25
100
AcDbLine
 10
7886.958069496976
 20
2785.660339260401
 30
0.0
 11
7401.48553746818
 21
2785.660339260401
 31
0.0
  0
LINE
  5
5970C
330
1F
100
AcDbEntity
  8
DETAIL
370
    25
100
AcDbLine
 10
7891.958069496978
 20
2845.660339260401
 30
0.0
 11
7396.485537468645
 21
2845.660339260401
 31
0.0
  0
LINE
  5
5970D
330
1F
100
AcDbEntity
  8
DETAIL
370
    25
100
AcDbLine
 10
7911.958069496977
 20
2845.660339260401
 30
0.0
 11
8746.485537468645
 21
2845.660339260401
 31
0.0
  0
LINE
  5
5970E
330
1F
100
AcDbEntity
  8
DETAIL
370
    25
100
AcDbLine
 10
7906.958069496977
 20
2785.660339260401
 30
0.0
 11
8731.485537468643
 21
2785.660339260867
 31
0.0
  0
LINE
  5
5970F
330
1F
100
AcDbEntity
  8
DETAIL
370
    25
100
AcDbLine
 10
7596.485537467714
 20
2785.660339260401
 30
0.0
 11
7596.485537468645
 21
2658.160339260402
 31
0.0
  0
LINE
  5
59710
330
1F
100
AcDbEntity
  8
DETAIL
370
    25
100
AcDbLine
 10
8546.485537468177
 20
2785.660339260867
 30
0.0
 11
8546.485537468646
 21
2658.160339260867
 31
0.0
  0
LINE
  5
59711
330
1F
100
AcDbEntity
  8
DETAIL
370
    25
100
AcDbLine
 10
8736.485537468645
 20
2785.660339259936
 30
0.0
 11
8726.485537468645
 21
2785.660339259936
 31
0.0
  0
LINE
  5
59712
330
1F
100
AcDbEntity
  8
DETAIL
370
    25
100
AcDbLine
 10
7891.958049183902
 20
3120.66034823742
 30
0.0
 11
7396.485517155567
 21
3120.66034823742
 31
0.0
  0
LINE
  5
59713
330
1F
100
AcDbEntity
  8
DETAIL
370
    25
100
AcDbLine
 10
7891.958049183902
 20
3180.660339260867
 30
0.0
 11
7406.48553746818
 21
3180.660339260867
 31
0.0
  0
LINE
  5
59714
330
1F
100
AcDbEntity
  8
DETAIL
370
    25
100
AcDbLine
 10
7911.9580491839
 20
3180.660339260867
 30
0.0
 11
8736.485537468645
 21
3180.660339260867
 31
0.0
  0
LINE
  5
59715
330
1F
100
AcDbEntity
  8
DETAIL
370
    25
100
AcDbLine
 10
7911.9580491839
 20
3120.66034823742
 30
0.0
 11
8746.485517155567
 21
3120.66034823742
 31
0.0
  0
LINE
  5
59716
330
1F
100
AcDbEntity
  8
DETAIL
370
    25
100
AcDbLine
 10
7396.485517155567
 20
3120.66034823742
 30
0.0
 11
7416.485517155567
 21
3120.66034823742
 31
0.0
  0
LINE
  5
59717
330
1F
100
AcDbEntity
  8
DETAIL
370
    25
100
AcDbLine
 10
9999.617455807239
 20
3020.660339260401
 30
0.0
 11
9999.617455807239
 21
3083.160339260401
 31
0.0
  0
LINE
  5
59718
330
1F
100
AcDbEntity
  8
DETAIL
370
    25
100
AcDbLine
 10
9999.617455807239
 20
3083.160339260401
 30
0.0
 11
9929.338184314969
 21
3020.660339260867
 31
0.0
  0
ARC
  5
59719
330
1F
100
AcDbEntity
  8
DETAIL
370
    25
100
AcDbCircle
 10
9977.566016216952
 20
3139.410339260401
 30
0.0
 40
56.25
100
AcDbArc
 50
90.0
 51
270.0
  0
LINE
  5
5971A
330
1F
100
AcDbEntity
  8
DETAIL
370
    25
100
AcDbLine
 10
9977.566016216952
 20
3083.160339260401
 30
0.0
 11
9999.617455807239
 21
3083.160339260401
 31
0.0
  0
LINE
  5
5971B
330
1F
100
AcDbEntity
  8
DETAIL
370
    25
100
AcDbLine
 10
9977.566016216952
 20
3195.660339260401
 30
0.0
 11
9999.617455807239
 21
3195.660339260401
 31
0.0
  0
LINE
  5
5971C
330
1F
100
AcDbEntity
  8
DETAIL
370
    25
100
AcDbLine
 10
9999.617455807239
 20
3083.160339260401
 30
0.0
 11
10000.03469015118
 21
3083.160339260401
 31
0.0
  0
LINE
  5
5971D
330
1F
100
AcDbEntity
  8
DETAIL
370
    25
100
AcDbLine
 10
9999.617455807239
 20
3083.160339260401
 30
0.0
 11
9999.617455807239
 21
3101.891426146889
 31
0.0
  0
LINE
  5
5971E
330
1F
100
AcDbEntity
  8
DETAIL
370
    25
100
AcDbLine
 10
9999.617455807239
 20
3101.891426146889
 30
0.0
 11
9999.617455807239
 21
3195.660339260401
 31
0.0
  0
ARC
  5
5971F
102
{ACAD_REACTORS
330
59723
102
}
330
1F
100
AcDbEntity
  8
DETAIL
370
    25
100
AcDbCircle
 10
9977.566016216952
 20
3139.410339260401
 30
0.0
 40
56.25
100
AcDbArc
 50
90.0
 51
270.0
  0
LINE
  5
59720
102
{ACAD_REACTORS
330
59723
102
}
330
1F
100
AcDbEntity
  8
DETAIL
370
    25
100
AcDbLine
 10
9977.566016216952
 20
3083.160339260401
 30
0.0
 11
9999.617455807239
 21
3083.160339260401
 31
0.0
  0
LINE
  5
59721
102
{ACAD_REACTORS
330
59723
102
}
330
1F
100
AcDbEntity
  8
DETAIL
370
    25
100
AcDbLine
 10
9977.566016216952
 20
3195.660339260401
 30
0.0
 11
9999.617455807239
 21
3195.660339260401
 31
0.0
  0
LINE
  5
59722
102
{ACAD_REACTORS
330
59723
330
5976D
102
}
330
1F
100
AcDbEntity
  8
DETAIL
370
    25
100
AcDbLine
 10
9999.617455807239
 20
3083.160339260401
 30
0.0
 11
9999.617455807239
 21
3195.660339260401
 31
0.0
  0
HATCH
  5
59723
330
1F
100
AcDbEntity
  8
DETAIL
370
    25
100
AcDbHatch
 10
0.0
 20
0.0
 30
0.0
210
0.0
220
0.0
230
1.0
  2
SOLID
 70
     1
 71
     1
 91
        1
 92
        7
 72
     1
 73
     1
 93
        4
 10
9977.566016216952
 20
3083.160339260401
 42
0.0
 10
9999.617455807237
 20
3083.160339260402
 42
0.0
 10
9999.617455807239
 20
3195.660339260401
 42
0.0
 10
9977.566016216952
 20
3195.660339260401
 42
1.0
 97
        4
330
59721
330
5971F
330
59720
330
59722
 75
     0
 76
     1
 47
0.5283639741589199
 98
        1
 10
9938.759688778503
 20
3131.769821826762
450
        0
451
        0
460
0.0
461
0.0
452
        0
462
0.0
453
        0
470

  0
LINE
  5
59724
330
1F
100
AcDbEntity
  8
DETAIL
370
    25
100
AcDbLine
 10
7096.485537468645
 20
5556.200511711111
 30
0.0
 11
7106.485537468644
 21
5556.200511711111
 31
0.0
  0
LINE
  5
59725
330
1F
100
AcDbEntity
  8
DETAIL
370
    25
100
AcDbLine
 10
7106.485537468644
 20
5556.200511711111
 30
0.0
 11
7116.485537468645
 21
5556.200511711111
 31
0.0
  0
LINE
  5
59726
330
1F
100
AcDbEntity
  8
DETAIL
370
    25
100
AcDbLine
 10
7116.485537468645
 20
5556.200511711111
 30
0.0
 11
7116.485537468645
 21
5566.200511711111
 31
0.0
  0
LINE
  5
59727
330
1F
100
AcDbEntity
  8
DETAIL
370
    25
100
AcDbLine
 10
7116.485537468645
 20
5566.200511711111
 30
0.0
 11
7136.485537468646
 21
5566.200511711111
 31
0.0
  0
LINE
  5
59728
330
1F
100
AcDbEntity
  8
DETAIL
370
    25
100
AcDbLine
 10
7136.485537468646
 20
5566.200511711111
 30
0.0
 11
7136.485537468646
 21
5556.200511711111
 31
0.0
  0
LINE
  5
59729
330
1F
100
AcDbEntity
  8
DETAIL
370
    25
100
AcDbLine
 10
7596.485537468645
 20
5556.200511711111
 30
0.0
 11
7576.485537468645
 21
5556.200511711111
 31
0.0
  0
LINE
  5
5972A
330
1F
100
AcDbEntity
  8
DETAIL
370
    25
100
AcDbLine
 10
7576.485537468645
 20
5556.200511711111
 30
0.0
 11
7576.485537468645
 21
5566.200511711111
 31
0.0
  0
LINE
  5
5972B
330
1F
100
AcDbEntity
  8
DETAIL
370
    25
100
AcDbLine
 10
7576.485537468645
 20
5566.200511711111
 30
0.0
 11
7556.485537468645
 21
5566.200511711111
 31
0.0
  0
LINE
  5
5972C
330
1F
100
AcDbEntity
  8
DETAIL
370
    25
100
AcDbLine
 10
7556.485537468645
 20
5566.200511711111
 30
0.0
 11
7556.485537468645
 21
5556.200511711111
 31
0.0
  0
LINE
  5
5972D
330
1F
100
AcDbEntity
  8
DETAIL
370
    25
100
AcDbLine
 10
8546.485537468646
 20
5556.200511711111
 30
0.0
 11
8566.485537468645
 21
5556.200511711111
 31
0.0
  0
LINE
  5
5972E
330
1F
100
AcDbEntity
  8
DETAIL
370
    25
100
AcDbLine
 10
8566.485537468645
 20
5556.200511711111
 30
0.0
 11
8566.485537468645
 21
5566.200511711111
 31
0.0
  0
LINE
  5
5972F
330
1F
100
AcDbEntity
  8
DETAIL
370
    25
100
AcDbLine
 10
8566.485537468645
 20
5566.200511711111
 30
0.0
 11
8586.485537468645
 21
5566.200511711111
 31
0.0
  0
LINE
  5
59730
330
1F
100
AcDbEntity
  8
DETAIL
370
    25
100
AcDbLine
 10
8586.485537468645
 20
5566.200511711111
 30
0.0
 11
8586.485537468645
 21
5556.200511711111
 31
0.0
  0
LINE
  5
59731
330
1F
100
AcDbEntity
  8
DETAIL
370
    25
100
AcDbLine
 10
9046.485537468646
 20
5556.200511711111
 30
0.0
 11
9026.485537468643
 21
5556.200511711111
 31
0.0
  0
LINE
  5
59732
330
1F
100
AcDbEntity
  8
DETAIL
370
    25
100
AcDbLine
 10
9026.485537468643
 20
5556.200511711111
 30
0.0
 11
9026.485537468643
 21
5566.200511711111
 31
0.0
  0
LINE
  5
59733
330
1F
100
AcDbEntity
  8
DETAIL
370
    25
100
AcDbLine
 10
9026.485537468643
 20
5566.200511711111
 30
0.0
 11
9006.485537468645
 21
5566.200511711111
 31
0.0
  0
LINE
  5
59734
330
1F
100
AcDbEntity
  8
DETAIL
370
    25
100
AcDbLine
 10
9006.485537468645
 20
5566.200511711111
 30
0.0
 11
9006.485537468645
 21
5556.200511711111
 31
0.0
  0
CIRCLE
  5
59735
330
1F
100
AcDbEntity
  8
DETAIL
370
    25
100
AcDbCircle
 10
7126.485537468645
 20
3278.160339260867
 30
0.0
 40
10.0
  0
CIRCLE
  5
59736
330
1F
100
AcDbEntity
  8
DETAIL
370
    25
100
AcDbCircle
 10
7566.485537468645
 20
3278.160339260867
 30
0.0
 40
10.0
  0
CIRCLE
  5
59737
330
1F
100
AcDbEntity
  8
DETAIL
370
    25
100
AcDbCircle
 10
7126.485537468645
 20
2688.160339259936
 30
0.0
 40
10.0
  0
CIRCLE
  5
59738
330
1F
100
AcDbEntity
  8
DETAIL
370
    25
100
AcDbCircle
 10
7566.485537468645
 20
2688.160339259936
 30
0.0
 40
10.0
  0
CIRCLE
  5
59739
330
1F
100
AcDbEntity
  8
DETAIL
370
    25
100
AcDbCircle
 10
8576.485537469109
 20
3278.160339260401
 30
0.0
 40
10.0
  0
CIRCLE
  5
5973A
330
1F
100
AcDbEntity
  8
DETAIL
370
    25
100
AcDbCircle
 10
9016.485537469108
 20
3278.160339260401
 30
0.0
 40
10.0
  0
CIRCLE
  5
5973B
330
1F
100
AcDbEntity
  8
DETAIL
370
    25
100
AcDbCircle
 10
8576.485537469109
 20
2688.16033925947
 30
0.0
 40
10.0
  0
CIRCLE
  5
5973C
330
1F
100
AcDbEntity
  8
DETAIL
370
    25
100
AcDbCircle
 10
9016.485537469108
 20
2688.16033925947
 30
0.0
 40
10.0
  0
LINE
  5
5973D
330
1F
100
AcDbEntity
  8
DETAIL
370
    25
100
AcDbLine
 10
1159.203737542688
 20
5556.200511711111
 30
0.0
 11
1159.203737542688
 21
5541.200511711111
 31
0.0
  0
LINE
  5
5973E
330
1F
100
AcDbEntity
  8
DETAIL
370
    25
100
AcDbLine
 10
879.2037375426881
 20
5556.200511711111
 30
0.0
 11
879.2037375426881
 21
5566.200511711111
 31
0.0
  0
LINE
  5
5973F
330
1F
100
AcDbEntity
  8
DETAIL
370
    25
100
AcDbLine
 10
879.2037375426881
 20
5566.200511711111
 30
0.0
 11
899.203737542688
 21
5566.200511711111
 31
0.0
  0
LINE
  5
59740
330
1F
100
AcDbEntity
  8
DETAIL
370
    25
100
AcDbLine
 10
899.203737542688
 20
5566.200511711111
 30
0.0
 11
899.203737542688
 21
5556.200511711111
 31
0.0
  0
LINE
  5
59741
330
1F
100
AcDbEntity
  8
DETAIL
370
    25
100
AcDbLine
 10
1139.203737542688
 20
5556.200511711111
 30
0.0
 11
1139.203737542688
 21
5566.200511711111
 31
0.0
  0
LINE
  5
59742
330
1F
100
AcDbEntity
  8
DETAIL
370
    25
100
AcDbLine
 10
1139.203737542688
 20
5566.200511711111
 30
0.0
 11
1119.203737542688
 21
5566.200511711111
 31
0.0
  0
LINE
  5
59743
330
1F
100
AcDbEntity
  8
DETAIL
370
    25
100
AcDbLine
 10
1119.203737542688
 20
5566.200511711111
 30
0.0
 11
1119.203737542688
 21
5556.200511711111
 31
0.0
  0
LINE
  5
59744
330
1F
100
AcDbEntity
  8
DETAIL
370
    25
100
AcDbLine
 10
859.203737542688
 20
5556.200511710644
 30
0.0
 11
879.2037375426881
 21
5556.200511710644
 31
0.0
  0
LINE
  5
59745
330
1F
100
AcDbEntity
  8
DETAIL
370
    25
100
AcDbLine
 10
879.2037375426881
 20
5556.200511710644
 30
0.0
 11
879.2037375426881
 21
5561.717196751779
 31
0.0
  0
LINE
  5
59746
330
1F
100
AcDbEntity
  8
DETAIL
370
    25
100
AcDbLine
 10
1259.203737542688
 20
3358.160339260401
 30
0.0
 11
1259.203737542688
 21
2608.160339260401
 31
0.0
  0
LINE
  5
59747
330
1F
100
AcDbEntity
  8
DETAIL
370
    25
100
AcDbLine
 10
759.203737542688
 20
3358.160339260401
 30
0.0
 11
759.2037375422222
 21
2608.160339260401
 31
0.0
  0
LINE
  5
59748
330
1F
100
AcDbEntity
  8
DETAIL
370
    25
100
AcDbLine
 10
1259.203737542688
 20
3358.160339260401
 30
0.0
 11
759.203737542688
 21
3358.160339260401
 31
0.0
  0
LINE
  5
59749
330
1F
100
AcDbEntity
  8
DETAIL
370
    25
100
AcDbLine
 10
1259.203737542688
 20
2608.160339260401
 30
0.0
 11
759.203737542688
 21
2608.160339260401
 31
0.0
  0
LINE
  5
5974A
330
1F
100
AcDbEntity
  8
DETAIL
370
    25
100
AcDbLine
 10
1159.203737542222
 20
3233.160339260401
 30
0.0
 11
859.203737542688
 21
3233.160339260401
 31
0.0
  0
LINE
  5
5974B
330
1F
100
AcDbEntity
  8
DETAIL
370
    25
100
AcDbLine
 10
1159.203737542222
 20
2733.160339260401
 30
0.0
 11
859.2037375422224
 21
2733.160339260401
 31
0.0
  0
LINE
  5
5974C
330
1F
100
AcDbEntity
  8
DETAIL
370
    25
100
AcDbLine
 10
859.203737542688
 20
3233.160339260401
 30
0.0
 11
859.203737542688
 21
2733.160339260868
 31
0.0
  0
LINE
  5
5974D
330
1F
100
AcDbEntity
  8
DETAIL
370
    25
100
AcDbLine
 10
1159.203737542222
 20
3233.160339260401
 30
0.0
 11
1159.203737543154
 21
2733.160339260868
 31
0.0
  0
CIRCLE
  5
5974E
330
1F
100
AcDbEntity
  8
DETAIL
370
    25
100
AcDbCircle
 10
889.2037375431536
 20
3203.160339260402
 30
0.0
 40
10.0
  0
CIRCLE
  5
5974F
330
1F
100
AcDbEntity
  8
DETAIL
370
    25
100
AcDbCircle
 10
1129.203737541291
 20
3203.160339260402
 30
0.0
 40
10.0
  0
CIRCLE
  5
59750
330
1F
100
AcDbEntity
  8
DETAIL
370
    25
100
AcDbCircle
 10
889.2037375431536
 20
2763.160339258539
 30
0.0
 40
10.0
  0
CIRCLE
  5
59751
330
1F
100
AcDbEntity
  8
DETAIL
370
    25
100
AcDbCircle
 10
1129.203737541291
 20
2763.160339258539
 30
0.0
 40
10.0
  0
LINE
  5
59752
330
1F
100
AcDbEntity
  8
DETAIL
370
    25
100
AcDbLine
 10
1069.203737542688
 20
3083.160339260401
 30
0.0
 11
949.203737542688
 21
3083.160339260867
 31
0.0
  0
LINE
  5
59753
330
1F
100
AcDbEntity
  8
DETAIL
370
    25
100
AcDbLine
 10
1069.203737542688
 20
2883.160339260867
 30
0.0
 11
949.203737542688
 21
2883.160339260401
 31
0.0
  0
LINE
  5
59754
330
1F
100
AcDbEntity
  8
DETAIL
370
    25
100
AcDbLine
 10
11521.14036737448
 20
3145.660339260401
 30
0.0
 11
11521.14036737448
 21
2795.660339259935
 31
0.0
  0
LINE
  5
59755
330
1F
100
AcDbEntity
  8
DETAIL
370
    25
100
AcDbLine
 10
11171.14036737401
 20
3145.660339260401
 30
0.0
 11
11171.14036737448
 21
2795.660339260401
 31
0.0
  0
LINE
  5
59756
330
1F
100
AcDbEntity
  8
DETAIL
370
    25
100
AcDbLine
 10
11171.14036737448
 20
3145.660339259936
 30
0.0
 11
11521.14036737448
 21
3145.660339259936
 31
0.0
  0
LINE
  5
59757
330
1F
100
AcDbEntity
  8
DETAIL
370
    25
100
AcDbLine
 10
11171.14036737448
 20
2795.660339260401
 30
0.0
 11
11521.14036737448
 21
2795.660339259935
 31
0.0
  0
LINE
  5
59758
330
1F
100
AcDbEntity
  8
DETAIL
370
    25
100
AcDbLine
 10
11221.14036737354
 20
3095.660339259936
 30
0.0
 11
11471.14036737448
 21
3095.660339260402
 31
0.0
  0
LINE
  5
59759
330
1F
100
AcDbEntity
  8
DETAIL
370
    25
100
AcDbLine
 10
11221.14036737354
 20
3095.660339259936
 30
0.0
 11
11221.14036737448
 21
2845.66033925947
 31
0.0
  0
LINE
  5
5975A
330
1F
100
AcDbEntity
  8
DETAIL
370
    25
100
AcDbLine
 10
11471.14036737448
 20
3095.660339259936
 30
0.0
 11
11471.14036737494
 21
2845.66033925947
 31
0.0
  0
LINE
  5
5975B
330
1F
100
AcDbEntity
  8
DETAIL
370
    25
100
AcDbLine
 10
11221.14036737448
 20
2845.660339260401
 30
0.0
 11
11471.14036737448
 21
2845.66033925947
 31
0.0
  0
CIRCLE
  5
5975C
330
1F
100
AcDbEntity
  8
DETAIL
370
    25
100
AcDbCircle
 10
11251.14036737401
 20
3065.660339259935
 30
0.0
 40
10.0
  0
CIRCLE
  5
5975D
330
1F
100
AcDbEntity
  8
DETAIL
370
    25
100
AcDbCircle
 10
11441.14036737401
 20
3065.660339259935
 30
0.0
 40
10.0
  0
CIRCLE
  5
5975E
330
1F
100
AcDbEntity
  8
DETAIL
370
    25
100
AcDbCircle
 10
11251.14036737401
 20
2875.660339259004
 30
0.0
 40
10.0
  0
CIRCLE
  5
5975F
330
1F
100
AcDbEntity
  8
DETAIL
370
    25
100
AcDbCircle
 10
11441.14036737401
 20
2875.660339259004
 30
0.0
 40
10.0
  0
LINE
  5
59760
330
1F
100
AcDbEntity
  8
DETAIL
370
    25
100
AcDbLine
 10
11396.14036737448
 20
3020.66033925947
 30
0.0
 11
11396.14036737448
 21
2920.66033925947
 31
0.0
  0
LINE
  5
59761
330
1F
100
AcDbEntity
  8
DETAIL
370
    25
100
AcDbLine
 10
11296.14036737448
 20
3020.66033925947
 30
0.0
 11
11296.14036737448
 21
2920.66033925947
 31
0.0
  0
LINE
  5
59762
330
1F
100
AcDbEntity
  8
DETAIL
370
    25
100
AcDbLine
 10
11346.14036737401
 20
3020.66033925947
 30
0.0
 11
11396.14036737448
 21
3020.66033925947
 31
0.0
  0
LINE
  5
59763
330
1F
100
AcDbEntity
  8
DETAIL
370
    25
100
AcDbLine
 10
11396.14036737448
 20
3020.66033925947
 30
0.0
 11
11296.14036737448
 21
3020.66033925947
 31
0.0
  0
LINE
  5
59764
330
1F
100
AcDbEntity
  8
DETAIL
370
    25
100
AcDbLine
 10
11346.14036737448
 20
2920.66033925947
 30
0.0
 11
11396.14036737448
 21
2920.66033925947
 31
0.0
  0
LINE
  5
59765
330
1F
100
AcDbEntity
  8
DETAIL
370
    25
100
AcDbLine
 10
11396.14036737448
 20
2920.66033925947
 30
0.0
 11
11296.14036737448
 21
2920.66033925947
 31
0.0
  0
ARC
  5
59766
102
{ACAD_REACTORS
330
5976A
102
}
330
1F
100
AcDbEntity
  8
DETAIL
370
    25
100
AcDbCircle
 10
11279.09424207844
 20
2970.66033925947
 30
0.0
 40
50.0
100
AcDbArc
 50
90.0
 51
270.0
  0
LINE
  5
59767
102
{ACAD_REACTORS
330
5976A
102
}
330
1F
100
AcDbEntity
  8
DETAIL
370
    25
100
AcDbLine
 10
11279.09424207844
 20
3020.66033925947
 30
0.0
 11
11296.14036737448
 21
3020.66033925947
 31
0.0
  0
LINE
  5
59768
102
{ACAD_REACTORS
330
5976A
102
}
330
1F
100
AcDbEntity
  8
DETAIL
370
    25
100
AcDbLine
 10
11279.09424207844
 20
2920.66033925947
 30
0.0
 11
11296.14036737448
 21
2920.66033925947
 31
0.0
  0
LINE
  5
59769
102
{ACAD_REACTORS
330
5976A
102
}
330
1F
100
AcDbEntity
  8
DETAIL
370
    25
100
AcDbLine
 10
11296.14036737448
 20
2920.66033925947
 30
0.0
 11
11296.14036737448
 21
3020.66033925947
 31
0.0
  0
HATCH
  5
5976A
330
1F
100
AcDbEntity
  8
DETAIL
370
    25
100
AcDbHatch
 10
0.0
 20
0.0
 30
0.0
210
0.0
220
0.0
230
1.0
  2
SOLID
 70
     1
 71
     1
 91
        1
 92
        7
 72
     1
 73
     1
 93
        4
 10
11279.09424207844
 20
2920.66033925947
 42
0.0
 10
11296.14036737448
 20
2920.66033925947
 42
0.0
 10
11296.14036737448
 20
3020.66033925947
 42
0.0
 10
11279.09424207844
 20
3020.66033925947
 42
1.0
 97
        4
330
59767
330
59766
330
59768
330
59769
 75
     0
 76
     1
 47
0.3305250713372007
 98
        1
 10
11263.7853872275
 20
2982.488279842233
450
        0
451
        0
460
0.0
461
0.0
452
        0
462
0.0
453
        0
470

  0
DIMENSION
  5
5976B
102
{ACAD_XDICTIONARY
360
5976C
102
}
102
{ACAD_REACTORS
330
5976D
102
}
330
1F
100
AcDbEntity
  8
DIMS
370
    25
100
AcDbDimension
280
     0
  2
*D7
 10
9999.617455807239
 20
4187.138602768929
 30
0.0
 11
6031.662524923639
 21
4271.403953646121
 31
0.0
 70
    32
  1
DIMENSION B
 71
     5
 42
7935.909861767199
 73
     0
 74
     0
 75
     0
  3
ISO-25
100
AcDbAlignedDimension
 13
2063.707594040039
 23
3020.660339260401
 33
0.0
 14
9999.617455807239
 24
3195.660339260401
 34
0.0
100
AcDbRotatedDimension
1001
ACAD
1000
DSTYLE
1002
{
1070
    41
1040
80.0
1070
    42
1040
30.0
1070
    44
1040
30.0
1070
   140
1040
80.0
1070
   147
1040
30.0
1070
   173
1070
     1
1070
   178
1070
   256
1070
   340
1005
57C01
1070
   342
1005
0
1002
}
  0
LINE
  5
5976E
330
1F
100
AcDbEntity
  8
DETAIL
370
    25
100
AcDbLine
 10
7286.485537468646
 20
5556.200511711111
 30
0.0
 11
7286.485537468646
 21
7731.200511711577
 31
0.0
  0
LINE
  5
5976F
330
1F
100
AcDbEntity
  8
DETAIL
370
    25
100
AcDbLine
 10
8856.485537468643
 20
5556.200511711111
 30
0.0
 11
8856.485537468643
 21
7731.200511711577
 31
0.0
  0
LINE
  5
59770
330
1F
100
AcDbEntity
  8
DETAIL
370
    25
100
AcDbLine
 10
1069.203737542222
 20
7731.200511711577
 30
0.0
 11
1069.203737542688
 21
5556.200511710644
 31
0.0
  0
LINE
  5
59771
330
1F
100
AcDbEntity
  8
DETAIL
370
    25
100
AcDbLine
 10
949.203737542688
 20
7731.200511711577
 30
0.0
 11
949.203737542688
 21
5556.200511710644
 31
0.0
  0
LINE
  5
59772
330
1F
100
AcDbEntity
  8
DETAIL
370
    25
100
AcDbLine
 10
2033.707594040039
 20
7611.200511711111
 30
0.0
 11
2033.707594040039
 21
5664.200511711111
 31
0.0
  0
ARC
  5
59773
330
1F
100
AcDbEntity
  8
DETAIL
370
    25
100
AcDbCircle
 10
2063.707594040039
 20
5664.200511711111
 30
0.0
 40
30.0
100
AcDbArc
 50
180.0
 51
270.0
  0
ARC
  5
59774
330
1F
100
AcDbEntity
  8
DETAIL
370
    25
100
AcDbCircle
 10
2063.707594040039
 20
7611.200511711111
 30
0.0
 40
30.0
100
AcDbArc
 50
90.0
 51
180.0
  0
LINE
  5
59775
330
1F
100
AcDbEntity
  8
DETAIL
370
    25
100
AcDbLine
 10
1069.203737543154
 20
2823.160339260401
 30
0.0
 11
1069.203737543154
 21
2883.160339260401
 31
0.0
  0
LINE
  5
59776
330
1F
100
AcDbEntity
  8
DETAIL
370
    25
100
AcDbLine
 10
949.203737542688
 20
2823.160339260867
 30
0.0
 11
949.2037375431536
 21
2883.160339259936
 31
0.0
  0
LINE
  5
59777
330
1F
100
AcDbEntity
  8
DETAIL
370
    25
100
AcDbLine
 10
8856.485537468179
 20
2785.66033925947
 30
0.0
 11
8856.485537468179
 21
2845.660339259936
 31
0.0
  0
LINE
  5
59778
330
1F
100
AcDbEntity
  8
DETAIL
370
    25
100
AcDbLine
 10
8736.485537468645
 20
2785.660339259936
 30
0.0
 11
8736.485537468645
 21
2845.660339260401
 31
0.0
  0
LINE
  5
59779
330
1F
100
AcDbEntity
  8
DETAIL
370
    25
100
AcDbLine
 10
7321.485527312107
 20
3120.660339634794
 30
0.0
 11
7321.485527312107
 21
2845.660339634327
 31
0.0
  0
LINE
  5
5977A
330
1F
100
AcDbEntity
  8
DETAIL
370
    25
100
AcDbLine
 10
7371.485527312107
 20
3120.660339634794
 30
0.0
 11
7371.485527312107
 21
2845.660339634327
 31
0.0
  0
LINE
  5
5977B
330
1F
100
AcDbEntity
  8
DETAIL
370
    25
100
AcDbLine
 10
7406.485537469109
 20
2785.660339260401
 30
0.0
 11
7406.485537468644
 21
2845.660339260401
 31
0.0
  0
LINE
  5
5977C
330
1F
100
AcDbEntity
  8
DETAIL
370
    25
100
AcDbLine
 10
7406.485529343321
 20
3180.660339261333
 30
0.0
 11
7406.485517155568
 21
3120.66034823742
 31
0.0
  0
LINE
  5
5977D
330
1F
100
AcDbEntity
  8
DETAIL
370
    25
100
AcDbLine
 10
7406.48553746818
 20
3020.660339261333
 30
0.0
 11
7371.485527311641
 21
3020.660339260867
 31
0.0
  0
LINE
  5
5977E
330
1F
100
AcDbEntity
  8
DETAIL
370
    25
100
AcDbLine
 10
7406.48553746818
 20
2945.660339261332
 30
0.0
 11
7371.485527311641
 21
2945.660339260867
 31
0.0
  0
LINE
  5
5977F
330
1F
100
AcDbEntity
  8
DETAIL
370
    25
100
AcDbLine
 10
7286.48553746818
 20
3120.660339260867
 30
0.0
 11
7286.485537467713
 21
3180.660339260867
 31
0.0
  0
LINE
  5
59780
330
1F
100
AcDbEntity
  8
DETAIL
370
    25
100
AcDbLine
 10
7286.48553746818
 20
2845.660339260401
 30
0.0
 11
7286.48553746818
 21
2785.660339260401
 31
0.0
  0
LINE
  5
59781
330
1F
100
AcDbEntity
  8
DETAIL
370
    25
100
AcDbLine
 10
7286.485537468646
 20
2945.660339260401
 30
0.0
 11
7321.485527312107
 21
2945.660339260401
 31
0.0
  0
LINE
  5
59782
330
1F
100
AcDbEntity
  8
DETAIL
370
    25
100
AcDbLine
 10
7286.48553746818
 20
3120.660339260867
 30
0.0
 11
7406.485517155568
 21
3120.66034823742
 31
0.0
  0
LINE
  5
59783
330
1F
100
AcDbEntity
  8
DETAIL
370
    25
100
AcDbLine
 10
8771.485537468645
 20
3120.66034823742
 30
0.0
 11
8771.485537468645
 21
2845.660348236954
 31
0.0
  0
LINE
  5
59784
330
1F
100
AcDbEntity
  8
DETAIL
370
    25
100
AcDbLine
 10
8821.485537468644
 20
3120.66034823742
 30
0.0
 11
8821.485537468644
 21
2845.660348236954
 31
0.0
  0
LINE
  5
59785
330
1F
100
AcDbEntity
  8
DETAIL
370
    25
100
AcDbLine
 10
8736.485537468645
 20
3120.66034823742
 30
0.0
 11
8856.485537468643
 21
3120.66034823742
 31
0.0
  0
LINE
  5
59786
330
1F
100
AcDbEntity
  8
DETAIL
370
    25
100
AcDbLine
 10
8736.485537468645
 20
3120.660348237886
 30
0.0
 11
8736.48553746818
 21
3180.660348237419
 31
0.0
  0
LINE
  5
59787
330
1F
100
AcDbEntity
  8
DETAIL
370
    25
100
AcDbLine
 10
8856.485537468643
 20
3120.660348237886
 30
0.0
 11
8856.485537468643
 21
3180.660348237419
 31
0.0
  0
LINE
  5
59788
330
1F
100
AcDbEntity
  8
DETAIL
370
    25
100
AcDbLine
 10
8736.485537468645
 20
2845.660339260401
 30
0.0
 11
8736.485537468645
 21
2785.660339259936
 31
0.0
  0
LINE
  5
59789
330
1F
100
AcDbEntity
  8
DETAIL
370
    25
100
AcDbLine
 10
1009.203737542688
 20
3083.160339260867
 30
0.0
 11
1009.203737542688
 21
2883.160339260401
 31
0.0
  0
LINE
  5
5978A
330
1F
100
AcDbEntity
  8
DETAIL
370
    25
100
AcDbLine
 10
984.203737542688
 20
3083.160339260867
 30
0.0
 11
984.203737542688
 21
2883.160339260401
 31
0.0
  0
LINE
  5
5978B
330
1F
100
AcDbEntity
  8
DETAIL
370
    25
100
AcDbLine
 10
1034.203737542688
 20
3083.160339260867
 30
0.0
 11
1034.203737542688
 21
2883.160339260401
 31
0.0
  0
LINE
  5
5978C
330
1F
100
AcDbEntity
  8
DETAIL
370
    25
100
AcDbLine
 10
949.2037375431536
 20
3083.160339261333
 30
0.0
 11
949.2037375436192
 21
3143.160339260401
 31
0.0
  0
LINE
  5
5978D
330
1F
100
AcDbEntity
  8
DETAIL
370
    25
100
AcDbLine
 10
1069.203737543154
 20
3083.160339260401
 30
0.0
 11
1069.203737543154
 21
3143.160339260867
 31
0.0
  0
ARC
  5
5978E
330
1F
100
AcDbEntity
  8
DETAIL
370
    25
100
AcDbCircle
 10
2063.707594040039
 20
2983.160339260401
 30
0.0
 40
37.5
100
AcDbArc
 50
89.99984314577293
 51
270.0003025827164
  0
LINE
  5
5978F
330
1F
100
AcDbEntity
  8
DETAIL
370
    25
100
AcDbLine
 10
7286.48553746818
 20
3120.660339260867
 30
0.0
 11
7286.48553746818
 21
3180.660339260867
 31
0.0
  0
LINE
  5
59790
330
1F
100
AcDbEntity
  8
DETAIL
370
    25
100
AcDbLine
 10
7286.48553746818
 20
3180.660339260867
 30
0.0
 11
7406.485529343321
 21
3180.660339260867
 31
0.0
  0
LINE
  5
59791
330
1F
100
AcDbEntity
  8
DETAIL
370
    25
100
AcDbLine
 10
7286.48553746818
 20
2845.660339260401
 30
0.0
 11
7286.48553746818
 21
2785.660339260401
 31
0.0
  0
LINE
  5
59792
330
1F
100
AcDbEntity
  8
DETAIL
370
    25
100
AcDbLine
 10
7286.48553746818
 20
2785.660339260401
 30
0.0
 11
7406.485537468644
 21
2785.660339260401
 31
0.0
  0
LINE
  5
59793
330
1F
100
AcDbEntity
  8
DETAIL
370
    25
100
AcDbLine
 10
8856.485537468643
 20
3120.66034823742
 30
0.0
 11
8856.485537468643
 21
3180.660348237419
 31
0.0
  0
LINE
  5
59794
330
1F
100
AcDbEntity
  8
DETAIL
370
    25
100
AcDbLine
 10
8856.485537468643
 20
3180.660348237419
 30
0.0
 11
8736.485537468645
 21
3180.660348237419
 31
0.0
  0
LINE
  5
59795
330
1F
100
AcDbEntity
  8
DETAIL
370
    25
100
AcDbLine
 10
8856.48553746911
 20
2845.660339259936
 30
0.0
 11
8856.485537468179
 21
2785.660339259936
 31
0.0
  0
LINE
  5
59796
330
1F
100
AcDbEntity
  8
DETAIL
370
    25
100
AcDbLine
 10
8856.485537468179
 20
2785.660339259936
 30
0.0
 11
8736.485537468645
 21
2785.660339259936
 31
0.0
  0
LINE
  5
59797
330
1F
100
AcDbEntity
  8
DETAIL
370
    25
100
AcDbLine
 10
1069.203737543154
 20
3083.160339260401
 30
0.0
 11
1069.203737543154
 21
3143.160339260401
 31
0.0
  0
LINE
  5
59798
330
1F
100
AcDbEntity
  8
DETAIL
370
    25
100
AcDbLine
 10
1069.203737543154
 20
3143.160339260401
 30
0.0
 11
949.203737542688
 21
3143.160339260401
 31
0.0
  0
LINE
  5
59799
330
1F
100
AcDbEntity
  8
DETAIL
370
    25
100
AcDbLine
 10
1069.203737543154
 20
2883.160339260401
 30
0.0
 11
1069.203737543154
 21
2823.160339260401
 31
0.0
  0
LINE
  5
5979A
330
1F
100
AcDbEntity
  8
DETAIL
370
    25
100
AcDbLine
 10
1069.203737543154
 20
2823.160339260401
 30
0.0
 11
949.203737542688
 21
2823.160339260401
 31
0.0
  0
LINE
  5
5979B
330
1F
100
AcDbEntity
  8
DETAIL
370
    25
100
AcDbLine
 10
8856.485537468643
 20
7731.200511712042
 30
0.0
 11
8736.485537468645
 21
7731.200511712042
 31
0.0
  0
LINE
  5
5979C
330
1F
100
AcDbEntity
  8
DETAIL
370
    25
100
AcDbLine
 10
7406.485537468644
 20
7731.200511712042
 30
0.0
 11
7286.485537468646
 21
7731.200511712042
 31
0.0
  0
LINE
  5
5979D
330
1F
100
AcDbEntity
  8
DETAIL
370
    25
100
AcDbLine
 10
1069.203737542688
 20
7731.200511712042
 30
0.0
 11
949.203737542688
 21
7731.200511712042
 31
0.0
  0
LINE
  5
5979E
330
1F
100
AcDbEntity
  8
DETAIL
370
    25
100
AcDbLine
 10
1078.203713385577
 20
5556.200496312625
 30
0.0
 11
978.2037133855777
 21
5556.200496312625
 31
0.0
  0
LINE
  5
5979F
330
1F
100
AcDbEntity
  8
DETAIL
370
    25
100
AcDbLine
 10
949.203737542688
 20
2883.160339260401
 30
0.0
 11
949.203737542688
 21
3083.160339260867
 31
0.0
  0
LINE
  5
597A0
330
1F
100
AcDbEntity
  8
DETAIL
370
    25
100
AcDbLine
 10
979.2037133855776
 20
3083.160339260867
 30
0.0
 11
979.2037133855776
 21
2883.160339260401
 31
0.0
  0
LINE
  5
597A1
330
1F
100
AcDbEntity
  8
DETAIL
370
    25
100
AcDbLine
 10
4499.617455806307
 20
7591.200511712043
 30
0.0
 11
4449.617455807238
 21
7591.200511711575
 31
0.0
  0
DIMENSION
  5
597A2
330
1F
100
AcDbEntity
  8
DIMS
370
    25
100
AcDbDimension
280
     0
  2
*D2
 10
7286.485537468646
 20
8072.558730041071
 30
0.0
 11
4177.844642125958
 21
8156.82408091826
 31
0.0
 70
    32
  1
DIMENSION A
 71
     5
 42
6217.281790685373
 73
     0
 74
     0
 75
     0
  3
ISO-25
100
AcDbAlignedDimension
 13
1069.20374678327
 23
7731.200516504163
 33
0.0
 14
7286.485537468646
 24
7731.200511711577
 34
0.0
100
AcDbRotatedDimension
1001
ACAD
1000
DSTYLE
1002
{
1070
    41
1040
80.0
1070
    42
1040
30.0
1070
    44
1040
30.0
1070
   140
1040
80.0
1070
   147
1040
30.0
1070
   173
1070
     1
1070
   178
1070
   256
1070
   340
1005
57C01
1070
   342
1005
0
1002
}
  0
LINE
  5
597A3
330
1F
100
AcDbEntity
  8
TEXT
370
    25
100
AcDbLine
 10
12160.53918603221
 20
4199.004357689453
 30
0.0
 11
12160.53918603174
 21
2844.542276509034
 31
0.0
  0
MTEXT
  5
597A4
330
1F
100
AcDbEntity
  8
TEXT
370
    25
100
AcDbMText
 10
12215.24916577358
 20
4165.63412684195
 30
0.0
 40
75.0
 41
396.0387173708909
 46
0.0
 71
     1
 72
     5
  1
DIM A
 73
     1
 44
1.0
  0
MTEXT
  5
597A5
330
1F
100
AcDbEntity
  8
TEXT
370
    25
100
AcDbMText
 10
12655.83683249327
 20
4164.071988436321
 30
0.0
 40
75.0
 41
396.0387
 46
0.0
 71
     1
 72
     5
  1
DIM B
 73
     1
 44
1.0
  0
MTEXT
  5
597A6
330
1F
100
AcDbEntity
  8
TEXT
370
    25
100
AcDbMText
 10
13115.03193887388
 20
4164.071988436321
 30
0.0
 40
75.0
 41
396.0387
 46
0.0
 71
     1
 72
     5
  1
DIM C
 73
     1
 44
1.0
  0
LINE
  5
597A7
330
1F
100
AcDbEntity
  8
TEXT
370
    25
100
AcDbLine
 10
12160.53918603221
 20
4199.004357689453
 30
0.0
 11
12608.53918603221
 21
4199.004357689453
 31
0.0
  0
LINE
  5
597A8
330
1F
100
AcDbEntity
  8
TEXT
370
    25
100
AcDbLine
 10
12608.53918603221
 20
4199.004357689453
 30
0.0
 11
12608.53918603221
 21
2844.542276509034
 31
0.0
  0
LINE
  5
597A9
330
1F
100
AcDbEntity
  8
TEXT
370
    25
100
AcDbLine
 10
13056.53918603221
 20
4199.004357689453
 30
0.0
 11
13056.53918603128
 21
2844.542276509034
 31
0.0
  0
LINE
  5
597AA
330
1F
100
AcDbEntity
  8
TEXT
370
    25
100
AcDbLine
 10
13504.53918603221
 20
4199.004357689453
 30
0.0
 11
13504.53918603174
 21
2844.542276509034
 31
0.0
  0
LINE
  5
597AB
330
1F
100
AcDbEntity
  8
TEXT
370
    25
100
AcDbLine
 10
12608.53918603221
 20
4199.004357689453
 30
0.0
 11
13952.53915053764
 21
4199.004357688521
 31
0.0
  0
LINE
  5
597AC
330
1F
100
AcDbEntity
  8
TEXT
370
    25
100
AcDbLine
 10
13952.53915053811
 20
4044.542276509033
 30
0.0
 11
12160.53918603221
 21
4044.542276509033
 31
0.0
  0
LINE
  5
597AD
330
1F
100
AcDbEntity
  8
TEXT
370
    25
100
AcDbLine
 10
13952.53915053811
 20
3894.542276509034
 30
0.0
 11
12160.53918603221
 21
3894.542276509034
 31
0.0
  0
LINE
  5
597AE
330
1F
100
AcDbEntity
  8
TEXT
370
    25
100
AcDbLine
 10
13952.53915053811
 20
3744.542276508568
 30
0.0
 11
12160.53918603221
 21
3744.542276509033
 31
0.0
  0
LINE
  5
597AF
330
1F
100
AcDbEntity
  8
TEXT
370
    25
100
AcDbLine
 10
13952.53915053811
 20
3594.542276509965
 30
0.0
 11
12160.53918603221
 21
3594.542276509034
 31
0.0
  0
LINE
  5
597B0
330
1F
100
AcDbEntity
  8
TEXT
370
    25
100
AcDbLine
 10
13952.53915053811
 20
3444.542276509499
 30
0.0
 11
12160.53918603221
 21
3444.542276509034
 31
0.0
  0
LINE
  5
597B1
330
1F
100
AcDbEntity
  8
TEXT
370
    25
100
AcDbLine
 10
13952.53915053811
 20
3294.542276509034
 30
0.0
 11
12160.53918603221
 21
3294.542276509034
 31
0.0
  0
LINE
  5
597B2
330
1F
100
AcDbEntity
  8
TEXT
370
    25
100
AcDbLine
 10
13952.53915053811
 20
3144.542276509034
 30
0.0
 11
12160.53918603221
 21
3144.542276509034
 31
0.0
  0
LINE
  5
597B3
330
1F
100
AcDbEntity
  8
TEXT
370
    25
100
AcDbLine
 10
13952.53915053811
 20
2994.542276509499
 30
0.0
 11
12160.53918603221
 21
2994.542276509033
 31
0.0
  0
LINE
  5
597B4
330
1F
100
AcDbEntity
  8
TEXT
370
    25
100
AcDbLine
 10
13952.53915053858
 20
2844.542276508568
 30
0.0
 11
12160.53918603221
 21
2844.542276509034
 31
0.0
  0
MTEXT
  5
597B5
330
1F
100
AcDbEntity
  8
TEXT
370
    25
100
AcDbMText
 10
12255.83576527257
 20
4011.943110023088
 30
0.0
 40
75.0
 41
396.0387
 46
0.0
 71
     1
 72
     5
  1
3000
 73
     1
 44
1.0
  0
LINE
  5
597B6
330
1F
100
AcDbEntity
  8
TEXT
370
    25
100
AcDbLine
 10
12160.53918603221
 20
4044.542276509033
 30
0.0
 11
12160.53918603221
 21
3894.542276509034
 31
0.0
  0
MTEXT
  5
597B7
330
1F
100
AcDbEntity
  8
TEXT
370
    25
100
AcDbMText
 10
12255.83572977893
 20
3861.943143551165
 30
0.0
 40
75.0
 41
396.0387
 46
0.0
 71
     1
 72
     5
  1
4000
 73
     1
 44
1.0
  0
LINE
  5
597B8
330
1F
100
AcDbEntity
  8
TEXT
370
    25
100
AcDbLine
 10
12160.53915053858
 20
3894.542310037112
 30
0.0
 11
12160.53915053858
 21
3744.542310037112
 31
0.0
  0
MTEXT
  5
597B9
330
1F
100
AcDbEntity
  8
TEXT
370
    25
100
AcDbMText
 10
12255.83572977893
 20
3711.943143551165
 30
0.0
 40
75.0
 41
396.0387
 46
0.0
 71
     1
 72
     5
  1
5000
 73
     1
 44
1.0
  0
LINE
  5
597BA
330
1F
100
AcDbEntity
  8
TEXT
370
    25
100
AcDbLine
 10
12160.53915053858
 20
3744.542310037112
 30
0.0
 11
12160.53915053858
 21
3594.542310037112
 31
0.0
  0
MTEXT
  5
597BB
330
1F
100
AcDbEntity
  8
TEXT
370
    25
100
AcDbMText
 10
12255.83572977847
 20
3561.943143551165
 30
0.0
 40
75.0
 41
396.0387
 46
0.0
 71
     1
 72
     5
  1
6000
 73
     1
 44
1.0
  0
LINE
  5
597BC
330
1F
100
AcDbEntity
  8
TEXT
370
    25
100
AcDbLine
 10
12160.53915053811
 20
3594.542310037112
 30
0.0
 11
12160.53915053811
 21
3444.542310037112
 31
0.0
  0
MTEXT
  5
597BD
330
1F
100
AcDbEntity
  8
TEXT
370
    25
100
AcDbMText
 10
12255.83572977893
 20
3411.943143551165
 30
0.0
 40
75.0
 41
396.0387
 46
0.0
 71
     1
 72
     5
  1
8000
 73
     1
 44
1.0
  0
LINE
  5
597BE
330
1F
100
AcDbEntity
  8
TEXT
370
    25
100
AcDbLine
 10
12160.53915053858
 20
3444.542310037112
 30
0.0
 11
12160.53915053858
 21
3294.542310037112
 31
0.0
  0
MTEXT
  5
597BF
330
1F
100
AcDbEntity
  8
TEXT
370
    25
100
AcDbMText
 10
12255.83572977893
 20
3261.943143551165
 30
0.0
 40
75.0
 41
396.0387
 46
0.0
 71
     1
 72
     5
  1
10000
 73
     1
 44
1.0
  0
LINE
  5
597C0
330
1F
100
AcDbEntity
  8
TEXT
370
    25
100
AcDbLine
 10
12160.53915053858
 20
3294.542310037112
 30
0.0
 11
12160.53915053858
 21
3144.542310037112
 31
0.0
  0
MTEXT
  5
597C1
330
1F
100
AcDbEntity
  8
TEXT
370
    25
100
AcDbMText
 10
12255.83572977847
 20
3111.943143551165
 30
0.0
 40
75.0
 41
396.0387
 46
0.0
 71
     1
 72
     5
  1
12000
 73
     1
 44
1.0
  0
LINE
  5
597C2
330
1F
100
AcDbEntity
  8
TEXT
370
    25
100
AcDbLine
 10
12160.53915053811
 20
3144.542310037112
 30
0.0
 11
12160.53915053811
 21
2994.542310037112
 31
0.0
  0
MTEXT
  5
597C3
330
1F
100
AcDbEntity
  8
TEXT
370
    25
100
AcDbMText
 10
12255.83572977893
 20
2961.943143551165
 30
0.0
 40
75.0
 41
396.0387
 46
0.0
 71
     1
 72
     5
  1
14000
 73
     1
 44
1.0
  0
LINE
  5
597C4
330
1F
100
AcDbEntity
  8
TEXT
370
    25
100
AcDbLine
 10
12160.53915053858
 20
2994.542310037112
 30
0.0
 11
12160.53915053858
 21
2844.542310037112
 31
0.0
  0
MTEXT
  5
597C5
330
1F
100
AcDbEntity
  8
TEXT
370
    25
100
AcDbMText
 10
12703.83572977893
 20
4011.943143551165
 30
0.0
 40
75.0
 41
396.0387
 46
0.0
 71
     1
 72
     5
  1
4800
 73
     1
 44
1.0
  0
LINE
  5
597C6
330
1F
100
AcDbEntity
  8
TEXT
370
    25
100
AcDbLine
 10
12608.53915053858
 20
4044.542310037111
 30
0.0
 11
12608.53915053858
 21
3894.542310037112
 31
0.0
  0
MTEXT
  5
597C7
330
1F
100
AcDbEntity
  8
TEXT
370
    25
100
AcDbMText
 10
12703.83572977893
 20
3861.943143551165
 30
0.0
 40
75.0
 41
396.0387
 46
0.0
 71
     1
 72
     5
  1
6300
 73
     1
 44
1.0
  0
LINE
  5
597C8
330
1F
100
AcDbEntity
  8
TEXT
370
    25
100
AcDbLine
 10
12608.53915053858
 20
3894.542310037112
 30
0.0
 11
12608.53915053858
 21
3744.542310037112
 31
0.0
  0
MTEXT
  5
597C9
330
1F
100
AcDbEntity
  8
TEXT
370
    25
100
AcDbMText
 10
12703.83572977893
 20
3711.943143551165
 30
0.0
 40
75.0
 41
396.0387
 46
0.0
 71
     1
 72
     5
  1
7500
 73
     1
 44
1.0
  0
LINE
  5
597CA
330
1F
100
AcDbEntity
  8
TEXT
370
    25
100
AcDbLine
 10
12608.53915053858
 20
3744.542310037112
 30
0.0
 11
12608.53915053858
 21
3594.542310037112
 31
0.0
  0
MTEXT
  5
597CB
330
1F
100
AcDbEntity
  8
TEXT
370
    25
100
AcDbMText
 10
12703.83572977893
 20
3561.943143551165
 30
0.0
 40
75.0
 41
396.0387
 46
0.0
 71
     1
 72
     5
  1
8800
 73
     1
 44
1.0
  0
LINE
  5
597CC
330
1F
100
AcDbEntity
  8
TEXT
370
    25
100
AcDbLine
 10
12608.53915053858
 20
3594.542310037112
 30
0.0
 11
12608.53915053858
 21
3444.542310037112
 31
0.0
  0
MTEXT
  5
597CD
330
1F
100
AcDbEntity
  8
TEXT
370
    25
100
AcDbMText
 10
12703.83572977893
 20
3411.943143551165
 30
0.0
 40
75.0
 41
396.0387
 46
0.0
 71
     1
 72
     5
  1
11400
 73
     1
 44
1.0
  0
LINE
  5
597CE
330
1F
100
AcDbEntity
  8
TEXT
370
    25
100
AcDbLine
 10
12608.53915053858
 20
3444.542310037112
 30
0.0
 11
12608.53915053858
 21
3294.542310037112
 31
0.0
  0
MTEXT
  5
597CF
330
1F
100
AcDbEntity
  8
TEXT
370
    25
100
AcDbMText
 10
12703.83572977893
 20
3261.943143551165
 30
0.0
 40
75.0
 41
396.0387
 46
0.0
 71
     1
 72
     5
  1
14400
 73
     1
 44
1.0
  0
LINE
  5
597D0
330
1F
100
AcDbEntity
  8
TEXT
370
    25
100
AcDbLine
 10
12608.53915053858
 20
3294.542310037112
 30
0.0
 11
12608.53915053858
 21
3144.542310037112
 31
0.0
  0
MTEXT
  5
597D1
330
1F
100
AcDbEntity
  8
TEXT
370
    25
100
AcDbMText
 10
12703.83572977893
 20
3111.943143551165
 30
0.0
 40
75.0
 41
396.0387
 46
0.0
 71
     1
 72
     5
  1
17400
 73
     1
 44
1.0
  0
LINE
  5
597D2
330
1F
100
AcDbEntity
  8
TEXT
370
    25
100
AcDbLine
 10
12608.53915053858
 20
3144.542310037112
 30
0.0
 11
12608.53915053858
 21
2994.542310037112
 31
0.0
  0
MTEXT
  5
597D3
330
1F
100
AcDbEntity
  8
TEXT
370
    25
100
AcDbMText
 10
12703.83572977893
 20
2961.943143551165
 30
0.0
 40
75.0
 41
396.0387
 46
0.0
 71
     1
 72
     5
  1
19600
 73
     1
 44
1.0
  0
LINE
  5
597D4
330
1F
100
AcDbEntity
  8
TEXT
370
    25
100
AcDbLine
 10
12608.53915053858
 20
2994.542310037112
 30
0.0
 11
12608.53915053858
 21
2844.542310037112
 31
0.0
  0
MTEXT
  5
597D5
330
1F
100
AcDbEntity
  8
TEXT
370
    25
100
AcDbMText
 10
13151.83572977893
 20
4011.943143551165
 30
0.0
 40
75.0
 41
396.0387
 46
0.0
 71
     1
 72
     5
  1
1190
 73
     1
 44
1.0
  0
LINE
  5
597D6
330
1F
100
AcDbEntity
  8
TEXT
370
    25
100
AcDbLine
 10
13056.53915053857
 20
4044.542310037111
 30
0.0
 11
13056.53915053857
 21
3894.542310037112
 31
0.0
  0
MTEXT
  5
597D7
330
1F
100
AcDbEntity
  8
TEXT
370
    25
100
AcDbMText
 10
13151.83572977893
 20
3861.943143551165
 30
0.0
 40
75.0
 41
396.0387
 46
0.0
 71
     1
 72
     5
  1
1600
 73
     1
 44
1.0
  0
LINE
  5
597D8
330
1F
100
AcDbEntity
  8
TEXT
370
    25
100
AcDbLine
 10
13056.53915053857
 20
3894.542310037112
 30
0.0
 11
13056.53915053857
 21
3744.542310037112
 31
0.0
  0
LINE
  5
597D9
330
1F
100
AcDbEntity
  8
TEXT
370
    25
100
AcDbLine
 10
13504.53915053858
 20
4044.542310037111
 30
0.0
 11
13504.53915053858
 21
3894.542310037112
 31
0.0
  0
LINE
  5
597DA
330
1F
100
AcDbEntity
  8
TEXT
370
    25
100
AcDbLine
 10
13504.53915053858
 20
3894.542310037112
 30
0.0
 11
13504.53915053858
 21
3744.542310037112
 31
0.0
  0
MTEXT
  5
597DB
330
1F
100
AcDbEntity
  8
TEXT
370
    25
100
AcDbMText
 10
13151.83572977893
 20
3711.943143551165
 30
0.0
 40
75.0
 41
396.0387
 46
0.0
 71
     1
 72
     5
  1
1800
 73
     1
 44
1.0
  0
LINE
  5
597DC
330
1F
100
AcDbEntity
  8
TEXT
370
    25
100
AcDbLine
 10
13056.53915053857
 20
3744.542310037112
 30
0.0
 11
13056.53915053857
 21
3594.542310037112
 31
0.0
  0
LINE
  5
597DD
330
1F
100
AcDbEntity
  8
TEXT
370
    25
100
AcDbLine
 10
13504.53915053858
 20
3744.542310037112
 30
0.0
 11
13504.53915053858
 21
3594.542310037112
 31
0.0
  0
MTEXT
  5
597DE
330
1F
100
AcDbEntity
  8
TEXT
370
    25
100
AcDbMText
 10
13151.83572977847
 20
3561.943143551165
 30
0.0
 40
75.0
 41
396.0387
 46
0.0
 71
     1
 72
     5
  1
2100
 73
     1
 44
1.0
  0
LINE
  5
597DF
330
1F
100
AcDbEntity
  8
TEXT
370
    25
100
AcDbLine
 10
13056.53915053811
 20
3594.542310037112
 30
0.0
 11
13056.53915053811
 21
3444.542310037112
 31
0.0
  0
MTEXT
  5
597E0
330
1F
100
AcDbEntity
  8
TEXT
370
    25
100
AcDbMText
 10
13151.83572977893
 20
3411.943143551165
 30
0.0
 40
75.0
 41
396.0387
 46
0.0
 71
     1
 72
     5
  1
2700
 73
     1
 44
1.0
  0
LINE
  5
597E1
330
1F
100
AcDbEntity
  8
TEXT
370
    25
100
AcDbLine
 10
13056.53915053857
 20
3444.542310037112
 30
0.0
 11
13056.53915053857
 21
3294.542310037112
 31
0.0
  0
LINE
  5
597E2
330
1F
100
AcDbEntity
  8
TEXT
370
    25
100
AcDbLine
 10
13504.53915053811
 20
3594.542310037112
 30
0.0
 11
13504.53915053811
 21
3444.542310037112
 31
0.0
  0
LINE
  5
597E3
330
1F
100
AcDbEntity
  8
TEXT
370
    25
100
AcDbLine
 10
13504.53915053811
 20
3444.542310037112
 30
0.0
 11
13504.53915053811
 21
3294.542310037112
 31
0.0
  0
MTEXT
  5
597E4
330
1F
100
AcDbEntity
  8
TEXT
370
    25
100
AcDbMText
 10
13151.83572977893
 20
3261.943143551165
 30
0.0
 40
75.0
 41
396.0387
 46
0.0
 71
     1
 72
     5
  1
3470
 73
     1
 44
1.0
  0
LINE
  5
597E5
330
1F
100
AcDbEntity
  8
TEXT
370
    25
100
AcDbLine
 10
13056.53915053857
 20
3294.542310037112
 30
0.0
 11
13056.53915053857
 21
3144.542310037112
 31
0.0
  0
MTEXT
  5
597E6
330
1F
100
AcDbEntity
  8
TEXT
370
    25
100
AcDbMText
 10
13151.83572977893
 20
3111.943143551165
 30
0.0
 40
75.0
 41
396.0387
 46
0.0
 71
     1
 72
     5
  1
4470
 73
     1
 44
1.0
  0
LINE
  5
597E7
330
1F
100
AcDbEntity
  8
TEXT
370
    25
100
AcDbLine
 10
13056.53915053857
 20
3144.542310037112
 30
0.0
 11
13056.53915053857
 21
2994.542310037112
 31
0.0
  0
MTEXT
  5
597E8
330
1F
100
AcDbEntity
  8
TEXT
370
    25
100
AcDbMText
 10
13151.83572977893
 20
2961.943143551165
 30
0.0
 40
75.0
 41
396.0387
 46
0.0
 71
     1
 72
     5
  1
4670
 73
     1
 44
1.0
  0
LINE
  5
597E9
330
1F
100
AcDbEntity
  8
TEXT
370
    25
100
AcDbLine
 10
13056.53915053857
 20
2994.542310037112
 30
0.0
 11
13056.53915053857
 21
2844.542310037112
 31
0.0
  0
LINE
  5
597EA
330
1F
100
AcDbEntity
  8
TEXT
370
    25
100
AcDbLine
 10
13504.53915053811
 20
3294.542310037112
 30
0.0
 11
13504.53915053811
 21
3144.542310037112
 31
0.0
  0
LINE
  5
597EB
330
1F
100
AcDbEntity
  8
TEXT
370
    25
100
AcDbLine
 10
13504.53915053811
 20
3144.542310037112
 30
0.0
 11
13504.53915053811
 21
2994.542310037112
 31
0.0
  0
LINE
  5
597EC
330
1F
100
AcDbEntity
  8
TEXT
370
    25
100
AcDbLine
 10
13504.53915053811
 20
2994.542310037112
 30
0.0
 11
13504.53915053811
 21
2844.542310037112
 31
0.0
  0
MTEXT
  5
597ED
330
1F
100
AcDbEntity
  8
TEXT
370
    25
100
AcDbMText
 10
12255.83576527257
 20
2811.943110023087
 30
0.0
 40
75.0
 41
396.0387
 46
0.0
 71
     1
 72
     5
  1
16000
 73
     1
 44
1.0
  0
LINE
  5
597EE
330
1F
100
AcDbEntity
  8
TEXT
370
    25
100
AcDbLine
 10
12160.53918603221
 20
2844.542276509034
 30
0.0
 11
12160.53918603221
 21
2694.542276509034
 31
0.0
  0
MTEXT
  5
597EF
330
1F
100
AcDbEntity
  8
TEXT
370
    25
100
AcDbMText
 10
12703.83576527257
 20
2811.943110023087
 30
0.0
 40
75.0
 41
396.0387
 46
0.0
 71
     1
 72
     5
  1
22200
 73
     1
 44
1.0
  0
LINE
  5
597F0
330
1F
100
AcDbEntity
  8
TEXT
370
    25
100
AcDbLine
 10
12608.53918603221
 20
2844.542276509034
 30
0.0
 11
12608.53918603221
 21
2694.542276509034
 31
0.0
  0
MTEXT
  5
597F1
330
1F
100
AcDbEntity
  8
TEXT
370
    25
100
AcDbMText
 10
13151.83576527257
 20
2811.943110023087
 30
0.0
 40
75.0
 41
396.0387
 46
0.0
 71
     1
 72
     5
  1
5270
 73
     1
 44
1.0
  0
LINE
  5
597F2
330
1F
100
AcDbEntity
  8
TEXT
370
    25
100
AcDbLine
 10
13056.53918603221
 20
2844.542276509034
 30
0.0
 11
13056.53918603221
 21
2694.542276509034
 31
0.0
  0
LINE
  5
597F3
330
1F
100
AcDbEntity
  8
TEXT
370
    25
100
AcDbLine
 10
13504.53918603174
 20
2844.542276509034
 30
0.0
 11
13504.53918603174
 21
2694.542276509034
 31
0.0
  0
LINE
  5
597F4
330
1F
100
AcDbEntity
  8
TEXT
370
    25
100
AcDbLine
 10
12160.53918603221
 20
2694.542276509034
 30
0.0
 11
13952.53915053811
 21
2694.542276508568
 31
0.0
  0
LINE
  5
597F5
330
1F
100
AcDbEntity
  8
Wheels
  6
Continuous
 62
     6
 48
10.0
370
    25
100
AcDbLine
 10
7577.310537468365
 20
5571.200511711111
 30
0.0
 11
7115.66053746846
 21
5571.200511710646
 31
0.0
  0
LINE
  5
597F6
330
1F
100
AcDbEntity
  8
Wheels
  6
Continuous
 62
     6
 48
10.0
370
    25
100
AcDbLine
 10
7392.310537468365
 20
5571.200511711111
 30
0.0
 11
7392.310537468365
 21
5624.62269946553
 31
0.0
  0
LINE
  5
597F7
330
1F
100
AcDbEntity
  8
Wheels
  6
Continuous
 62
     6
 48
10.0
370
    25
100
AcDbLine
 10
7292.310537468366
 20
5571.200511711111
 30
0.0
 11
7292.310537468366
 21
5624.62269946553
 31
0.0
  0
LINE
  5
597F8
330
1F
100
AcDbEntity
  8
Wheels
 62
     6
370
    25
100
AcDbLine
 10
7392.310537468365
 20
5624.62269946553
 30
0.0
 11
7392.310537468365
 21
5654.049950797503
 31
0.0
  0
LINE
  5
597F9
330
1F
100
AcDbEntity
  8
Wheels
 62
     6
370
    25
100
AcDbLine
 10
7292.310537468366
 20
5624.62269946553
 30
0.0
 11
7292.310537468366
 21
5654.049950797503
 31
0.0
  0
LINE
  5
597FA
330
1F
100
AcDbEntity
  8
Wheels
 62
     6
370
    25
100
AcDbLine
 10
7292.310537468366
 20
5597.911605588553
 30
0.0
 11
7267.342909814047
 21
5597.911605588553
 31
0.0
  0
LINE
  5
597FB
330
1F
100
AcDbEntity
  8
Wheels
 62
     6
370
    25
100
AcDbLine
 10
7267.342909814047
 20
5597.911605588553
 30
0.0
 11
7231.054003690559
 21
5634.200511711576
 31
0.0
  0
LINE
  5
597FC
330
1F
100
AcDbEntity
  8
Wheels
 62
     6
370
    25
100
AcDbLine
 10
7392.310537468365
 20
5597.911605588553
 30
0.0
 11
7417.278165122683
 21
5597.911605588553
 31
0.0
  0
LINE
  5
597FD
330
1F
100
AcDbEntity
  8
Wheels
 62
     6
370
    25
100
AcDbLine
 10
7417.278165122683
 20
5597.911605588553
 30
0.0
 11
7437.476399837251
 21
5618.109840303121
 31
0.0
  0
LINE
  5
597FE
330
1F
100
AcDbEntity
  8
Wheels
 62
     6
370
    25
100
AcDbLine
 10
7577.310537468365
 20
5571.200511711111
 30
0.0
 11
7577.310537468365
 21
5556.200511710644
 31
0.0
  0
LINE
  5
597FF
330
1F
100
AcDbEntity
  8
Wheels
 62
     6
370
    25
100
AcDbLine
 10
7115.66053746846
 20
5571.200511711111
 30
0.0
 11
7115.66053746846
 21
5556.200511711111
 31
0.0
  0
LINE
  5
59800
330
1F
100
AcDbEntity
  8
DETAIL
370
    25
100
AcDbLine
 10
7577.310537468365
 20
5556.200511710644
 30
0.0
 11
7115.66053746846
 21
5556.200511711111
 31
0.0
  0
LINE
  5
59801
330
1F
100
AcDbEntity
  8
DETAIL
370
    25
100
AcDbLine
 10
9646.48554950692
 20
5541.200511711111
 30
0.0
 11
9146.485549506927
 21
5541.200511711111
 31
0.0
  0
LINE
  5
59802
330
1F
100
AcDbEntity
  8
APPLICATION
370
    25
100
AcDbLine
 10
9146.485537468644
 20
4941.200511711111
 30
0.0
 11
9685.357374582629
 21
4941.200511711111
 31
0.0
  0
LINE
  5
59804
330
1F
100
AcDbEntity
  8
DETAIL
370
    25
100
AcDbLine
 10
9146.48554950692
 20
5556.200519995226
 30
0.0
 11
9346.485549506921
 21
5556.200519995226
 31
0.0
  0
LINE
  5
59805
330
1F
100
AcDbEntity
  8
DETAIL
370
    25
100
AcDbLine
 10
9446.48554950692
 20
5556.200519995226
 30
0.0
 11
9646.48554950692
 21
5556.200519995226
 31
0.0
  0
LINE
  5
59806
330
1F
100
AcDbEntity
  8
DETAIL
370
    25
100
AcDbLine
 10
9646.48554950692
 20
5551.200519995226
 30
0.0
 11
9646.485549506929
 21
5541.200511711125
 31
0.0
  0
LINE
  5
59807
330
1F
100
AcDbEntity
  8
DETAIL
370
    25
100
AcDbLine
 10
9146.485549506911
 20
5541.200511711096
 30
0.0
 11
9146.48554950692
 21
5556.200519995226
 31
0.0
  0
LINE
  5
59808
330
1F
100
AcDbEntity
  8
DETAIL
370
    25
100
AcDbLine
 10
9646.48554950692
 20
5551.200519995226
 30
0.0
 11
9646.48554950692
 21
5556.200519995226
 31
0.0
  0
LINE
  5
59809
330
1F
100
AcDbEntity
  8
DETAIL
370
    25
100
AcDbLine
 10
9146.48554950692
 20
5556.200519995226
 30
0.0
 11
9156.485549506921
 21
5556.200519995226
 31
0.0
  0
LINE
  5
5980A
330
1F
100
AcDbEntity
  8
DETAIL
370
    25
100
AcDbLine
 10
9156.485549506921
 20
5556.200519995226
 30
0.0
 11
9166.485549506921
 21
5556.200519995226
 31
0.0
  0
LINE
  5
5980B
330
1F
100
AcDbEntity
  8
DETAIL
370
    25
100
AcDbLine
 10
9166.485549506921
 20
5556.200519995226
 30
0.0
 11
9166.485549506921
 21
5566.200519995224
 31
0.0
  0
LINE
  5
5980C
330
1F
100
AcDbEntity
  8
DETAIL
370
    25
100
AcDbLine
 10
9166.485549506921
 20
5566.200519995224
 30
0.0
 11
9186.485549506921
 21
5566.200519995224
 31
0.0
  0
LINE
  5
5980D
330
1F
100
AcDbEntity
  8
DETAIL
370
    25
100
AcDbLine
 10
9186.485549506921
 20
5566.200519995224
 30
0.0
 11
9186.485549506921
 21
5556.200519995226
 31
0.0
  0
LINE
  5
5980E
330
1F
100
AcDbEntity
  8
DETAIL
370
    25
100
AcDbLine
 10
9646.48554950692
 20
5556.200519995226
 30
0.0
 11
9626.485549506924
 21
5556.200519995226
 31
0.0
  0
LINE
  5
5980F
330
1F
100
AcDbEntity
  8
DETAIL
370
    25
100
AcDbLine
 10
9626.485549506924
 20
5556.200519995226
 30
0.0
 11
9626.485549506924
 21
5566.200519995224
 31
0.0
  0
LINE
  5
59810
330
1F
100
AcDbEntity
  8
DETAIL
370
    25
100
AcDbLine
 10
9626.485549506924
 20
5566.200519995224
 30
0.0
 11
9606.485549506921
 21
5566.200519995224
 31
0.0
  0
LINE
  5
59811
330
1F
100
AcDbEntity
  8
DETAIL
370
    25
100
AcDbLine
 10
9606.485549506921
 20
5566.200519995224
 30
0.0
 11
9606.485549506921
 21
5556.200519995226
 31
0.0
  0
LINE
  5
59812
330
1F
100
AcDbEntity
  8
Wheels
  6
Continuous
 62
     6
 48
10.0
370
    25
100
AcDbLine
 10
9627.310549506642
 20
5571.200519995226
 30
0.0
 11
9165.660549506734
 21
5571.200519994761
 31
0.0
  0
LINE
  5
59813
330
1F
100
AcDbEntity
  8
Wheels
  6
Continuous
 62
     6
 48
10.0
370
    25
100
AcDbLine
 10
9442.31054950664
 20
5571.200519995226
 30
0.0
 11
9442.31054950664
 21
5624.622707749644
 31
0.0
  0
LINE
  5
59814
330
1F
100
AcDbEntity
  8
Wheels
  6
Continuous
 62
     6
 48
10.0
370
    25
100
AcDbLine
 10
9342.31054950664
 20
5571.200519995226
 30
0.0
 11
9342.31054950664
 21
5624.622707749644
 31
0.0
  0
LINE
  5
59815
330
1F
100
AcDbEntity
  8
Wheels
 62
     6
370
    25
100
AcDbLine
 10
9442.31054950664
 20
5654.049959081618
 30
0.0
 11
9342.31054950664
 21
5654.049959081618
 31
0.0
  0
LINE
  5
59816
330
1F
100
AcDbEntity
  8
Wheels
 62
     6
370
    25
100
AcDbLine
 10
9442.31054950664
 20
5624.622707749644
 30
0.0
 11
9442.31054950664
 21
5654.049959081618
 31
0.0
  0
LINE
  5
59817
330
1F
100
AcDbEntity
  8
Wheels
 62
     6
370
    25
100
AcDbLine
 10
9342.31054950664
 20
5624.622707749644
 30
0.0
 11
9342.31054950664
 21
5654.049959081618
 31
0.0
  0
LINE
  5
59818
330
1F
100
AcDbEntity
  8
Wheels
 62
     6
370
    25
100
AcDbLine
 10
9342.31054950664
 20
5597.911613872669
 30
0.0
 11
9317.342921852324
 21
5597.911613872669
 31
0.0
  0
LINE
  5
59819
330
1F
100
AcDbEntity
  8
Wheels
 62
     6
370
    25
100
AcDbLine
 10
9317.342921852324
 20
5597.911613872669
 30
0.0
 11
9281.054015728834
 21
5634.200519995691
 31
0.0
  0
LINE
  5
5981A
330
1F
100
AcDbEntity
  8
Wheels
 62
     6
370
    25
100
AcDbLine
 10
9442.31054950664
 20
5597.911613872669
 30
0.0
 11
9467.278177160959
 21
5597.911613872669
 31
0.0
  0
LINE
  5
5981B
330
1F
100
AcDbEntity
  8
Wheels
 62
     6
370
    25
100
AcDbLine
 10
9467.278177160959
 20
5597.911613872669
 30
0.0
 11
9503.567083283982
 21
5634.200519995225
 31
0.0
  0
LINE
  5
5981C
330
1F
100
AcDbEntity
  8
Wheels
 62
     6
370
    25
100
AcDbLine
 10
9627.310549506642
 20
5571.200519995226
 30
0.0
 11
9627.310549506642
 21
5556.20051999476
 31
0.0
  0
LINE
  5
5981D
330
1F
100
AcDbEntity
  8
Wheels
 62
     6
370
    25
100
AcDbLine
 10
9165.660549506734
 20
5571.200519995226
 30
0.0
 11
9165.660549506734
 21
5556.200519995226
 31
0.0
  0
LINE
  5
5981E
330
1F
100
AcDbEntity
  8
DETAIL
370
    25
100
AcDbLine
 10
9627.310549506642
 20
5556.20051999476
 30
0.0
 11
9165.660549506734
 21
5556.200519995226
 31
0.0
  0
LINE
  5
5981F
330
1F
100
AcDbEntity
  8
DETAIL
370
    25
100
AcDbLine
 10
9146.485537468644
 20
3358.160339260401
 30
0.0
 11
9696.35737458263
 21
3358.160339260401
 31
0.0
  0
LINE
  5
59820
330
1F
100
AcDbEntity
  8
DETAIL
370
    25
100
AcDbLine
 10
9146.485537468178
 20
2608.160339260868
 30
0.0
 11
9696.35737458263
 21
2608.160339260401
 31
0.0
  0
LINE
  5
59821
330
1F
100
AcDbEntity
  8
DETAIL
370
    25
100
AcDbLine
 10
9646.48554950692
 20
3308.160339260401
 30
0.0
 11
9646.48554950692
 21
3020.660339260401
 31
0.0
  0
LINE
  5
59822
330
1F
100
AcDbEntity
  8
DETAIL
370
    25
100
AcDbLine
 10
9146.485537468178
 20
3308.160339260401
 30
0.0
 11
9146.485537467714
 21
3020.660339259936
 31
0.0
  0
LINE
  5
59823
330
1F
100
AcDbEntity
  8
DETAIL
370
    25
100
AcDbLine
 10
9146.485537468644
 20
3308.160339260401
 30
0.0
 11
9646.48554950692
 21
3308.160339260401
 31
0.0
  0
LINE
  5
59824
330
1F
100
AcDbEntity
  8
DETAIL
370
    25
100
AcDbLine
 10
9146.485537468178
 20
2658.160339259936
 30
0.0
 11
9646.48554950692
 21
2658.160339259936
 31
0.0
  0
LINE
  5
59825
330
1F
100
AcDbEntity
  8
DETAIL
370
    25
100
AcDbLine
 10
9146.485537467714
 20
2945.660339260867
 30
0.0
 11
9146.485537468178
 21
2658.160339259936
 31
0.0
  0
LINE
  5
59826
330
1F
100
AcDbEntity
  8
DETAIL
370
    25
100
AcDbLine
 10
9646.48554950692
 20
2945.660339260401
 30
0.0
 11
9646.48554950692
 21
2658.160339260402
 31
0.0
  0
LINE
  5
59827
330
1F
100
AcDbEntity
  8
DETAIL
370
    25
100
AcDbLine
 10
9161.485543487319
 20
3083.160339260401
 30
0.0
 11
9631.485543487315
 21
3083.160339260401
 31
0.0
  0
LINE
  5
59828
330
1F
100
AcDbEntity
  8
DETAIL
370
    25
100
AcDbLine
 10
9631.485543487315
 20
3083.160339260401
 30
0.0
 11
9631.485543487315
 21
3020.660339259936
 31
0.0
  0
LINE
  5
59829
330
1F
100
AcDbEntity
  8
DETAIL
370
    25
100
AcDbLine
 10
9631.485543487315
 20
2883.160339260401
 30
0.0
 11
9161.485543487319
 21
2883.160339260401
 31
0.0
  0
LINE
  5
5982A
330
1F
100
AcDbEntity
  8
DETAIL
370
    25
100
AcDbLine
 10
9161.485543487319
 20
2883.160339260401
 30
0.0
 11
9161.485543487319
 21
2945.660339260867
 31
0.0
  0
LINE
  5
5982B
330
1F
100
AcDbEntity
  8
DETAIL
370
    25
100
AcDbLine
 10
9161.485543487319
 20
3020.660339259936
 30
0.0
 11
9161.485543487319
 21
3083.160339260401
 31
0.0
  0
LINE
  5
5982C
330
1F
100
AcDbEntity
  8
DETAIL
370
    25
100
AcDbLine
 10
9161.485543487319
 20
3020.660339259936
 30
0.0
 11
9161.485543487319
 21
3083.160339260401
 31
0.0
  0
LINE
  5
5982D
330
1F
100
AcDbEntity
  8
DETAIL
370
    25
100
AcDbLine
 10
9631.485543487315
 20
2945.660339260401
 30
0.0
 11
9631.485543487315
 21
2883.160339260401
 31
0.0
  0
LINE
  5
5982E
330
1F
100
AcDbEntity
  8
DETAIL
370
    25
100
AcDbLine
 10
9161.485543487319
 20
2945.660339260867
 30
0.0
 11
9631.485543487315
 21
2945.660339260867
 31
0.0
  0
LINE
  5
5982F
330
1F
100
AcDbEntity
  8
DETAIL
370
    25
100
AcDbLine
 10
7111.485527312105
 20
3083.160339260401
 30
0.0
 11
7321.485527312572
 21
3083.160339260401
 31
0.0
  0
LINE
  5
59830
330
1F
100
AcDbEntity
  8
DETAIL
370
    25
100
AcDbLine
 10
7581.485527312107
 20
3083.160339260401
 30
0.0
 11
7581.485527312107
 21
3020.660339259936
 31
0.0
  0
LINE
  5
59831
330
1F
100
AcDbEntity
  8
DETAIL
370
    25
100
AcDbLine
 10
7581.485527312107
 20
2883.160339260401
 30
0.0
 11
7371.485527312107
 21
2883.160339260401
 31
0.0
  0
LINE
  5
59832
330
1F
100
AcDbEntity
  8
DETAIL
370
    25
100
AcDbLine
 10
7111.485527312105
 20
2883.160339260401
 30
0.0
 11
7111.485527312105
 21
2945.660339260867
 31
0.0
  0
LINE
  5
59833
330
1F
100
AcDbEntity
  8
DETAIL
370
    25
100
AcDbLine
 10
7111.485527312105
 20
3020.660339259936
 30
0.0
 11
7111.485527312105
 21
3083.160339260401
 31
0.0
  0
LINE
  5
59834
330
1F
100
AcDbEntity
  8
DETAIL
370
    25
100
AcDbLine
 10
7111.485527312105
 20
3020.660339259936
 30
0.0
 11
7111.485527312105
 21
3083.160339260401
 31
0.0
  0
LINE
  5
59835
330
1F
100
AcDbEntity
  8
DETAIL
370
    25
100
AcDbLine
 10
7581.485527312107
 20
2945.660339260401
 30
0.0
 11
7581.485527312107
 21
2883.160339260401
 31
0.0
  0
LINE
  5
59836
330
1F
100
AcDbEntity
  8
DETAIL
370
    25
100
AcDbLine
 10
9146.485537467714
 20
2945.660339260867
 30
0.0
 11
9646.48554950692
 21
2945.660339260401
 31
0.0
  0
LINE
  5
59837
330
1F
100
AcDbEntity
  8
DETAIL
370
    25
100
AcDbLine
 10
7371.485527312107
 20
3083.160339260401
 30
0.0
 11
7581.485527312107
 21
3083.160339260401
 31
0.0
  0
LINE
  5
59838
330
1F
100
AcDbEntity
  8
DETAIL
370
    25
100
AcDbLine
 10
7321.485527312572
 20
2883.160339260401
 30
0.0
 11
7111.485527312105
 21
2883.160339260401
 31
0.0
  0
LINE
  5
59839
330
1F
100
AcDbEntity
  8
DETAIL
370
     9
100
AcDbLine
 10
3899.617455807238
 20
5634.200511711111
 30
0.0
 11
2063.707594040039
 21
5634.200511711111
 31
0.0
  0
LINE
  5
5983A
330
1F
100
AcDbEntity
  8
DETAIL
370
     9
100
AcDbLine
 10
3899.617455807238
 20
5784.200511711111
 30
0.0
 11
2063.707594040039
 21
5784.200511711111
 31
0.0
  0
LINE
  5
5983B
330
1F
100
AcDbEntity
  8
DETAIL
370
     9
100
AcDbLine
 10
3899.617455807238
 20
5684.200511711111
 30
0.0
 11
2063.707594040039
 21
5684.200511711111
 31
0.0
  0
LINE
  5
5983C
330
1F
100
AcDbEntity
  8
APPLICATION
370
     9
100
AcDbLine
 10
3360.773719602454
 20
5541.200511711111
 30
0.0
 11
10379.29551150389
 21
5541.200511711111
 31
0.0
  0
LINE
  5
5983D
330
1F
100
AcDbEntity
  8
DETAIL
370
     9
100
AcDbLine
 10
3899.617455807238
 20
7641.200511711111
 30
0.0
 11
2063.707594040039
 21
7641.200511711111
 31
0.0
  0
LINE
  5
5983E
330
1F
100
AcDbEntity
  8
DETAIL
370
     9
100
AcDbLine
 10
3949.617455807238
 20
7591.200511711111
 30
0.0
 11
2113.707594040039
 21
7591.200511711111
 31
0.0
  0
LINE
  5
5983F
330
1F
100
AcDbEntity
  8
DETAIL
370
    25
100
AcDbLine
 10
3899.617455807238
 20
3020.660339260401
 30
0.0
 11
2063.70769669507
 21
3020.660339260401
 31
0.0
  0
LINE
  5
59840
330
1F
100
AcDbEntity
  8
DETAIL
370
    25
100
AcDbLine
 10
3899.617455807238
 20
2945.660339260401
 30
0.0
 11
2063.707792082525
 21
2945.660339260867
 31
0.0
  0
LINE
  5
59841
330
1F
100
AcDbEntity
  8
DETAIL
370
    25
100
AcDbLine
 10
7596.485537468645
 20
3120.660348236954
 30
0.0
 11
7596.485537468645
 21
3020.660339261333
 31
0.0
  0
LINE
  5
59842
330
1F
100
AcDbEntity
  8
DETAIL
370
    25
100
AcDbLine
 10
8546.485537468177
 20
3120.660348236954
 30
0.0
 11
8546.485537468177
 21
3020.660339260401
 31
0.0
  0
LINE
  5
59843
330
1F
100
AcDbEntity
  8
DETAIL
370
    25
100
AcDbLine
 10
9146.485554903469
 20
2658.160329604449
 30
0.0
 11
9646.485554903003
 21
2658.160329604449
 31
0.0
  0
CIRCLE
  5
59844
330
1F
100
AcDbEntity
  8
DETAIL
370
    25
100
AcDbCircle
 10
9176.485554903935
 20
3278.160329604914
 30
0.0
 40
10.0
  0
CIRCLE
  5
59845
330
1F
100
AcDbEntity
  8
DETAIL
370
    25
100
AcDbCircle
 10
9616.485554903935
 20
3278.160329604914
 30
0.0
 40
10.0
  0
CIRCLE
  5
59846
330
1F
100
AcDbEntity
  8
DETAIL
370
    25
100
AcDbCircle
 10
9176.485554903935
 20
2688.160329603983
 30
0.0
 40
10.0
  0
CIRCLE
  5
59847
330
1F
100
AcDbEntity
  8
DETAIL
370
    25
100
AcDbCircle
 10
9616.485554903935
 20
2688.160329603983
 30
0.0
 40
10.0
  0
LINE
  5
59848
330
1F
100
AcDbEntity
  8
DETAIL
370
    25
100
AcDbLine
 10
9526.019704574908
 20
3195.660339260401
 30
0.0
 11
9526.019704574908
 21
3098.390771159829
 31
0.0
  0
LINE
  5
59849
330
1F
100
AcDbEntity
  8
DETAIL
370
    25
100
AcDbLine
 10
9526.019704574908
 20
3098.390771159829
 30
0.0
 11
9582.850759437965
 21
3098.390771160295
 31
0.0
  0
LINE
  5
5984A
330
1F
100
AcDbEntity
  8
DETAIL
370
    25
100
AcDbLine
 10
9526.019704574908
 20
3195.660339260401
 30
0.0
 11
9582.850759437034
 21
3195.660339260401
 31
0.0
  0
ARC
  5
5984B
102
{ACAD_REACTORS
330
5984E
102
}
330
1F
100
AcDbEntity
  8
DETAIL
370
    25
100
AcDbCircle
 10
9582.850759437496
 20
3147.025555210115
 30
0.0
 40
48.63478404982014
100
AcDbArc
 50
269.9998315397874
 51
90.0
  0
LINE
  5
5984C
330
1F
100
AcDbEntity
  8
DETAIL
370
    25
100
AcDbLine
 10
9582.850759437496
 20
3147.025555210115
 30
0.0
 11
9582.850759437034
 21
3195.660339259936
 31
0.0
  0
LINE
  5
5984D
102
{ACAD_REACTORS
330
5984E
102
}
330
1F
100
AcDbEntity
  8
DETAIL
370
    25
100
AcDbLine
 10
9582.850759437034
 20
3195.660339259936
 30
0.0
 11
9582.850759437965
 21
3098.390771160295
 31
0.0
  0
HATCH
  5
5984E
330
1F
100
AcDbEntity
  8
DETAIL
370
    25
100
AcDbHatch
 10
0.0
 20
0.0
 30
0.0
210
0.0
220
0.0
230
1.0
  2
SOLID
 70
     1
 71
     1
 91
        1
 92
        7
 72
     1
 73
     1
 93
        2
 10
9582.850759437034
 20
3195.660339259936
 42
0.0
 10
9582.850759437965
 20
3098.390771160295
 42
0.9999999519682168
 97
        2
330
5984D
330
5984B
 75
     0
 76
     1
 47
0.4933496732452802
 98
        1
 10
9595.683508027534
 20
3154.836706691349
450
        0
451
        0
460
0.0
461
0.0
452
        0
462
0.0
453
        0
470

  0
LINE
  5
5984F
330
1F
100
AcDbEntity
  8
DETAIL
370
    25
100
AcDbLine
 10
9949.617455807238
 20
7591.200511711111
 30
0.0
 11
9949.617455807704
 21
5784.200511711577
 31
0.0
  0
LINE
  5
59850
330
1F
100
AcDbEntity
  8
DETAIL
370
    25
100
AcDbLine
 10
9949.617455809104
 20
7591.200453156533
 30
0.0
 11
8856.485537468179
 21
7591.200453158396
 31
0.0
  0
LINE
  5
59851
330
1F
100
AcDbEntity
  8
DETAIL
370
    25
100
AcDbLine
 10
9899.617455807238
 20
7591.200511711111
 30
0.0
 11
9899.617455807705
 21
5784.200511712043
 31
0.0
  0
LINE
  5
59852
330
1F
100
AcDbEntity
  8
DETAIL
370
    25
100
AcDbLine
 10
9849.617455807241
 20
7591.200511711111
 30
0.0
 11
9849.617455807241
 21
5784.200511712043
 31
0.0
  0
LINE
  5
59853
330
1F
100
AcDbEntity
  8
DETAIL
370
    25
100
AcDbLine
 10
9799.617455807238
 20
7591.200511711111
 30
0.0
 11
9799.617455807705
 21
5784.200511712043
 31
0.0
  0
LINE
  5
59854
330
1F
100
AcDbEntity
  8
DETAIL
370
    25
100
AcDbLine
 10
9749.617455807239
 20
7591.200511711111
 30
0.0
 11
9749.617455807239
 21
5784.200511712043
 31
0.0
  0
LINE
  5
59855
330
1F
100
AcDbEntity
  8
DETAIL
370
    25
100
AcDbLine
 10
9699.617455807238
 20
7591.200511711111
 30
0.0
 11
9699.617455807704
 21
5784.200511712043
 31
0.0
  0
LINE
  5
59856
330
1F
100
AcDbEntity
  8
DETAIL
370
    25
100
AcDbLine
 10
9649.617455807238
 20
7591.200511711111
 30
0.0
 11
9649.617455807705
 21
5784.200511712043
 31
0.0
  0
LINE
  5
59857
330
1F
100
AcDbEntity
  8
DETAIL
370
    25
100
AcDbLine
 10
9599.617455807239
 20
7591.200511711111
 30
0.0
 11
9599.617455807704
 21
5784.200511712043
 31
0.0
  0
LINE
  5
59858
330
1F
100
AcDbEntity
  8
DETAIL
370
    25
100
AcDbLine
 10
9549.617455807238
 20
7591.200511711111
 30
0.0
 11
9549.617455807238
 21
5784.200511712509
 31
0.0
  0
LINE
  5
59859
330
1F
100
AcDbEntity
  8
DETAIL
370
    25
100
AcDbLine
 10
9499.617455807237
 20
7591.200511711111
 30
0.0
 11
9499.617455807705
 21
5784.200511712509
 31
0.0
  0
LINE
  5
5985A
330
1F
100
AcDbEntity
  8
DETAIL
370
    25
100
AcDbLine
 10
9449.617455807238
 20
7591.200511711111
 30
0.0
 11
9449.617455807238
 21
5784.200511712509
 31
0.0
  0
LINE
  5
5985B
330
1F
100
AcDbEntity
  8
DETAIL
370
    25
100
AcDbLine
 10
8999.617424001641
 20
7591.200511834045
 30
0.0
 11
8999.617424001641
 21
5784.200511712974
 31
0.0
  0
LINE
  5
5985C
330
1F
100
AcDbEntity
  8
DETAIL
370
    25
100
AcDbLine
 10
8949.617424001642
 20
7591.200511834045
 30
0.0
 11
8949.617424002573
 21
5784.200511712974
 31
0.0
  0
LINE
  5
5985D
330
1F
100
AcDbEntity
  8
DETAIL
370
    25
100
AcDbLine
 10
8899.617424001641
 20
7591.200511834045
 30
0.0
 11
8899.617424002107
 21
5784.200511712974
 31
0.0
  0
LINE
  5
5985E
330
1F
100
AcDbEntity
  8
DETAIL
370
    25
100
AcDbLine
 10
9449.617455807238
 20
7591.200511711575
 30
0.0
 11
9449.617455807238
 21
5784.200511712509
 31
0.0
  0
LINE
  5
5985F
330
1F
100
AcDbEntity
  8
DETAIL
370
    25
100
AcDbLine
 10
9399.617455807238
 20
7591.200511711575
 30
0.0
 11
9399.617455807705
 21
5784.200511712509
 31
0.0
  0
LINE
  5
59860
330
1F
100
AcDbEntity
  8
DETAIL
370
    25
100
AcDbLine
 10
9349.617455807239
 20
7591.200511711575
 30
0.0
 11
9349.617455807704
 21
5784.200511712509
 31
0.0
  0
LINE
  5
59861
330
1F
100
AcDbEntity
  8
DETAIL
370
    25
100
AcDbLine
 10
9299.617455807238
 20
7591.200511711575
 30
0.0
 11
9299.617455807704
 21
5784.200511712509
 31
0.0
  0
LINE
  5
59862
330
1F
100
AcDbEntity
  8
DETAIL
370
    25
100
AcDbLine
 10
9249.617455807237
 20
7591.200511711575
 30
0.0
 11
9249.617455807237
 21
5784.200511712509
 31
0.0
  0
LINE
  5
59863
330
1F
100
AcDbEntity
  8
DETAIL
370
    25
100
AcDbLine
 10
9199.617455807238
 20
7591.200511711575
 30
0.0
 11
9199.617455807704
 21
5784.200511712509
 31
0.0
  0
LINE
  5
59864
330
1F
100
AcDbEntity
  8
DETAIL
370
    25
100
AcDbLine
 10
9149.617455807238
 20
7591.200511711575
 30
0.0
 11
9149.617455807705
 21
5784.200511712974
 31
0.0
  0
LINE
  5
59865
330
1F
100
AcDbEntity
  8
DETAIL
370
    25
100
AcDbLine
 10
9099.617455807239
 20
7591.200511711575
 30
0.0
 11
9099.617455807704
 21
5784.200511712974
 31
0.0
  0
LINE
  5
59866
330
1F
100
AcDbEntity
  8
DETAIL
370
    25
100
AcDbLine
 10
9049.617455807238
 20
7591.200511711575
 30
0.0
 11
9049.617455807704
 21
5784.200511712974
 31
0.0
  0
LINE
  5
59867
330
1F
100
AcDbEntity
  8
DETAIL
370
    25
100
AcDbLine
 10
8999.617455807237
 20
7591.200511711575
 30
0.0
 11
8999.617455807706
 21
5784.200511712974
 31
0.0
  0
LINE
  5
59868
330
1F
100
AcDbEntity
  8
DETAIL
370
    25
100
AcDbLine
 10
7286.485537470042
 20
5784.200511711577
 30
0.0
 11
7286.485537468646
 21
7591.200511711575
 31
0.0
  0
LINE
  5
59869
330
1F
100
AcDbEntity
  8
DETAIL
370
    25
100
AcDbLine
 10
7286.485537468646
 20
7591.200511711575
 30
0.0
 11
7286.485537469109
 21
5784.200511712043
 31
0.0
  0
LINE
  5
5986A
330
1F
100
AcDbEntity
  8
DETAIL
370
    25
100
AcDbLine
 10
7236.485537468645
 20
7591.200511711575
 30
0.0
 11
7236.485537469111
 21
5784.200511712509
 31
0.0
  0
LINE
  5
5986B
330
1F
100
AcDbEntity
  8
DETAIL
370
    25
100
AcDbLine
 10
7186.485537468645
 20
7591.200511711575
 30
0.0
 11
7186.485537468645
 21
5784.200511712509
 31
0.0
  0
LINE
  5
5986C
330
1F
100
AcDbEntity
  8
DETAIL
370
    25
100
AcDbLine
 10
7136.485537468646
 20
7591.200511711575
 30
0.0
 11
7136.485537469109
 21
5784.200511712509
 31
0.0
  0
LINE
  5
5986D
330
1F
100
AcDbEntity
  8
DETAIL
370
    25
100
AcDbLine
 10
7086.485537468646
 20
7591.200511711575
 30
0.0
 11
7086.485537468646
 21
5784.200511712509
 31
0.0
  0
LINE
  5
5986E
330
1F
100
AcDbEntity
  8
DETAIL
370
    25
100
AcDbLine
 10
7036.485537468646
 20
7591.200511711575
 30
0.0
 11
7036.48553746911
 21
5784.200511712509
 31
0.0
  0
LINE
  5
5986F
330
1F
100
AcDbEntity
  8
DETAIL
370
    25
100
AcDbLine
 10
6986.485537468645
 20
7591.200511711575
 30
0.0
 11
6986.485537469111
 21
5784.200511712509
 31
0.0
  0
LINE
  5
59870
330
1F
100
AcDbEntity
  8
DETAIL
370
    25
100
AcDbLine
 10
6936.485537468645
 20
7591.200511711575
 30
0.0
 11
6936.48553746911
 21
5784.200511712509
 31
0.0
  0
LINE
  5
59871
330
1F
100
AcDbEntity
  8
DETAIL
370
    25
100
AcDbLine
 10
6886.485537468646
 20
7591.200511711575
 30
0.0
 11
6886.485537468646
 21
5784.200511712974
 31
0.0
  0
LINE
  5
59872
330
1F
100
AcDbEntity
  8
DETAIL
370
    25
100
AcDbLine
 10
6836.485537468646
 20
7591.200511711575
 30
0.0
 11
6836.48553746911
 21
5784.200511712974
 31
0.0
  0
LINE
  5
59873
330
1F
100
AcDbEntity
  8
DETAIL
370
    25
100
AcDbLine
 10
6786.485537468646
 20
7591.200511711575
 30
0.0
 11
6786.485537468646
 21
5784.200511712974
 31
0.0
  0
LINE
  5
59874
330
1F
100
AcDbEntity
  8
DETAIL
370
    25
100
AcDbLine
 10
6336.485505663048
 20
7591.200511834512
 30
0.0
 11
6336.485505663048
 21
5784.200511713438
 31
0.0
  0
LINE
  5
59875
330
1F
100
AcDbEntity
  8
DETAIL
370
    25
100
AcDbLine
 10
6286.485505663048
 20
7591.200511834512
 30
0.0
 11
6286.485505663979
 21
5784.200511713438
 31
0.0
  0
LINE
  5
59876
330
1F
100
AcDbEntity
  8
DETAIL
370
    25
100
AcDbLine
 10
6236.485505663047
 20
7591.200511834512
 30
0.0
 11
6236.485505663513
 21
5784.200511713438
 31
0.0
  0
LINE
  5
59877
330
1F
100
AcDbEntity
  8
DETAIL
370
    25
100
AcDbLine
 10
6786.485537468646
 20
7591.200511712043
 30
0.0
 11
6786.485537468646
 21
5784.200511712974
 31
0.0
  0
LINE
  5
59878
330
1F
100
AcDbEntity
  8
DETAIL
370
    25
100
AcDbLine
 10
6736.485537468645
 20
7591.200511712043
 30
0.0
 11
6736.485537469111
 21
5784.200511712974
 31
0.0
  0
LINE
  5
59879
330
1F
100
AcDbEntity
  8
DETAIL
370
    25
100
AcDbLine
 10
6686.485537468645
 20
7591.200511712043
 30
0.0
 11
6686.48553746911
 21
5784.200511712974
 31
0.0
  0
LINE
  5
5987A
330
1F
100
AcDbEntity
  8
DETAIL
370
    25
100
AcDbLine
 10
6636.485537468646
 20
7591.200511712043
 30
0.0
 11
6636.48553746911
 21
5784.200511712974
 31
0.0
  0
LINE
  5
5987B
330
1F
100
AcDbEntity
  8
DETAIL
370
    25
100
AcDbLine
 10
6586.485537468646
 20
7591.200511712043
 30
0.0
 11
6586.485537468646
 21
5784.200511712974
 31
0.0
  0
LINE
  5
5987C
330
1F
100
AcDbEntity
  8
DETAIL
370
    25
100
AcDbLine
 10
6536.485537468646
 20
7591.200511712043
 30
0.0
 11
6536.48553746911
 21
5784.200511712974
 31
0.0
  0
LINE
  5
5987D
330
1F
100
AcDbEntity
  8
DETAIL
370
    25
100
AcDbLine
 10
6486.485537468645
 20
7591.200511712043
 30
0.0
 11
6486.485537469111
 21
5784.200511713438
 31
0.0
  0
LINE
  5
5987E
330
1F
100
AcDbEntity
  8
DETAIL
370
    25
100
AcDbLine
 10
6436.485537468645
 20
7591.200511712043
 30
0.0
 11
6436.48553746911
 21
5784.200511713438
 31
0.0
  0
LINE
  5
5987F
330
1F
100
AcDbEntity
  8
DETAIL
370
    25
100
AcDbLine
 10
6386.485537468645
 20
7591.200511712043
 30
0.0
 11
6386.485537469112
 21
5784.200511713438
 31
0.0
  0
LINE
  5
59880
330
1F
100
AcDbEntity
  8
DETAIL
370
    25
100
AcDbLine
 10
6336.485537468645
 20
7591.200511712043
 30
0.0
 11
6336.485537469112
 21
5784.200511713438
 31
0.0
  0
LINE
  5
59881
330
1F
100
AcDbEntity
  8
DETAIL
370
    25
100
AcDbLine
 10
6236.485505663047
 20
7591.200511711575
 30
0.0
 11
6236.485505663513
 21
5784.200511712509
 31
0.0
  0
LINE
  5
59882
330
1F
100
AcDbEntity
  8
DETAIL
370
    25
100
AcDbLine
 10
6186.485505663046
 20
7591.200511711575
 30
0.0
 11
6186.485505663046
 21
5784.200511712509
 31
0.0
  0
LINE
  5
59883
330
1F
100
AcDbEntity
  8
DETAIL
370
    25
100
AcDbLine
 10
6136.485505663046
 20
7591.200511711575
 30
0.0
 11
6136.485505663515
 21
5784.200511712509
 31
0.0
  0
LINE
  5
59884
330
1F
100
AcDbEntity
  8
DETAIL
370
    25
100
AcDbLine
 10
6086.485505663048
 20
7591.200511711575
 30
0.0
 11
6086.485505663048
 21
5784.200511712509
 31
0.0
  0
LINE
  5
59885
330
1F
100
AcDbEntity
  8
DETAIL
370
    25
100
AcDbLine
 10
6036.485505663048
 20
7591.200511711575
 30
0.0
 11
6036.485505663513
 21
5784.200511712509
 31
0.0
  0
LINE
  5
59886
330
1F
100
AcDbEntity
  8
DETAIL
370
    25
100
AcDbLine
 10
5986.485505663047
 20
7591.200511711575
 30
0.0
 11
5986.485505663513
 21
5784.200511712509
 31
0.0
  0
LINE
  5
59887
330
1F
100
AcDbEntity
  8
DETAIL
370
    25
100
AcDbLine
 10
5936.485505663046
 20
7591.200511711575
 30
0.0
 11
5936.485505663513
 21
5784.200511712509
 31
0.0
  0
LINE
  5
59888
330
1F
100
AcDbEntity
  8
DETAIL
370
    25
100
AcDbLine
 10
5886.485505663046
 20
7591.200511711575
 30
0.0
 11
5886.485505663046
 21
5784.200511712974
 31
0.0
  0
LINE
  5
59889
330
1F
100
AcDbEntity
  8
DETAIL
370
    25
100
AcDbLine
 10
5836.485505663048
 20
7591.200511711575
 30
0.0
 11
5836.485505663514
 21
5784.200511712974
 31
0.0
  0
LINE
  5
5988A
330
1F
100
AcDbEntity
  8
DETAIL
370
    25
100
AcDbLine
 10
5786.485505663048
 20
7591.200511711575
 30
0.0
 11
5786.485505663048
 21
5784.200511712974
 31
0.0
  0
LINE
  5
5988B
330
1F
100
AcDbEntity
  8
DETAIL
370
    25
100
AcDbLine
 10
5336.485473857449
 20
7591.200511834512
 30
0.0
 11
5336.485473857449
 21
5784.200511713438
 31
0.0
  0
LINE
  5
5988C
330
1F
100
AcDbEntity
  8
DETAIL
370
    25
100
AcDbLine
 10
5286.48547385745
 20
7591.200511834512
 30
0.0
 11
5286.48547385838
 21
5784.200511713438
 31
0.0
  0
LINE
  5
5988D
330
1F
100
AcDbEntity
  8
DETAIL
370
    25
100
AcDbLine
 10
5236.485473857451
 20
7591.200511834512
 30
0.0
 11
5236.485473857916
 21
5784.200511713438
 31
0.0
  0
LINE
  5
5988E
330
1F
100
AcDbEntity
  8
DETAIL
370
    25
100
AcDbLine
 10
5786.485505663048
 20
7591.200511712043
 30
0.0
 11
5786.485505663048
 21
5784.200511712974
 31
0.0
  0
LINE
  5
5988F
330
1F
100
AcDbEntity
  8
DETAIL
370
    25
100
AcDbLine
 10
5736.485505663047
 20
7591.200511712043
 30
0.0
 11
5736.485505663513
 21
5784.200511712974
 31
0.0
  0
LINE
  5
59890
330
1F
100
AcDbEntity
  8
DETAIL
370
    25
100
AcDbLine
 10
5686.485505663046
 20
7591.200511712043
 30
0.0
 11
5686.485505663513
 21
5784.200511712974
 31
0.0
  0
LINE
  5
59891
330
1F
100
AcDbEntity
  8
DETAIL
370
    25
100
AcDbLine
 10
5636.485505663046
 20
7591.200511712043
 30
0.0
 11
5636.485505663515
 21
5784.200511712974
 31
0.0
  0
LINE
  5
59892
330
1F
100
AcDbEntity
  8
DETAIL
370
    25
100
AcDbLine
 10
5586.485505663048
 20
7591.200511712043
 30
0.0
 11
5586.485505663048
 21
5784.200511712974
 31
0.0
  0
LINE
  5
59893
330
1F
100
AcDbEntity
  8
DETAIL
370
    25
100
AcDbLine
 10
5536.485505663048
 20
7591.200511712043
 30
0.0
 11
5536.485505663513
 21
5784.200511712974
 31
0.0
  0
LINE
  5
59894
330
1F
100
AcDbEntity
  8
DETAIL
370
    25
100
AcDbLine
 10
5486.485505663047
 20
7591.200511712043
 30
0.0
 11
5486.485505663513
 21
5784.200511713438
 31
0.0
  0
LINE
  5
59895
330
1F
100
AcDbEntity
  8
DETAIL
370
    25
100
AcDbLine
 10
5436.485505663046
 20
7591.200511712043
 30
0.0
 11
5436.485505663513
 21
5784.200511713438
 31
0.0
  0
LINE
  5
59896
330
1F
100
AcDbEntity
  8
DETAIL
370
    25
100
AcDbLine
 10
5386.485505663046
 20
7591.200511712043
 30
0.0
 11
5386.485505663515
 21
5784.200511713438
 31
0.0
  0
LINE
  5
59897
330
1F
100
AcDbEntity
  8
DETAIL
370
    25
100
AcDbLine
 10
5336.485505663048
 20
7591.200511712043
 30
0.0
 11
5336.485505663514
 21
5784.200511713438
 31
0.0
  0
LINE
  5
59898
330
1F
100
AcDbEntity
  8
DETAIL
370
    25
100
AcDbLine
 10
5236.485473857451
 20
7591.200511713442
 30
0.0
 11
5236.485473857916
 21
5784.20051171437
 31
0.0
  0
LINE
  5
59899
330
1F
100
AcDbEntity
  8
DETAIL
370
    25
100
AcDbLine
 10
5186.485473857452
 20
7591.200511713442
 30
0.0
 11
5186.485473857452
 21
5784.20051171437
 31
0.0
  0
LINE
  5
5989A
330
1F
100
AcDbEntity
  8
DETAIL
370
    25
100
AcDbLine
 10
5136.485473857451
 20
7591.200511713442
 30
0.0
 11
5136.485473857916
 21
5784.20051171437
 31
0.0
  0
LINE
  5
5989B
330
1F
100
AcDbEntity
  8
DETAIL
370
    25
100
AcDbLine
 10
5086.485473857449
 20
7591.200511713442
 30
0.0
 11
5086.485473857449
 21
5784.20051171437
 31
0.0
  0
LINE
  5
5989C
330
1F
100
AcDbEntity
  8
DETAIL
370
    25
100
AcDbLine
 10
5036.48547385745
 20
7591.200511713442
 30
0.0
 11
5036.485473857916
 21
5784.20051171437
 31
0.0
  0
LINE
  5
5989D
330
1F
100
AcDbEntity
  8
DETAIL
370
    25
100
AcDbLine
 10
4986.485473857451
 20
7591.200511713442
 30
0.0
 11
4986.485473857916
 21
5784.20051171437
 31
0.0
  0
LINE
  5
5989E
330
1F
100
AcDbEntity
  8
DETAIL
370
    25
100
AcDbLine
 10
4936.485473857452
 20
7591.200511713442
 30
0.0
 11
4936.485473857916
 21
5784.20051171437
 31
0.0
  0
LINE
  5
5989F
330
1F
100
AcDbEntity
  8
DETAIL
370
    25
100
AcDbLine
 10
4886.485473857451
 20
7591.200511713442
 30
0.0
 11
4886.485473857451
 21
5784.200511714836
 31
0.0
  0
LINE
  5
598A0
330
1F
100
AcDbEntity
  8
DETAIL
370
    25
100
AcDbLine
 10
4836.485473857449
 20
7591.200511713442
 30
0.0
 11
4836.485473857916
 21
5784.200511714836
 31
0.0
  0
LINE
  5
598A1
330
1F
100
AcDbEntity
  8
DETAIL
370
    25
100
AcDbLine
 10
4786.485473857449
 20
7591.200511713442
 30
0.0
 11
4786.485473857449
 21
5784.200511714836
 31
0.0
  0
LINE
  5
598A2
330
1F
100
AcDbEntity
  8
DETAIL
370
    25
100
AcDbLine
 10
4336.485442051853
 20
7591.200511836373
 30
0.0
 11
4336.485442051853
 21
5784.200511715301
 31
0.0
  0
LINE
  5
598A3
330
1F
100
AcDbEntity
  8
DETAIL
370
    25
100
AcDbLine
 10
4286.485442051853
 20
7591.200511836373
 30
0.0
 11
4286.485442052785
 21
5784.200511715301
 31
0.0
  0
LINE
  5
598A4
330
1F
100
AcDbEntity
  8
DETAIL
370
    25
100
AcDbLine
 10
4236.485442051853
 20
7591.200511836373
 30
0.0
 11
4236.485442052319
 21
5784.200511715301
 31
0.0
  0
LINE
  5
598A5
330
1F
100
AcDbEntity
  8
DETAIL
370
    25
100
AcDbLine
 10
4786.485473857449
 20
7591.200511713906
 30
0.0
 11
4786.485473857449
 21
5784.200511714836
 31
0.0
  0
LINE
  5
598A6
330
1F
100
AcDbEntity
  8
DETAIL
370
    25
100
AcDbLine
 10
4736.485473857451
 20
7591.200511713906
 30
0.0
 11
4736.485473857916
 21
5784.200511714836
 31
0.0
  0
LINE
  5
598A7
330
1F
100
AcDbEntity
  8
DETAIL
370
    25
100
AcDbLine
 10
4686.485473857451
 20
7591.200511713906
 30
0.0
 11
4686.485473857916
 21
5784.200511714836
 31
0.0
  0
LINE
  5
598A8
330
1F
100
AcDbEntity
  8
DETAIL
370
    25
100
AcDbLine
 10
4636.485473857449
 20
7591.200511713906
 30
0.0
 11
4636.485473857915
 21
5784.200511714836
 31
0.0
  0
LINE
  5
598A9
330
1F
100
AcDbEntity
  8
DETAIL
370
    25
100
AcDbLine
 10
4586.485473857449
 20
7591.200511713906
 30
0.0
 11
4586.485473857449
 21
5784.200511714836
 31
0.0
  0
LINE
  5
598AA
330
1F
100
AcDbEntity
  8
DETAIL
370
    25
100
AcDbLine
 10
4536.485473857449
 20
7591.200511713906
 30
0.0
 11
4536.485473857916
 21
5784.200511714836
 31
0.0
  0
LINE
  5
598AB
330
1F
100
AcDbEntity
  8
DETAIL
370
    25
100
AcDbLine
 10
4486.485473857451
 20
7591.200511713906
 30
0.0
 11
4486.485473857916
 21
5784.200511715301
 31
0.0
  0
LINE
  5
598AC
330
1F
100
AcDbEntity
  8
DETAIL
370
    25
100
AcDbLine
 10
4436.485473857451
 20
7591.200511713906
 30
0.0
 11
4436.485473857916
 21
5784.200511715301
 31
0.0
  0
LINE
  5
598AD
330
1F
100
AcDbEntity
  8
DETAIL
370
    25
100
AcDbLine
 10
4386.485473857449
 20
7591.200511713906
 30
0.0
 11
4386.485473857915
 21
5784.200511715301
 31
0.0
  0
LINE
  5
598AE
330
1F
100
AcDbEntity
  8
DETAIL
370
    25
100
AcDbLine
 10
4336.485473857449
 20
7591.200511713906
 30
0.0
 11
4336.485473857916
 21
5784.200511715301
 31
0.0
  0
LINE
  5
598AF
330
1F
100
AcDbEntity
  8
DETAIL
370
    25
100
AcDbLine
 10
4236.485442051853
 20
7591.200511715303
 30
0.0
 11
4236.485442052319
 21
5784.200511716234
 31
0.0
  0
LINE
  5
598B0
330
1F
100
AcDbEntity
  8
DETAIL
370
    25
100
AcDbLine
 10
4186.485442051853
 20
7591.200511715303
 30
0.0
 11
4186.485442051853
 21
5784.200511716234
 31
0.0
  0
LINE
  5
598B1
330
1F
100
AcDbEntity
  8
DETAIL
370
    25
100
AcDbLine
 10
4136.485442051853
 20
7591.200511715303
 30
0.0
 11
4136.485442052317
 21
5784.200511716234
 31
0.0
  0
LINE
  5
598B2
330
1F
100
AcDbEntity
  8
DETAIL
370
    25
100
AcDbLine
 10
4086.485442051853
 20
7591.200511715303
 30
0.0
 11
4086.485442051853
 21
5784.200511716234
 31
0.0
  0
LINE
  5
598B3
330
1F
100
AcDbEntity
  8
DETAIL
370
    25
100
AcDbLine
 10
4036.485442051853
 20
7591.200511715303
 30
0.0
 11
4036.485442052319
 21
5784.200511716234
 31
0.0
  0
LINE
  5
598B4
330
1F
100
AcDbEntity
  8
DETAIL
370
    25
100
AcDbLine
 10
3986.485442051853
 20
7591.200511715303
 30
0.0
 11
3986.485442052319
 21
5784.200511716234
 31
0.0
  0
LINE
  5
598B5
330
1F
100
AcDbEntity
  8
DETAIL
370
    25
100
AcDbLine
 10
3936.485442051854
 20
7591.200511715303
 30
0.0
 11
3936.485442052319
 21
5784.200511716234
 31
0.0
  0
LINE
  5
598B6
330
1F
100
AcDbEntity
  8
DETAIL
370
    25
100
AcDbLine
 10
3886.485442051853
 20
7591.200511715303
 30
0.0
 11
3886.485442051853
 21
5784.200511716699
 31
0.0
  0
LINE
  5
598B7
330
1F
100
AcDbEntity
  8
DETAIL
370
    25
100
AcDbLine
 10
3836.485442051854
 20
7591.200511715303
 30
0.0
 11
3836.485442052319
 21
5784.200511716699
 31
0.0
  0
LINE
  5
598B8
330
1F
100
AcDbEntity
  8
DETAIL
370
    25
100
AcDbLine
 10
3786.485442051854
 20
7591.200511715303
 30
0.0
 11
3786.485442051854
 21
5784.200511716699
 31
0.0
  0
LINE
  5
598B9
330
1F
100
AcDbEntity
  8
DETAIL
370
    25
100
AcDbLine
 10
3336.485410246256
 20
7591.200511838238
 30
0.0
 11
3336.485410246256
 21
5784.200511717166
 31
0.0
  0
LINE
  5
598BA
330
1F
100
AcDbEntity
  8
DETAIL
370
    25
100
AcDbLine
 10
3286.485410246256
 20
7591.200511838238
 30
0.0
 11
3286.485410247188
 21
5784.200511717166
 31
0.0
  0
LINE
  5
598BB
330
1F
100
AcDbEntity
  8
DETAIL
370
    25
100
AcDbLine
 10
3236.485410246256
 20
7591.200511838238
 30
0.0
 11
3236.485410246722
 21
5784.200511717166
 31
0.0
  0
LINE
  5
598BC
330
1F
100
AcDbEntity
  8
DETAIL
370
    25
100
AcDbLine
 10
3786.485442051854
 20
7591.200511715768
 30
0.0
 11
3786.485442051854
 21
5784.200511716699
 31
0.0
  0
LINE
  5
598BD
330
1F
100
AcDbEntity
  8
DETAIL
370
    25
100
AcDbLine
 10
3736.485442051853
 20
7591.200511715768
 30
0.0
 11
3736.485442052319
 21
5784.200511716699
 31
0.0
  0
LINE
  5
598BE
330
1F
100
AcDbEntity
  8
DETAIL
370
    25
100
AcDbLine
 10
3686.485442051854
 20
7591.200511715768
 30
0.0
 11
3686.485442052319
 21
5784.200511716699
 31
0.0
  0
LINE
  5
598BF
330
1F
100
AcDbEntity
  8
DETAIL
370
    25
100
AcDbLine
 10
3636.485442051853
 20
7591.200511715768
 30
0.0
 11
3636.485442052319
 21
5784.200511716699
 31
0.0
  0
LINE
  5
598C0
330
1F
100
AcDbEntity
  8
DETAIL
370
    25
100
AcDbLine
 10
3586.485442051853
 20
7591.200511715768
 30
0.0
 11
3586.485442051853
 21
5784.200511716699
 31
0.0
  0
LINE
  5
598C1
330
1F
100
AcDbEntity
  8
DETAIL
370
    25
100
AcDbLine
 10
3536.485442051854
 20
7591.200511715768
 30
0.0
 11
3536.485442052319
 21
5784.200511716699
 31
0.0
  0
LINE
  5
598C2
330
1F
100
AcDbEntity
  8
DETAIL
370
    25
100
AcDbLine
 10
3486.485442051853
 20
7591.200511715768
 30
0.0
 11
3486.485442052319
 21
5784.200511717166
 31
0.0
  0
LINE
  5
598C3
330
1F
100
AcDbEntity
  8
DETAIL
370
    25
100
AcDbLine
 10
3436.485442051854
 20
7591.200511715768
 30
0.0
 11
3436.485442052319
 21
5784.200511717166
 31
0.0
  0
LINE
  5
598C4
330
1F
100
AcDbEntity
  8
DETAIL
370
    25
100
AcDbLine
 10
3386.485442051853
 20
7591.200511715768
 30
0.0
 11
3386.485442052319
 21
5784.200511717166
 31
0.0
  0
LINE
  5
598C5
330
1F
100
AcDbEntity
  8
DETAIL
370
    25
100
AcDbLine
 10
3336.485442051853
 20
7591.200511715768
 30
0.0
 11
3336.485442052319
 21
5784.200511717166
 31
0.0
  0
LINE
  5
598C6
330
1F
100
AcDbEntity
  8
DETAIL
370
    25
100
AcDbLine
 10
3686.485442051854
 20
7591.200511716699
 30
0.0
 11
3686.485442052319
 21
5784.200511717631
 31
0.0
  0
LINE
  5
598C7
330
1F
100
AcDbEntity
  8
DETAIL
370
    25
100
AcDbLine
 10
3636.485442051853
 20
7591.200511716699
 30
0.0
 11
3636.485442051853
 21
5784.200511717631
 31
0.0
  0
LINE
  5
598C8
330
1F
100
AcDbEntity
  8
DETAIL
370
    25
100
AcDbLine
 10
3586.485442051853
 20
7591.200511716699
 30
0.0
 11
3586.485442052319
 21
5784.200511717631
 31
0.0
  0
LINE
  5
598C9
330
1F
100
AcDbEntity
  8
DETAIL
370
    25
100
AcDbLine
 10
3536.485442051854
 20
7591.200511716699
 30
0.0
 11
3536.485442051854
 21
5784.200511717631
 31
0.0
  0
LINE
  5
598CA
330
1F
100
AcDbEntity
  8
DETAIL
370
    25
100
AcDbLine
 10
3486.485442051853
 20
7591.200511716699
 30
0.0
 11
3486.485442052319
 21
5784.200511717631
 31
0.0
  0
LINE
  5
598CB
330
1F
100
AcDbEntity
  8
DETAIL
370
    25
100
AcDbLine
 10
3436.485442051854
 20
7591.200511716699
 30
0.0
 11
3436.485442052319
 21
5784.200511717631
 31
0.0
  0
LINE
  5
598CC
330
1F
100
AcDbEntity
  8
DETAIL
370
    25
100
AcDbLine
 10
3386.485442051853
 20
7591.200511716699
 30
0.0
 11
3386.485442052319
 21
5784.200511717631
 31
0.0
  0
LINE
  5
598CD
330
1F
100
AcDbEntity
  8
DETAIL
370
    25
100
AcDbLine
 10
3336.485442051853
 20
7591.200511716699
 30
0.0
 11
3336.485442051853
 21
5784.200511718096
 31
0.0
  0
LINE
  5
598CE
330
1F
100
AcDbEntity
  8
DETAIL
370
    25
100
AcDbLine
 10
3286.485442051854
 20
7591.200511716699
 30
0.0
 11
3286.485442052319
 21
5784.200511718096
 31
0.0
  0
LINE
  5
598CF
330
1F
100
AcDbEntity
  8
DETAIL
370
    25
100
AcDbLine
 10
3236.485442051853
 20
7591.200511716699
 30
0.0
 11
3236.485442051853
 21
5784.200511718096
 31
0.0
  0
LINE
  5
598D0
330
1F
100
AcDbEntity
  8
DETAIL
370
    25
100
AcDbLine
 10
2786.485410246256
 20
7591.200511839634
 30
0.0
 11
2786.485410246256
 21
5784.200511718562
 31
0.0
  0
LINE
  5
598D1
330
1F
100
AcDbEntity
  8
DETAIL
370
    25
100
AcDbLine
 10
2736.485410246256
 20
7591.200511839634
 30
0.0
 11
2736.485410247187
 21
5784.200511718562
 31
0.0
  0
LINE
  5
598D2
330
1F
100
AcDbEntity
  8
DETAIL
370
    25
100
AcDbLine
 10
2686.485410246256
 20
7591.200511839634
 30
0.0
 11
2686.485410246722
 21
5784.200511718562
 31
0.0
  0
LINE
  5
598D3
330
1F
100
AcDbEntity
  8
DETAIL
370
    25
100
AcDbLine
 10
3236.485442051853
 20
7591.200511717166
 30
0.0
 11
3236.485442051853
 21
5784.200511718096
 31
0.0
  0
LINE
  5
598D4
330
1F
100
AcDbEntity
  8
DETAIL
370
    25
100
AcDbLine
 10
3186.485442051854
 20
7591.200511717166
 30
0.0
 11
3186.485442052319
 21
5784.200511718096
 31
0.0
  0
LINE
  5
598D5
330
1F
100
AcDbEntity
  8
DETAIL
370
    25
100
AcDbLine
 10
3136.485442051853
 20
7591.200511717166
 30
0.0
 11
3136.485442052319
 21
5784.200511718096
 31
0.0
  0
LINE
  5
598D6
330
1F
100
AcDbEntity
  8
DETAIL
370
    25
100
AcDbLine
 10
3086.485442051853
 20
7591.200511717166
 30
0.0
 11
3086.485442052319
 21
5784.200511718096
 31
0.0
  0
LINE
  5
598D7
330
1F
100
AcDbEntity
  8
DETAIL
370
    25
100
AcDbLine
 10
3036.485442051854
 20
7591.200511717166
 30
0.0
 11
3036.485442051854
 21
5784.200511718096
 31
0.0
  0
LINE
  5
598D8
330
1F
100
AcDbEntity
  8
DETAIL
370
    25
100
AcDbLine
 10
2986.485442051853
 20
7591.200511717166
 30
0.0
 11
2986.485442052319
 21
5784.200511718096
 31
0.0
  0
LINE
  5
598D9
330
1F
100
AcDbEntity
  8
DETAIL
370
    25
100
AcDbLine
 10
2936.485442051854
 20
7591.200511717166
 30
0.0
 11
2936.485442052319
 21
5784.200511718562
 31
0.0
  0
LINE
  5
598DA
330
1F
100
AcDbEntity
  8
DETAIL
370
    25
100
AcDbLine
 10
2886.485442051853
 20
7591.200511717166
 30
0.0
 11
2886.485442052319
 21
5784.200511718562
 31
0.0
  0
LINE
  5
598DB
330
1F
100
AcDbEntity
  8
DETAIL
370
    25
100
AcDbLine
 10
2836.485442051854
 20
7591.200511717166
 30
0.0
 11
2836.485442052319
 21
5784.200511718562
 31
0.0
  0
LINE
  5
598DC
330
1F
100
AcDbEntity
  8
DETAIL
370
    25
100
AcDbLine
 10
2786.485442051854
 20
7591.200511717166
 30
0.0
 11
2786.485442052319
 21
5784.200511718562
 31
0.0
  0
LINE
  5
598DD
330
1F
100
AcDbEntity
  8
DETAIL
370
    25
100
AcDbLine
 10
9949.617455808636
 20
7391.200453156533
 30
0.0
 11
8856.485537467714
 21
7391.200453158396
 31
0.0
  0
LINE
  5
598DE
330
1F
100
AcDbEntity
  8
DETAIL
370
    25
100
AcDbLine
 10
9949.617455808168
 20
7191.200453156533
 30
0.0
 11
8856.485537467248
 21
7191.200453158396
 31
0.0
  0
LINE
  5
598DF
330
1F
100
AcDbEntity
  8
DETAIL
370
    25
100
AcDbLine
 10
9949.617455807704
 20
6991.200453156533
 30
0.0
 11
8856.485537466785
 21
6991.200453158396
 31
0.0
  0
LINE
  5
598E0
330
1F
100
AcDbEntity
  8
DETAIL
370
    25
100
AcDbLine
 10
9949.617455807238
 20
6791.200453156533
 30
0.0
 11
8856.485537466317
 21
6791.200453158396
 31
0.0
  0
LINE
  5
598E1
330
1F
100
AcDbEntity
  8
DETAIL
370
    25
100
AcDbLine
 10
9949.617455806773
 20
6591.200453156533
 30
0.0
 11
8856.485537465848
 21
6591.200453158396
 31
0.0
  0
LINE
  5
598E2
330
1F
100
AcDbEntity
  8
DETAIL
370
    25
100
AcDbLine
 10
9949.617455807238
 20
6791.200453156533
 30
0.0
 11
8856.485537466317
 21
6791.200453158396
 31
0.0
  0
LINE
  5
598E3
330
1F
100
AcDbEntity
  8
DETAIL
370
    25
100
AcDbLine
 10
9949.617455806309
 20
6391.200453156534
 30
0.0
 11
8856.485537465387
 21
6391.200453158394
 31
0.0
  0
LINE
  5
598E4
330
1F
100
AcDbEntity
  8
DETAIL
370
    25
100
AcDbLine
 10
9949.617455805842
 20
6191.200453156533
 30
0.0
 11
8856.485537464919
 21
6191.200453158394
 31
0.0
  0
LINE
  5
598E5
330
1F
100
AcDbEntity
  8
DETAIL
370
    25
100
AcDbLine
 10
9949.617455805375
 20
5991.200453156533
 30
0.0
 11
8856.485537464454
 21
5991.200453158395
 31
0.0
  0
LINE
  5
598E6
330
1F
100
AcDbEntity
  8
DETAIL
370
     9
100
AcDbLine
 10
3949.617455807238
 20
7391.200511711111
 30
0.0
 11
2663.707594039574
 21
7391.200511711111
 31
0.0
  0
LINE
  5
598E7
330
1F
100
AcDbEntity
  8
DETAIL
370
    25
100
AcDbLine
 10
7286.485537468646
 20
7391.200511711577
 30
0.0
 11
4549.617455806306
 21
7391.200511712042
 31
0.0
  0
LINE
  5
598E8
330
1F
100
AcDbEntity
  8
DETAIL
370
     9
100
AcDbLine
 10
2113.707594040039
 20
7391.200511710646
 30
0.0
 11
7286.48553746818
 21
7391.200511712042
 31
0.0
  0
LINE
  5
598E9
330
1F
100
AcDbEntity
  8
DETAIL
370
     9
100
AcDbLine
 10
2663.707594039574
 20
7591.200511711111
 30
0.0
 11
7286.48553746818
 21
7591.200511712043
 31
0.0
  0
LINE
  5
598EA
330
1F
100
AcDbEntity
  8
DETAIL
370
     9
100
AcDbLine
 10
2113.707594040039
 20
7191.200511710646
 30
0.0
 11
7286.48553746818
 21
7191.200511712043
 31
0.0
  0
LINE
  5
598EB
330
1F
100
AcDbEntity
  8
DETAIL
370
     9
100
AcDbLine
 10
2113.707594040039
 20
6991.200511711577
 30
0.0
 11
7286.48553746818
 21
6991.200511712043
 31
0.0
  0
LINE
  5
598EC
330
1F
100
AcDbEntity
  8
DETAIL
370
     9
100
AcDbLine
 10
2113.707594040505
 20
6791.200511710646
 30
0.0
 11
7286.48553746818
 21
6791.200511712043
 31
0.0
  0
LINE
  5
598ED
330
1F
100
AcDbEntity
  8
DETAIL
370
     9
100
AcDbLine
 10
2113.707594040505
 20
6591.200511711111
 30
0.0
 11
7286.48553746818
 21
6591.200511712043
 31
0.0
  0
LINE
  5
598EE
330
1F
100
AcDbEntity
  8
DETAIL
370
     9
100
AcDbLine
 10
2113.707594040505
 20
6391.200511711112
 30
0.0
 11
7286.48553746818
 21
6391.200511712042
 31
0.0
  0
LINE
  5
598EF
330
1F
100
AcDbEntity
  8
DETAIL
370
     9
100
AcDbLine
 10
2113.70759404097
 20
6191.200511711111
 30
0.0
 11
7286.48553746818
 21
6191.200511712043
 31
0.0
  0
LINE
  5
598F0
330
1F
100
AcDbEntity
  8
DETAIL
370
     9
100
AcDbLine
 10
2113.70759404097
 20
5991.200511710644
 30
0.0
 11
7286.48553746818
 21
5991.200511712044
 31
0.0
  0
LINE
  5
598F1
330
1F
100
AcDbEntity
  8
DETAIL
370
     9
100
AcDbLine
 10
2663.707594039108
 20
7591.200511712043
 30
0.0
 11
3911.919984844703
 21
7591.200511712043
 31
0.0
  0
LINE
  5
598F2
330
1F
100
AcDbEntity
  8
DETAIL
370
     9
100
AcDbLine
 10
3911.919984844703
 20
5784.200511711111
 30
0.0
 11
3961.919984844703
 21
5784.200511711111
 31
0.0
  0
LINE
  5
598F3
330
1F
100
AcDbEntity
  8
DETAIL
370
     9
100
AcDbLine
 10
5886.485505663046
 20
7591.200511712043
 30
0.0
 11
5918.051496637708
 21
7591.200511712043
 31
0.0
  0
LINE
  5
598F4
330
1F
100
AcDbEntity
  8
DETAIL
370
     9
100
AcDbLine
 10
5918.051496637708
 20
5784.200511711577
 30
0.0
 11
5868.051496637709
 21
5784.200511712509
 31
0.0
  0
MTEXT
  5
598F5
330
1F
100
AcDbEntity
  8
TEXT
370
    25
100
AcDbMText
 10
13563.03193887388
 20
4164.071954908708
 30
0.0
 40
75.0
 41
396.0387
 46
0.0
 71
     1
 72
     5
  1
DIM D
 73
     1
 44
1.0
  0
MTEXT
  5
598F6
330
1F
100
AcDbEntity
  8
TEXT
370
    25
100
AcDbMText
 10
13599.83572977893
 20
4011.943110023552
 30
0.0
 40
75.0
 41
396.0387
 46
0.0
 71
     1
 72
     5
  1
1840
 73
     1
 44
1.0
  0
MTEXT
  5
598F7
330
1F
100
AcDbEntity
  8
TEXT
370
    25
100
AcDbMText
 10
13599.83572977893
 20
3861.943110023553
 30
0.0
 40
75.0
 41
396.0387
 46
0.0
 71
     1
 72
     5
  1
1950
 73
     1
 44
1.0
  0
MTEXT
  5
598F8
330
1F
100
AcDbEntity
  8
TEXT
370
    25
100
AcDbMText
 10
13599.83572977893
 20
3711.943110023553
 30
0.0
 40
75.0
 41
396.0387
 46
0.0
 71
     1
 72
     5
  1
2450
 73
     1
 44
1.0
  0
MTEXT
  5
598F9
330
1F
100
AcDbEntity
  8
TEXT
370
    25
100
AcDbMText
 10
13599.83572977847
 20
3561.943110023552
 30
0.0
 40
75.0
 41
396.0387
 46
0.0
 71
     1
 72
     5
  1
2750
 73
     1
 44
1.0
  0
MTEXT
  5
598FA
330
1F
100
AcDbEntity
  8
TEXT
370
    25
100
AcDbMText
 10
13599.83572977893
 20
3411.943110023552
 30
0.0
 40
75.0
 41
396.0387
 46
0.0
 71
     1
 72
     5
  1
3350
 73
     1
 44
1.0
  0
LINE
  5
598FB
330
1F
100
AcDbEntity
  8
TEXT
370
    25
100
AcDbLine
 10
13952.53915053764
 20
4199.004357688521
 30
0.0
 11
13952.53915053811
 21
2694.542276508568
 31
0.0
  0
MTEXT
  5
598FC
330
1F
100
AcDbEntity
  8
TEXT
370
    25
100
AcDbMText
 10
13599.83572977893
 20
3261.943110023552
 30
0.0
 40
75.0
 41
396.0387
 46
0.0
 71
     1
 72
     5
  1
4120
 73
     1
 44
1.0
  0
MTEXT
  5
598FD
330
1F
100
AcDbEntity
  8
TEXT
370
    25
100
AcDbMText
 10
13599.83572977893
 20
3111.943110023553
 30
0.0
 40
75.0
 41
396.0387
 46
0.0
 71
     1
 72
     5
  1
5120
 73
     1
 44
1.0
  0
MTEXT
  5
598FE
330
1F
100
AcDbEntity
  8
TEXT
370
    25
100
AcDbMText
 10
13599.83572977893
 20
2961.943110023553
 30
0.0
 40
75.0
 41
396.0387
 46
0.0
 71
     1
 72
     5
  1
5320
 73
     1
 44
1.0
  0
MTEXT
  5
598FF
330
1F
100
AcDbEntity
  8
TEXT
370
    25
100
AcDbMText
 10
13599.83576527256
 20
2811.943076495474
 30
0.0
 40
75.0
 41
396.0387
 46
0.0
 71
     1
 72
     5
  1
5920
 73
     1
 44
1.0
  0
DIMENSION
  5
59900
330
1F
100
AcDbEntity
  8
DIMS
370
    25
100
AcDbDimension
280
     0
  2
*D3
 10
9696.35737458263
 20
1908.601941272078
 30
0.0
 11
8346.421456025636
 21
1992.867292149271
 31
0.0
 70
    32
  1
DIMENSION D
 71
     5
 42
2699.871837113984
 73
     0
 74
     0
 75
     0
  3
ISO-25
100
AcDbAlignedDimension
 13
6996.485537468645
 23
2608.160339260401
 33
0.0
 14
9696.35737458263
 24
2608.160339260401
 34
0.0
100
AcDbRotatedDimension
1001
ACAD
1000
DSTYLE
1002
{
1070
    41
1040
80.0
1070
    42
1040
30.0
1070
    44
1040
30.0
1070
   140
1040
80.0
1070
   147
1040
30.0
1070
   173
1070
     1
1070
   178
1070
   256
1070
   340
1005
57C01
1070
   342
1005
0
1002
}
  0
DIMENSION
  5
59901
330
1F
100
AcDbEntity
  8
DIMS
370
    25
100
AcDbDimension
280
     0
  2
*D4
 10
7346.485537468179
 20
2269.760372176694
 30
0.0
 11
7171.485537468412
 21
2353.488442352132
 31
0.0
 70
    32
 71
     5
 42
349.9999999995343
 73
     0
 74
     0
 75
     0
  3
ISO-25
100
AcDbAlignedDimension
 13
6996.485537468645
 23
2608.160339260401
 33
0.0
 14
7346.485537468179
 24
2785.660339260401
 34
0.0
100
AcDbRotatedDimension
1001
ACAD
1000
DSTYLE
1002
{
1070
    41
1040
80.0
1070
    42
1040
30.0
1070
    44
1040
30.0
1070
   140
1040
80.0
1070
   147
1040
30.0
1070
   173
1070
     1
1070
   178
1070
   256
1070
   340
1005
57C01
1070
   342
1005
0
1002
}
  0
DIMENSION
  5
59902
330
1F
100
AcDbEntity
  8
DIMS
370
    25
100
AcDbDimension
280
     0
  2
*D5
 10
9396.485543487315
 20
2271.010372176694
 30
0.0
 11
8371.485540477747
 21
2355.275723053887
 31
0.0
 70
    32
  1
DIMENSION C
 71
     5
 42
2050.000006019138
 73
     0
 74
     0
 75
     0
  3
ISO-25
100
AcDbAlignedDimension
 13
7346.485537468179
 23
2785.035339260401
 33
0.0
 14
9396.485543487315
 24
2883.160339260401
 34
0.0
100
AcDbRotatedDimension
1001
ACAD
1000
DSTYLE
1002
{
1070
    41
1040
80.0
1070
    42
1040
30.0
1070
    44
1040
30.0
1070
   140
1040
80.0
1070
   147
1040
30.0
1070
   173
1070
     1
1070
   178
1070
   256
1070
   340
1005
57C01
1070
   342
1005
0
1002
}
  0
DIMENSION
  5
59903
330
1F
100
AcDbEntity
  8
DIMS
370
    25
100
AcDbDimension
280
     0
  2
*D6
 10
9696.35737458263
 20
2272.260372176694
 30
0.0
 11
9546.421459034972
 21
2355.758179194237
 31
0.0
 70
    32
 71
     5
 42
299.8718310953118
 73
     0
 74
     0
 75
     0
  3
ISO-25
100
AcDbAlignedDimension
 13
9396.485543487315
 23
2882.535339260401
 33
0.0
 14
9696.35737458263
 24
2608.160339260401
 34
0.0
100
AcDbRotatedDimension
1001
ACAD
1000
DSTYLE
1002
{
1070
    41
1040
80.0
1070
    42
1040
30.0
1070
    44
1040
30.0
1070
   140
1040
80.0
1070
   147
1040
30.0
1070
   173
1070
     1
1070
   178
1070
   256
1070
   340
1005
57C01
1070
   342
1005
0
1002
}
  0
LINE
  5
59905
330
1F
100
AcDbEntity
  8
DETAIL
370
    25
100
AcDbLine
 10
2235.660286475628
 20
7591.200511839634
 30
0.0
 11
2235.660286475628
 21
5784.200511718562
 31
0.0
  0
LINE
  5
59906
330
1F
100
AcDbEntity
  8
DETAIL
370
    25
100
AcDbLine
 10
2185.660286475628
 20
7591.200511839634
 30
0.0
 11
2185.660286476559
 21
5784.200511718562
 31
0.0
  0
LINE
  5
59907
330
1F
100
AcDbEntity
  8
DETAIL
370
    25
100
AcDbLine
 10
2113.707594039574
 20
7591.200511839634
 30
0.0
 11
2113.707594040039
 21
5784.200511718562
 31
0.0
  0
LINE
  5
59908
330
1F
100
AcDbEntity
  8
DETAIL
370
    25
100
AcDbLine
 10
2635.660318281225
 20
7591.200511717166
 30
0.0
 11
2635.660318281691
 21
5784.200511718096
 31
0.0
  0
LINE
  5
59909
330
1F
100
AcDbEntity
  8
DETAIL
370
    25
100
AcDbLine
 10
2585.660318281225
 20
7591.200511717166
 30
0.0
 11
2585.660318281691
 21
5784.200511718096
 31
0.0
  0
LINE
  5
5990A
330
1F
100
AcDbEntity
  8
DETAIL
370
    25
100
AcDbLine
 10
2535.660318281225
 20
7591.200511717166
 30
0.0
 11
2535.660318281691
 21
5784.200511718096
 31
0.0
  0
LINE
  5
5990B
330
1F
100
AcDbEntity
  8
DETAIL
370
    25
100
AcDbLine
 10
2485.660318281225
 20
7591.200511717166
 30
0.0
 11
2485.660318281225
 21
5784.200511718096
 31
0.0
  0
LINE
  5
5990C
330
1F
100
AcDbEntity
  8
DETAIL
370
    25
100
AcDbLine
 10
2435.660318281225
 20
7591.200511717166
 30
0.0
 11
2435.660318281691
 21
5784.200511718096
 31
0.0
  0
LINE
  5
5990D
330
1F
100
AcDbEntity
  8
DETAIL
370
    25
100
AcDbLine
 10
2385.660318281225
 20
7591.200511717166
 30
0.0
 11
2385.660318281691
 21
5784.200511718562
 31
0.0
  0
LINE
  5
5990E
330
1F
100
AcDbEntity
  8
DETAIL
370
    25
100
AcDbLine
 10
2335.660318281225
 20
7591.200511717166
 30
0.0
 11
2335.660318281691
 21
5784.200511718562
 31
0.0
  0
LINE
  5
5990F
330
1F
100
AcDbEntity
  8
DETAIL
370
    25
100
AcDbLine
 10
2285.660318281225
 20
7591.200511717166
 30
0.0
 11
2285.660318281691
 21
5784.200511718562
 31
0.0
  0
LINE
  5
59910
330
1F
100
AcDbEntity
  8
DETAIL
370
    25
100
AcDbLine
 10
2235.660318281225
 20
7591.200511717166
 30
0.0
 11
2235.660318281691
 21
5784.200511718562
 31
0.0
  0
LINE
  5
59911
330
1F
100
AcDbEntity
  8
DETAIL
370
    25
100
AcDbLine
 10
2135.660286475628
 20
7591.200511839634
 30
0.0
 11
2135.660286476559
 21
5784.200511718562
 31
0.0
  0
LINE
  5
59912
330
1F
100
AcDbEntity
  8
DETAIL
370
     9
100
AcDbLine
 10
7891.958049183902
 20
3180.660339260867
 30
0.0
 11
7911.9580491839
 21
3180.660339260867
 31
0.0
  0
LINE
  5
59913
330
1F
100
AcDbEntity
  8
DETAIL
370
     9
100
AcDbLine
 10
7891.958049183902
 20
3120.66034823742
 30
0.0
 11
7911.9580491839
 21
3120.66034823742
 31
0.0
  0
LINE
  5
59914
330
1F
100
AcDbEntity
  8
DETAIL
370
     9
100
AcDbLine
 10
7406.485537467247
 20
7668.109840303121
 30
0.0
 11
8736.485537467249
 21
7668.109840304518
 31
0.0
  0
LINE
  5
59915
330
1F
100
AcDbEntity
  8
APPLICATION
370
    25
100
AcDbLine
 10
9685.357374582629
 20
5541.200511711111
 30
0.0
 11
9685.357374582629
 21
4941.200511711111
 31
0.0
  0
LINE
  5
59916
330
1F
100
AcDbEntity
  8
APPLICATION
370
    25
100
AcDbLine
 10
11171.14036737401
 20
5541.200511711111
 30
0.0
 11
11171.14036737401
 21
5241.200511711111
 31
0.0
  0
LINE
  5
59917
330
1F
100
AcDbEntity
  8
APPLICATION
370
    25
100
AcDbLine
 10
11171.14036737401
 20
5241.200511711111
 30
0.0
 11
11521.14036737401
 21
5241.200511711111
 31
0.0
  0
LINE
  5
59918
330
1F
100
AcDbEntity
  8
APPLICATION
370
    25
100
AcDbLine
 10
11521.14036737401
 20
5241.200511711111
 30
0.0
 11
11521.14036737401
 21
5541.200511711111
 31
0.0
  0
LINE
  5
59919
330
1F
100
AcDbEntity
  8
DETAIL
370
    25
100
AcDbLine
 10
11221.14036737401
 20
5541.200511711111
 30
0.0
 11
11471.14036737401
 21
5541.200511711111
 31
0.0
  0
LINE
  5
5991A
330
1F
100
AcDbEntity
  8
DETAIL
370
    25
100
AcDbLine
 10
11221.14036737401
 20
5541.200511711111
 30
0.0
 11
11221.14036737401
 21
5556.200511711111
 31
0.0
  0
LINE
  5
5991B
330
1F
100
AcDbEntity
  8
DETAIL
370
    25
100
AcDbLine
 10
11221.14036737401
 20
5556.200511711111
 30
0.0
 11
11471.14036737401
 21
5556.200511711111
 31
0.0
  0
LINE
  5
5991C
330
1F
100
AcDbEntity
  8
DETAIL
370
    25
100
AcDbLine
 10
11471.14036737401
 20
5556.200511711111
 30
0.0
 11
11471.14036737401
 21
5541.200511711111
 31
0.0
  0
LINE
  5
5991D
330
1F
100
AcDbEntity
  8
DETAIL
370
    25
100
AcDbLine
 10
11396.14036737401
 20
5806.200511711111
 30
0.0
 11
11296.14036737401
 21
5806.200511711111
 31
0.0
  0
LINE
  5
5991E
330
1F
100
AcDbEntity
  8
DETAIL
370
    25
100
AcDbLine
 10
11396.14036737401
 20
5556.200511711111
 30
0.0
 11
11396.14036737401
 21
5806.200511711111
 31
0.0
  0
LINE
  5
5991F
102
{ACAD_REACTORS
330
59923
102
}
330
1F
100
AcDbEntity
  8
DETAIL
370
    25
100
AcDbLine
 10
11296.14036737401
 20
5556.200511711111
 30
0.0
 11
11296.14036737401
 21
5806.200511711111
 31
0.0
  0
LINE
  5
59920
102
{ACAD_REACTORS
330
59923
102
}
330
1F
100
AcDbEntity
  8
DETAIL
370
    25
100
AcDbLine
 10
11296.14036737401
 20
5806.200511711111
 30
0.0
 11
11276.14036737401
 21
5806.200511711111
 31
0.0
  0
ARC
  5
59921
102
{ACAD_REACTORS
330
59923
102
}
330
1F
100
AcDbEntity
  8
DETAIL
370
    25
100
AcDbCircle
 10
11276.14036737401
 20
5745.200511711111
 30
0.0
 40
61.0
100
AcDbArc
 50
90.0
 51
270.0
  0
LINE
  5
59922
102
{ACAD_REACTORS
330
59923
102
}
330
1F
100
AcDbEntity
  8
DETAIL
370
    25
100
AcDbLine
 10
11276.14036737401
 20
5684.200511711111
 30
0.0
 11
11296.14036737401
 21
5684.200511711111
 31
0.0
  0
HATCH
  5
59923
330
1F
100
AcDbEntity
  8
DETAIL
370
    25
100
AcDbHatch
 10
0.0
 20
0.0
 30
0.0
210
0.0
220
0.0
230
1.0
  2
SOLID
 70
     1
 71
     1
 91
        1
 92
        7
 72
     1
 73
     1
 93
        4
 10
11296.14036737401
 20
5806.200511711111
 42
0.0
 10
11276.14036737401
 20
5806.200511711111
 42
1.0
 10
11276.14036737401
 20
5684.200511711111
 42
0.0
 10
11296.14036737401
 20
5684.200511711111
 42
0.0
 97
        4
330
59920
330
59921
330
59922
330
5991F
 75
     0
 76
     1
 47
2.259840673703695
 98
        1
 10
11266.76007382032
 20
5756.824547259995
450
        0
451
        0
460
0.0
461
0.0
452
        0
462
0.0
453
        0
470

  0
LINE
  5
59925
330
1F
100
AcDbEntity
  8
DETAIL
370
    25
100
AcDbLine
 10
11221.14036737401
 20
5556.200511711111
 30
0.0
 11
11231.14036737401
 21
5556.200511711111
 31
0.0
  0
LINE
  5
59926
330
1F
100
AcDbEntity
  8
DETAIL
370
    25
100
AcDbLine
 10
11221.14036737401
 20
5556.200511711111
 30
0.0
 11
11241.14036737401
 21
5556.200511711111
 31
0.0
  0
LINE
  5
59927
330
1F
100
AcDbEntity
  8
DETAIL
370
    25
100
AcDbLine
 10
11241.14036737401
 20
5556.200511711111
 30
0.0
 11
11241.14036737401
 21
5566.200511711111
 31
0.0
  0
LINE
  5
59928
330
1F
100
AcDbEntity
  8
DETAIL
370
    25
100
AcDbLine
 10
11241.14036737401
 20
5566.200511711111
 30
0.0
 11
11261.14036737401
 21
5566.200511711111
 31
0.0
  0
LINE
  5
59929
330
1F
100
AcDbEntity
  8
DETAIL
370
    25
100
AcDbLine
 10
11261.14036737401
 20
5566.200511711111
 30
0.0
 11
11261.14036737401
 21
5556.200511711111
 31
0.0
  0
LINE
  5
5992A
330
1F
100
AcDbEntity
  8
DETAIL
370
    25
100
AcDbLine
 10
11451.14036737401
 20
5556.200511711111
 30
0.0
 11
11451.14036737401
 21
5566.200511711111
 31
0.0
  0
LINE
  5
5992B
330
1F
100
AcDbEntity
  8
DETAIL
370
    25
100
AcDbLine
 10
11451.14036737401
 20
5566.200511711111
 30
0.0
 11
11431.14036737401
 21
5566.200511711111
 31
0.0
  0
LINE
  5
5992C
330
1F
100
AcDbEntity
  8
DETAIL
370
    25
100
AcDbLine
 10
11431.14036737401
 20
5566.200511711111
 30
0.0
 11
11431.14036737401
 21
5556.200511711111
 31
0.0
  0
HATCH
  5
5992D
330
1F
100
AcDbEntity
  8
APPLICATION
370
     9
100
AcDbHatch
 10
0.0
 20
0.0
 30
0.0
210
0.0
220
0.0
230
1.0
  2
AR-CONC
 70
     0
 71
     0
 91
        3
 92
        7
 72
     0
 73
     1
 93
        4
 10
11521.14036737401
 20
5541.200511711577
 10
11171.14036737448
 20
5541.200511711111
 10
11171.14036737448
 20
5241.200511711111
 10
11521.14036737401
 20
5241.200511711111
 97
        0
 92
        7
 72
     0
 73
     1
 93
       11
 10
9685.357374582629
 20
5541.200511711111
 10
9532.065524486084
 20
5541.200511711111
 10
9146.485537468644
 20
5541.200511711111
 10
8796.485537468646
 20
5541.200511711111
 10
8746.485537468645
 20
5541.200511711111
 10
7396.485537468645
 20
5541.200511711111
 10
7296.485537468645
 20
5541.200511711111
 10
6996.485537468645
 20
5541.200511711111
 10
6996.485537468645
 20
4941.200511711577
 10
9146.485537468644
 20
4941.200511711111
 10
9685.357374582629
 20
4941.200511711577
 97
        0
 92
        7
 72
     0
 73
     1
 93
        6
 10
1259.203737542688
 20
5541.200511711111
 10
1159.203737542688
 20
5541.200511711111
 10
859.203737542688
 20
5541.200511711111
 10
759.203737542688
 20
5541.200511711111
 10
759.203737542688
 20
4941.200511711577
 10
1259.203737542688
 20
4941.200511711577
 97
        0
 75
     0
 76
     1
 52
0.0
 41
2.0
 77
     0
 78
    13
 53
50.0
 43
-3138301.312665041
 44
-3878453.333924207
 45
364.369337992008
 46
-31.87817107780617
 79
     2
 49
38.1
 49
-419.1
 53
355.0
 43
-3138301.312665041
 44
-3878453.333924207
 45
-70.48565195133398
 46
382.11328576436
 79
     2
 49
30.48
 49
-335.28
 53
100.451
 43
-3138270.94866504
 44
-3878455.990424206
 45
293.8850033319185
 46
350.2333756405838
 79
     2
 49
32.38
 49
-356.18
 53
46.18419999999999
 43
-3138301.312665041
 44
-3878351.733924207
 45
542.1580817842598
 46
-84.0846558654543
 79
     2
 49
57.14999999999999
 49
-628.65
 53
96.63559999999996
 43
-3138256.13286504
 44
-3878358.740924206
 45
474.8084689324742
 46
494.8511117800983
 79
     2
 49
48.56999999999996
 49
-534.2699999999994
 53
351.184
 43
-3138301.312665041
 44
-3878351.733924207
 45
474.8092116278677
 46
494.8502357211952
 79
     2
 49
45.72
 49
-502.92
 53
21.0
 43
-3138250.51266504
 44
-3878377.133924205
 45
303.2297596707666
 46
-204.531037033525
 79
     2
 49
38.1
 49
-419.1
 53
326.0
 43
-3138250.51266504
 44
-3878377.133924205
 45
123.6040566952941
 46
368.3759322446385
 79
     2
 49
30.48
 49
-335.28
 53
71.45140000000002
 43
-3138225.24366504
 44
-3878394.178124206
 45
426.8329815402488
 46
163.8457154321149
 79
     2
 49
32.38
 49
-356.18
 53
37.5
 43
-3138301.312665041
 44
-3878453.333924207
 45
6.177206501183632
 46
169.1100777463062
 79
     6
 49
0.0
 49
-331.216
 49
0.0
 49
-340.36
 49
0.0
 49
-336.55
 53
7.499999999999999
 43
-3138301.312665041
 44
-3878453.333924207
 45
133.6393250206115
 46
200.361149636239
 79
     6
 49
0.0
 49
-194.0559999999999
 49
0.0
 49
-323.596
 49
0.0
 49
-128.27
 53
327.5
 43
-3138414.59666504
 44
-3878453.333924207
 45
271.1811903337427
 46
-11.45748798534693
 79
     6
 49
0.0
 49
-127.0
 49
0.0
 49
-396.24
 49
0.0
 49
-525.7799999999998
 53
317.5
 43
-3138465.39666504
 44
-3878453.333924207
 45
296.2583627720361
 46
50.85298206666603
 79
     6
 49
0.0
 49
-165.1
 49
0.0
 49
-263.144
 49
0.0
 49
-373.38
 47
18.08399894765591
 98
        3
 10
11384.71472213436
 20
5354.832716974822
 10
8867.90454707267
 20
5119.740728143995
 10
1100.195623147956
 20
5264.412728951706
  0
LINE
  5
5992E
330
1F
100
AcDbEntity
  8
APPLICATION
370
     9
100
AcDbLine
 10
12413.99554742891
 20
5541.200511711111
 30
0.0
 11
12413.99554742938
 21
4941.200511711111
 31
0.0
  0
LINE
  5
5992F
330
1F
100
AcDbEntity
  8
APPLICATION
370
     9
100
AcDbLine
 10
13163.99554742891
 20
4941.200511711111
 30
0.0
 11
13163.99554742891
 21
5541.200511711111
 31
0.0
  0
LINE
  5
59930
330
1F
100
AcDbEntity
  8
DETAIL
370
     9
100
AcDbLine
 10
12438.99554742891
 20
5556.200511711111
 30
0.0
 11
12438.99554742891
 21
5541.200511711111
 31
0.0
  0
LINE
  5
59932
330
1F
100
AcDbEntity
  8
DETAIL
370
     9
100
AcDbLine
 10
13138.99554742891
 20
5541.200511711111
 30
0.0
 11
13138.99554742891
 21
5556.200511711111
 31
0.0
  0
LINE
  5
59933
330
1F
100
AcDbEntity
  8
DETAIL
370
     9
100
AcDbLine
 10
12751.49554742984
 20
5672.200511712042
 30
0.0
 11
12778.99554743078
 21
5672.200511711577
 31
0.0
  0
LINE
  5
59934
330
1F
100
AcDbEntity
  8
DETAIL
370
     9
100
AcDbLine
 10
12751.49554742984
 20
5802.200511712044
 30
0.0
 11
12826.49554742938
 21
5802.200511711577
 31
0.0
  0
LINE
  5
59935
330
1F
100
AcDbEntity
  8
DETAIL
370
     9
100
AcDbLine
 10
12751.49554742891
 20
7591.200511710646
 30
0.0
 11
12826.49554742891
 21
7591.200511711111
 31
0.0
  0
LINE
  5
59936
330
1F
100
AcDbEntity
  8
DETAIL
370
     9
100
AcDbLine
 10
12751.49554742938
 20
5672.200511712042
 30
0.0
 11
12741.49554742938
 21
5672.200511712042
 31
0.0
  0
LINE
  5
59937
330
1F
100
AcDbEntity
  8
DETAIL
370
     9
100
AcDbLine
 10
12826.49554743031
 20
5672.200511711577
 30
0.0
 11
12836.49554743031
 21
5672.200511711577
 31
0.0
  0
LINE
  5
59938
330
1F
100
AcDbEntity
  8
DETAIL
370
     9
100
AcDbLine
 10
12846.49554742938
 20
5722.200511712042
 30
0.0
 11
12836.49554743031
 21
5672.200511711577
 31
0.0
  0
LINE
  5
59939
330
1F
100
AcDbEntity
  8
DETAIL
370
     9
100
AcDbLine
 10
12731.49554742938
 20
5722.200511712042
 30
0.0
 11
12741.49554742938
 21
5672.200511712042
 31
0.0
  0
LINE
  5
5993A
330
1F
100
AcDbEntity
  8
DETAIL
370
     9
100
AcDbLine
 10
12826.49554742938
 20
5802.200511711577
 30
0.0
 11
12846.49554742938
 21
5802.200511711577
 31
0.0
  0
LINE
  5
5993B
330
1F
100
AcDbEntity
  8
DETAIL
370
     9
100
AcDbLine
 10
12846.49554742938
 20
5802.200511711577
 30
0.0
 11
12846.49554742938
 21
5722.200511711111
 31
0.0
  0
LINE
  5
5993C
330
1F
100
AcDbEntity
  8
DETAIL
370
     9
100
AcDbLine
 10
12751.49554742938
 20
5802.200511712044
 30
0.0
 11
12731.49554742938
 21
5802.200511712044
 31
0.0
  0
LINE
  5
5993D
330
1F
100
AcDbEntity
  8
DETAIL
370
     9
100
AcDbLine
 10
12731.49554742938
 20
5802.200511712044
 30
0.0
 11
12731.49554742891
 21
5722.200511712508
 31
0.0
  0
LINE
  5
5993E
330
1F
100
AcDbEntity
  8
DETAIL
370
     9
100
AcDbLine
 10
12751.49554742984
 20
5797.200511712042
 30
0.0
 11
12826.49554742938
 21
5797.200511711577
 31
0.0
  0
LINE
  5
5993F
330
1F
100
AcDbEntity
  8
DETAIL
370
     9
100
AcDbLine
 10
12826.49554742938
 20
5797.200511711577
 30
0.0
 11
12841.49554742938
 21
5797.20051171111
 31
0.0
  0
LINE
  5
59940
330
1F
100
AcDbEntity
  8
DETAIL
370
     9
100
AcDbLine
 10
12751.49554742938
 20
5797.200511712042
 30
0.0
 11
12736.49554742938
 21
5797.200511712042
 31
0.0
  0
LINE
  5
59941
330
1F
100
AcDbEntity
  8
DETAIL
370
     9
100
AcDbLine
 10
12736.49554742985
 20
5797.200511712042
 30
0.0
 11
12736.49554742938
 21
5722.695609280301
 31
0.0
  0
LINE
  5
59942
330
1F
100
AcDbEntity
  8
DETAIL
370
     9
100
AcDbLine
 10
12841.49554742891
 20
5797.20051171111
 30
0.0
 11
12841.49554742938
 21
5722.695609279835
 31
0.0
  0
LINE
  5
59943
330
1F
100
AcDbEntity
  8
DETAIL
370
     9
100
AcDbLine
 10
12841.49554742891
 20
5722.695609278904
 30
0.0
 11
12832.39652791638
 21
5677.200511711111
 31
0.0
  0
LINE
  5
59944
330
1F
100
AcDbEntity
  8
DETAIL
370
     9
100
AcDbLine
 10
12751.49554742984
 20
5677.200511712044
 30
0.0
 11
12778.99554743078
 21
5677.200511711577
 31
0.0
  0
LINE
  5
59945
330
1F
100
AcDbEntity
  8
DETAIL
370
     9
100
AcDbLine
 10
12736.49554742938
 20
5722.695609280301
 30
0.0
 11
12745.59456694331
 21
5677.200511712044
 31
0.0
  0
LINE
  5
59946
330
1F
100
AcDbEntity
  8
DETAIL
370
     9
100
AcDbLine
 10
12751.49554742938
 20
5677.200511712044
 30
0.0
 11
12745.59456694331
 21
5677.200511712044
 31
0.0
  0
LINE
  5
59947
330
1F
100
AcDbEntity
  8
DETAIL
370
     9
100
AcDbLine
 10
12826.49554743031
 20
5677.200511711577
 30
0.0
 11
12832.39652791685
 21
5677.200511711111
 31
0.0
  0
LINE
  5
59948
330
1F
100
AcDbEntity
  8
DETAIL
370
     9
100
AcDbLine
 10
12798.99554743031
 20
5677.200511711111
 30
0.0
 11
12826.49554743031
 21
5677.200511711577
 31
0.0
  0
LINE
  5
59949
330
1F
100
AcDbEntity
  8
DETAIL
370
     9
100
AcDbLine
 10
12798.99554743078
 20
5672.200511711577
 30
0.0
 11
12826.49554743031
 21
5672.200511711577
 31
0.0
  0
LINE
  5
5994A
330
1F
100
AcDbEntity
  8
DETAIL
370
     9
100
AcDbLine
 10
12798.99554743031
 20
5671.200511711577
 30
0.0
 11
12798.99554743078
 21
5797.200511712508
 31
0.0
  0
LINE
  5
5994B
330
1F
100
AcDbEntity
  8
DETAIL
370
     9
100
AcDbLine
 10
12778.99554743078
 20
5671.200511712044
 30
0.0
 11
12778.99554743078
 21
5797.200511712042
 31
0.0
  0
LINE
  5
5994C
330
1F
100
AcDbEntity
  8
DETAIL
370
     9
100
AcDbLine
 10
12832.39652791685
 20
5677.200511712508
 30
0.0
 11
12832.39652791731
 21
5797.20051171111
 31
0.0
  0
LINE
  5
5994D
330
1F
100
AcDbEntity
  8
DETAIL
370
     9
100
AcDbLine
 10
12745.59456694378
 20
5677.20051171344
 30
0.0
 11
12745.59456694378
 21
5797.200511712042
 31
0.0
  0
LINE
  5
5994E
330
1F
100
AcDbEntity
  8
DETAIL
370
     9
100
AcDbLine
 10
12778.99554743078
 20
5751.200511712508
 30
0.0
 11
12745.59456694331
 21
5751.200511712508
 31
0.0
  0
LINE
  5
5994F
330
1F
100
AcDbEntity
  8
DETAIL
370
     9
100
AcDbLine
 10
12778.99554743078
 20
5731.200511712508
 30
0.0
 11
12745.59456694331
 21
5731.200511712508
 31
0.0
  0
LINE
  5
59950
330
1F
100
AcDbEntity
  8
DETAIL
370
     9
100
AcDbLine
 10
12798.99554743031
 20
5751.200511711576
 30
0.0
 11
12832.39652791638
 21
5751.200511711576
 31
0.0
  0
LINE
  5
59951
330
1F
100
AcDbEntity
  8
DETAIL
370
     9
100
AcDbLine
 10
12798.99554743031
 20
5731.200511711577
 30
0.0
 11
12832.39652791638
 21
5731.200511712042
 31
0.0
  0
LINE
  5
59952
330
1F
100
AcDbEntity
  8
DETAIL
370
     9
100
AcDbLine
 10
12778.99554743078
 20
5751.200511712508
 30
0.0
 11
12798.99554743031
 21
5751.200511711576
 31
0.0
  0
LINE
  5
59953
330
1F
100
AcDbEntity
  8
DETAIL
370
     9
100
AcDbLine
 10
12778.99554743078
 20
5731.200511712508
 30
0.0
 11
12798.99554743031
 21
5731.200511711577
 31
0.0
  0
LINE
  5
59954
330
1F
100
AcDbEntity
  8
DETAIL
370
     9
100
AcDbLine
 10
12776.49554743078
 20
5802.200511711111
 30
0.0
 11
12776.49554742891
 21
7591.200511710646
 31
0.0
  0
LINE
  5
59955
330
1F
100
AcDbEntity
  8
DETAIL
370
     9
100
AcDbLine
 10
12801.49554743031
 20
5802.200511711111
 30
0.0
 11
12801.49554742891
 21
7591.200511710646
 31
0.0
  0
LINE
  5
59957
330
1F
100
AcDbEntity
  8
DETAIL
370
     9
100
AcDbLine
 10
12463.99554742891
 20
5556.200511711576
 30
0.0
 11
12483.99554742891
 21
5556.200511711576
 31
0.0
  0
LINE
  5
59958
330
1F
100
AcDbEntity
  8
DETAIL
370
     9
100
AcDbLine
 10
12458.99554742891
 20
5556.200511711576
 30
0.0
 11
12458.99554742891
 21
5566.200511711577
 31
0.0
  0
LINE
  5
59959
330
1F
100
AcDbEntity
  8
DETAIL
370
     9
100
AcDbLine
 10
12458.99554742891
 20
5566.200511711577
 30
0.0
 11
12478.99554742891
 21
5566.200511711577
 31
0.0
  0
LINE
  5
5995A
330
1F
100
AcDbEntity
  8
DETAIL
370
     9
100
AcDbLine
 10
12478.99554742891
 20
5566.200511711577
 30
0.0
 11
12478.99554742891
 21
5556.200511711576
 31
0.0
  0
LINE
  5
5995B
330
1F
100
AcDbEntity
  8
DETAIL
370
     9
100
AcDbLine
 10
13113.99554742891
 20
5556.200511711111
 30
0.0
 11
13093.99554742891
 21
5556.200511711111
 31
0.0
  0
LINE
  5
5995C
330
1F
100
AcDbEntity
  8
DETAIL
370
     9
100
AcDbLine
 10
13118.99554742891
 20
5556.200511711111
 30
0.0
 11
13118.99554742891
 21
5566.200511711111
 31
0.0
  0
LINE
  5
5995D
330
1F
100
AcDbEntity
  8
DETAIL
370
     9
100
AcDbLine
 10
13118.99554742891
 20
5566.200511711111
 30
0.0
 11
13098.99554742891
 21
5566.200511711111
 31
0.0
  0
LINE
  5
5995E
330
1F
100
AcDbEntity
  8
DETAIL
370
     9
100
AcDbLine
 10
13098.99554742891
 20
5566.200511711111
 30
0.0
 11
13098.99554742891
 21
5556.200511710644
 31
0.0
  0
LINE
  5
59961
330
1F
100
AcDbEntity
  8
DETAIL
370
     9
100
AcDbLine
 10
13113.99554742891
 20
5556.200511710644
 30
0.0
 11
13138.99554742891
 21
5556.200511710644
 31
0.0
  0
LINE
  5
59964
330
1F
100
AcDbEntity
  8
DETAIL
370
     9
100
AcDbLine
 10
12463.99554742845
 20
5556.200511711576
 30
0.0
 11
12438.99554742891
 21
5556.200511711576
 31
0.0
  0
LINE
  5
59965
330
1F
100
AcDbEntity
  8
DETAIL
370
     9
100
AcDbLine
 10
12438.99554742891
 20
5541.200511711111
 30
0.0
 11
13138.99554742891
 21
5541.200511711111
 31
0.0
  0
LINE
  5
59966
330
1F
100
AcDbEntity
  8
DETAIL
370
     9
100
AcDbLine
 10
12853.14956085729
 20
7591.20051171018
 30
0.0
 11
12879.14956085729
 21
7591.20051171018
 31
0.0
  0
LINE
  5
59967
330
1F
100
AcDbEntity
  8
DETAIL
370
     9
100
AcDbLine
 10
12852.14956085775
 20
7628.20051171018
 30
0.0
 11
12853.14956085775
 21
7631.20051171018
 31
0.0
  0
LINE
  5
59968
330
1F
100
AcDbEntity
  8
DETAIL
370
     9
100
AcDbLine
 10
12880.14956085775
 20
7628.20051171018
 30
0.0
 11
12879.14956085775
 21
7631.20051171018
 31
0.0
  0
LINE
  5
59969
330
1F
100
AcDbEntity
  8
DETAIL
370
     9
100
AcDbLine
 10
12881.14956085775
 20
7607.200511710179
 30
0.0
 11
12851.14956085775
 21
7607.200511710179
 31
0.0
  0
LINE
  5
5996A
330
1F
100
AcDbEntity
  8
DETAIL
370
     9
100
AcDbLine
 10
12881.14956085775
 20
7615.200511710179
 30
0.0
 11
12851.14956085775
 21
7615.200511710179
 31
0.0
  0
LINE
  5
5996B
330
1F
100
AcDbEntity
  8
DETAIL
370
     9
100
AcDbLine
 10
12880.14956085775
 20
7628.20051171018
 30
0.0
 11
12881.14956085775
 21
7615.200511710179
 31
0.0
  0
LINE
  5
5996C
330
1F
100
AcDbEntity
  8
DETAIL
370
     9
100
AcDbLine
 10
12852.14956085775
 20
7628.20051171018
 30
0.0
 11
12851.14956085775
 21
7615.200511710179
 31
0.0
  0
LINE
  5
5996D
330
1F
100
AcDbEntity
  8
DETAIL
370
     9
100
AcDbLine
 10
12852.14956085775
 20
7594.20051171018
 30
0.0
 11
12853.14956085775
 21
7591.20051171018
 31
0.0
  0
LINE
  5
5996E
330
1F
100
AcDbEntity
  8
DETAIL
370
     9
100
AcDbLine
 10
12880.14956085775
 20
7594.20051171018
 30
0.0
 11
12879.14956085775
 21
7591.20051171018
 31
0.0
  0
LINE
  5
5996F
330
1F
100
AcDbEntity
  8
DETAIL
370
     9
100
AcDbLine
 10
12880.14956085775
 20
7594.20051171018
 30
0.0
 11
12881.14956085775
 21
7607.200511710179
 31
0.0
  0
LINE
  5
59970
330
1F
100
AcDbEntity
  8
DETAIL
370
     9
100
AcDbLine
 10
12852.14956085775
 20
7594.20051171018
 30
0.0
 11
12851.14956085775
 21
7607.200511710179
 31
0.0
  0
LINE
  5
59971
330
1F
100
AcDbEntity
  8
DETAIL
370
     9
100
AcDbLine
 10
12879.14956085775
 20
7631.20051171018
 30
0.0
 11
12853.14956085775
 21
7631.20051171018
 31
0.0
  0
LINE
  5
59972
330
1F
100
AcDbEntity
  8
DETAIL
370
     9
100
AcDbLine
 10
12852.14956085775
 20
7628.20051171018
 30
0.0
 11
12880.14956085775
 21
7628.20051171018
 31
0.0
  0
LINE
  5
59973
330
1F
100
AcDbEntity
  8
DETAIL
370
     9
100
AcDbLine
 10
12880.14956085775
 20
7594.20051171018
 30
0.0
 11
12852.14956085775
 21
7594.20051171018
 31
0.0
  0
LINE
  5
59974
330
1F
100
AcDbEntity
  8
DETAIL
370
     9
100
AcDbLine
 10
12881.14956085775
 20
7607.200511710179
 30
0.0
 11
12881.64956085775
 21
7607.200511710179
 31
0.0
  0
LINE
  5
59975
330
1F
100
AcDbEntity
  8
DETAIL
370
     9
100
AcDbLine
 10
12881.64956085775
 20
7607.200511710179
 30
0.0
 11
12881.64956085729
 21
7615.200511709716
 31
0.0
  0
LINE
  5
59976
330
1F
100
AcDbEntity
  8
DETAIL
370
     9
100
AcDbLine
 10
12881.14956085775
 20
7615.200511710179
 30
0.0
 11
12881.64956085775
 21
7615.200511710179
 31
0.0
  0
LINE
  5
59977
330
1F
100
AcDbEntity
  8
DETAIL
370
     9
100
AcDbLine
 10
12851.14956085775
 20
7607.200511710179
 30
0.0
 11
12850.64956085775
 21
7607.200511710179
 31
0.0
  0
LINE
  5
59978
330
1F
100
AcDbEntity
  8
DETAIL
370
     9
100
AcDbLine
 10
12850.64956085775
 20
7607.200511710179
 30
0.0
 11
12850.64956085822
 21
7615.200511709716
 31
0.0
  0
LINE
  5
59979
330
1F
100
AcDbEntity
  8
DETAIL
370
     9
100
AcDbLine
 10
12851.14956085775
 20
7615.200511710179
 30
0.0
 11
12850.64956085775
 21
7615.200511710179
 31
0.0
  0
LINE
  5
5997A
330
1F
100
AcDbEntity
  8
DETAIL
370
     9
100
AcDbLine
 10
12859.14956085775
 20
7560.20051171018
 30
0.0
 11
12859.14956085729
 21
7562.789354444409
 31
0.0
  0
LINE
  5
5997B
330
1F
100
AcDbEntity
  8
DETAIL
370
     9
100
AcDbLine
 10
12873.14956085775
 20
7560.20051171018
 30
0.0
 11
12873.14956085775
 21
7562.789354444873
 31
0.0
  0
LINE
  5
5997C
330
1F
100
AcDbEntity
  8
DETAIL
370
     9
100
AcDbLine
 10
12872.14956085729
 20
7558.200511709713
 30
0.0
 11
12860.14956085775
 21
7558.20051171018
 31
0.0
  0
LINE
  5
5997D
330
1F
100
AcDbEntity
  8
DETAIL
370
     9
100
AcDbLine
 10
12859.14956085775
 20
7560.20051171018
 30
0.0
 11
12860.14956085775
 21
7560.20051171018
 31
0.0
  0
LINE
  5
5997E
330
1F
100
AcDbEntity
  8
DETAIL
370
     9
100
AcDbLine
 10
12860.14956085775
 20
7558.20051171018
 30
0.0
 11
12859.14956085775
 21
7560.20051171018
 31
0.0
  0
LINE
  5
5997F
330
1F
100
AcDbEntity
  8
DETAIL
370
     9
100
AcDbLine
 10
12872.14956085775
 20
7558.20051171018
 30
0.0
 11
12873.14956085775
 21
7560.20051171018
 31
0.0
  0
LINE
  5
59980
330
1F
100
AcDbEntity
  8
DETAIL
370
     9
100
AcDbLine
 10
12873.14956085775
 20
7560.20051171018
 30
0.0
 11
12859.14956085775
 21
7560.20051171018
 31
0.0
  0
LINE
  5
59981
330
1F
100
AcDbEntity
  8
DETAIL
370
     9
100
AcDbLine
 10
12873.14956085775
 20
7560.20051171018
 30
0.0
 11
12860.14956085775
 21
7558.20051171018
 31
0.0
  0
LINE
  5
59982
330
1F
100
AcDbEntity
  8
DETAIL
370
     9
100
AcDbLine
 10
12872.59499183502
 20
7562.789354510998
 30
0.0
 11
12859.59499183502
 21
7560.789354510998
 31
0.0
  0
LINE
  5
59983
330
1F
100
AcDbEntity
  8
DETAIL
370
     9
100
AcDbLine
 10
12873.14956085775
 20
7560.20051171018
 30
0.0
 11
12873.14956085775
 21
7562.20051171018
 31
0.0
  0
LINE
  5
59984
330
1F
100
AcDbEntity
  8
DETAIL
370
     9
100
AcDbLine
 10
12872.59498773627
 20
7576.700951562655
 30
0.0
 11
12859.59498773627
 21
7574.700951562656
 31
0.0
  0
LINE
  5
59985
330
1F
100
AcDbEntity
  8
DETAIL
370
     9
100
AcDbLine
 10
12872.59498773627
 20
7578.700951562656
 30
0.0
 11
12859.59498773627
 21
7576.700951562655
 31
0.0
  0
LINE
  5
59986
330
1F
100
AcDbEntity
  8
DETAIL
370
     9
100
AcDbLine
 10
12872.59498773627
 20
7580.700951562656
 30
0.0
 11
12859.59498773627
 21
7578.700951562656
 31
0.0
  0
LINE
  5
59987
330
1F
100
AcDbEntity
  8
DETAIL
370
     9
100
AcDbLine
 10
12872.59498773627
 20
7582.700951562656
 30
0.0
 11
12859.59498773627
 21
7580.700951562656
 31
0.0
  0
LINE
  5
59988
330
1F
100
AcDbEntity
  8
DETAIL
370
     9
100
AcDbLine
 10
12872.59498773627
 20
7584.700951562656
 30
0.0
 11
12859.59498773627
 21
7582.700951562656
 31
0.0
  0
LINE
  5
59989
330
1F
100
AcDbEntity
  8
DETAIL
370
     9
100
AcDbLine
 10
12872.59498773627
 20
7586.700951562656
 30
0.0
 11
12859.59498773627
 21
7584.700951562656
 31
0.0
  0
LINE
  5
5998A
330
1F
100
AcDbEntity
  8
DETAIL
370
     9
100
AcDbLine
 10
12826.49554742845
 20
7641.20051171018
 30
0.0
 11
12876.49554742845
 21
7641.20051171018
 31
0.0
  0
LINE
  5
5998B
330
1F
100
AcDbEntity
  8
DETAIL
370
     9
100
AcDbLine
 10
12893.64956085775
 20
7641.20051171018
 30
0.0
 11
12893.64956085775
 21
7611.20051171018
 31
0.0
  0
LINE
  5
5998C
330
1F
100
AcDbEntity
  8
DETAIL
370
     9
100
AcDbLine
 10
12893.64956085775
 20
7611.20051171018
 30
0.0
 11
12893.64956085775
 21
7591.20051171018
 31
0.0
  0
LINE
  5
5998D
330
1F
100
AcDbEntity
  8
DETAIL
370
     9
100
AcDbLine
 10
12893.64956085775
 20
7591.20051171018
 30
0.0
 11
12888.64956085775
 21
7591.20051171018
 31
0.0
  0
LINE
  5
5998E
330
1F
100
AcDbEntity
  8
DETAIL
370
     9
100
AcDbLine
 10
12888.64956085775
 20
7591.20051171018
 30
0.0
 11
12888.64956085775
 21
7636.20051171018
 31
0.0
  0
LINE
  5
5998F
330
1F
100
AcDbEntity
  8
DETAIL
370
     9
100
AcDbLine
 10
12871.49554742845
 20
7636.20051171018
 30
0.0
 11
12826.49554742845
 21
7636.20051171018
 31
0.0
  0
LINE
  5
59990
330
1F
100
AcDbEntity
  8
DETAIL
370
     9
100
AcDbLine
 10
12871.49554742845
 20
7636.20051171018
 30
0.0
 11
12888.64956085775
 21
7636.20051171018
 31
0.0
  0
LINE
  5
59991
330
1F
100
AcDbEntity
  8
DETAIL
370
     9
100
AcDbLine
 10
12876.49554742845
 20
7641.20051171018
 30
0.0
 11
12893.64956085775
 21
7641.20051171018
 31
0.0
  0
LINE
  5
59992
330
1F
100
AcDbEntity
  8
DETAIL
370
     9
100
AcDbLine
 10
12859.59498773627
 20
7572.789354444875
 30
0.0
 11
12921.99554742845
 21
7572.789354444875
 31
0.0
  0
LINE
  5
59993
330
1F
100
AcDbEntity
  8
DETAIL
370
     9
100
AcDbLine
 10
12921.99554742845
 20
7562.789354444873
 30
0.0
 11
12873.14956085775
 21
7562.789354444873
 31
0.0
  0
LINE
  5
59994
330
1F
100
AcDbEntity
  8
DETAIL
370
     9
100
AcDbLine
 10
12873.14956085775
 20
7562.789354444873
 30
0.0
 11
12859.59498773627
 21
7562.789354444873
 31
0.0
  0
LINE
  5
59995
330
1F
100
AcDbEntity
  8
DETAIL
370
     9
100
AcDbLine
 10
12859.59498773627
 20
7562.789354444873
 30
0.0
 11
12849.59498773627
 21
7562.789354444873
 31
0.0
  0
LINE
  5
59996
330
1F
100
AcDbEntity
  8
DETAIL
370
     9
100
AcDbLine
 10
12849.59498773627
 20
7562.789354444873
 30
0.0
 11
12849.59498773627
 21
7572.789354444875
 31
0.0
  0
LINE
  5
59997
330
1F
100
AcDbEntity
  8
DETAIL
370
     9
100
AcDbLine
 10
12849.59498773627
 20
7572.789354444875
 30
0.0
 11
12873.14956085775
 21
7572.789354444875
 31
0.0
  0
LINE
  5
59998
330
1F
100
AcDbEntity
  8
DETAIL
370
     9
100
AcDbLine
 10
12859.14956085729
 20
7572.789354444875
 30
0.0
 11
12859.14956085729
 21
7591.20051171018
 31
0.0
  0
LINE
  5
59999
330
1F
100
AcDbEntity
  8
DETAIL
370
     9
100
AcDbLine
 10
12873.14956085729
 20
7572.789354444875
 30
0.0
 11
12873.14956085729
 21
7591.20051171018
 31
0.0
  0
LINE
  5
5999A
330
1F
100
AcDbEntity
  8
DETAIL
370
     9
100
AcDbLine
 10
12872.59496222874
 20
7588.700943706951
 30
0.0
 11
12859.59496222874
 21
7586.70094370695
 31
0.0
  0
LINE
  5
5999B
330
1F
100
AcDbEntity
  8
DETAIL
370
     9
100
AcDbLine
 10
12872.59496222874
 20
7590.700943706949
 30
0.0
 11
12859.59496222874
 21
7588.700943706951
 31
0.0
  0
LINE
  5
5999C
330
1F
100
AcDbEntity
  8
DETAIL
370
     9
100
AcDbLine
 10
12872.59499254655
 20
7574.700052814951
 30
0.0
 11
12859.59499254655
 21
7572.700052814951
 31
0.0
  0
LINE
  5
5999D
330
1F
100
AcDbEntity
  8
DETAIL
370
     9
100
AcDbLine
 10
12826.49554742891
 20
7641.20051171018
 30
0.0
 11
12751.49554742845
 21
7641.20051171018
 31
0.0
  0
LINE
  5
5999E
330
1F
100
AcDbEntity
  8
DETAIL
370
     9
100
AcDbLine
 10
12826.49554742891
 20
7591.20051171018
 30
0.0
 11
12826.49554742891
 21
5802.200511711577
 31
0.0
  0
LINE
  5
5999F
330
1F
100
AcDbEntity
  8
DETAIL
370
     9
100
AcDbLine
 10
12751.49554742891
 20
7591.20051171018
 30
0.0
 11
12751.49554742984
 21
5802.200511711577
 31
0.0
  0
LINE
  5
599A0
330
1F
100
AcDbEntity
  8
DETAIL
370
     9
100
AcDbLine
 10
13138.99554742891
 20
5556.200511710644
 30
0.0
 11
13118.99554742891
 21
5556.200511710644
 31
0.0
  0
LINE
  5
599A1
330
1F
100
AcDbEntity
  8
DETAIL
370
     9
100
AcDbLine
 10
13138.99554742891
 20
5556.200511711111
 30
0.0
 11
13118.99554742891
 21
5556.20051171018
 31
0.0
  0
LINE
  5
599A2
330
1F
100
AcDbEntity
  8
APPLICATION
370
     9
100
AcDbLine
 10
13163.99554742891
 20
5541.200511711111
 30
0.0
 11
13163.99554742891
 21
5491.200511711111
 31
0.0
  0
LINE
  5
599A3
330
1F
100
AcDbEntity
  8
DETAIL
370
     9
100
AcDbLine
 10
12487.99554742891
 20
5556.200511711576
 30
0.0
 11
12655.99554742891
 21
5556.200511712042
 31
0.0
  0
LINE
  5
599A4
330
1F
100
AcDbEntity
  8
DETAIL
370
     9
100
AcDbLine
 10
12655.99554742891
 20
5556.200511712042
 30
0.0
 11
12704.99554742938
 21
5556.200511712042
 31
0.0
  0
LINE
  5
599A5
330
1F
100
AcDbEntity
  8
DETAIL
370
     9
100
AcDbLine
 10
12921.99554742891
 20
5556.200511711111
 30
0.0
 11
13089.99554742891
 21
5556.200511711111
 31
0.0
  0
LINE
  5
599A6
330
1F
100
AcDbEntity
  8
DETAIL
370
     9
100
AcDbLine
 10
12897.99554742891
 20
5556.200511711111
 30
0.0
 11
12917.99554742891
 21
5556.200511711111
 31
0.0
  0
LINE
  5
599A7
330
1F
100
AcDbEntity
  8
DETAIL
370
     9
100
AcDbLine
 10
12897.99554742891
 20
5556.200511710644
 30
0.0
 11
12872.99554742891
 21
5556.200511710644
 31
0.0
  0
LINE
  5
599A8
330
1F
100
AcDbEntity
  8
DETAIL
370
     9
100
AcDbLine
 10
12872.99554742891
 20
5556.200511710644
 30
0.0
 11
12892.99554742891
 21
5556.200511710644
 31
0.0
  0
LINE
  5
599A9
330
1F
100
AcDbEntity
  8
DETAIL
370
     9
100
AcDbLine
 10
12872.99554742891
 20
5556.200511711111
 30
0.0
 11
12892.99554742891
 21
5556.20051171018
 31
0.0
  0
LINE
  5
599AA
330
1F
100
AcDbEntity
  8
DETAIL
370
     9
100
AcDbLine
 10
12872.99554742891
 20
5556.200511710644
 30
0.0
 11
13138.99554742891
 21
5556.200511711111
 31
0.0
  0
LINE
  5
599AB
330
1F
100
AcDbEntity
  8
DETAIL
370
     9
100
AcDbLine
 10
12483.99554742891
 20
5556.200511711576
 30
0.0
 11
12487.99554742891
 21
5556.200511712042
 31
0.0
  0
LINE
  5
599AD
330
1F
100
AcDbEntity
  8
DETAIL
370
     9
100
AcDbLine
 10
12438.99554742891
 20
5556.200511711576
 30
0.0
 11
12566.49554742891
 21
5556.200511712042
 31
0.0
  0
LINE
  5
599AE
330
1F
100
AcDbEntity
  8
DETAIL
370
     9
100
AcDbLine
 10
12566.49554742891
 20
5556.200511712042
 30
0.0
 11
12566.49554742985
 21
7681.200511711577
 31
0.0
  0
LINE
  5
599AF
330
1F
100
AcDbEntity
  8
DETAIL
370
     9
100
AcDbLine
 10
13011.49554742891
 20
5556.200511712042
 30
0.0
 11
13011.49554742891
 21
7681.200511711111
 31
0.0
  0
LINE
  5
599B0
330
1F
100
AcDbEntity
  8
DETAIL
370
     9
100
AcDbLine
 10
12751.49554742891
 20
7591.200511710646
 30
0.0
 11
12751.49554742891
 21
7641.200511709714
 31
0.0
  0
LINE
  5
599B1
330
1F
100
AcDbEntity
  8
DETAIL
370
     9
100
AcDbLine
 10
12826.49554742891
 20
7591.20051171018
 30
0.0
 11
12826.49554742845
 21
7641.20051171018
 31
0.0
  0
LINE
  5
599B2
330
1F
100
AcDbEntity
  8
DETAIL
370
     9
100
AcDbLine
 10
12655.99554742891
 20
7691.200511711577
 30
0.0
 11
12921.99554742891
 21
7691.200511711577
 31
0.0
  0
LINE
  5
599B3
330
1F
100
AcDbEntity
  8
DETAIL
370
     9
100
AcDbLine
 10
12626.49554742891
 20
5556.200511712042
 30
0.0
 11
12626.49554742938
 21
7741.20051171111
 31
0.0
  0
LINE
  5
599B4
330
1F
100
AcDbEntity
  8
DETAIL
370
     9
100
AcDbLine
 10
12951.49554742891
 20
5556.200511712042
 30
0.0
 11
12951.49554742845
 21
7741.20051171111
 31
0.0
  0
LINE
  5
599B5
330
1F
100
AcDbEntity
  8
DETAIL
370
     9
100
AcDbLine
 10
12921.99554742845
 20
7572.789354444875
 30
0.0
 11
12951.49554742845
 21
7572.78935444534
 31
0.0
  0
LINE
  5
599B6
330
1F
100
AcDbEntity
  8
DETAIL
370
     9
100
AcDbLine
 10
12921.99554742845
 20
7562.789354444873
 30
0.0
 11
12951.49554742845
 21
7562.789354445341
 31
0.0
  0
LINE
  5
599B7
330
1F
100
AcDbEntity
  8
DETAIL
370
     9
100
AcDbLine
 10
12921.99554742891
 20
7691.200511711577
 30
0.0
 11
12951.49554742845
 21
7691.200511711577
 31
0.0
  0
LINE
  5
599B8
330
1F
100
AcDbEntity
  8
DETAIL
370
     9
100
AcDbLine
 10
12655.99554742891
 20
7691.200511711577
 30
0.0
 11
12626.49554742938
 21
7691.200511711577
 31
0.0
  0
LINE
  5
599B9
330
1F
100
AcDbEntity
  8
DETAIL
370
     9
100
AcDbLine
 10
12704.99554742938
 20
5556.200511712042
 30
0.0
 11
12872.99554742891
 21
5556.200511710644
 31
0.0
  0
LINE
  5
599BB
330
1F
100
AcDbEntity
  8
DETAIL
370
     9
100
AcDbLine
 10
12778.99554743078
 20
5671.200511712044
 30
0.0
 11
12778.99554742984
 21
5566.200511711577
 31
0.0
  0
LINE
  5
599BC
330
1F
100
AcDbEntity
  8
DETAIL
370
     9
100
AcDbLine
 10
12798.99554743031
 20
5671.200511711577
 30
0.0
 11
12798.99554742985
 21
5566.200511712043
 31
0.0
  0
LINE
  5
599BD
330
1F
100
AcDbEntity
  8
APPLICATION
370
     9
100
AcDbLine
 10
12413.99554742938
 20
4941.200511711111
 30
0.0
 11
13163.99554742891
 21
4941.200511711111
 31
0.0
  0
HATCH
  5
599BE
330
1F
100
AcDbEntity
  8
APPLICATION
370
     9
100
AcDbHatch
 10
0.0
 20
0.0
 30
0.0
210
0.0
220
0.0
230
1.0
  2
AR-CONC
 70
     0
 71
     0
 91
        1
 92
        7
 72
     0
 73
     1
 93
        9
 10
13163.99554742845
 20
5541.200511710645
 10
13138.99554742891
 20
5541.200511711111
 10
13113.99554742891
 20
5541.200511711111
 10
12798.99554742752
 20
5541.200511710179
 10
12778.99554743031
 20
5541.200511711111
 10
12438.99554742891
 20
5541.200511711111
 10
12413.99554742891
 20
5541.200511711111
 10
12413.99554742938
 20
4941.200511710645
 10
13163.99554742891
 20
4941.200511711577
 97
        0
 75
     0
 76
     1
 52
0.0
 41
2.0
 77
     0
 78
    13
 53
50.0
 43
-3138301.312665041
 44
-3878453.333924207
 45
364.369337992008
 46
-31.87817107780617
 79
     2
 49
38.1
 49
-419.1
 53
355.0
 43
-3138301.312665041
 44
-3878453.333924207
 45
-70.48565195133398
 46
382.11328576436
 79
     2
 49
30.48
 49
-335.28
 53
100.451
 43
-3138270.94866504
 44
-3878455.990424206
 45
293.8850033319185
 46
350.2333756405838
 79
     2
 49
32.38
 49
-356.18
 53
46.18419999999999
 43
-3138301.312665041
 44
-3878351.733924207
 45
542.1580817842598
 46
-84.0846558654543
 79
     2
 49
57.14999999999999
 49
-628.65
 53
96.63559999999996
 43
-3138256.13286504
 44
-3878358.740924206
 45
474.8084689324742
 46
494.8511117800983
 79
     2
 49
48.56999999999996
 49
-534.2699999999994
 53
351.184
 43
-3138301.312665041
 44
-3878351.733924207
 45
474.8092116278677
 46
494.8502357211952
 79
     2
 49
45.72
 49
-502.92
 53
21.0
 43
-3138250.51266504
 44
-3878377.133924205
 45
303.2297596707666
 46
-204.531037033525
 79
     2
 49
38.1
 49
-419.1
 53
326.0
 43
-3138250.51266504
 44
-3878377.133924205
 45
123.6040566952941
 46
368.3759322446385
 79
     2
 49
30.48
 49
-335.28
 53
71.45140000000002
 43
-3138225.24366504
 44
-3878394.178124206
 45
426.8329815402488
 46
163.8457154321149
 79
     2
 49
32.38
 49
-356.18
 53
37.5
 43
-3138301.312665041
 44
-3878453.333924207
 45
6.177206501183632
 46
169.1100777463062
 79
     6
 49
0.0
 49
-331.216
 49
0.0
 49
-340.36
 49
0.0
 49
-336.55
 53
7.499999999999999
 43
-3138301.312665041
 44
-3878453.333924207
 45
133.6393250206115
 46
200.361149636239
 79
     6
 49
0.0
 49
-194.0559999999999
 49
0.0
 49
-323.596
 49
0.0
 49
-128.27
 53
327.5
 43
-3138414.59666504
 44
-3878453.333924207
 45
271.1811903337427
 46
-11.45748798534693
 79
     6
 49
0.0
 49
-127.0
 49
0.0
 49
-396.24
 49
0.0
 49
-525.7799999999998
 53
317.5
 43
-3138465.39666504
 44
-3878453.333924207
 45
296.2583627720361
 46
50.85298206666603
 79
     6
 49
0.0
 49
-165.1
 49
0.0
 49
-263.144
 49
0.0
 49
-373.38
 47
10.68815662908184
 98
        1
 10
13011.22309825588
 20
5244.977175466644
  0
LINE
  5
599BF
330
1F
100
AcDbEntity
  8
DETAIL
370
     9
100
AcDbLine
 10
12626.49554742985
 20
7741.20051171111
 30
0.0
 11
12951.49554742798
 21
7741.20051171111
 31
0.0
  0
LINE
  5
599C0
330
1F
100
AcDbEntity
  8
APPLICATION
370
     9
100
AcDbLine
 10
13534.69001026842
 20
5541.200511711125
 30
0.0
 11
12043.3010845894
 21
5541.200511711111
 31
0.0
  0
HATCH
  5
599C1
330
1F
100
AcDbEntity
  8
APPLICATION
370
     9
100
AcDbHatch
 10
0.0
 20
0.0
 30
0.0
210
0.0
220
0.0
230
1.0
  2
ANSI31
 70
     0
 71
     0
 91
        1
 92
        7
 72
     0
 73
     1
 93
        5
 10
12413.99554742891
 20
5518.200511711111
 10
12413.99554742938
 20
5541.200511711111
 10
12043.3010845894
 20
5541.200511711111
 10
12043.3010845894
 20
5441.200511711111
 10
12413.99554742845
 20
5441.200511710645
 97
        0
 75
     0
 76
     1
 52
0.0
 41
30.0
 77
     0
 78
     1
 53
45.0
 43
-3139279.624893033
 44
-3878476.333924207
 45
-67.35192090801864
 46
67.35192090801866
 79
     0
 47
4.366887959295582
 98
        1
 10
12191.89837094741
 20
5483.550322740266
  0
HATCH
  5
599C2
330
1F
100
AcDbEntity
  8
APPLICATION
370
     9
100
AcDbHatch
 10
0.0
 20
0.0
 30
0.0
210
0.0
220
0.0
230
1.0
  2
ANSI31
 70
     0
 71
     0
 91
        1
 92
        7
 72
     0
 73
     1
 93
        5
 10
13534.69001026843
 20
5518.200511711111
 10
13534.69001026889
 20
5541.200511711111
 10
13163.99554742891
 20
5541.200511711111
 10
13163.99554742891
 20
5441.200511711111
 10
13534.69001026796
 20
5441.200511710645
 97
        0
 75
     0
 76
     1
 52
0.0
 41
30.0
 77
     0
 78
     1
 53
45.0
 43
-3138158.930430193
 44
-3878476.333924207
 45
-67.35192090801864
 46
67.35192090801866
 79
     0
 47
4.366887959295582
 98
        1
 10
13312.59283378692
 20
5483.550322740266
  0
LINE
  5
599C4
330
1F
100
AcDbEntity
  8
APPLICATION
370
     9
100
AcDbLine
 10
11891.83483021352
 20
5541.200511711111
 30
0.0
 11
10800.4459045345
 21
5541.200511711111
 31
0.0
  0
HATCH
  5
599C5
330
1F
100
AcDbEntity
  8
APPLICATION
370
     9
100
AcDbHatch
 10
0.0
 20
0.0
 30
0.0
210
0.0
220
0.0
230
1.0
  2
ANSI31
 70
     0
 71
     0
 91
        1
 92
        7
 72
     0
 73
     1
 93
        5
 10
11171.14036737401
 20
5518.200511711111
 10
11171.14036737448
 20
5541.200511711111
 10
10800.4459045345
 20
5541.200511711111
 10
10800.4459045345
 20
5441.200511711111
 10
11171.14036737355
 20
5441.200511710645
 97
        0
 75
     0
 76
     1
 52
0.0
 41
30.0
 77
     0
 78
     1
 53
45.0
 43
-3140522.480073087
 44
-3878476.333924207
 45
-67.35192090801864
 46
67.35192090801866
 79
     0
 47
4.366887959295582
 98
        1
 10
10949.04319089251
 20
5483.550322740266
  0
HATCH
  5
599C6
330
1F
100
AcDbEntity
  8
APPLICATION
370
     9
100
AcDbHatch
 10
0.0
 20
0.0
 30
0.0
210
0.0
220
0.0
230
1.0
  2
ANSI31
 70
     0
 71
     0
 91
        1
 92
        7
 72
     0
 73
     1
 93
        5
 10
11891.83483021353
 20
5518.200511711111
 10
11891.83483021399
 20
5541.200511711111
 10
11521.14036737401
 20
5541.200511711111
 10
11521.14036737401
 20
5441.200511711111
 10
11891.83483021306
 20
5441.200511710645
 97
        0
 75
     0
 76
     1
 52
0.0
 41
30.0
 77
     0
 78
     1
 53
45.0
 43
-3139801.785610247
 44
-3878476.333924207
 45
-67.35192090801864
 46
67.35192090801866
 79
     0
 47
4.366887959295582
 98
        1
 10
11669.73765373202
 20
5483.550322740266
  0
LINE
  5
599C8
330
1F
100
AcDbEntity
  8
DETAIL
370
     9
100
AcDbLine
 10
12685.49554742891
 20
5606.200511712508
 30
0.0
 11
12685.49554742985
 21
7691.200511711577
 31
0.0
  0
LINE
  5
599C9
330
1F
100
AcDbEntity
  8
DETAIL
370
     9
100
AcDbLine
 10
12892.49554742938
 20
5606.200511711112
 30
0.0
 11
12892.49554742798
 21
7562.789354444873
 31
0.0
  0
LINE
  5
599CA
330
1F
100
AcDbEntity
  8
DETAIL
370
     9
100
AcDbLine
 10
12626.49554742891
 20
5606.200511712972
 30
0.0
 11
12685.49554742891
 21
5606.200511712508
 31
0.0
  0
LINE
  5
599CB
330
1F
100
AcDbEntity
  8
DETAIL
370
     9
100
AcDbLine
 10
12892.49554742891
 20
5606.200511710646
 30
0.0
 11
12951.49554742845
 21
5606.200511710646
 31
0.0
  0
LINE
  5
599CC
330
1F
100
AcDbEntity
  8
DETAIL
370
     9
100
AcDbLine
 10
12655.99554742938
 20
5566.200511712509
 30
0.0
 11
12921.99554742845
 21
5566.200511710644
 31
0.0
  0
LINE
  5
599CD
330
1F
100
AcDbEntity
  8
DETAIL
370
     9
100
AcDbLine
 10
12655.99554742938
 20
5566.200511712974
 30
0.0
 11
12655.99554742845
 21
5556.200511712042
 31
0.0
  0
LINE
  5
599CE
330
1F
100
AcDbEntity
  8
DETAIL
370
     9
100
AcDbLine
 10
12921.99554742891
 20
5566.200511711111
 30
0.0
 11
12921.99554742891
 21
5556.200511710644
 31
0.0
  0
LINE
  5
599CF
330
1F
100
AcDbEntity
  8
DETAIL
370
     9
100
AcDbLine
 10
12680.99554742938
 20
5566.200511712974
 30
0.0
 11
12700.99554742938
 21
5566.200511712974
 31
0.0
  0
LINE
  5
599D0
330
1F
100
AcDbEntity
  8
DETAIL
370
     9
100
AcDbLine
 10
12675.99554742938
 20
5566.200511712974
 30
0.0
 11
12675.99554742938
 21
5576.200511712974
 31
0.0
  0
LINE
  5
599D1
330
1F
100
AcDbEntity
  8
DETAIL
370
     9
100
AcDbLine
 10
12675.99554742938
 20
5576.200511712974
 30
0.0
 11
12695.99554742938
 21
5576.200511712974
 31
0.0
  0
LINE
  5
599D2
330
1F
100
AcDbEntity
  8
DETAIL
370
     9
100
AcDbLine
 10
12695.99554742938
 20
5576.200511712974
 30
0.0
 11
12695.99554742938
 21
5566.200511712974
 31
0.0
  0
LINE
  5
599D3
330
1F
100
AcDbEntity
  8
DETAIL
370
     9
100
AcDbLine
 10
12700.99554742938
 20
5566.200511712974
 30
0.0
 11
12704.99554742938
 21
5566.200511713438
 31
0.0
  0
LINE
  5
599D4
330
1F
100
AcDbEntity
  8
DETAIL
370
     9
100
AcDbLine
 10
12896.99554742892
 20
5566.200511711111
 30
0.0
 11
12876.99554742891
 21
5566.200511711111
 31
0.0
  0
LINE
  5
599D5
330
1F
100
AcDbEntity
  8
DETAIL
370
     9
100
AcDbLine
 10
12901.99554742891
 20
5566.200511711111
 30
0.0
 11
12901.99554742891
 21
5576.200511711111
 31
0.0
  0
LINE
  5
599D6
330
1F
100
AcDbEntity
  8
DETAIL
370
     9
100
AcDbLine
 10
12901.99554742891
 20
5576.200511711111
 30
0.0
 11
12881.99554742891
 21
5576.200511711111
 31
0.0
  0
LINE
  5
599D7
330
1F
100
AcDbEntity
  8
DETAIL
370
     9
100
AcDbLine
 10
12881.99554742891
 20
5576.200511711111
 30
0.0
 11
12881.99554742891
 21
5566.200511710644
 31
0.0
  0
HATCH
  5
599D8
330
1F
100
AcDbEntity
  8
APPLICATION
370
     9
100
AcDbHatch
 10
0.0
 20
0.0
 30
0.0
210
0.0
220
0.0
230
1.0
  2
ANSI31
 70
     0
 71
     0
 91
        1
 92
        7
 72
     0
 73
     1
 93
        5
 10
10056.05183742168
 20
5518.200511711111
 10
10056.05183742214
 20
5541.200511711111
 10
9685.357374582165
 20
5541.200511711111
 10
9685.357374582165
 20
5441.200511711111
 10
10056.05183742121
 20
5441.200511710645
 97
        0
 75
     0
 76
     1
 52
0.0
 41
30.0
 77
     0
 78
     1
 53
45.0
 43
-3141637.568603039
 44
-3878476.333924207
 45
-67.35192090801864
 46
67.35192090801866
 79
     0
 47
4.366887959295582
 98
        1
 10
9833.954660940175
 20
5483.550322740266
  0
HATCH
  5
599D9
330
1F
100
AcDbEntity
  8
APPLICATION
370
     9
100
AcDbHatch
 10
0.0
 20
0.0
 30
0.0
210
0.0
220
0.0
230
1.0
  2
ANSI31
 70
     0
 71
     0
 91
        1
 92
        7
 72
     0
 73
     1
 93
        5
 10
759.203737542688
 20
5518.200511711111
 10
759.2037375431536
 20
5541.200511711111
 10
388.509274703174
 20
5541.200511711111
 10
388.509274703174
 20
5441.200511711111
 10
759.2037375422222
 20
5441.200511710645
 97
        0
 75
     0
 76
     1
 52
0.0
 41
30.0
 77
     0
 78
     1
 53
45.0
 43
-3150934.416702918
 44
-3878476.333924207
 45
-67.35192090801864
 46
67.35192090801866
 79
     0
 47
4.366887959295582
 98
        1
 10
537.106561061184
 20
5483.550322740266
  0
HATCH
  5
599DA
330
1F
100
AcDbEntity
  8
APPLICATION
370
     9
100
AcDbHatch
 10
0.0
 20
0.0
 30
0.0
210
0.0
220
0.0
230
1.0
  2
ANSI31
 70
     0
 71
     0
 91
        1
 92
        7
 72
     0
 73
     1
 93
        5
 10
3360.773719602454
 20
5541.200511711111
 10
1259.203737542688
 20
5541.200511710645
 10
1259.203737542688
 20
5441.20051171018
 10
6996.485537468645
 20
5441.200511709714
 10
6996.485537468645
 20
5541.200511711577
 97
        0
 75
     0
 76
     1
 52
0.0
 41
30.0
 77
     0
 78
     1
 53
45.0
 43
-3138301.312665041
 44
-3878453.333924207
 45
-67.35192090801864
 46
67.35192090801866
 79
     0
 47
10.12347927176345
 98
        1
 10
3734.37226247201
 20
5496.975377759358
  0
CIRCLE
  5
599DB
330
1F
100
AcDbEntity
  8
DETAIL
370
    25
100
AcDbCircle
 10
7141.485527312106
 20
2913.160339259936
 30
0.0
 40
10.0
  0
CIRCLE
  5
599DC
330
1F
100
AcDbEntity
  8
DETAIL
370
    25
100
AcDbCircle
 10
7551.485527312107
 20
2913.160339259936
 30
0.0
 40
10.0
  0
CIRCLE
  5
599DD
330
1F
100
AcDbEntity
  8
DETAIL
370
    25
100
AcDbCircle
 10
7141.485527312106
 20
3053.160339260867
 30
0.0
 40
10.0
  0
CIRCLE
  5
599DE
330
1F
100
AcDbEntity
  8
DETAIL
370
    25
100
AcDbCircle
 10
7551.48552731257
 20
3053.160339260401
 30
0.0
 40
10.0
  0
CIRCLE
  5
599DF
330
1F
100
AcDbEntity
  8
DETAIL
370
    25
100
AcDbCircle
 10
9191.485543487315
 20
2913.160339259936
 30
0.0
 40
10.0
  0
CIRCLE
  5
599E0
330
1F
100
AcDbEntity
  8
DETAIL
370
    25
100
AcDbCircle
 10
9601.485543487315
 20
2913.160339259936
 30
0.0
 40
10.0
  0
CIRCLE
  5
599E1
330
1F
100
AcDbEntity
  8
DETAIL
370
    25
100
AcDbCircle
 10
9191.485543487315
 20
3053.160339260867
 30
0.0
 40
10.0
  0
CIRCLE
  5
599E2
330
1F
100
AcDbEntity
  8
DETAIL
370
    25
100
AcDbCircle
 10
9601.485543487784
 20
3053.160339260401
 30
0.0
 40
10.0
  0
LINE
  5
599E3
330
1F
100
AcDbEntity
  8
DETAIL
370
    25
100
AcDbLine
 10
7406.485537468644
 20
5556.200511711576
 30
0.0
 11
7406.485537468644
 21
7731.200511712042
 31
0.0
  0
LINE
  5
599E4
330
1F
100
AcDbEntity
  8
DETAIL
370
    25
100
AcDbLine
 10
8736.485537468645
 20
5556.200511711576
 30
0.0
 11
8736.485537468645
 21
7731.200511712042
 31
0.0
  0
LINE
  5
599E5
330
1F
100
AcDbEntity
  8
DETAIL
370
     9
100
AcDbLine
 10
7406.485537467247
 20
7618.109840303121
 30
0.0
 11
8736.485537467249
 21
7618.109840304518
 31
0.0
  0
LINE
  5
599E6
330
1F
100
AcDbEntity
  8
DETAIL
370
     9
100
AcDbLine
 10
7406.485537467247
 20
7568.109840303121
 30
0.0
 11
8736.485537467249
 21
7568.109840304519
 31
0.0
  0
LINE
  5
599E7
330
1F
100
AcDbEntity
  8
DETAIL
370
    25
100
AcDbLine
 10
7456.485537468179
 20
5671.45702728482
 30
0.0
 11
7456.485537468179
 21
7618.109840303121
 31
0.0
  0
LINE
  5
599E8
330
1F
100
AcDbEntity
  8
DETAIL
370
    25
100
AcDbLine
 10
7506.485537468645
 20
5671.45702728482
 30
0.0
 11
7506.485537468178
 21
7618.109840303121
 31
0.0
  0
LINE
  5
599E9
330
1F
100
AcDbEntity
  8
DETAIL
370
     9
100
AcDbLine
 10
7406.485537467247
 20
7518.109840303123
 30
0.0
 11
8736.485537467249
 21
7518.109840304518
 31
0.0
  0
LINE
  5
599EA
330
1F
100
AcDbEntity
  8
DETAIL
370
    25
100
AcDbLine
 10
7556.485537468645
 20
5671.45702728482
 30
0.0
 11
7556.48553746818
 21
7618.109840303121
 31
0.0
  0
LINE
  5
599EB
330
1F
100
AcDbEntity
  8
DETAIL
370
     9
100
AcDbLine
 10
7406.485537467247
 20
7468.109840303121
 30
0.0
 11
8736.485537467249
 21
7468.109840304518
 31
0.0
  0
LINE
  5
599EC
330
1F
100
AcDbEntity
  8
DETAIL
370
    25
100
AcDbLine
 10
7606.485537469577
 20
5671.457027285754
 30
0.0
 11
7606.485537469112
 21
7618.109840303121
 31
0.0
  0
LINE
  5
599ED
330
1F
100
AcDbEntity
  8
DETAIL
370
    25
100
AcDbLine
 10
7656.485537469577
 20
5671.457027285754
 30
0.0
 11
7656.485537469109
 21
7618.109840303121
 31
0.0
  0
LINE
  5
599EE
330
1F
100
AcDbEntity
  8
DETAIL
370
    25
100
AcDbLine
 10
7706.485537469109
 20
5671.457027285754
 30
0.0
 11
7706.485537469109
 21
7618.109840303121
 31
0.0
  0
LINE
  5
599EF
330
1F
100
AcDbEntity
  8
DETAIL
370
    25
100
AcDbLine
 10
7756.485537468645
 20
5671.457027285754
 30
0.0
 11
7756.485537468645
 21
7618.109840303121
 31
0.0
  0
LINE
  5
599F0
330
1F
100
AcDbEntity
  8
DETAIL
370
    25
100
AcDbLine
 10
7806.485537469112
 20
5671.457027285754
 30
0.0
 11
7806.485537468645
 21
7618.109840303121
 31
0.0
  0
LINE
  5
599F1
330
1F
100
AcDbEntity
  8
DETAIL
370
    25
100
AcDbLine
 10
7856.485537469112
 20
5671.457027285754
 30
0.0
 11
7856.485537468644
 21
7618.109840303121
 31
0.0
  0
LINE
  5
599F2
330
1F
100
AcDbEntity
  8
DETAIL
370
    25
100
AcDbLine
 10
7906.485537469577
 20
5671.457027285754
 30
0.0
 11
7906.485537469577
 21
7618.109840303121
 31
0.0
  0
LINE
  5
599F3
330
1F
100
AcDbEntity
  8
DETAIL
370
    25
100
AcDbLine
 10
7956.485537470041
 20
5671.457027285754
 30
0.0
 11
7956.485537469577
 21
7618.109840303121
 31
0.0
  0
LINE
  5
599F4
330
1F
100
AcDbEntity
  8
DETAIL
370
    25
100
AcDbLine
 10
8006.485537470041
 20
5671.457027285754
 30
0.0
 11
8006.485537469577
 21
7618.109840303121
 31
0.0
  0
LINE
  5
599F5
330
1F
100
AcDbEntity
  8
DETAIL
370
    25
100
AcDbLine
 10
8106.485537469577
 20
5671.457027285754
 30
0.0
 11
8106.48553746911
 21
7618.109840303588
 31
0.0
  0
LINE
  5
599F6
330
1F
100
AcDbEntity
  8
DETAIL
370
    25
100
AcDbLine
 10
8156.485537469576
 20
5671.457027285754
 30
0.0
 11
8156.485537469109
 21
7618.109840303588
 31
0.0
  0
LINE
  5
599F7
330
1F
100
AcDbEntity
  8
DETAIL
370
    25
100
AcDbLine
 10
8206.485537470506
 20
5671.457027285754
 30
0.0
 11
8206.485537470042
 21
7618.109840303588
 31
0.0
  0
LINE
  5
599F8
330
1F
100
AcDbEntity
  8
DETAIL
370
    25
100
AcDbLine
 10
8256.485537470508
 20
5671.457027286218
 30
0.0
 11
8256.485537470041
 21
7618.109840303588
 31
0.0
  0
LINE
  5
599F9
330
1F
100
AcDbEntity
  8
DETAIL
370
    25
100
AcDbLine
 10
8306.485537470505
 20
5671.457027286218
 30
0.0
 11
8306.485537470042
 21
7618.109840303588
 31
0.0
  0
LINE
  5
599FA
330
1F
100
AcDbEntity
  8
DETAIL
370
    25
100
AcDbLine
 10
8356.485537470041
 20
5671.457027286218
 30
0.0
 11
8356.485537469577
 21
7618.109840303588
 31
0.0
  0
LINE
  5
599FB
330
1F
100
AcDbEntity
  8
DETAIL
370
    25
100
AcDbLine
 10
8406.485537469576
 20
5671.457027286218
 30
0.0
 11
8406.485537469576
 21
7618.109840303588
 31
0.0
  0
LINE
  5
599FC
330
1F
100
AcDbEntity
  8
DETAIL
370
    25
100
AcDbLine
 10
8456.485537469577
 20
5671.457027286218
 30
0.0
 11
8456.485537469577
 21
7618.109840303588
 31
0.0
  0
LINE
  5
599FD
330
1F
100
AcDbEntity
  8
DETAIL
370
    25
100
AcDbLine
 10
8506.485537470974
 20
5671.457027286218
 30
0.0
 11
8506.485537470508
 21
7618.109840303588
 31
0.0
  0
LINE
  5
599FE
330
1F
100
AcDbEntity
  8
DETAIL
370
    25
100
AcDbLine
 10
8556.485537470974
 20
5671.457027286218
 30
0.0
 11
8556.485537470505
 21
7618.109840303588
 31
0.0
  0
LINE
  5
599FF
330
1F
100
AcDbEntity
  8
DETAIL
370
    25
100
AcDbLine
 10
8606.485537470973
 20
5671.457027286218
 30
0.0
 11
8606.485537470508
 21
7618.109840303588
 31
0.0
  0
LINE
  5
59A00
330
1F
100
AcDbEntity
  8
DETAIL
370
    25
100
AcDbLine
 10
8056.485537469113
 20
5671.457027285754
 30
0.0
 11
8056.485537469113
 21
7618.109840303588
 31
0.0
  0
LINE
  5
59A01
330
1F
100
AcDbEntity
  8
DETAIL
370
    25
100
AcDbLine
 10
8656.485537470974
 20
5671.457027286218
 30
0.0
 11
8656.485537470507
 21
7618.109840304518
 31
0.0
  0
LINE
  5
59A02
330
1F
100
AcDbEntity
  8
DETAIL
370
    25
100
AcDbLine
 10
8706.485537470973
 20
5671.457027286218
 30
0.0
 11
8706.485537470506
 21
7618.109840304518
 31
0.0
  0
LINE
  5
59A03
330
1F
100
AcDbEntity
  8
DETAIL
370
     9
100
AcDbLine
 10
7406.485537467247
 20
7418.109840303121
 30
0.0
 11
8736.485537467249
 21
7418.109840304518
 31
0.0
  0
LINE
  5
59A04
330
1F
100
AcDbEntity
  8
DETAIL
370
     9
100
AcDbLine
 10
7406.485537467247
 20
7368.109840303121
 30
0.0
 11
8736.485537467249
 21
7368.109840304518
 31
0.0
  0
LINE
  5
59A05
330
1F
100
AcDbEntity
  8
DETAIL
370
     9
100
AcDbLine
 10
7406.485537467247
 20
7318.109840303121
 30
0.0
 11
8736.485537467249
 21
7318.109840304519
 31
0.0
  0
LINE
  5
59A06
330
1F
100
AcDbEntity
  8
DETAIL
370
     9
100
AcDbLine
 10
7406.485537467247
 20
7268.109840303123
 30
0.0
 11
8736.485537467249
 21
7268.109840304518
 31
0.0
  0
LINE
  5
59A07
330
1F
100
AcDbEntity
  8
DETAIL
370
     9
100
AcDbLine
 10
7406.485537467247
 20
7218.109840303121
 30
0.0
 11
8736.485537467249
 21
7218.109840304518
 31
0.0
  0
LINE
  5
59A08
330
1F
100
AcDbEntity
  8
Wheels
 62
     6
370
    25
100
AcDbLine
 10
7292.310537468366
 20
5654.049950797503
 30
0.0
 11
7392.310537468365
 21
5654.049950797503
 31
0.0
  0
LINE
  5
59A09
330
1F
100
AcDbEntity
  8
DETAIL
370
     9
100
AcDbLine
 10
7406.485537468644
 20
7168.109840303121
 30
0.0
 11
8736.485537468645
 21
7168.109840304518
 31
0.0
  0
LINE
  5
59A0A
330
1F
100
AcDbEntity
  8
DETAIL
370
     9
100
AcDbLine
 10
7406.485537468644
 20
7118.109840303121
 30
0.0
 11
8736.485537468645
 21
7118.109840304518
 31
0.0
  0
LINE
  5
59A0B
330
1F
100
AcDbEntity
  8
DETAIL
370
     9
100
AcDbLine
 10
7406.485537468644
 20
7068.109840303121
 30
0.0
 11
8736.485537468645
 21
7068.109840304519
 31
0.0
  0
LINE
  5
59A0C
330
1F
100
AcDbEntity
  8
DETAIL
370
     9
100
AcDbLine
 10
7406.485537468644
 20
7018.109840303123
 30
0.0
 11
8736.485537468645
 21
7018.109840304518
 31
0.0
  0
LINE
  5
59A0D
330
1F
100
AcDbEntity
  8
DETAIL
370
     9
100
AcDbLine
 10
7406.485537468644
 20
6968.109840303121
 30
0.0
 11
8736.485537468645
 21
6968.109840304518
 31
0.0
  0
LINE
  5
59A0E
330
1F
100
AcDbEntity
  8
DETAIL
370
     9
100
AcDbLine
 10
7406.485537468644
 20
6918.109840303121
 30
0.0
 11
8736.485537468645
 21
6918.109840304518
 31
0.0
  0
LINE
  5
59A0F
330
1F
100
AcDbEntity
  8
DETAIL
370
     9
100
AcDbLine
 10
7406.485537468644
 20
6868.109840303121
 30
0.0
 11
8736.485537468645
 21
6868.109840304518
 31
0.0
  0
LINE
  5
59A10
330
1F
100
AcDbEntity
  8
DETAIL
370
     9
100
AcDbLine
 10
7406.485537468644
 20
6818.109840303121
 30
0.0
 11
8736.485537468645
 21
6818.109840304519
 31
0.0
  0
LINE
  5
59A11
330
1F
100
AcDbEntity
  8
DETAIL
370
     9
100
AcDbLine
 10
7406.485537468644
 20
6768.109840303123
 30
0.0
 11
8736.485537468645
 21
6768.109840304518
 31
0.0
  0
LINE
  5
59A12
330
1F
100
AcDbEntity
  8
DETAIL
370
     9
100
AcDbLine
 10
7406.485537468644
 20
6718.109840303121
 30
0.0
 11
8736.485537468645
 21
6718.109840304518
 31
0.0
  0
LINE
  5
59A13
330
1F
100
AcDbEntity
  8
DETAIL
370
     9
100
AcDbLine
 10
7406.485537468644
 20
6668.109840303121
 30
0.0
 11
8736.485537468645
 21
6668.109840304518
 31
0.0
  0
LINE
  5
59A14
330
1F
100
AcDbEntity
  8
DETAIL
370
     9
100
AcDbLine
 10
7406.485537468644
 20
6618.109840303121
 30
0.0
 11
8736.485537468645
 21
6618.109840304518
 31
0.0
  0
LINE
  5
59A15
330
1F
100
AcDbEntity
  8
DETAIL
370
     9
100
AcDbLine
 10
7406.485537468644
 20
6568.109840303121
 30
0.0
 11
8736.485537468645
 21
6568.109840304519
 31
0.0
  0
LINE
  5
59A16
330
1F
100
AcDbEntity
  8
DETAIL
370
     9
100
AcDbLine
 10
7406.485537468644
 20
6518.109840303123
 30
0.0
 11
8736.485537468645
 21
6518.109840304518
 31
0.0
  0
LINE
  5
59A17
330
1F
100
AcDbEntity
  8
DETAIL
370
     9
100
AcDbLine
 10
7406.485537468644
 20
6468.109840303121
 30
0.0
 11
8736.485537468645
 21
6468.109840304518
 31
0.0
  0
LINE
  5
59A18
330
1F
100
AcDbEntity
  8
DETAIL
370
     9
100
AcDbLine
 10
7406.485537468644
 20
6418.109840303121
 30
0.0
 11
8736.485537468645
 21
6418.109840304518
 31
0.0
  0
LINE
  5
59A19
330
1F
100
AcDbEntity
  8
DETAIL
370
     9
100
AcDbLine
 10
7406.485537468644
 20
6368.109840303121
 30
0.0
 11
8736.485537468645
 21
6368.109840304518
 31
0.0
  0
LINE
  5
59A1A
330
1F
100
AcDbEntity
  8
DETAIL
370
     9
100
AcDbLine
 10
7406.485537468644
 20
6318.109840303121
 30
0.0
 11
8736.485537468645
 21
6318.109840304519
 31
0.0
  0
LINE
  5
59A1B
330
1F
100
AcDbEntity
  8
DETAIL
370
     9
100
AcDbLine
 10
7406.485537468644
 20
6268.109840303123
 30
0.0
 11
8736.485537468645
 21
6268.109840304518
 31
0.0
  0
LINE
  5
59A1C
330
1F
100
AcDbEntity
  8
DETAIL
370
     9
100
AcDbLine
 10
7406.485537468644
 20
6218.109840303121
 30
0.0
 11
8736.485537468645
 21
6218.109840304518
 31
0.0
  0
LINE
  5
59A1D
330
1F
100
AcDbEntity
  8
DETAIL
370
     9
100
AcDbLine
 10
7406.485537468644
 20
6168.109840303121
 30
0.0
 11
8736.485537468645
 21
6168.109840304518
 31
0.0
  0
LINE
  5
59A1E
330
1F
100
AcDbEntity
  8
DETAIL
370
     9
100
AcDbLine
 10
7406.485537468644
 20
6118.109840303121
 30
0.0
 11
8736.485537468645
 21
6118.109840304518
 31
0.0
  0
LINE
  5
59A1F
330
1F
100
AcDbEntity
  8
DETAIL
370
     9
100
AcDbLine
 10
7406.485537468644
 20
6068.109840303121
 30
0.0
 11
8736.485537468645
 21
6068.109840304519
 31
0.0
  0
LINE
  5
59A20
330
1F
100
AcDbEntity
  8
DETAIL
370
     9
100
AcDbLine
 10
7406.485537468644
 20
6018.109840303123
 30
0.0
 11
8736.485537468645
 21
6018.109840304518
 31
0.0
  0
LINE
  5
59A21
330
1F
100
AcDbEntity
  8
DETAIL
370
     9
100
AcDbLine
 10
7406.485537468644
 20
5968.109840303121
 30
0.0
 11
8736.485537468645
 21
5968.109840304518
 31
0.0
  0
LINE
  5
59A22
330
1F
100
AcDbEntity
  8
DETAIL
370
     9
100
AcDbLine
 10
7406.485537468644
 20
5918.109840303121
 30
0.0
 11
8736.485537468645
 21
5918.109840304518
 31
0.0
  0
LINE
  5
59A23
330
1F
100
AcDbEntity
  8
DETAIL
370
     9
100
AcDbLine
 10
7406.485537468644
 20
5868.109840303121
 30
0.0
 11
8736.485537468645
 21
5868.109840304518
 31
0.0
  0
LINE
  5
59A24
330
1F
100
AcDbEntity
  8
DETAIL
370
     9
100
AcDbLine
 10
7406.485537468644
 20
5818.109840303121
 30
0.0
 11
8736.485537468645
 21
5818.109840304519
 31
0.0
  0
LINE
  5
59A25
330
1F
100
AcDbEntity
  8
DETAIL
370
     9
100
AcDbLine
 10
7406.485537468644
 20
5768.109840303123
 30
0.0
 11
8736.485537468645
 21
5768.109840304518
 31
0.0
  0
LINE
  5
59A26
330
1F
100
AcDbEntity
  8
DETAIL
370
     9
100
AcDbLine
 10
7406.485537468644
 20
5718.109840303121
 30
0.0
 11
8736.485537468645
 21
5718.109840304518
 31
0.0
  0
LINE
  5
59A27
330
1F
100
AcDbEntity
  8
DETAIL
370
     9
100
AcDbLine
 10
7406.485537468644
 20
5668.109840303121
 30
0.0
 11
8736.485537468645
 21
5668.109840304518
 31
0.0
  0
LINE
  5
59A28
330
1F
100
AcDbEntity
  8
DETAIL
370
     9
100
AcDbLine
 10
7406.485537468644
 20
5618.109840303121
 30
0.0
 11
8736.485537468645
 21
5618.109840304518
 31
0.0
  0
LINE
  5
59A29
330
1F
100
AcDbEntity
  8
DETAIL
370
     9
100
AcDbLine
 10
12566.49554742938
 20
7681.200511711111
 30
0.0
 11
12626.49554742938
 21
7741.20051171111
 31
0.0
  0
LINE
  5
59A2A
330
1F
100
AcDbEntity
  8
DETAIL
370
     9
100
AcDbLine
 10
12951.49554742845
 20
7741.20051171111
 30
0.0
 11
13011.49554742845
 21
7681.200511711111
 31
0.0
  0
LINE
  5
59A2B
330
1F
100
AcDbEntity
  8
DETAIL
370
     9
100
AcDbLine
 10
8856.485537468643
 20
7681.200511711111
 30
0.0
 11
8736.485537468645
 21
7681.200511711111
 31
0.0
  0
LINE
  5
59A2C
330
1F
100
AcDbEntity
  8
DETAIL
370
     9
100
AcDbLine
 10
7406.485537468644
 20
7681.200511711111
 30
0.0
 11
7286.485537468646
 21
7681.200511711111
 31
0.0
  0
LINE
  5
59AB7
330
1F
100
AcDbEntity
  8
DETAIL
370
    25
100
AcDbLine
 10
1069.203737542688
 20
7681.200511712042
 30
0.0
 11
949.203737542688
 21
7681.200511712042
 31
0.0
  0
MTEXT
  5
59ADC
102
{ACAD_XDICTIONARY
360
59BB3
102
}
330
1F
100
AcDbEntity
  8
TEXT
100
AcDbMText
 10
7170.894591899577
 20
694.7764856870926
 30
0.0
 40
100.0
 41
3177.87997086287
 46
0.0
 71
     2
 72
     5
  1
PROCTER SLIDING GATES\PPRO-GLIDE SERIES 10\PWELDED MESH CANTILEVER GATE 
  7
fastrack
 73
     1
 44
1.0
  0
VIEWPORT
  5
348E6
330
348E5
100
AcDbEntity
 67
     1
  8
0
370
     9
348
34998
100
AcDbViewport
 10
207.642121340168
 20
153.063152298492
 30
0.0
 40
632.3261207793751
 41
275.7983132320672
 68
     2
 69
     1
 12
207.642121340168
 22
153.063152298492
 13
0.0
 23
0.0
 14
10.0
 24
10.0
 15
10.0
 25
10.0
 16
0.0
 26
0.0
 36
1.0
 17
0.0
 27
0.0
 37
0.0
 42
50.0
 43
0.0
 44
0.0
 45
275.7983132320672
 50
0.0
 51
0.0
 72
   100
 90
    32800
  1

281
     0
 71
     1
 74
     0
110
0.0
120
0.0
130
0.0
111
1.0
121
0.0
131
0.0
112
0.0
122
1.0
132
0.0
 79
     0
146
0.0
170
     0
 61
     5
348
34998
292
     1
282
     1
141
0.0
142
0.0
 63
   250
421
  3355443
  0
MTEXT
  5
38F50
330
348E5
100
AcDbEntity
 67
     1
  8
0
370
     9
100
AcDbMText
 10
338.9939982565306
 20
101.5551677233979
 30
0.0
 40
2.5
 41
60.34559999999999
 46
0.0
 71
     1
 72
     5
  1

 73
     1
 44
1.0
  0
VIEWPORT
  5
59C06
102
{ACAD_XDICTIONARY
360
59C07
102
}
330
348E5
100
AcDbEntity
 67
     1
  8
0
 48
50.0
370
     5
100
AcDbViewport
 10
207.6448447392177
 20
153.0628404526393
 30
0.0
 40
411.7714440610975
 41
273.8005105675887
 68
     1
 69
     2
 12
7170.539810234453
 22
4252.636041031154
 13
0.0
 23
0.0
 14
10.0
 24
10.0
 15
10.0
 25
10.0
 16
0.0
 26
0.0
 36
1.0
 17
0.0
 27
0.0
 37
0.0
 42
50.0
 43
0.0
 44
0.0
 45
9063.075064345659
 50
0.0
 51
0.0
 72
   100
 90
   827456
  1

281
     0
 71
     1
 74
     0
110
0.0
120
0.0
130
0.0
111
1.0
121
0.0
131
0.0
112
0.0
122
1.0
132
0.0
 79
     0
146
0.0
170
     0
 61
     5
348
34998
292
     1
282
     1
141
0.0
142
0.0
 63
   250
421
  3355443
  0
ENDSEC
  0
SECTION
  2
OBJECTS
  0
DICTIONARY
  5
C
330
0
100
AcDbDictionary
281
     1
  3
ACAD_CIP_PREVIOUS_PRODUCT_INFO
350
59BE3
  3
ACAD_COLOR
350
349A3
  3
ACAD_DETAILVIEWSTYLE
350
59BDD
  3
ACAD_GROUP
350
D
  3
ACAD_LAYOUT
350
1A
  3
ACAD_MATERIAL
350
34979
  3
ACAD_MLEADERSTYLE
350
349C8
  3
ACAD_MLINESTYLE
350
17
  3
ACAD_PLOTSETTINGS
350
19
  3
ACAD_PLOTSTYLENAME
350
E
  3
ACAD_SCALELIST
350
349A6
  3
ACAD_SECTIONVIEWSTYLE
350
59BDB
  3
ACAD_TABLESTYLE
350
349A4
  3
ACAD_VISUALSTYLE
350
34992
  3
AcadDim
350
3DECF
  3
ACDB_RECOMPOSE_DATA
350
59C0B
  3
AcDbVariableDictionary
350
D1
  3
AcDsDecomposeData
350
59C11
  3
AEC_PROPERTY_SET_DEFS
350
35414
  0
DICTIONARY
  5
34A75
330
8
100
AcDbDictionary
280
     1
281
     1
  0
DICTIONARY
  5
393
330
2
100
AcDbDictionary
280
     1
281
     1
  3
ACAD_LAYERFILTERS
360
59AE5
  3
ACAD_LAYERSTATES
360
2D9CB
  3
ACLYDICTIONARY
360
59AE4
  0
DICTIONARY
  5
349FE
330
10
100
AcDbDictionary
280
     1
281
     1
  3
ADSK_XREC_LAYER_RECONCILED
360
349FF
  0
DICTIONARY
  5
35450
330
1F
100
AcDbDictionary
280
     1
281
     1
  3
ACAD_SORTENTS
360
35451
  0
DICTIONARY
  5
5976C
330
5976B
100
AcDbDictionary
280
     1
281
     1
  3
ACAD_DIMASSOC
360
5976D
  0
DICTIONARY
  5
59BB3
330
59ADC
100
AcDbDictionary
280
     1
281
     1
  3
ACAD_MTEXT_2008_RT
360
59C0A
  0
DICTIONARY
  5
59C07
330
59C06
100
AcDbDictionary
280
     1
281
     1
  3
ASDK_XREC_ANNOTATION_SCALE_INFO
360
59C08
  0
XRECORD
  5
59BE3
102
{ACAD_REACTORS
330
C
102
}
330
C
100
AcDbXrecord
280
     1
300
ACDLT
300
2020
300
ACDLT_F_S
  0
DICTIONARY
  5
349A3
102
{ACAD_REACTORS
330
C
102
}
330
C
100
AcDbDictionary
281
     1
  0
DICTIONARY
  5
59BDD
102
{ACAD_REACTORS
330
C
102
}
330
C
100
AcDbDictionary
281
     1
  3
Metric50
350
59BDE
  0
DICTIONARY
  5
D
102
{ACAD_REACTORS
330
C
102
}
330
C
100
AcDbDictionary
281
     1
  0
DICTIONARY
  5
1A
102
{ACAD_REACTORS
330
C
102
}
330
C
100
AcDbDictionary
281
     1
  3
Layout 1
350
3491A
  3
Model
350
22
  0
DICTIONARY
  5
34979
102
{ACAD_REACTORS
330
C
102
}
330
C
100
AcDbDictionary
281
     1
  3
ByBlock
350
34982
  3
ByLayer
350
3497A
  3
Global
350
3498A
  0
DICTIONARY
  5
349C8
102
{ACAD_REACTORS
330
C
102
}
330
C
100
AcDbDictionary
281
     1
  3
Standard
350
349C9
  0
DICTIONARY
  5
17
102
{ACAD_REACTORS
330
C
102
}
330
C
100
AcDbDictionary
281
     1
  3
Standard
350
18
  0
DICTIONARY
  5
19
102
{ACAD_REACTORS
330
C
102
}
330
C
100
AcDbDictionary
281
     1
  3
Template A3
350
1831
  0
ACDBDICTIONARYWDFLT
  5
E
102
{ACAD_REACTORS
330
C
102
}
330
C
100
AcDbDictionary
281
     1
  3
Normal
350
F
100
AcDbDictionaryWithDefault
340
F
  0
DICTIONARY
  5
349A6
102
{ACAD_REACTORS
330
C
102
}
330
C
100
AcDbDictionary
281
     1
  3
*A1
350
35298
  3
*A10
350
352A5
  3
*A11
350
352A6
  3
*A12
350
352A7
  3
*A13
350
35299
  3
*A14
350
3529A
  3
*A15
350
3529B
  3
*A16
350
3529C
  3
*A2
350
3529D
  3
*A3
350
3529E
  3
*A4
350
3529F
  3
*A5
350
352A0
  3
*A6
350
352A1
  3
*A7
350
352A2
  3
*A8
350
352A3
  3
*A9
350
352A4
  3
A0
350
349A7
  3
A1
350
349A8
  3
A2
350
349A9
  3
A3
350
349AA
  3
A4
350
349AB
  3
A5
350
349AC
  3
A6
350
349AD
  3
A7
350
349AE
  3
A8
350
349AF
  3
A9
350
349B0
  3
B0
350
349B1
  3
B1
350
349B2
  3
B2
350
349B3
  3
B3
350
349B4
  3
B4
350
349B5
  3
B5
350
349B6
  3
B6
350
349B7
  3
B7
350
349B8
  3
B8
350
349B9
  3
B9
350
349BA
  3
C0
350
349BB
  3
C1
350
349BC
  3
C2
350
349BD
  3
C3
350
349BE
  3
C4
350
349BF
  3
C5
350
349C0
  3
C6
350
349C1
  3
C7
350
349C2
  3
C8
350
349C3
  3
C9
350
349C4
  3
D0
350
349C5
  3
D1
350
349C6
  3
D2
350
349C7
  0
DICTIONARY
  5
59BDB
102
{ACAD_REACTORS
330
C
102
}
330
C
100
AcDbDictionary
281
     1
  3
Metric50
350
59BDC
  0
DICTIONARY
  5
349A4
102
{ACAD_REACTORS
330
C
102
}
330
C
100
AcDbDictionary
281
     1
  3
Standard
350
349A5
  0
DICTIONARY
  5
34992
102
{ACAD_REACTORS
330
C
102
}
330
C
100
AcDbDictionary
281
     1
  3
2dWireframe
350
34998
  3
3D Hidden
350
3499A
  3
3dWireframe
350
34999
  3
Basic
350
34997
  3
Brighten
350
3499E
  3
ColorChange
350
349A2
  3
Conceptual
350
3499B
  3
Dim
350
3499D
  3
EdgeColorOff
350
59BDA
  3
Facepattern
350
349A1
  3
Flat
350
34993
  3
FlatWithEdges
350
34994
  3
Gouraud
350
34995
  3
GouraudWithEdges
350
34996
  3
Hidden
350
59BD2
  3
JitterOff
350
59BD8
  3
Linepattern
350
349A0
  3
OverhangOff
350
59BD9
  3
Realistic
350
3499C
  3
Shaded
350
59BD7
  3
Shaded with edges
350
59BD6
  3
Shades of Gray
350
59BD3
  3
Sketchy
350
59BD4
  3
Thicken
350
3499F
  3
Wireframe
350
59BD1
  3
X-Ray
350
59BD5
  0
XRECORD
  5
3DECF
102
{ACAD_REACTORS
330
C
102
}
330
C
100
AcDbXrecord
280
     1
 90
   990106
  3

 60
     0
 61
     0
 62
     1
 63
     3
 64
     0
 65
     0
 66
     0
 67
     3
 68
     1
 69
     0
 70
     0
 71
     0
 72
     0
 40
1000.0
170
     0
340
0
  0
XRECORD
  5
59C0B
102
{ACAD_REACTORS
330
C
102
}
330
C
100
AcDbXrecord
280
     1
 90
        1
330
349A5
330
59ADC
  0
DICTIONARY
  5
D1
102
{ACAD_REACTORS
330
C
102
}
330
C
100
AcDbDictionary
281
     1
  3
CANNOSCALE
350
34A95
  3
CMLEADERSTYLE
350
34A94
  3
CTABLESTYLE
350
34A93
  3
CVIEWDETAILSTYLE
350
59BF0
  3
CVIEWSECTIONSTYLE
350
59BF1
  3
DIMASSOC
350
D3
  3
HIDETEXT
350
D2
  3
INDEXCTL
350
34A97
  3
LAYEREVAL
350
59BF2
  3
LAYERNOTIFY
350
59BF3
  3
LIGHTINGUNITS
350
35721
  3
MSLTSCALE
350
35720
  3
SORTENTS
350
34A96
  0
DICTIONARY
  5
59C11
102
{ACAD_REACTORS
330
C
102
}
330
C
100
AcDbDictionary
281
     1
  3
AcDsRecords
350
59C13
  3
AcDsSchemas
350
59C12
1001
ACAD
1070
     2
  0
DICTIONARY
  5
35414
102
{ACAD_REACTORS
330
C
102
}
330
C
100
AcDbDictionary
281
     1
  0
DICTIONARY
  5
59AE5
102
{ACAD_REACTORS
330
393
102
}
330
393
100
AcDbDictionary
281
     1
  0
DICTIONARY
  5
2D9CB
102
{ACAD_REACTORS
330
393
102
}
330
393
100
AcDbDictionary
281
     1
  0
DICTIONARY
  5
59AE4
102
{ACAD_REACTORS
330
393
102
}
330
393
100
AcDbDictionary
281
     1
1001
ACAD
1000
<All
  0
XRECORD
  5
349FF
102
{ACAD_REACTORS
330
349FE
102
}
330
349FE
100
AcDbXrecord
280
     1
290
     1
  0
SORTENTSTABLE
  5
35451
102
{ACAD_REACTORS
330
35450
102
}
330
35450
100
AcDbSortentsTable
330
1F
  0
DIMASSOC
  5
5976D
102
{ACAD_REACTORS
330
5976C
102
}
330
5976C
100
AcDbDimAssoc
330
5976B
 90
        3
 70
     0
 71
     0
  1
AcDbOsnapPointRef
 72
     1
331
596F4
 73
     2
 91
        0
 40
1.0
 10
47157.23975758169
 20
81047.92329491585
 30
0.0
 75
     0
  1
AcDbOsnapPointRef
 72
     1
331
59722
 73
     2
 91
        0
 40
1.0
 10
55093.14961934889
 20
81222.92329491585
 30
0.0
 75
     0
  0
XRECORD
  5
59C0A
102
{ACAD_REACTORS
330
59BB3
102
}
330
59BB3
100
AcDbXrecord
280
     1
 40
179557.0
  1
\pxqc;PROCTER SLIDING GATES\PPRO-GLIDE SERIES 10\PWELDED MESH CANTILEVER GATE 
  0
XRECORD
  5
59C08
102
{ACAD_REACTORS
330
59C07
102
}
330
59C07
100
AcDbXrecord
280
     1
 90
        1
340
349A7
  0
ACDBDETAILVIEWSTYLE
  5
59BDE
102
{ACAD_XDICTIONARY
360
59C4A
102
}
102
{ACAD_REACTORS
330
59BDD
102
}
330
59BDD
100
AcDbModelDocViewStyle
 70
     0
  3
Metric50
290
     0
100
AcDbDetailViewStyle
 70
     0
 71
     0
 90
        3
 71
     1
340
11
 62
   256
 40
5.0
340
0
 62
   256
 40
5.0
300

 40
0.0
280
     1
 71
     2
340
16
 90
       25
 62
   256
 71
     3
340
11
 62
   256
 40
5.0
 90
        0
 40
15.0
 90
        1
300
%<\AcVar ViewDetailId>% (%<\AcVar ViewScale \f "%sn">%)
 71
     4
340
16
 90
       25
 62
   256
340
16
 90
       25
 62
   256
280
     0
  0
LAYOUT
  5
3491A
102
{ACAD_XDICTIONARY
360
349D7
102
}
102
{ACAD_REACTORS
330
1A
102
}
330
1A
100
AcDbPlotSettings
  1

  2
CutePDF Writer
  4
A3
  6

 40
3.174999952316283
 41
3.174999952316283
 42
3.17498779296875
 43
3.17498779296875
 44
297.0
 45
420.0
 46
0.0
 47
0.0
 48
0.2951330241755841
 49
5.796917231613289
140
397.9429662473851
141
287.3637556150874
142
1.0
143
1.0
 70
   688
 72
     1
 73
     1
 74
     5
  7
monochrome.ctb
 75
     0
147
1.0
 76
     0
 77
     2
 78
   300
148
0.0
149
0.0
100
AcDbLayout
  1
Layout 1
 70
     1
 71
     1
 10
-3.17498779296875
 20
-3.174999952316283
 11
416.8250122070311
 21
293.8250000476837
 12
0.0
 22
0.0
 32
0.0
 14
1.746888190649769
 24
16.14432144039233
 34
-0.0015258207003583
 15
413.5373544896862
 25
289.9819831565918
 35
0.0000000349246037
146
0.0
 13
0.0
 23
0.0
 33
0.0
 16
1.0
 26
0.0
 36
0.0
 17
0.0
 27
1.0
 37
0.0
 76
     0
330
348E5
331
59C06
  0
LAYOUT
  5
22
102
{ACAD_REACTORS
330
1A
102
}
330
1A
100
AcDbPlotSettings
  1

  2
CutePDF Writer
  4
A4
  6

 40
3.174999999999998
 41
3.174999999999998
 42
3.175002999999998
 43
3.174987999999998
 44
209.888657
 45
297.053009
 46
0.0
 47
0.02
 48
-56804.89904665446
 49
20175.45105326266
140
-56327.55042518879
141
20509.70811681668
142
1.0
143
1.642228918119984
 70
 11956
 72
     1
 73
     1
 74
     4
  7

 75
     0
147
0.6089285050130498
 76
     0
 77
     2
 78
   300
148
56804.89904665446
149
-20175.45105326266
100
AcDbLayout
  1
Model
 70
     1
 71
     0
 10
0.0
 20
0.0
 11
12.0
 21
9.0
 12
0.0
 22
0.0
 32
0.0
 14
0.0
 24
0.0
 34
0.0
 15
0.0
 25
0.0
 35
0.0
146
0.0
 13
0.0
 23
0.0
 33
0.0
 16
1.0
 26
0.0
 36
0.0
 17
0.0
 27
1.0
 37
0.0
 76
     0
330
1F
331
59AB8
  0
MATERIAL
  5
34982
102
{ACAD_XDICTIONARY
360
34983
102
}
102
{ACAD_REACTORS
330
34979
102
}
330
34979
100
AcDbMaterial
  1
ByBlock
 72
     0
 43
0.0008202099737533
 43
0.0
 43
0.0
 43
0.0
 43
0.0
 43
0.0008202099737533
 43
0.0
 43
0.0
 43
0.0
 43
0.0
 43
1.0
 43
0.0
 43
0.0
 43
0.0
 43
0.0
 43
1.0
 77
     0
 47
0.0008202099737533
 47
0.0
 47
0.0
 47
0.0
 47
0.0
 47
0.0008202099737533
 47
0.0
 47
0.0
 47
0.0
 47
0.0
 47
1.0
 47
0.0
 47
0.0
 47
0.0
 47
0.0
 47
1.0
171
     0
 49
0.0008202099737533
 49
0.0
 49
0.0
 49
0.0
 49
0.0
 49
0.0008202099737533
 49
0.0
 49
0.0
 49
0.0
 49
0.0
 49
1.0
 49
0.0
 49
0.0
 49
0.0
 49
0.0
 49
1.0
175
     0
142
0.0008202099737533
142
0.0
142
0.0
142
0.0
142
0.0
142
0.0008202099737533
142
0.0
142
0.0
142
0.0
142
0.0
142
1.0
142
0.0
142
0.0
142
0.0
142
0.0
142
1.0
179
     0
144
0.0008202099737533
144
0.0
144
0.0
144
0.0
144
0.0
144
0.0008202099737533
144
0.0
144
0.0
144
0.0
144
0.0
144
1.0
144
0.0
144
0.0
144
0.0
144
0.0
144
1.0
147
0.0008202099737533
147
0.0
147
0.0
147
0.0
147
0.0
147
0.0008202099737533
147
0.0
147
0.0
147
0.0
147
0.0
147
1.0
147
0.0
147
0.0
147
0.0
147
0.0
147
1.0
  0
MATERIAL
  5
3497A
102
{ACAD_XDICTIONARY
360
3497B
102
}
102
{ACAD_REACTORS
330
34979
102
}
330
34979
100
AcDbMaterial
  1
ByLayer
 72
     0
 43
0.0008202099737533
 43
0.0
 43
0.0
 43
0.0
 43
0.0
 43
0.0008202099737533
 43
0.0
 43
0.0
 43
0.0
 43
0.0
 43
1.0
 43
0.0
 43
0.0
 43
0.0
 43
0.0
 43
1.0
 77
     0
 47
0.0008202099737533
 47
0.0
 47
0.0
 47
0.0
 47
0.0
 47
0.0008202099737533
 47
0.0
 47
0.0
 47
0.0
 47
0.0
 47
1.0
 47
0.0
 47
0.0
 47
0.0
 47
0.0
 47
1.0
171
     0
 49
0.0008202099737533
 49
0.0
 49
0.0
 49
0.0
 49
0.0
 49
0.0008202099737533
 49
0.0
 49
0.0
 49
0.0
 49
0.0
 49
1.0
 49
0.0
 49
0.0
 49
0.0
 49
0.0
 49
1.0
175
     0
142
0.0008202099737533
142
0.0
142
0.0
142
0.0
142
0.0
142
0.0008202099737533
142
0.0
142
0.0
142
0.0
142
0.0
142
1.0
142
0.0
142
0.0
142
0.0
142
0.0
142
1.0
179
     0
144
0.0008202099737533
144
0.0
144
0.0
144
0.0
144
0.0
144
0.0008202099737533
144
0.0
144
0.0
144
0.0
144
0.0
144
1.0
144
0.0
144
0.0
144
0.0
144
0.0
144
1.0
147
0.0008202099737533
147
0.0
147
0.0
147
0.0
147
0.0
147
0.0008202099737533
147
0.0
147
0.0
147
0.0
147
0.0
147
1.0
147
0.0
147
0.0
147
0.0
147
0.0
147
1.0
  0
MATERIAL
  5
3498A
102
{ACAD_XDICTIONARY
360
3498B
102
}
102
{ACAD_REACTORS
330
34979
102
}
330
34979
100
AcDbMaterial
  1
Global
 72
     0
 43
0.0008202099737533
 43
0.0
 43
0.0
 43
0.0
 43
0.0
 43
0.0008202099737533
 43
0.0
 43
0.0
 43
0.0
 43
0.0
 43
1.0
 43
0.0
 43
0.0
 43
0.0
 43
0.0
 43
1.0
 77
     0
 47
0.0008202099737533
 47
0.0
 47
0.0
 47
0.0
 47
0.0
 47
0.0008202099737533
 47
0.0
 47
0.0
 47
0.0
 47
0.0
 47
1.0
 47
0.0
 47
0.0
 47
0.0
 47
0.0
 47
1.0
171
     0
 49
0.0008202099737533
 49
0.0
 49
0.0
 49
0.0
 49
0.0
 49
0.0008202099737533
 49
0.0
 49
0.0
 49
0.0
 49
0.0
 49
1.0
 49
0.0
 49
0.0
 49
0.0
 49
0.0
 49
1.0
175
     0
142
0.0008202099737533
142
0.0
142
0.0
142
0.0
142
0.0
142
0.0008202099737533
142
0.0
142
0.0
142
0.0
142
0.0
142
1.0
142
0.0
142
0.0
142
0.0
142
0.0
142
1.0
179
     0
144
0.0008202099737533
144
0.0
144
0.0
144
0.0
144
0.0
144
0.0008202099737533
144
0.0
144
0.0
144
0.0
144
0.0
144
1.0
144
0.0
144
0.0
144
0.0
144
0.0
144
1.0
147
0.0008202099737533
147
0.0
147
0.0
147
0.0
147
0.0
147
0.0008202099737533
147
0.0
147
0.0
147
0.0
147
0.0
147
1.0
147
0.0
147
0.0
147
0.0
147
0.0
147
1.0
  0
MLEADERSTYLE
  5
349C9
102
{ACAD_REACTORS
330
349C8
102
}
330
349C8
100
AcDbMLeaderStyle
179
     2
170
     2
171
     1
172
     0
 90
        2
 40
0.0
 41
0.0
173
     1
 91
-1056964608
340
14
 92
       -2
290
     1
 42
2.0
291
     1
 43
0.36
  3
Standard
 44
4.0
300

342
11
174
     1
178
     6
175
     1
176
     0
 93
-1056964608
 45
4.0
292
     0
297
     0
 46
4.0
 94
-1056964608
 47
1.0
 49
1.0
140
1.0
293
     1
141
0.0
294
     1
177
     0
142
1.0
295
     0
296
     0
143
0.125
271
     0
272
     9
273
     9
  0
MLINESTYLE
  5
18
102
{ACAD_REACTORS
330
17
102
}
330
17
100
AcDbMlineStyle
  2
STANDARD
 70
     0
  3

 62
   256
 51
90.0
 52
90.0
 71
     2
 49
0.5
 62
   256
  6
BYLAYER
 49
-0.5
 62
   256
  6
BYLAYER
  0
PLOTSETTINGS
  5
1831
102
{ACAD_REACTORS
330
19
102
}
330
19
100
AcDbPlotSettings
  1
Template A3
  2
HP Officejet Pro K8600 Series
  4
A3
  6

 40
5.95841646194458
 41
12.64706611633301
 42
6.0430908203125
 43
20.77508544921875
 44
296.9259948730469
 45
419.9466552734373
 46
-0.6200000000000001
 47
-9.859999999999999
 48
0.0
 49
0.0
140
0.0
141
0.0
142
1.0
143
1.0
 70
   692
 72
     1
 73
     1
 74
     1
  7
monochrome.ctb
 75
    16
147
1.0
 76
     0
 77
     2
 78
   300
148
-2.293687681883284
149
-1.665891456123175
  0
ACDBPLACEHOLDER
  5
F
102
{ACAD_REACTORS
330
E
102
}
330
E
  0
SCALE
  5
35298
102
{ACAD_REACTORS
330
349A6
102
}
330
349A6
100
AcDbScale
 70
     0
300
1/128" = 1'-0"_XREF
140
0.0078125
141
12.0
290
     0
  0
SCALE
  5
352A5
102
{ACAD_REACTORS
330
349A6
102
}
330
349A6
100
AcDbScale
 70
     0
300
1/64" = 1'-0"_XREF
140
0.015625
141
12.0
290
     0
  0
SCALE
  5
352A6
102
{ACAD_REACTORS
330
349A6
102
}
330
349A6
100
AcDbScale
 70
     0
300
1/32" = 1'-0"_XREF
140
0.03125
141
12.0
290
     0
  0
SCALE
  5
352A7
102
{ACAD_REACTORS
330
349A6
102
}
330
349A6
100
AcDbScale
 70
     0
300
1/16" = 1'-0"_XREF
140
0.0625
141
12.0
290
     0
  0
SCALE
  5
35299
102
{ACAD_REACTORS
330
349A6
102
}
330
349A6
100
AcDbScale
 70
     0
300
1" = 1'-0"_XREF
140
1.0
141
12.0
290
     0
  0
SCALE
  5
3529A
102
{ACAD_REACTORS
330
349A6
102
}
330
349A6
100
AcDbScale
 70
     0
300
3/32" = 1'-0"_XREF
140
0.09375
141
12.0
290
     0
  0
SCALE
  5
3529B
102
{ACAD_REACTORS
330
349A6
102
}
330
349A6
100
AcDbScale
 70
     0
300
1/8" = 1'-0"_XREF
140
0.125
141
12.0
290
     0
  0
SCALE
  5
3529C
102
{ACAD_REACTORS
330
349A6
102
}
330
349A6
100
AcDbScale
 70
     0
300
3/16" = 1'-0"_XREF
140
0.1875
141
12.0
290
     0
  0
SCALE
  5
3529D
102
{ACAD_REACTORS
330
349A6
102
}
330
349A6
100
AcDbScale
 70
     0
300
1/4" = 1'-0"_XREF
140
0.25
141
12.0
290
     0
  0
SCALE
  5
3529E
102
{ACAD_REACTORS
330
349A6
102
}
330
349A6
100
AcDbScale
 70
     0
300
1-1/2" = 1'-0"_XREF
140
1.5
141
12.0
290
     0
  0
SCALE
  5
3529F
102
{ACAD_REACTORS
330
349A6
102
}
330
349A6
100
AcDbScale
 70
     0
300
3/8" = 1'-0"_XREF
140
0.375
141
12.0
290
     0
  0
SCALE
  5
352A0
102
{ACAD_REACTORS
330
349A6
102
}
330
349A6
100
AcDbScale
 70
     0
300
1/2" = 1'-0"_XREF
140
0.5
141
12.0
290
     0
  0
SCALE
  5
352A1
102
{ACAD_REACTORS
330
349A6
102
}
330
349A6
100
AcDbScale
 70
     0
300
3/4" = 1'-0"_XREF
140
0.75
141
12.0
290
     0
  0
SCALE
  5
352A2
102
{ACAD_REACTORS
330
349A6
102
}
330
349A6
100
AcDbScale
 70
     0
300
3" = 1'-0"_XREF
140
3.0
141
12.0
290
     0
  0
SCALE
  5
352A3
102
{ACAD_REACTORS
330
349A6
102
}
330
349A6
100
AcDbScale
 70
     0
300
6" = 1'-0"_XREF
140
6.0
141
12.0
290
     0
  0
SCALE
  5
352A4
102
{ACAD_REACTORS
330
349A6
102
}
330
349A6
100
AcDbScale
 70
     0
300
1'-0" = 1'-0"_XREF
140
12.0
141
12.0
290
     0
  0
SCALE
  5
349A7
102
{ACAD_REACTORS
330
349A6
102
}
330
349A6
100
AcDbScale
 70
     0
300
1:1
140
1.0
141
1.0
290
     1
  0
SCALE
  5
349A8
102
{ACAD_REACTORS
330
349A6
102
}
330
349A6
100
AcDbScale
 70
     0
300
1:2
140
1.0
141
2.0
290
     0
  0
SCALE
  5
349A9
102
{ACAD_REACTORS
330
349A6
102
}
330
349A6
100
AcDbScale
 70
     0
300
1:4
140
1.0
141
4.0
290
     0
  0
SCALE
  5
349AA
102
{ACAD_REACTORS
330
349A6
102
}
330
349A6
100
AcDbScale
 70
     0
300
1:5
140
1.0
141
5.0
290
     0
  0
SCALE
  5
349AB
102
{ACAD_REACTORS
330
349A6
102
}
330
349A6
100
AcDbScale
 70
     0
300
1:8
140
1.0
141
8.0
290
     0
  0
SCALE
  5
349AC
102
{ACAD_REACTORS
330
349A6
102
}
330
349A6
100
AcDbScale
 70
     0
300
1:10
140
1.0
141
10.0
290
     0
  0
SCALE
  5
349AD
102
{ACAD_REACTORS
330
349A6
102
}
330
349A6
100
AcDbScale
 70
     0
300
1:16
140
1.0
141
16.0
290
     0
  0
SCALE
  5
349AE
102
{ACAD_REACTORS
330
349A6
102
}
330
349A6
100
AcDbScale
 70
     0
300
1:20
140
1.0
141
20.0
290
     0
  0
SCALE
  5
349AF
102
{ACAD_REACTORS
330
349A6
102
}
330
349A6
100
AcDbScale
 70
     0
300
1:30
140
1.0
141
30.0
290
     0
  0
SCALE
  5
349B0
102
{ACAD_REACTORS
330
349A6
102
}
330
349A6
100
AcDbScale
 70
     0
300
1:40
140
1.0
141
40.0
290
     0
  0
SCALE
  5
349B1
102
{ACAD_REACTORS
330
349A6
102
}
330
349A6
100
AcDbScale
 70
     0
300
1:50
140
1.0
141
50.0
290
     0
  0
SCALE
  5
349B2
102
{ACAD_REACTORS
330
349A6
102
}
330
349A6
100
AcDbScale
 70
     0
300
1:100
140
1.0
141
100.0
290
     0
  0
SCALE
  5
349B3
102
{ACAD_REACTORS
330
349A6
102
}
330
349A6
100
AcDbScale
 70
     0
300
2:1
140
2.0
141
1.0
290
     0
  0
SCALE
  5
349B4
102
{ACAD_REACTORS
330
349A6
102
}
330
349A6
100
AcDbScale
 70
     0
300
4:1
140
4.0
141
1.0
290
     0
  0
SCALE
  5
349B5
102
{ACAD_REACTORS
330
349A6
102
}
330
349A6
100
AcDbScale
 70
     0
300
8:1
140
8.0
141
1.0
290
     0
  0
SCALE
  5
349B6
102
{ACAD_REACTORS
330
349A6
102
}
330
349A6
100
AcDbScale
 70
     0
300
10:1
140
10.0
141
1.0
290
     0
  0
SCALE
  5
349B7
102
{ACAD_REACTORS
330
349A6
102
}
330
349A6
100
AcDbScale
 70
     0
300
100:1
140
100.0
141
1.0
290
     0
  0
SCALE
  5
349B8
102
{ACAD_REACTORS
330
349A6
102
}
330
349A6
100
AcDbScale
 70
     0
300
1/128" = 1'-0"
140
0.0078125
141
12.0
290
     0
  0
SCALE
  5
349B9
102
{ACAD_REACTORS
330
349A6
102
}
330
349A6
100
AcDbScale
 70
     0
300
1/64" = 1'-0"
140
0.015625
141
12.0
290
     0
  0
SCALE
  5
349BA
102
{ACAD_REACTORS
330
349A6
102
}
330
349A6
100
AcDbScale
 70
     0
300
1/32" = 1'-0"
140
0.03125
141
12.0
290
     0
  0
SCALE
  5
349BB
102
{ACAD_REACTORS
330
349A6
102
}
330
349A6
100
AcDbScale
 70
     0
300
1/16" = 1'-0"
140
0.0625
141
12.0
290
     0
  0
SCALE
  5
349BC
102
{ACAD_REACTORS
330
349A6
102
}
330
349A6
100
AcDbScale
 70
     0
300
3/32" = 1'-0"
140
0.09375
141
12.0
290
     0
  0
SCALE
  5
349BD
102
{ACAD_REACTORS
330
349A6
102
}
330
349A6
100
AcDbScale
 70
     0
300
1/8" = 1'-0"
140
0.125
141
12.0
290
     0
  0
SCALE
  5
349BE
102
{ACAD_REACTORS
330
349A6
102
}
330
349A6
100
AcDbScale
 70
     0
300
3/16" = 1'-0"
140
0.1875
141
12.0
290
     0
  0
SCALE
  5
349BF
102
{ACAD_REACTORS
330
349A6
102
}
330
349A6
100
AcDbScale
 70
     0
300
1/4" = 1'-0"
140
0.25
141
12.0
290
     0
  0
SCALE
  5
349C0
102
{ACAD_REACTORS
330
349A6
102
}
330
349A6
100
AcDbScale
 70
     0
300
3/8" = 1'-0"
140
0.375
141
12.0
290
     0
  0
SCALE
  5
349C1
102
{ACAD_REACTORS
330
349A6
102
}
330
349A6
100
AcDbScale
 70
     0
300
1/2" = 1'-0"
140
0.5
141
12.0
290
     0
  0
SCALE
  5
349C2
102
{ACAD_REACTORS
330
349A6
102
}
330
349A6
100
AcDbScale
 70
     0
300
3/4" = 1'-0"
140
0.75
141
12.0
290
     0
  0
SCALE
  5
349C3
102
{ACAD_REACTORS
330
349A6
102
}
330
349A6
100
AcDbScale
 70
     0
300
1" = 1'-0"
140
1.0
141
12.0
290
     0
  0
SCALE
  5
349C4
102
{ACAD_REACTORS
330
349A6
102
}
330
349A6
100
AcDbScale
 70
     0
300
1-1/2" = 1'-0"
140
1.5
141
12.0
290
     0
  0
SCALE
  5
349C5
102
{ACAD_REACTORS
330
349A6
102
}
330
349A6
100
AcDbScale
 70
     0
300
3" = 1'-0"
140
3.0
141
12.0
290
     0
  0
SCALE
  5
349C6
102
{ACAD_REACTORS
330
349A6
102
}
330
349A6
100
AcDbScale
 70
     0
300
6" = 1'-0"
140
6.0
141
12.0
290
     0
  0
SCALE
  5
349C7
102
{ACAD_REACTORS
330
349A6
102
}
330
349A6
100
AcDbScale
 70
     0
300
1'-0" = 1'-0"
140
12.0
141
12.0
290
     0
  0
ACDBSECTIONVIEWSTYLE
  5
59BDC
102
{ACAD_XDICTIONARY
360
59C48
102
}
102
{ACAD_REACTORS
330
59BDB
102
}
330
59BDB
100
AcDbModelDocViewStyle
 70
     0
  3
Metric50
290
     0
100
AcDbSectionViewStyle
 70
     0
 71
     0
 90
      102
 71
     1
340
11
 62
   256
 40
5.0
340
0
340
0
 62
   256
 40
5.0
300
I, O, Q, S, X, Z
 40
10.0
 90
        0
 40
2.5
 90
        0
 71
     2
340
16
 90
       25
 62
   256
340
16
 90
       50
 62
   256
 40
5.0
 40
2.5
 40
5.0
 71
     3
340
11
 62
   256
 40
5.0
 90
        0
 40
15.0
 90
        1
300
%<\AcVar ViewSectionStartId>%-%<\AcVar ViewSectionEndId>% (%<\AcVar ViewScale \f "%sn">%)
 71
     4
 62
   256
 62
   257
300
ANSI31
 40
1.0
 90
        0
290
     0
290
     0
 90
        6
 40
0.0
 40
1.570796326794896
 40
0.2617993877991494
 40
1.308996938995747
 40
-0.2617993877991494
 40
1.832595714594045
  0
TABLESTYLE
  5
349A5
102
{ACAD_XDICTIONARY
360
34A71
102
}
102
{ACAD_REACTORS
330
349A4
102
}
330
349A4
100
AcDbTableStyle
280
     0
  3
Standard
 70
     0
 71
     0
 40
1.5
 41
1.5
280
     0
281
     0
  7
Standard
140
4.5
170
     2
 62
     0
 63
     7
283
     0
 90
      512
 91
        0
  1

274
    -2
284
     1
 64
     0
275
    -2
285
     1
 65
     0
276
    -2
286
     1
 66
     0
277
    -2
287
     1
 67
     0
278
    -2
288
     1
 68
     0
279
    -2
289
     1
 69
     0
  7
Standard
140
6.0
170
     5
 62
     0
 63
     7
283
     0
 90
      512
 91
        0
  1

274
    -2
284
     1
 64
     0
275
    -2
285
     1
 65
     0
276
    -2
286
     1
 66
     0
277
    -2
287
     1
 67
     0
278
    -2
288
     1
 68
     0
279
    -2
289
     1
 69
     0
  7
Standard
140
4.5
170
     5
 62
     0
 63
     7
283
     0
 90
      512
 91
        0
  1

274
    -2
284
     1
 64
     0
275
    -2
285
     1
 65
     0
276
    -2
286
     1
 66
     0
277
    -2
287
     1
 67
     0
278
    -2
288
     1
 68
     0
279
    -2
289
     1
 69
     0
  0
VISUALSTYLE
  5
34998
102
{ACAD_XDICTIONARY
360
59C1E
102
}
102
{ACAD_REACTORS
330
34992
102
}
330
34992
100
AcDbVisualStyle
  2
2dWireframe
 70
     4
177
     2
291
     0
 71
     0
176
     1
 72
     2
176
     1
 73
     0
176
     1
 90
        0
176
     1
 40
0.6
176
     1
 41
30.0
176
     1
 63
     7
176
     1
 74
     1
176
     1
 91
        4
176
     1
 64
     7
176
     1
 65
   257
176
     1
 75
     1
176
     1
175
     1
176
     1
 42
1.0
176
     1
 92
        0
176
     1
 66
   257
176
     1
 43
1.0
176
     1
 76
     1
176
     1
 77
     6
176
     1
 78
     2
176
     1
 67
     7
176
     1
 79
     5
176
     1
170
     0
176
     1
171
     0
176
     1
290
     0
176
     1
 93
        1
176
     1
 44
0.0
176
     1
173
     0
176
     1
1001
ACAD
1000
AcDbSavedByObjectVersion
1070
     0
  0
VISUALSTYLE
  5
3499A
102
{ACAD_XDICTIONARY
360
59C22
102
}
102
{ACAD_REACTORS
330
34992
102
}
330
34992
100
AcDbVisualStyle
  2
3D Hidden
 70
     6
177
     2
291
     0
 71
     1
176
     1
 72
     2
176
     1
 73
     2
176
     1
 90
        0
176
     1
 40
0.6
176
     1
 41
30.0
176
     1
 63
     7
176
     1
 74
     2
176
     1
 91
        2
176
     1
 64
     7
176
     1
 65
   257
176
     1
 75
     2
176
     1
175
     1
176
     1
 42
40.0
176
     1
 92
        0
176
     1
 66
   257
176
     1
 43
1.0
176
     1
 76
     1
176
     1
 77
     6
176
     1
 78
     2
176
     1
 67
     7
176
     1
 79
     3
176
     1
170
     0
176
     1
171
     0
176
     1
290
     0
176
     1
 93
        1
176
     1
 44
0.0
176
     1
173
     0
176
     1
1001
ACAD
1000
AcDbSavedByObjectVersion
1070
     0
  0
VISUALSTYLE
  5
34999
102
{ACAD_XDICTIONARY
360
59C20
102
}
102
{ACAD_REACTORS
330
34992
102
}
330
34992
100
AcDbVisualStyle
  2
3dWireframe
 70
     5
177
     2
291
     0
 71
     0
176
     1
 72
     2
176
     1
 73
     0
176
     1
 90
        0
176
     1
 40
0.6
176
     1
 41
30.0
176
     1
 63
     7
176
     1
 74
     1
176
     1
 91
        4
176
     1
 64
     7
176
     1
 65
   257
176
     1
 75
     1
176
     1
175
     1
176
     1
 42
1.0
176
     1
 92
        0
176
     1
 66
   257
176
     1
 43
1.0
176
     1
 76
     1
176
     1
 77
     6
176
     1
 78
     2
176
     1
 67
     7
176
     1
 79
     5
176
     1
170
     0
176
     1
171
     0
176
     1
290
     0
176
     1
 93
        1
176
     1
 44
0.0
176
     1
173
     0
176
     1
1001
ACAD
1000
AcDbSavedByObjectVersion
1070
     0
  0
VISUALSTYLE
  5
34997
102
{ACAD_XDICTIONARY
360
59C1C
102
}
102
{ACAD_REACTORS
330
34992
102
}
330
34992
100
AcDbVisualStyle
  2
Basic
 70
     7
177
     2
291
     1
 71
     1
176
     1
 72
     0
176
     1
 73
     1
176
     1
 90
        0
176
     1
 40
0.6
176
     1
 41
30.0
176
     1
 63
     7
176
     1
 74
     0
176
     1
 91
        4
176
     1
 64
     7
176
     1
 65
   257
176
     1
 75
     1
176
     1
175
     1
176
     1
 42
1.0
176
     1
 92
        8
176
     1
 66
     7
176
     1
 43
1.0
176
     1
 76
     1
176
     1
 77
     6
176
     1
 78
     2
176
     1
 67
     7
176
     1
 79
     5
176
     1
170
     0
176
     1
171
     0
176
     1
290
     0
176
     1
 93
        1
176
     1
 44
0.0
176
     1
173
     0
176
     1
1001
ACAD
1000
AcDbSavedByObjectVersion
1070
     0
  0
VISUALSTYLE
  5
3499E
102
{ACAD_XDICTIONARY
360
59C2A
102
}
102
{ACAD_REACTORS
330
34992
102
}
330
34992
100
AcDbVisualStyle
  2
Brighten
 70
    12
177
     2
291
     1
 71
     2
176
     1
 72
     2
176
     1
 73
     0
176
     1
 90
        0
176
     1
 40
0.6
176
     1
 41
30.0
176
     1
 63
     7
176
     1
 74
     1
176
     1
 91
        4
176
     1
 64
     7
176
     1
 65
   257
176
     1
 75
     1
176
     1
175
     1
176
     1
 42
1.0
176
     1
 92
        8
176
     1
 66
     7
176
     1
 43
1.0
176
     1
 76
     1
176
     1
 77
     6
176
     1
 78
     2
176
     1
 67
     7
176
     1
 79
     5
176
     1
170
     0
176
     1
171
     0
176
     1
290
     0
176
     1
 93
        1
176
     1
 44
50.0
176
     1
173
     0
176
     1
1001
ACAD
1000
AcDbSavedByObjectVersion
1070
     0
  0
VISUALSTYLE
  5
349A2
102
{ACAD_XDICTIONARY
360
59C32
102
}
102
{ACAD_REACTORS
330
34992
102
}
330
34992
100
AcDbVisualStyle
  2
ColorChange
 70
    16
177
     2
291
     1
 71
     2
176
     1
 72
     2
176
     1
 73
     3
176
     1
 90
        0
176
     1
 40
0.6
176
     1
 41
30.0
176
     1
 63
     8
176
     1
 74
     1
176
     1
 91
        4
176
     1
 64
     7
176
     1
 65
   257
176
     1
 75
     1
176
     1
175
     1
176
     1
 42
1.0
176
     1
 92
        8
176
     1
 66
     8
176
     1
 43
1.0
176
     1
 76
     1
176
     1
 77
     6
176
     1
 78
     2
176
     1
 67
     7
176
     1
 79
     5
176
     1
170
     0
176
     1
171
     0
176
     1
290
     0
176
     1
 93
        1
176
     1
 44
0.0
176
     1
173
     0
176
     1
1001
ACAD
1000
AcDbSavedByObjectVersion
1070
     0
  0
VISUALSTYLE
  5
3499B
102
{ACAD_XDICTIONARY
360
59C24
102
}
102
{ACAD_REACTORS
330
34992
102
}
330
34992
100
AcDbVisualStyle
  2
Conceptual
 70
     9
177
     2
291
     0
 71
     3
176
     1
 72
     2
176
     1
 73
     0
176
     1
 90
        0
176
     1
 40
0.6
176
     1
 41
30.0
176
     1
 63
     7
176
     1
 74
     2
176
     1
 91
        2
176
     1
 64
     7
176
     1
 65
   257
176
     1
 75
     1
176
     1
175
     1
176
     1
 42
40.0
176
     1
 92
        8
176
     1
 66
     7
176
     1
 43
1.0
176
     1
 76
     1
176
     1
 77
     6
176
     1
 78
     2
176
     1
 67
     7
176
     1
 79
     3
176
     1
170
     0
176
     1
171
     0
176
     1
290
     0
176
     1
 93
        1
176
     1
 44
0.0
176
     1
173
     0
176
     1
1001
ACAD
1000
AcDbSavedByObjectVersion
1070
     0
  0
VISUALSTYLE
  5
3499D
102
{ACAD_XDICTIONARY
360
59C28
102
}
102
{ACAD_REACTORS
330
34992
102
}
330
34992
100
AcDbVisualStyle
  2
Dim
 70
    11
177
     2
291
     1
 71
     2
176
     1
 72
     2
176
     1
 73
     0
176
     1
 90
        0
176
     1
 40
0.6
176
     1
 41
30.0
176
     1
 63
     7
176
     1
 74
     1
176
     1
 91
        4
176
     1
 64
     7
176
     1
 65
   257
176
     1
 75
     1
176
     1
175
     1
176
     1
 42
1.0
176
     1
 92
        8
176
     1
 66
     7
176
     1
 43
1.0
176
     1
 76
     1
176
     1
 77
     6
176
     1
 78
     2
176
     1
 67
     7
176
     1
 79
     5
176
     1
170
     0
176
     1
171
     0
176
     1
290
     0
176
     1
 93
        1
176
     1
 44
-50.0
176
     1
173
     0
176
     1
1001
ACAD
1000
AcDbSavedByObjectVersion
1070
     0
  0
VISUALSTYLE
  5
59BDA
102
{ACAD_XDICTIONARY
360
59C46
102
}
102
{ACAD_REACTORS
330
34992
102
}
330
34992
100
AcDbVisualStyle
  2
EdgeColorOff
 70
    22
177
     2
291
     1
 71
     2
176
     0
 72
     2
176
     0
 73
     0
176
     0
 90
        0
176
     0
 40
0.6
176
     0
 41
30.0
176
     0
 63
     7
421
 16777215
176
     0
 74
     1
176
     0
 91
        4
176
     0
 64
     7
176
     0
 65
   257
176
     0
 75
     1
176
     0
175
     1
176
     0
 42
1.0
176
     0
 92
        8
176
     2
 66
     7
176
     0
 43
1.0
176
     0
 76
     1
176
     0
 77
     6
176
     0
 78
     2
176
     0
 67
     7
176
     0
 79
     5
176
     0
170
     0
176
     0
171
     0
176
     0
290
     0
176
     0
 93
        1
176
     0
 44
0.0
176
     0
173
     0
176
     0
1001
ACAD
1000
AcDbSavedByObjectVersion
1070
     0
  0
VISUALSTYLE
  5
349A1
102
{ACAD_XDICTIONARY
360
59C30
102
}
102
{ACAD_REACTORS
330
34992
102
}
330
34992
100
AcDbVisualStyle
  2
Facepattern
 70
    15
177
     2
291
     1
 71
     2
176
     1
 72
     2
176
     1
 73
     0
176
     1
 90
        0
176
     1
 40
0.6
176
     1
 41
30.0
176
     1
 63
     7
176
     1
 74
     1
176
     1
 91
        4
176
     1
 64
     7
176
     1
 65
   257
176
     1
 75
     1
176
     1
175
     1
176
     1
 42
1.0
176
     1
 92
        8
176
     1
 66
     7
176
     1
 43
1.0
176
     1
 76
     1
176
     1
 77
     6
176
     1
 78
     2
176
     1
 67
     7
176
     1
 79
     5
176
     1
170
     0
176
     1
171
     0
176
     1
290
     0
176
     1
 93
        1
176
     1
 44
0.0
176
     1
173
     0
176
     1
1001
ACAD
1000
AcDbSavedByObjectVersion
1070
     0
  0
VISUALSTYLE
  5
34993
102
{ACAD_XDICTIONARY
360
59C14
102
}
102
{ACAD_REACTORS
330
34992
102
}
330
34992
100
AcDbVisualStyle
  2
Flat
 70
     0
177
     2
291
     1
 71
     2
176
     1
 72
     1
176
     1
 73
     1
176
     1
 90
        2
176
     1
 40
0.6
176
     1
 41
30.0
176
     1
 63
     7
176
     1
 74
     0
176
     1
 91
        4
176
     1
 64
     7
176
     1
 65
   257
176
     1
 75
     1
176
     1
175
     1
176
     1
 42
1.0
176
     1
 92
        8
176
     1
 66
     7
176
     1
 43
1.0
176
     1
 76
     1
176
     1
 77
     6
176
     1
 78
     2
176
     1
 67
     7
176
     1
 79
     5
176
     1
170
     0
176
     1
171
     0
176
     1
290
     0
176
     1
 93
       13
176
     1
 44
0.0
176
     1
173
     0
176
     1
1001
ACAD
1000
AcDbSavedByObjectVersion
1070
     0
  0
VISUALSTYLE
  5
34994
102
{ACAD_XDICTIONARY
360
59C16
102
}
102
{ACAD_REACTORS
330
34992
102
}
330
34992
100
AcDbVisualStyle
  2
FlatWithEdges
 70
     1
177
     2
291
     1
 71
     2
176
     1
 72
     1
176
     1
 73
     1
176
     1
 90
        2
176
     1
 40
0.6
176
     1
 41
30.0
176
     1
 63
     7
176
     1
 74
     1
176
     1
 91
        4
176
     1
 64
     7
176
     1
 65
   257
176
     1
 75
     1
176
     1
175
     1
176
     1
 42
1.0
176
     1
 92
        0
176
     1
 66
   257
176
     1
 43
1.0
176
     1
 76
     1
176
     1
 77
     6
176
     1
 78
     2
176
     1
 67
     7
176
     1
 79
     5
176
     1
170
     0
176
     1
171
     0
176
     1
290
     0
176
     1
 93
       13
176
     1
 44
0.0
176
     1
173
     0
176
     1
1001
ACAD
1000
AcDbSavedByObjectVersion
1070
     0
  0
VISUALSTYLE
  5
34995
102
{ACAD_XDICTIONARY
360
59C18
102
}
102
{ACAD_REACTORS
330
34992
102
}
330
34992
100
AcDbVisualStyle
  2
Gouraud
 70
     2
177
     2
291
     1
 71
     2
176
     1
 72
     2
176
     1
 73
     1
176
     1
 90
        2
176
     1
 40
0.6
176
     1
 41
30.0
176
     1
 63
     7
176
     1
 74
     0
176
     1
 91
        4
176
     1
 64
     7
176
     1
 65
   257
176
     1
 75
     1
176
     1
175
     1
176
     1
 42
1.0
176
     1
 92
        0
176
     1
 66
     7
176
     1
 43
1.0
176
     1
 76
     1
176
     1
 77
     6
176
     1
 78
     2
176
     1
 67
     7
176
     1
 79
     5
176
     1
170
     0
176
     1
171
     0
176
     1
290
     0
176
     1
 93
       13
176
     1
 44
0.0
176
     1
173
     0
176
     1
1001
ACAD
1000
AcDbSavedByObjectVersion
1070
     0
  0
VISUALSTYLE
  5
34996
102
{ACAD_XDICTIONARY
360
59C1A
102
}
102
{ACAD_REACTORS
330
34992
102
}
330
34992
100
AcDbVisualStyle
  2
GouraudWithEdges
 70
     3
177
     2
291
     1
 71
     2
176
     1
 72
     2
176
     1
 73
     1
176
     1
 90
        2
176
     1
 40
0.6
176
     1
 41
30.0
176
     1
 63
     7
176
     1
 74
     1
176
     1
 91
        4
176
     1
 64
     7
176
     1
 65
   257
176
     1
 75
     1
176
     1
175
     1
176
     1
 42
1.0
176
     1
 92
        0
176
     1
 66
   257
176
     1
 43
1.0
176
     1
 76
     1
176
     1
 77
     6
176
     1
 78
     2
176
     1
 67
     7
176
     1
 79
     5
176
     1
170
     0
176
     1
171
     0
176
     1
290
     0
176
     1
 93
       13
176
     1
 44
0.0
176
     1
173
     0
176
     1
1001
ACAD
1000
AcDbSavedByObjectVersion
1070
     0
  0
VISUALSTYLE
  5
59BD2
102
{ACAD_XDICTIONARY
360
59C36
102
}
102
{ACAD_REACTORS
330
34992
102
}
330
34992
100
AcDbVisualStyle
  2
Hidden
 70
     6
177
     2
291
     0
 71
     1
176
     1
 72
     2
176
     1
 73
     2
176
     1
 90
        0
176
     1
 40
0.6
176
     1
 41
30.0
176
     1
 63
     7
421
 16777215
176
     1
 74
     2
176
     1
 91
        2
176
     1
 64
     7
176
     1
 65
   257
176
     1
 75
     2
176
     1
175
     1
176
     1
 42
40.0
176
     1
 92
        0
176
     1
 66
   257
176
     1
 43
1.0
176
     1
 76
     1
176
     1
 77
     6
176
     1
 78
     2
176
     1
 67
     7
176
     1
 79
     3
176
     1
170
     0
176
     1
171
     0
176
     1
290
     0
176
     1
 93
        1
176
     1
 44
0.0
176
     1
173
     0
176
     1
1001
ACAD
1000
AcDbSavedByObjectVersion
1070
     0
  0
VISUALSTYLE
  5
59BD8
102
{ACAD_XDICTIONARY
360
59C42
102
}
102
{ACAD_REACTORS
330
34992
102
}
330
34992
100
AcDbVisualStyle
  2
JitterOff
 70
    20
177
     2
291
     1
 71
     2
176
     0
 72
     2
176
     0
 73
     0
176
     0
 90
        0
176
     0
 40
0.6
176
     0
 41
30.0
176
     0
 63
     7
421
 16777215
176
     0
 74
     1
176
     0
 91
        4
176
     0
 64
     7
176
     0
 65
   257
176
     0
 75
     1
176
     0
175
     1
176
     0
 42
1.0
176
     0
 92
       10
176
     2
 66
     7
176
     0
 43
1.0
176
     0
 76
     1
176
     0
 77
     6
176
     0
 78
     2
176
     0
 67
     7
176
     0
 79
     5
176
     0
170
     0
176
     0
171
     0
176
     0
290
     0
176
     0
 93
        1
176
     0
 44
0.0
176
     0
173
     0
176
     0
1001
ACAD
1000
AcDbSavedByObjectVersion
1070
     0
  0
VISUALSTYLE
  5
349A0
102
{ACAD_XDICTIONARY
360
59C2E
102
}
102
{ACAD_REACTORS
330
34992
102
}
330
34992
100
AcDbVisualStyle
  2
Linepattern
 70
    14
177
     2
291
     1
 71
     2
176
     1
 72
     2
176
     1
 73
     0
176
     1
 90
        0
176
     1
 40
0.6
176
     1
 41
30.0
176
     1
 63
     7
176
     1
 74
     1
176
     1
 91
        4
176
     1
 64
     7
176
     1
 65
   257
176
     1
 75
     7
176
     1
175
     7
176
     1
 42
1.0
176
     1
 92
        8
176
     1
 66
     7
176
     1
 43
1.0
176
     1
 76
     1
176
     1
 77
     6
176
     1
 78
     2
176
     1
 67
     7
176
     1
 79
     5
176
     1
170
     0
176
     1
171
     0
176
     1
290
     0
176
     1
 93
        1
176
     1
 44
0.0
176
     1
173
     0
176
     1
1001
ACAD
1000
AcDbSavedByObjectVersion
1070
     0
  0
VISUALSTYLE
  5
59BD9
102
{ACAD_XDICTIONARY
360
59C44
102
}
102
{ACAD_REACTORS
330
34992
102
}
330
34992
100
AcDbVisualStyle
  2
OverhangOff
 70
    21
177
     2
291
     1
 71
     2
176
     0
 72
     2
176
     0
 73
     0
176
     0
 90
        0
176
     0
 40
0.6
176
     0
 41
30.0
176
     0
 63
     7
421
 16777215
176
     0
 74
     1
176
     0
 91
        4
176
     0
 64
     7
176
     0
 65
   257
176
     0
 75
     1
176
     0
175
     1
176
     0
 42
1.0
176
     0
 92
        9
176
     2
 66
     7
176
     0
 43
1.0
176
     0
 76
     1
176
     0
 77
     6
176
     0
 78
     2
176
     0
 67
     7
176
     0
 79
     5
176
     0
170
     0
176
     0
171
     0
176
     0
290
     0
176
     0
 93
        1
176
     0
 44
0.0
176
     0
173
     0
176
     0
1001
ACAD
1000
AcDbSavedByObjectVersion
1070
     0
  0
VISUALSTYLE
  5
3499C
102
{ACAD_XDICTIONARY
360
59C26
102
}
102
{ACAD_REACTORS
330
34992
102
}
330
34992
100
AcDbVisualStyle
  2
Realistic
 70
     8
177
     2
291
     0
 71
     2
176
     1
 72
     2
176
     1
 73
     0
176
     1
 90
        0
176
     1
 40
0.6
176
     1
 41
30.0
176
     1
 63
     7
176
     1
 74
     1
176
     1
 91
        0
176
     1
 64
     7
176
     1
 65
   257
176
     1
 75
     1
176
     1
175
     1
176
     1
 42
1.0
176
     1
 92
        8
176
     1
 66
     8
176
     1
 43
1.0
176
     1
 76
     1
176
     1
 77
     6
176
     1
 78
     2
176
     1
 67
     7
176
     1
 79
     5
176
     1
170
     0
176
     1
171
     0
176
     1
290
     0
176
     1
 93
       13
176
     1
 44
0.0
176
     1
173
     0
176
     1
1001
ACAD
1000
AcDbSavedByObjectVersion
1070
     0
  0
VISUALSTYLE
  5
59BD7
102
{ACAD_XDICTIONARY
360
59C40
102
}
102
{ACAD_REACTORS
330
34992
102
}
330
34992
100
AcDbVisualStyle
  2
Shaded
 70
    27
177
     2
291
     0
 71
     2
176
     1
 72
     2
176
     1
 73
     1
176
     1
 90
        2
176
     1
 40
0.6
176
     1
 41
30.0
176
     1
 63
     7
421
 16777215
176
     1
 74
     0
176
     1
 91
        4
176
     1
 64
     7
176
     1
 65
   257
176
     1
 75
     1
176
     1
175
     1
176
     1
 42
1.0
176
     1
 92
        8
176
     1
 66
   257
176
     1
 43
1.0
176
     1
 76
     1
176
     1
 77
     6
176
     1
 78
     2
176
     1
 67
     8
425
  7895160
176
     1
 79
     3
176
     1
170
     0
176
     1
171
     0
176
     1
290
     0
176
     1
 93
        5
176
     1
 44
0.0
176
     1
173
     0
176
     1
1001
ACAD
1000
AcDbSavedByObjectVersion
1070
     0
  0
VISUALSTYLE
  5
59BD6
102
{ACAD_XDICTIONARY
360
59C3E
102
}
102
{ACAD_REACTORS
330
34992
102
}
330
34992
100
AcDbVisualStyle
  2
Shaded with edges
 70
    26
177
     2
291
     0
 71
     2
176
     1
 72
     2
176
     1
 73
     1
176
     1
 90
        2
176
     1
 40
0.6
176
     1
 41
30.0
176
     1
 63
     7
421
 16777215
176
     1
 74
     1
176
     1
 91
        2
176
     1
 64
     7
176
     1
 65
   257
176
     1
 75
     2
176
     1
175
     1
176
     1
 42
1.0
176
     1
 92
        8
176
     1
 66
   257
176
     1
 43
1.0
176
     1
 76
     1
176
     1
 77
     6
176
     1
 78
     2
176
     1
 67
     7
176
     1
 79
     3
176
     1
170
     0
176
     1
171
     0
176
     1
290
     0
176
     1
 93
        5
176
     1
 44
0.0
176
     1
173
     0
176
     1
1001
ACAD
1000
AcDbSavedByObjectVersion
1070
     0
  0
VISUALSTYLE
  5
59BD3
102
{ACAD_XDICTIONARY
360
59C38
102
}
102
{ACAD_REACTORS
330
34992
102
}
330
34992
100
AcDbVisualStyle
  2
Shades of Gray
 70
    23
177
     2
291
     0
 71
     2
176
     1
 72
     2
176
     1
 73
     3
176
     1
 90
        0
176
     1
 40
0.6
176
     1
 41
30.0
176
     1
 63
     7
421
 16777215
176
     1
 74
     2
176
     1
 91
        2
176
     1
 64
     7
176
     1
 65
     7
176
     1
 75
     1
176
     1
175
     1
176
     1
 42
40.0
176
     1
 92
        8
176
     1
 66
     7
176
     1
 43
1.0
176
     1
 76
     1
176
     1
 77
     6
176
     1
 78
     2
176
     1
 67
     7
176
     1
 79
     3
176
     1
170
     0
176
     1
171
     0
176
     1
290
     0
176
     1
 93
        1
176
     1
 44
0.0
176
     1
173
     0
176
     1
1001
ACAD
1000
AcDbSavedByObjectVersion
1070
     0
  0
VISUALSTYLE
  5
59BD4
102
{ACAD_XDICTIONARY
360
59C3A
102
}
102
{ACAD_REACTORS
330
34992
102
}
330
34992
100
AcDbVisualStyle
  2
Sketchy
 70
    24
177
     2
291
     0
 71
     1
176
     1
 72
     2
176
     1
 73
     2
176
     1
 90
        0
176
     1
 40
0.6
176
     1
 41
30.0
176
     1
 63
     7
421
 16777215
176
     1
 74
     2
176
     1
 91
        2
176
     1
 64
     7
176
     1
 65
     7
176
     1
 75
     1
176
     1
175
     1
176
     1
 42
40.0
176
     1
 92
       11
176
     1
 66
     7
176
     1
 43
1.0
176
     1
 76
     1
176
     1
 77
     6
176
     1
 78
     2
176
     1
 67
     7
176
     1
 79
     6
176
     1
170
     0
176
     1
171
     0
176
     1
290
     0
176
     1
 93
        1
176
     1
 44
0.0
176
     1
173
     0
176
     1
1001
ACAD
1000
AcDbSavedByObjectVersion
1070
     0
  0
VISUALSTYLE
  5
3499F
102
{ACAD_XDICTIONARY
360
59C2C
102
}
102
{ACAD_REACTORS
330
34992
102
}
330
34992
100
AcDbVisualStyle
  2
Thicken
 70
    13
177
     2
291
     1
 71
     2
176
     1
 72
     2
176
     1
 73
     0
176
     1
 90
        0
176
     1
 40
0.6
176
     1
 41
30.0
176
     1
 63
     7
176
     1
 74
     1
176
     1
 91
        4
176
     1
 64
     7
176
     1
 65
   257
176
     1
 75
     1
176
     1
175
     1
176
     1
 42
1.0
176
     1
 92
       12
176
     1
 66
     7
176
     1
 43
1.0
176
     1
 76
     1
176
     1
 77
     6
176
     1
 78
     2
176
     1
 67
     7
176
     1
 79
     5
176
     1
170
     0
176
     1
171
     0
176
     1
290
     0
176
     1
 93
        1
176
     1
 44
0.0
176
     1
173
     0
176
     1
1001
ACAD
1000
AcDbSavedByObjectVersion
1070
     0
  0
VISUALSTYLE
  5
59BD1
102
{ACAD_XDICTIONARY
360
59C34
102
}
102
{ACAD_REACTORS
330
34992
102
}
330
34992
100
AcDbVisualStyle
  2
Wireframe
 70
     5
177
     2
291
     0
 71
     0
176
     1
 72
     2
176
     1
 73
     0
176
     1
 90
        0
176
     1
 40
0.6
176
     1
 41
30.0
176
     1
 63
     7
421
 16777215
176
     1
 74
     1
176
     1
 91
        4
176
     1
 64
     7
176
     1
 65
   257
176
     1
 75
     1
176
     1
175
     1
176
     1
 42
1.0
176
     1
 92
        0
176
     1
 66
   257
176
     1
 43
1.0
176
     1
 76
     1
176
     1
 77
     6
176
     1
 78
     2
176
     1
 67
     7
176
     1
 79
     3
176
     1
170
     0
176
     1
171
     0
176
     1
290
     0
176
     1
 93
        1
176
     1
 44
0.0
176
     1
173
     0
176
     1
1001
ACAD
1000
AcDbSavedByObjectVersion
1070
     0
  0
VISUALSTYLE
  5
59BD5
102
{ACAD_XDICTIONARY
360
59C3C
102
}
102
{ACAD_REACTORS
330
34992
102
}
330
34992
100
AcDbVisualStyle
  2
X-Ray
 70
    25
177
     2
291
     0
 71
     2
176
     1
 72
     2
176
     1
 73
     1
176
     1
 90
        1
176
     1
 40
0.5
176
     1
 41
30.0
176
     1
 63
     7
421
 16777215
176
     1
 74
     1
176
     1
 91
        0
176
     1
 64
     7
176
     1
 65
   257
176
     1
 75
     1
176
     1
175
     1
176
     1
 42
1.0
176
     1
 92
        8
176
     1
 66
     7
176
     1
 43
1.0
176
     1
 76
     1
176
     1
 77
     6
176
     1
 78
     2
176
     1
 67
     7
176
     1
 79
     3
176
     1
170
     0
176
     1
171
     0
176
     1
290
     0
176
     1
 93
       13
176
     1
 44
0.0
176
     1
173
     0
176
     1
1001
ACAD
1000
AcDbSavedByObjectVersion
1070
     0
  0
DICTIONARYVAR
  5
34A95
102
{ACAD_REACTORS
330
D1
102
}
330
D1
100
DictionaryVariables
280
     0
  1
1:1
  0
DICTIONARYVAR
  5
34A94
102
{ACAD_REACTORS
330
D1
102
}
330
D1
100
DictionaryVariables
280
     0
  1
STANDARD
  0
DICTIONARYVAR
  5
34A93
102
{ACAD_REACTORS
330
D1
102
}
330
D1
100
DictionaryVariables
280
     0
  1
STANDARD
  0
DICTIONARYVAR
  5
59BF0
102
{ACAD_REACTORS
330
D1
102
}
330
D1
100
DictionaryVariables
280
     0
  1
Metric50
  0
DICTIONARYVAR
  5
59BF1
102
{ACAD_REACTORS
330
D1
102
}
330
D1
100
DictionaryVariables
280
     0
  1
Metric50
  0
DICTIONARYVAR
  5
D3
102
{ACAD_REACTORS
330
D1
102
}
330
D1
100
DictionaryVariables
280
     0
  1
2
  0
DICTIONARYVAR
  5
D2
102
{ACAD_REACTORS
330
D1
102
}
330
D1
100
DictionaryVariables
280
     0
  1
1
  0
DICTIONARYVAR
  5
34A97
102
{ACAD_REACTORS
330
D1
102
}
330
D1
100
DictionaryVariables
280
     0
  1
0
  0
DICTIONARYVAR
  5
59BF2
102
{ACAD_REACTORS
330
D1
102
}
330
D1
100
DictionaryVariables
280
     0
  1
1
  0
DICTIONARYVAR
  5
59BF3
102
{ACAD_REACTORS
330
D1
102
}
330
D1
100
DictionaryVariables
280
     0
  1
15
  0
DICTIONARYVAR
  5
35721
102
{ACAD_REACTORS
330
D1
102
}
330
D1
100
DictionaryVariables
280
     0
  1
0
  0
DICTIONARYVAR
  5
35720
102
{ACAD_REACTORS
330
D1
102
}
330
D1
100
DictionaryVariables
280
     0
  1
0
  0
DICTIONARYVAR
  5
34A96
102
{ACAD_REACTORS
330
D1
102
}
330
D1
100
DictionaryVariables
280
     0
  1
127
  0
DICTIONARY
  5
59C13
102
{ACAD_REACTORS
330
59C11
102
}
330
59C11
100
AcDbDictionary
281
     1
  0
DICTIONARY
  5
59C12
102
{ACAD_REACTORS
330
59C11
102
}
330
59C11
100
AcDbDictionary
281
     1
  3
2785559759616
350
59C10
  3
2785559793472
350
59C0C
  3
2785559793488
350
59C0D
  3
2785559793504
350
59C0E
  3
2785559793520
350
59C0F
  0
DICTIONARY
  5
59C4A
330
59BDE
100
AcDbDictionary
280
     1
281
     1
  3
ACAD_XREC_ROUNDTRIP
360
59C4B
  0
DICTIONARY
  5
349D7
330
3491A
100
AcDbDictionary
280
     1
281
     1
  0
DICTIONARY
  5
34983
330
34982
100
AcDbDictionary
280
     1
281
     1
  3
BUMPTILE
360
34985
  3
DIFFUSETILE
360
34984
  3
OPACITYTILE
360
34988
  3
REFLECTIONTILE
360
34987
  3
REFRACTIONTILE
360
34989
  3
SPECULARTILE
360
34986
  0
DICTIONARY
  5
3497B
330
3497A
100
AcDbDictionary
280
     1
281
     1
  3
BUMPTILE
360
3497D
  3
DIFFUSETILE
360
3497C
  3
OPACITYTILE
360
34980
  3
REFLECTIONTILE
360
3497F
  3
REFRACTIONTILE
360
34981
  3
SPECULARTILE
360
3497E
  0
DICTIONARY
  5
3498B
330
3498A
100
AcDbDictionary
280
     1
281
     1
  3
BUMPTILE
360
3498D
  3
DIFFUSETILE
360
3498C
  3
OPACITYTILE
360
34990
  3
REFLECTIONTILE
360
3498F
  3
REFRACTIONTILE
360
34991
  3
SPECULARTILE
360
3498E
  0
DICTIONARY
  5
59C48
330
59BDC
100
AcDbDictionary
280
     1
281
     1
  3
ACAD_XREC_ROUNDTRIP
360
59C49
  0
DICTIONARY
  5
34A71
330
349A5
100
AcDbDictionary
280
     1
281
     1
  3
ACAD_ROUNDTRIP_2008_TABLESTYLE_CELLSTYLEMAP
360
59C09
  0
DICTIONARY
  5
59C1E
330
34998
100
AcDbDictionary
280
     1
281
     1
  3
ACAD_XREC_ROUNDTRIP
360
59C1F
  0
DICTIONARY
  5
59C22
330
3499A
100
AcDbDictionary
280
     1
281
     1
  3
ACAD_XREC_ROUNDTRIP
360
59C23
  0
DICTIONARY
  5
59C20
330
34999
100
AcDbDictionary
280
     1
281
     1
  3
ACAD_XREC_ROUNDTRIP
360
59C21
  0
DICTIONARY
  5
59C1C
330
34997
100
AcDbDictionary
280
     1
281
     1
  3
ACAD_XREC_ROUNDTRIP
360
59C1D
  0
DICTIONARY
  5
59C2A
330
3499E
100
AcDbDictionary
280
     1
281
     1
  3
ACAD_XREC_ROUNDTRIP
360
59C2B
  0
DICTIONARY
  5
59C32
330
349A2
100
AcDbDictionary
280
     1
281
     1
  3
ACAD_XREC_ROUNDTRIP
360
59C33
  0
DICTIONARY
  5
59C24
330
3499B
100
AcDbDictionary
280
     1
281
     1
  3
ACAD_XREC_ROUNDTRIP
360
59C25
  0
DICTIONARY
  5
59C28
330
3499D
100
AcDbDictionary
280
     1
281
     1
  3
ACAD_XREC_ROUNDTRIP
360
59C29
  0
DICTIONARY
  5
59C46
330
59BDA
100
AcDbDictionary
280
     1
281
     1
  3
ACAD_XREC_ROUNDTRIP
360
59C47
  0
DICTIONARY
  5
59C30
330
349A1
100
AcDbDictionary
280
     1
281
     1
  3
ACAD_XREC_ROUNDTRIP
360
59C31
  0
DICTIONARY
  5
59C14
330
34993
100
AcDbDictionary
280
     1
281
     1
  3
ACAD_XREC_ROUNDTRIP
360
59C15
  0
DICTIONARY
  5
59C16
330
34994
100
AcDbDictionary
280
     1
281
     1
  3
ACAD_XREC_ROUNDTRIP
360
59C17
  0
DICTIONARY
  5
59C18
330
34995
100
AcDbDictionary
280
     1
281
     1
  3
ACAD_XREC_ROUNDTRIP
360
59C19
  0
DICTIONARY
  5
59C1A
330
34996
100
AcDbDictionary
280
     1
281
     1
  3
ACAD_XREC_ROUNDTRIP
360
59C1B
  0
DICTIONARY
  5
59C36
330
59BD2
100
AcDbDictionary
280
     1
281
     1
  3
ACAD_XREC_ROUNDTRIP
360
59C37
  0
DICTIONARY
  5
59C42
330
59BD8
100
AcDbDictionary
280
     1
281
     1
  3
ACAD_XREC_ROUNDTRIP
360
59C43
  0
DICTIONARY
  5
59C2E
330
349A0
100
AcDbDictionary
280
     1
281
     1
  3
ACAD_XREC_ROUNDTRIP
360
59C2F
  0
DICTIONARY
  5
59C44
330
59BD9
100
AcDbDictionary
280
     1
281
     1
  3
ACAD_XREC_ROUNDTRIP
360
59C45
  0
DICTIONARY
  5
59C26
330
3499C
100
AcDbDictionary
280
     1
281
     1
  3
ACAD_XREC_ROUNDTRIP
360
59C27
  0
DICTIONARY
  5
59C40
330
59BD7
100
AcDbDictionary
280
     1
281
     1
  3
ACAD_XREC_ROUNDTRIP
360
59C41
  0
DICTIONARY
  5
59C3E
330
59BD6
100
AcDbDictionary
280
     1
281
     1
  3
ACAD_XREC_ROUNDTRIP
360
59C3F
  0
DICTIONARY
  5
59C38
330
59BD3
100
AcDbDictionary
280
     1
281
     1
  3
ACAD_XREC_ROUNDTRIP
360
59C39
  0
DICTIONARY
  5
59C3A
330
59BD4
100
AcDbDictionary
280
     1
281
     1
  3
ACAD_XREC_ROUNDTRIP
360
59C3B
  0
DICTIONARY
  5
59C2C
330
3499F
100
AcDbDictionary
280
     1
281
     1
  3
ACAD_XREC_ROUNDTRIP
360
59C2D
  0
DICTIONARY
  5
59C34
330
59BD1
100
AcDbDictionary
280
     1
281
     1
  3
ACAD_XREC_ROUNDTRIP
360
59C35
  0
DICTIONARY
  5
59C3C
330
59BD5
100
AcDbDictionary
280
     1
281
     1
  3
ACAD_XREC_ROUNDTRIP
360
59C3D
  0
XRECORD
  5
59C10
102
{ACAD_REACTORS
330
59C12
102
}
330
59C12
100
AcDbXrecord
280
     1
  1
AcDbDs::HandleAttributeSchema
  2
AcDbDs::HandleAttribute
280
     7
 91
        1
284
     1
  0
XRECORD
  5
59C0C
102
{ACAD_REACTORS
330
59C12
102
}
330
59C12
100
AcDbXrecord
280
     1
  1
AcDb_Thumbnail_Schema
102
{ATTRRECORD
341
59C0D
  2
AcDbDs::TreatedAsObjectData
280
     1
291
     1
102
ATTRRECORD}
102
{ATTRRECORD
341
59C0E
  2
AcDbDs::Legacy
280
     1
291
     1
102
ATTRRECORD}
  2
AcDbDs::ID
280
    10
 91
        8
102
{ATTRRECORD
341
59C0F
  2
AcDs:Indexable
280
     1
291
     1
102
ATTRRECORD}
102
{ATTRRECORD
341
59C10
  2
AcDbDs::HandleAttribute
280
     7
282
     1
102
ATTRRECORD}
  2
Thumbnail_Data
280
    15
 91
        0
  0
XRECORD
  5
59C0D
102
{ACAD_REACTORS
330
59C12
102
}
330
59C12
100
AcDbXrecord
280
     1
  1
AcDbDs::TreatedAsObjectDataSchema
  2
AcDbDs::TreatedAsObjectData
280
     1
 91
        0
  0
XRECORD
  5
59C0E
102
{ACAD_REACTORS
330
59C12
102
}
330
59C12
100
AcDbXrecord
280
     1
  1
AcDbDs::LegacySchema
  2
AcDbDs::Legacy
280
     1
 91
        0
  0
XRECORD
  5
59C0F
102
{ACAD_REACTORS
330
59C12
102
}
330
59C12
100
AcDbXrecord
280
     1
  1
AcDbDs::IndexedPropertySchema
  2
AcDs:Indexable
280
     1
 91
        0
  0
XRECORD
  5
59C4B
102
{ACAD_REACTORS
330
59C4A
102
}
330
59C4A
100
AcDbXrecord
280
     1
102
DISPLAYNAME
  1
Metric50
102
FLAGS
 90
        0
  0
XRECORD
  5
34985
102
{ACAD_REACTORS
330
34983
102
}
330
34983
100
AcDbXrecord
280
     1
270
     1
271
     1
  0
XRECORD
  5
34984
102
{ACAD_REACTORS
330
34983
102
}
330
34983
100
AcDbXrecord
280
     1
270
     1
271
     1
  0
XRECORD
  5
34988
102
{ACAD_REACTORS
330
34983
102
}
330
34983
100
AcDbXrecord
280
     1
270
     1
271
     1
  0
XRECORD
  5
34987
102
{ACAD_REACTORS
330
34983
102
}
330
34983
100
AcDbXrecord
280
     1
270
     1
271
     1
  0
XRECORD
  5
34989
102
{ACAD_REACTORS
330
34983
102
}
330
34983
100
AcDbXrecord
280
     1
270
     1
271
     1
  0
XRECORD
  5
34986
102
{ACAD_REACTORS
330
34983
102
}
330
34983
100
AcDbXrecord
280
     1
270
     1
271
     1
  0
XRECORD
  5
3497D
102
{ACAD_REACTORS
330
3497B
102
}
330
3497B
100
AcDbXrecord
280
     1
270
     1
271
     1
  0
XRECORD
  5
3497C
102
{ACAD_REACTORS
330
3497B
102
}
330
3497B
100
AcDbXrecord
280
     1
270
     1
271
     1
  0
XRECORD
  5
34980
102
{ACAD_REACTORS
330
3497B
102
}
330
3497B
100
AcDbXrecord
280
     1
270
     1
271
     1
  0
XRECORD
  5
3497F
102
{ACAD_REACTORS
330
3497B
102
}
330
3497B
100
AcDbXrecord
280
     1
270
     1
271
     1
  0
XRECORD
  5
34981
102
{ACAD_REACTORS
330
3497B
102
}
330
3497B
100
AcDbXrecord
280
     1
270
     1
271
     1
  0
XRECORD
  5
3497E
102
{ACAD_REACTORS
330
3497B
102
}
330
3497B
100
AcDbXrecord
280
     1
270
     1
271
     1
  0
XRECORD
  5
3498D
102
{ACAD_REACTORS
330
3498B
102
}
330
3498B
100
AcDbXrecord
280
     1
270
     1
271
     1
  0
XRECORD
  5
3498C
102
{ACAD_REACTORS
330
3498B
102
}
330
3498B
100
AcDbXrecord
280
     1
270
     1
271
     1
  0
XRECORD
  5
34990
102
{ACAD_REACTORS
330
3498B
102
}
330
3498B
100
AcDbXrecord
280
     1
270
     1
271
     1
  0
XRECORD
  5
3498F
102
{ACAD_REACTORS
330
3498B
102
}
330
3498B
100
AcDbXrecord
280
     1
270
     1
271
     1
  0
XRECORD
  5
34991
102
{ACAD_REACTORS
330
3498B
102
}
330
3498B
100
AcDbXrecord
280
     1
270
     1
271
     1
  0
XRECORD
  5
3498E
102
{ACAD_REACTORS
330
3498B
102
}
330
3498B
100
AcDbXrecord
280
     1
270
     1
271
     1
  0
XRECORD
  5
59C49
102
{ACAD_REACTORS
330
59C48
102
}
330
59C48
100
AcDbXrecord
280
     1
102
DISPLAYNAME
  1
Metric50
102
FLAGS
 90
        0
  0
CELLSTYLEMAP
  5
59C09
102
{ACAD_REACTORS
330
34A71
102
}
330
34A71
100
AcDbCellStyleMap
 90
        3
300
CELLSTYLE
  1
TABLEFORMAT_BEGIN
 90
        5
170
     1
 91
        0
 92
    32768
 62
   257
 93
        1
300
CONTENTFORMAT
  1
CONTENTFORMAT_BEGIN
 90
        0
 91
        0
 92
      512
 93
        0
300

 40
0.0
140
1.0
 94
        5
 62
     0
340
11
144
6.0
309
CONTENTFORMAT_END
171
     1
301
MARGIN
  1
CELLMARGIN_BEGIN
 40
1.5
 40
1.5
 40
1.5
 40
1.5
 40
0.18
 40
0.18
309
CELLMARGIN_END
 94
        6
 95
        1
302
GRIDFORMAT
  1
GRIDFORMAT_BEGIN
 90
        0
 91
        1
 62
     0
 92
       -2
340
0
 93
        0
 40
1.125
309
GRIDFORMAT_END
 95
        2
302
GRIDFORMAT
  1
GRIDFORMAT_BEGIN
 90
        0
 91
        1
 62
     0
 92
       -2
340
0
 93
        0
 40
1.125
309
GRIDFORMAT_END
 95
        4
302
GRIDFORMAT
  1
GRIDFORMAT_BEGIN
 90
        0
 91
        1
 62
     0
 92
       -2
340
0
 93
        0
 40
1.125
309
GRIDFORMAT_END
 95
        8
302
GRIDFORMAT
  1
GRIDFORMAT_BEGIN
 90
        0
 91
        1
 62
     0
 92
       -2
340
0
 93
        0
 40
1.125
309
GRIDFORMAT_END
 95
       16
302
GRIDFORMAT
  1
GRIDFORMAT_BEGIN
 90
        0
 91
        1
 62
     0
 92
       -2
340
0
 93
        0
 40
1.125
309
GRIDFORMAT_END
 95
       32
302
GRIDFORMAT
  1
GRIDFORMAT_BEGIN
 90
        0
 91
        1
 62
     0
 92
       -2
340
0
 93
        0
 40
1.125
309
GRIDFORMAT_END
309
TABLEFORMAT_END
  1
CELLSTYLE_BEGIN
 90
        1
 91
        1
300
_TITLE
309
CELLSTYLE_END
300
CELLSTYLE
  1
TABLEFORMAT_BEGIN
 90
        5
170
     1
 91
        0
 92
        0
 62
   257
 93
        1
300
CONTENTFORMAT
  1
CONTENTFORMAT_BEGIN
 90
        0
 91
        0
 92
      512
 93
        0
300

 40
0.0
140
1.0
 94
        5
 62
     0
340
11
144
4.5
309
CONTENTFORMAT_END
171
     1
301
MARGIN
  1
CELLMARGIN_BEGIN
 40
1.5
 40
1.5
 40
1.5
 40
1.5
 40
0.18
 40
0.18
309
CELLMARGIN_END
 94
        6
 95
        1
302
GRIDFORMAT
  1
GRIDFORMAT_BEGIN
 90
        0
 91
        1
 62
     0
 92
       -2
340
0
 93
        0
 40
1.125
309
GRIDFORMAT_END
 95
        2
302
GRIDFORMAT
  1
GRIDFORMAT_BEGIN
 90
        0
 91
        1
 62
     0
 92
       -2
340
0
 93
        0
 40
1.125
309
GRIDFORMAT_END
 95
        4
302
GRIDFORMAT
  1
GRIDFORMAT_BEGIN
 90
        0
 91
        1
 62
     0
 92
       -2
340
0
 93
        0
 40
1.125
309
GRIDFORMAT_END
 95
        8
302
GRIDFORMAT
  1
GRIDFORMAT_BEGIN
 90
        0
 91
        1
 62
     0
 92
       -2
340
0
 93
        0
 40
1.125
309
GRIDFORMAT_END
 95
       16
302
GRIDFORMAT
  1
GRIDFORMAT_BEGIN
 90
        0
 91
        1
 62
     0
 92
       -2
340
0
 93
        0
 40
1.125
309
GRIDFORMAT_END
 95
       32
302
GRIDFORMAT
  1
GRIDFORMAT_BEGIN
 90
        0
 91
        1
 62
     0
 92
       -2
340
0
 93
        0
 40
1.125
309
GRIDFORMAT_END
309
TABLEFORMAT_END
  1
CELLSTYLE_BEGIN
 90
        2
 91
        1
300
_HEADER
309
CELLSTYLE_END
300
CELLSTYLE
  1
TABLEFORMAT_BEGIN
 90
        5
170
     1
 91
        0
 92
        0
 62
   257
 93
        1
300
CONTENTFORMAT
  1
CONTENTFORMAT_BEGIN
 90
        0
 91
        0
 92
      512
 93
        0
300

 40
0.0
140
1.0
 94
        2
 62
     0
340
11
144
4.5
309
CONTENTFORMAT_END
171
     1
301
MARGIN
  1
CELLMARGIN_BEGIN
 40
1.5
 40
1.5
 40
1.5
 40
1.5
 40
0.18
 40
0.18
309
CELLMARGIN_END
 94
        6
 95
        1
302
GRIDFORMAT
  1
GRIDFORMAT_BEGIN
 90
        0
 91
        1
 62
     0
 92
       -2
340
0
 93
        0
 40
1.125
309
GRIDFORMAT_END
 95
        2
302
GRIDFORMAT
  1
GRIDFORMAT_BEGIN
 90
        0
 91
        1
 62
     0
 92
       -2
340
0
 93
        0
 40
1.125
309
GRIDFORMAT_END
 95
        4
302
GRIDFORMAT
  1
GRIDFORMAT_BEGIN
 90
        0
 91
        1
 62
     0
 92
       -2
340
0
 93
        0
 40
1.125
309
GRIDFORMAT_END
 95
        8
302
GRIDFORMAT
  1
GRIDFORMAT_BEGIN
 90
        0
 91
        1
 62
     0
 92
       -2
340
0
 93
        0
 40
1.125
309
GRIDFORMAT_END
 95
       16
302
GRIDFORMAT
  1
GRIDFORMAT_BEGIN
 90
        0
 91
        1
 62
     0
 92
       -2
340
0
 93
        0
 40
1.125
309
GRIDFORMAT_END
 95
       32
302
GRIDFORMAT
  1
GRIDFORMAT_BEGIN
 90
        0
 91
        1
 62
     0
 92
       -2
340
0
 93
        0
 40
1.125
309
GRIDFORMAT_END
309
TABLEFORMAT_END
  1
CELLSTYLE_BEGIN
 90
        3
 91
        2
300
_DATA
309
CELLSTYLE_END
  0
XRECORD
  5
59C1F
102
{ACAD_REACTORS
330
59C1E
102
}
330
59C1E
100
AcDbXrecord
280
     1
102
RTVSPost2010Prop28
280
     1
102
RTVSPost2010PropOp28
 70
     1
102
RTVSPost2010Prop29
280
     1
102
RTVSPost2010PropOp29
 70
     1
102
RTVSPost2010Prop30
280
     0
102
RTVSPost2010PropOp30
 70
     1
102
RTVSPost2010Prop31
280
     0
102
RTVSPost2010PropOp31
 70
     1
102
RTVSPost2010Prop32
280
     0
102
RTVSPost2010PropOp32
 70
     1
102
RTVSPost2010Prop33
280
     0
102
RTVSPost2010PropOp33
 70
     1
102
RTVSPost2010Prop34
280
     0
102
RTVSPost2010PropOp34
 70
     1
102
RTVSPost2010Prop35
280
     0
102
RTVSPost2010PropOp35
 70
     1
102
RTVSPost2010Prop36
280
     0
102
RTVSPost2010PropOp36
 70
     1
102
RTVSPost2010Prop37
 90
       50
102
RTVSPost2010PropOp37
 70
     1
102
RTVSPost2010Prop38
140
0.0
102
RTVSPost2010PropOp38
 70
     1
102
RTVSPost2010Prop39
140
1.0
102
RTVSPost2010PropOp39
 70
     1
102
RTVSPost2010Prop40
 90
        0
102
RTVSPost2010PropOp40
 70
     1
102
RTVSPost2010Prop41ColorIndex
 90
       18
102
RTVSPost2010Prop41ColorRGB
 90
-16777216
102
RTVSPost2010PropOp41
 70
     1
102
RTVSPost2010Prop42
 90
       50
102
RTVSPost2010PropOp42
 70
     1
102
RTVSPost2010Prop43
 90
        3
102
RTVSPost2010PropOp43
 70
     1
102
RTVSPost2010Prop44ColorIndex
 90
        5
102
RTVSPost2010Prop44ColorRGB
 90
      255
102
RTVSPost2010PropOp44
 70
     1
102
RTVSPost2010Prop45
280
     0
102
RTVSPost2010PropOp45
 70
     1
102
RTVSPost2010Prop46
 90
       50
102
RTVSPost2010PropOp46
 70
     1
102
RTVSPost2010Prop47
 90
       50
102
RTVSPost2010PropOp47
 70
     1
102
RTVSPost2010Prop48
 90
       50
102
RTVSPost2010PropOp48
 70
     1
102
RTVSPost2010Prop49
280
     0
102
RTVSPost2010PropOp49
 70
     1
102
RTVSPost2010Prop50
 90
       50
102
RTVSPost2010PropOp50
 70
     1
102
RTVSPost2010Prop51ColorIndex
 90
      256
102
RTVSPost2010Prop51ColorRGB
 90
-16777216
102
RTVSPost2010PropOp51
 70
     0
102
RTVSPost2010Prop52
140
1.0
102
RTVSPost2010PropOp52
 70
     0
102
RTVSPost2010Prop53
 90
        2
102
RTVSPost2010PropOp53
 70
     1
102
RTVSPost2010Prop54
  1
strokes_ogs.tif
102
RTVSPost2010PropOp54
 70
     1
102
RTVSPost2010Prop55
280
     0
102
RTVSPost2010PropOp55
 70
     1
102
RTVSPost2010Prop56
140
1.0
102
RTVSPost2010PropOp56
 70
     1
102
RTVSPost2010Prop57
140
1.0
102
RTVSPost2010PropOp57
 70
     1
  0
XRECORD
  5
59C23
102
{ACAD_REACTORS
330
59C22
102
}
330
59C22
100
AcDbXrecord
280
     1
102
RTVSPost2010Prop28
280
     0
102
RTVSPost2010PropOp28
 70
     1
102
RTVSPost2010Prop29
280
     1
102
RTVSPost2010PropOp29
 70
     1
102
RTVSPost2010Prop30
280
     1
102
RTVSPost2010PropOp30
 70
     1
102
RTVSPost2010Prop31
280
     0
102
RTVSPost2010PropOp31
 70
     1
102
RTVSPost2010Prop32
280
     0
102
RTVSPost2010PropOp32
 70
     1
102
RTVSPost2010Prop33
280
     0
102
RTVSPost2010PropOp33
 70
     1
102
RTVSPost2010Prop34
280
     0
102
RTVSPost2010PropOp34
 70
     1
102
RTVSPost2010Prop35
280
     0
102
RTVSPost2010PropOp35
 70
     1
102
RTVSPost2010Prop36
280
     0
102
RTVSPost2010PropOp36
 70
     1
102
RTVSPost2010Prop37
 90
       50
102
RTVSPost2010PropOp37
 70
     1
102
RTVSPost2010Prop38
140
0.0
102
RTVSPost2010PropOp38
 70
     1
102
RTVSPost2010Prop39
140
1.0
102
RTVSPost2010PropOp39
 70
     1
102
RTVSPost2010Prop40
 90
        0
102
RTVSPost2010PropOp40
 70
     1
102
RTVSPost2010Prop41ColorIndex
 90
       18
102
RTVSPost2010Prop41ColorRGB
 90
-16777216
102
RTVSPost2010PropOp41
 70
     1
102
RTVSPost2010Prop42
 90
       50
102
RTVSPost2010PropOp42
 70
     1
102
RTVSPost2010Prop43
 90
        3
102
RTVSPost2010PropOp43
 70
     1
102
RTVSPost2010Prop44ColorIndex
 90
        5
102
RTVSPost2010Prop44ColorRGB
 90
      255
102
RTVSPost2010PropOp44
 70
     1
102
RTVSPost2010Prop45
280
     0
102
RTVSPost2010PropOp45
 70
     1
102
RTVSPost2010Prop46
 90
       50
102
RTVSPost2010PropOp46
 70
     1
102
RTVSPost2010Prop47
 90
       50
102
RTVSPost2010PropOp47
 70
     1
102
RTVSPost2010Prop48
 90
       50
102
RTVSPost2010PropOp48
 70
     1
102
RTVSPost2010Prop49
280
     0
102
RTVSPost2010PropOp49
 70
     1
102
RTVSPost2010Prop50
 90
       50
102
RTVSPost2010PropOp50
 70
     1
102
RTVSPost2010Prop51ColorIndex
 90
      256
102
RTVSPost2010Prop51ColorRGB
 90
-16777216
102
RTVSPost2010PropOp51
 70
     0
102
RTVSPost2010Prop52
140
1.0
102
RTVSPost2010PropOp52
 70
     0
102
RTVSPost2010Prop53
 90
        2
102
RTVSPost2010PropOp53
 70
     1
102
RTVSPost2010Prop54
  1
strokes_ogs.tif
102
RTVSPost2010PropOp54
 70
     1
102
RTVSPost2010Prop55
280
     0
102
RTVSPost2010PropOp55
 70
     1
102
RTVSPost2010Prop56
140
1.0
102
RTVSPost2010PropOp56
 70
     1
102
RTVSPost2010Prop57
140
1.0
102
RTVSPost2010PropOp57
 70
     1
  0
XRECORD
  5
59C21
102
{ACAD_REACTORS
330
59C20
102
}
330
59C20
100
AcDbXrecord
280
     1
102
RTVSPost2010Prop28
280
     0
102
RTVSPost2010PropOp28
 70
     1
102
RTVSPost2010Prop29
280
     1
102
RTVSPost2010PropOp29
 70
     1
102
RTVSPost2010Prop30
280
     1
102
RTVSPost2010PropOp30
 70
     1
102
RTVSPost2010Prop31
280
     0
102
RTVSPost2010PropOp31
 70
     1
102
RTVSPost2010Prop32
280
     0
102
RTVSPost2010PropOp32
 70
     1
102
RTVSPost2010Prop33
280
     0
102
RTVSPost2010PropOp33
 70
     1
102
RTVSPost2010Prop34
280
     0
102
RTVSPost2010PropOp34
 70
     1
102
RTVSPost2010Prop35
280
     0
102
RTVSPost2010PropOp35
 70
     1
102
RTVSPost2010Prop36
280
     0
102
RTVSPost2010PropOp36
 70
     1
102
RTVSPost2010Prop37
 90
       50
102
RTVSPost2010PropOp37
 70
     1
102
RTVSPost2010Prop38
140
0.0
102
RTVSPost2010PropOp38
 70
     1
102
RTVSPost2010Prop39
140
1.0
102
RTVSPost2010PropOp39
 70
     1
102
RTVSPost2010Prop40
 90
        0
102
RTVSPost2010PropOp40
 70
     1
102
RTVSPost2010Prop41ColorIndex
 90
       18
102
RTVSPost2010Prop41ColorRGB
 90
-16777216
102
RTVSPost2010PropOp41
 70
     1
102
RTVSPost2010Prop42
 90
       50
102
RTVSPost2010PropOp42
 70
     1
102
RTVSPost2010Prop43
 90
        3
102
RTVSPost2010PropOp43
 70
     1
102
RTVSPost2010Prop44ColorIndex
 90
        5
102
RTVSPost2010Prop44ColorRGB
 90
      255
102
RTVSPost2010PropOp44
 70
     1
102
RTVSPost2010Prop45
280
     0
102
RTVSPost2010PropOp45
 70
     1
102
RTVSPost2010Prop46
 90
       50
102
RTVSPost2010PropOp46
 70
     1
102
RTVSPost2010Prop47
 90
       50
102
RTVSPost2010PropOp47
 70
     1
102
RTVSPost2010Prop48
 90
       50
102
RTVSPost2010PropOp48
 70
     1
102
RTVSPost2010Prop49
280
     0
102
RTVSPost2010PropOp49
 70
     1
102
RTVSPost2010Prop50
 90
       50
102
RTVSPost2010PropOp50
 70
     1
102
RTVSPost2010Prop51ColorIndex
 90
      256
102
RTVSPost2010Prop51ColorRGB
 90
-16777216
102
RTVSPost2010PropOp51
 70
     0
102
RTVSPost2010Prop52
140
1.0
102
RTVSPost2010PropOp52
 70
     0
102
RTVSPost2010Prop53
 90
        2
102
RTVSPost2010PropOp53
 70
     1
102
RTVSPost2010Prop54
  1
strokes_ogs.tif
102
RTVSPost2010PropOp54
 70
     1
102
RTVSPost2010Prop55
280
     0
102
RTVSPost2010PropOp55
 70
     1
102
RTVSPost2010Prop56
140
1.0
102
RTVSPost2010PropOp56
 70
     1
102
RTVSPost2010Prop57
140
1.0
102
RTVSPost2010PropOp57
 70
     1
  0
XRECORD
  5
59C1D
102
{ACAD_REACTORS
330
59C1C
102
}
330
59C1C
100
AcDbXrecord
280
     1
102
RTVSPost2010Prop28
280
     0
102
RTVSPost2010PropOp28
 70
     1
102
RTVSPost2010Prop29
280
     1
102
RTVSPost2010PropOp29
 70
     1
102
RTVSPost2010Prop30
280
     1
102
RTVSPost2010PropOp30
 70
     1
102
RTVSPost2010Prop31
280
     0
102
RTVSPost2010PropOp31
 70
     1
102
RTVSPost2010Prop32
280
     0
102
RTVSPost2010PropOp32
 70
     1
102
RTVSPost2010Prop33
280
     0
102
RTVSPost2010PropOp33
 70
     1
102
RTVSPost2010Prop34
280
     0
102
RTVSPost2010PropOp34
 70
     1
102
RTVSPost2010Prop35
280
     0
102
RTVSPost2010PropOp35
 70
     1
102
RTVSPost2010Prop36
280
     0
102
RTVSPost2010PropOp36
 70
     1
102
RTVSPost2010Prop37
 90
       50
102
RTVSPost2010PropOp37
 70
     1
102
RTVSPost2010Prop38
140
0.0
102
RTVSPost2010PropOp38
 70
     1
102
RTVSPost2010Prop39
140
1.0
102
RTVSPost2010PropOp39
 70
     1
102
RTVSPost2010Prop40
 90
        0
102
RTVSPost2010PropOp40
 70
     1
102
RTVSPost2010Prop41ColorIndex
 90
       18
102
RTVSPost2010Prop41ColorRGB
 90
-16777216
102
RTVSPost2010PropOp41
 70
     1
102
RTVSPost2010Prop42
 90
       50
102
RTVSPost2010PropOp42
 70
     1
102
RTVSPost2010Prop43
 90
        3
102
RTVSPost2010PropOp43
 70
     1
102
RTVSPost2010Prop44ColorIndex
 90
        5
102
RTVSPost2010Prop44ColorRGB
 90
      255
102
RTVSPost2010PropOp44
 70
     1
102
RTVSPost2010Prop45
280
     0
102
RTVSPost2010PropOp45
 70
     1
102
RTVSPost2010Prop46
 90
       50
102
RTVSPost2010PropOp46
 70
     1
102
RTVSPost2010Prop47
 90
       50
102
RTVSPost2010PropOp47
 70
     1
102
RTVSPost2010Prop48
 90
       50
102
RTVSPost2010PropOp48
 70
     1
102
RTVSPost2010Prop49
280
     0
102
RTVSPost2010PropOp49
 70
     1
102
RTVSPost2010Prop50
 90
       50
102
RTVSPost2010PropOp50
 70
     1
102
RTVSPost2010Prop51ColorIndex
 90
      256
102
RTVSPost2010Prop51ColorRGB
 90
-16777216
102
RTVSPost2010PropOp51
 70
     0
102
RTVSPost2010Prop52
140
1.0
102
RTVSPost2010PropOp52
 70
     0
102
RTVSPost2010Prop53
 90
        2
102
RTVSPost2010PropOp53
 70
     1
102
RTVSPost2010Prop54
  1
strokes_ogs.tif
102
RTVSPost2010PropOp54
 70
     1
102
RTVSPost2010Prop55
280
     0
102
RTVSPost2010PropOp55
 70
     1
102
RTVSPost2010Prop56
140
1.0
102
RTVSPost2010PropOp56
 70
     1
102
RTVSPost2010Prop57
140
1.0
102
RTVSPost2010PropOp57
 70
     1
  0
XRECORD
  5
59C2B
102
{ACAD_REACTORS
330
59C2A
102
}
330
59C2A
100
AcDbXrecord
280
     1
102
RTVSPost2010Prop28
280
     0
102
RTVSPost2010PropOp28
 70
     1
102
RTVSPost2010Prop29
280
     1
102
RTVSPost2010PropOp29
 70
     1
102
RTVSPost2010Prop30
280
     1
102
RTVSPost2010PropOp30
 70
     1
102
RTVSPost2010Prop31
280
     0
102
RTVSPost2010PropOp31
 70
     1
102
RTVSPost2010Prop32
280
     0
102
RTVSPost2010PropOp32
 70
     1
102
RTVSPost2010Prop33
280
     0
102
RTVSPost2010PropOp33
 70
     1
102
RTVSPost2010Prop34
280
     0
102
RTVSPost2010PropOp34
 70
     1
102
RTVSPost2010Prop35
280
     0
102
RTVSPost2010PropOp35
 70
     1
102
RTVSPost2010Prop36
280
     0
102
RTVSPost2010PropOp36
 70
     1
102
RTVSPost2010Prop37
 90
       50
102
RTVSPost2010PropOp37
 70
     1
102
RTVSPost2010Prop38
140
0.0
102
RTVSPost2010PropOp38
 70
     1
102
RTVSPost2010Prop39
140
1.0
102
RTVSPost2010PropOp39
 70
     1
102
RTVSPost2010Prop40
 90
        0
102
RTVSPost2010PropOp40
 70
     1
102
RTVSPost2010Prop41ColorIndex
 90
       18
102
RTVSPost2010Prop41ColorRGB
 90
-16777216
102
RTVSPost2010PropOp41
 70
     1
102
RTVSPost2010Prop42
 90
       50
102
RTVSPost2010PropOp42
 70
     1
102
RTVSPost2010Prop43
 90
        3
102
RTVSPost2010PropOp43
 70
     1
102
RTVSPost2010Prop44ColorIndex
 90
        5
102
RTVSPost2010Prop44ColorRGB
 90
      255
102
RTVSPost2010PropOp44
 70
     1
102
RTVSPost2010Prop45
280
     0
102
RTVSPost2010PropOp45
 70
     1
102
RTVSPost2010Prop46
 90
       50
102
RTVSPost2010PropOp46
 70
     1
102
RTVSPost2010Prop47
 90
       50
102
RTVSPost2010PropOp47
 70
     1
102
RTVSPost2010Prop48
 90
       50
102
RTVSPost2010PropOp48
 70
     1
102
RTVSPost2010Prop49
280
     0
102
RTVSPost2010PropOp49
 70
     1
102
RTVSPost2010Prop50
 90
       50
102
RTVSPost2010PropOp50
 70
     1
102
RTVSPost2010Prop51ColorIndex
 90
      256
102
RTVSPost2010Prop51ColorRGB
 90
-16777216
102
RTVSPost2010PropOp51
 70
     0
102
RTVSPost2010Prop52
140
1.0
102
RTVSPost2010PropOp52
 70
     0
102
RTVSPost2010Prop53
 90
        2
102
RTVSPost2010PropOp53
 70
     1
102
RTVSPost2010Prop54
  1
strokes_ogs.tif
102
RTVSPost2010PropOp54
 70
     1
102
RTVSPost2010Prop55
280
     0
102
RTVSPost2010PropOp55
 70
     1
102
RTVSPost2010Prop56
140
1.0
102
RTVSPost2010PropOp56
 70
     1
102
RTVSPost2010Prop57
140
1.0
102
RTVSPost2010PropOp57
 70
     1
  0
XRECORD
  5
59C33
102
{ACAD_REACTORS
330
59C32
102
}
330
59C32
100
AcDbXrecord
280
     1
102
RTVSPost2010Prop28
280
     0
102
RTVSPost2010PropOp28
 70
     1
102
RTVSPost2010Prop29
280
     1
102
RTVSPost2010PropOp29
 70
     1
102
RTVSPost2010Prop30
280
     1
102
RTVSPost2010PropOp30
 70
     1
102
RTVSPost2010Prop31
280
     0
102
RTVSPost2010PropOp31
 70
     1
102
RTVSPost2010Prop32
280
     0
102
RTVSPost2010PropOp32
 70
     1
102
RTVSPost2010Prop33
280
     0
102
RTVSPost2010PropOp33
 70
     1
102
RTVSPost2010Prop34
280
     0
102
RTVSPost2010PropOp34
 70
     1
102
RTVSPost2010Prop35
280
     0
102
RTVSPost2010PropOp35
 70
     1
102
RTVSPost2010Prop36
280
     0
102
RTVSPost2010PropOp36
 70
     1
102
RTVSPost2010Prop37
 90
       50
102
RTVSPost2010PropOp37
 70
     1
102
RTVSPost2010Prop38
140
0.0
102
RTVSPost2010PropOp38
 70
     1
102
RTVSPost2010Prop39
140
1.0
102
RTVSPost2010PropOp39
 70
     1
102
RTVSPost2010Prop40
 90
        0
102
RTVSPost2010PropOp40
 70
     1
102
RTVSPost2010Prop41ColorIndex
 90
       18
102
RTVSPost2010Prop41ColorRGB
 90
-16777216
102
RTVSPost2010PropOp41
 70
     1
102
RTVSPost2010Prop42
 90
       50
102
RTVSPost2010PropOp42
 70
     1
102
RTVSPost2010Prop43
 90
        3
102
RTVSPost2010PropOp43
 70
     1
102
RTVSPost2010Prop44ColorIndex
 90
        5
102
RTVSPost2010Prop44ColorRGB
 90
      255
102
RTVSPost2010PropOp44
 70
     1
102
RTVSPost2010Prop45
280
     0
102
RTVSPost2010PropOp45
 70
     1
102
RTVSPost2010Prop46
 90
       50
102
RTVSPost2010PropOp46
 70
     1
102
RTVSPost2010Prop47
 90
       50
102
RTVSPost2010PropOp47
 70
     1
102
RTVSPost2010Prop48
 90
       50
102
RTVSPost2010PropOp48
 70
     1
102
RTVSPost2010Prop49
280
     0
102
RTVSPost2010PropOp49
 70
     1
102
RTVSPost2010Prop50
 90
       50
102
RTVSPost2010PropOp50
 70
     1
102
RTVSPost2010Prop51ColorIndex
 90
      256
102
RTVSPost2010Prop51ColorRGB
 90
-16777216
102
RTVSPost2010PropOp51
 70
     0
102
RTVSPost2010Prop52
140
1.0
102
RTVSPost2010PropOp52
 70
     0
102
RTVSPost2010Prop53
 90
        2
102
RTVSPost2010PropOp53
 70
     1
102
RTVSPost2010Prop54
  1
strokes_ogs.tif
102
RTVSPost2010PropOp54
 70
     1
102
RTVSPost2010Prop55
280
     0
102
RTVSPost2010PropOp55
 70
     1
102
RTVSPost2010Prop56
140
1.0
102
RTVSPost2010PropOp56
 70
     1
102
RTVSPost2010Prop57
140
1.0
102
RTVSPost2010PropOp57
 70
     1
  0
XRECORD
  5
59C25
102
{ACAD_REACTORS
330
59C24
102
}
330
59C24
100
AcDbXrecord
280
     1
102
RTVSPost2010Prop28
280
     0
102
RTVSPost2010PropOp28
 70
     1
102
RTVSPost2010Prop29
280
     1
102
RTVSPost2010PropOp29
 70
     1
102
RTVSPost2010Prop30
280
     1
102
RTVSPost2010PropOp30
 70
     1
102
RTVSPost2010Prop31
280
     0
102
RTVSPost2010PropOp31
 70
     1
102
RTVSPost2010Prop32
280
     0
102
RTVSPost2010PropOp32
 70
     1
102
RTVSPost2010Prop33
280
     0
102
RTVSPost2010PropOp33
 70
     1
102
RTVSPost2010Prop34
280
     0
102
RTVSPost2010PropOp34
 70
     1
102
RTVSPost2010Prop35
280
     0
102
RTVSPost2010PropOp35
 70
     1
102
RTVSPost2010Prop36
280
     0
102
RTVSPost2010PropOp36
 70
     1
102
RTVSPost2010Prop37
 90
       50
102
RTVSPost2010PropOp37
 70
     1
102
RTVSPost2010Prop38
140
0.0
102
RTVSPost2010PropOp38
 70
     1
102
RTVSPost2010Prop39
140
1.0
102
RTVSPost2010PropOp39
 70
     1
102
RTVSPost2010Prop40
 90
        0
102
RTVSPost2010PropOp40
 70
     1
102
RTVSPost2010Prop41ColorIndex
 90
       18
102
RTVSPost2010Prop41ColorRGB
 90
-16777216
102
RTVSPost2010PropOp41
 70
     1
102
RTVSPost2010Prop42
 90
       50
102
RTVSPost2010PropOp42
 70
     1
102
RTVSPost2010Prop43
 90
        3
102
RTVSPost2010PropOp43
 70
     1
102
RTVSPost2010Prop44ColorIndex
 90
        5
102
RTVSPost2010Prop44ColorRGB
 90
      255
102
RTVSPost2010PropOp44
 70
     1
102
RTVSPost2010Prop45
280
     0
102
RTVSPost2010PropOp45
 70
     1
102
RTVSPost2010Prop46
 90
       50
102
RTVSPost2010PropOp46
 70
     1
102
RTVSPost2010Prop47
 90
       50
102
RTVSPost2010PropOp47
 70
     1
102
RTVSPost2010Prop48
 90
       50
102
RTVSPost2010PropOp48
 70
     1
102
RTVSPost2010Prop49
280
     0
102
RTVSPost2010PropOp49
 70
     1
102
RTVSPost2010Prop50
 90
       50
102
RTVSPost2010PropOp50
 70
     1
102
RTVSPost2010Prop51ColorIndex
 90
      256
102
RTVSPost2010Prop51ColorRGB
 90
-16777216
102
RTVSPost2010PropOp51
 70
     0
102
RTVSPost2010Prop52
140
1.0
102
RTVSPost2010PropOp52
 70
     0
102
RTVSPost2010Prop53
 90
        2
102
RTVSPost2010PropOp53
 70
     1
102
RTVSPost2010Prop54
  1
strokes_ogs.tif
102
RTVSPost2010PropOp54
 70
     1
102
RTVSPost2010Prop55
280
     0
102
RTVSPost2010PropOp55
 70
     1
102
RTVSPost2010Prop56
140
1.0
102
RTVSPost2010PropOp56
 70
     1
102
RTVSPost2010Prop57
140
1.0
102
RTVSPost2010PropOp57
 70
     1
  0
XRECORD
  5
59C29
102
{ACAD_REACTORS
330
59C28
102
}
330
59C28
100
AcDbXrecord
280
     1
102
RTVSPost2010Prop28
280
     0
102
RTVSPost2010PropOp28
 70
     1
102
RTVSPost2010Prop29
280
     1
102
RTVSPost2010PropOp29
 70
     1
102
RTVSPost2010Prop30
280
     1
102
RTVSPost2010PropOp30
 70
     1
102
RTVSPost2010Prop31
280
     0
102
RTVSPost2010PropOp31
 70
     1
102
RTVSPost2010Prop32
280
     0
102
RTVSPost2010PropOp32
 70
     1
102
RTVSPost2010Prop33
280
     0
102
RTVSPost2010PropOp33
 70
     1
102
RTVSPost2010Prop34
280
     0
102
RTVSPost2010PropOp34
 70
     1
102
RTVSPost2010Prop35
280
     0
102
RTVSPost2010PropOp35
 70
     1
102
RTVSPost2010Prop36
280
     0
102
RTVSPost2010PropOp36
 70
     1
102
RTVSPost2010Prop37
 90
       50
102
RTVSPost2010PropOp37
 70
     1
102
RTVSPost2010Prop38
140
0.0
102
RTVSPost2010PropOp38
 70
     1
102
RTVSPost2010Prop39
140
1.0
102
RTVSPost2010PropOp39
 70
     1
102
RTVSPost2010Prop40
 90
        0
102
RTVSPost2010PropOp40
 70
     1
102
RTVSPost2010Prop41ColorIndex
 90
       18
102
RTVSPost2010Prop41ColorRGB
 90
-16777216
102
RTVSPost2010PropOp41
 70
     1
102
RTVSPost2010Prop42
 90
       50
102
RTVSPost2010PropOp42
 70
     1
102
RTVSPost2010Prop43
 90
        3
102
RTVSPost2010PropOp43
 70
     1
102
RTVSPost2010Prop44ColorIndex
 90
        5
102
RTVSPost2010Prop44ColorRGB
 90
      255
102
RTVSPost2010PropOp44
 70
     1
102
RTVSPost2010Prop45
280
     0
102
RTVSPost2010PropOp45
 70
     1
102
RTVSPost2010Prop46
 90
       50
102
RTVSPost2010PropOp46
 70
     1
102
RTVSPost2010Prop47
 90
       50
102
RTVSPost2010PropOp47
 70
     1
102
RTVSPost2010Prop48
 90
       50
102
RTVSPost2010PropOp48
 70
     1
102
RTVSPost2010Prop49
280
     0
102
RTVSPost2010PropOp49
 70
     1
102
RTVSPost2010Prop50
 90
       50
102
RTVSPost2010PropOp50
 70
     1
102
RTVSPost2010Prop51ColorIndex
 90
      256
102
RTVSPost2010Prop51ColorRGB
 90
-16777216
102
RTVSPost2010PropOp51
 70
     0
102
RTVSPost2010Prop52
140
1.0
102
RTVSPost2010PropOp52
 70
     0
102
RTVSPost2010Prop53
 90
        2
102
RTVSPost2010PropOp53
 70
     1
102
RTVSPost2010Prop54
  1
strokes_ogs.tif
102
RTVSPost2010PropOp54
 70
     1
102
RTVSPost2010Prop55
280
     0
102
RTVSPost2010PropOp55
 70
     1
102
RTVSPost2010Prop56
140
1.0
102
RTVSPost2010PropOp56
 70
     1
102
RTVSPost2010Prop57
140
1.0
102
RTVSPost2010PropOp57
 70
     1
  0
XRECORD
  5
59C47
102
{ACAD_REACTORS
330
59C46
102
}
330
59C46
100
AcDbXrecord
280
     1
102
RTVSPost2010Prop28
280
     0
102
RTVSPost2010PropOp28
 70
     0
102
RTVSPost2010Prop29
280
     1
102
RTVSPost2010PropOp29
 70
     0
102
RTVSPost2010Prop30
280
     1
102
RTVSPost2010PropOp30
 70
     0
102
RTVSPost2010Prop31
280
     0
102
RTVSPost2010PropOp31
 70
     0
102
RTVSPost2010Prop32
280
     0
102
RTVSPost2010PropOp32
 70
     0
102
RTVSPost2010Prop33
280
     0
102
RTVSPost2010PropOp33
 70
     0
102
RTVSPost2010Prop34
280
     0
102
RTVSPost2010PropOp34
 70
     0
102
RTVSPost2010Prop35
280
     0
102
RTVSPost2010PropOp35
 70
     0
102
RTVSPost2010Prop36
280
     0
102
RTVSPost2010PropOp36
 70
     0
102
RTVSPost2010Prop37
 90
       50
102
RTVSPost2010PropOp37
 70
     0
102
RTVSPost2010Prop38
140
0.0
102
RTVSPost2010PropOp38
 70
     0
102
RTVSPost2010Prop39
140
1.0
102
RTVSPost2010PropOp39
 70
     0
102
RTVSPost2010Prop40
 90
        0
102
RTVSPost2010PropOp40
 70
     0
102
RTVSPost2010Prop41ColorIndex
 90
       18
102
RTVSPost2010Prop41ColorRGB
 90
-16777216
102
RTVSPost2010PropOp41
 70
     0
102
RTVSPost2010Prop42
 90
       50
102
RTVSPost2010PropOp42
 70
     0
102
RTVSPost2010Prop43
 90
        3
102
RTVSPost2010PropOp43
 70
     0
102
RTVSPost2010Prop44ColorIndex
 90
        5
102
RTVSPost2010Prop44ColorRGB
 90
      255
102
RTVSPost2010PropOp44
 70
     0
102
RTVSPost2010Prop45
280
     0
102
RTVSPost2010PropOp45
 70
     0
102
RTVSPost2010Prop46
 90
       50
102
RTVSPost2010PropOp46
 70
     0
102
RTVSPost2010Prop47
 90
       50
102
RTVSPost2010PropOp47
 70
     0
102
RTVSPost2010Prop48
 90
       50
102
RTVSPost2010PropOp48
 70
     0
102
RTVSPost2010Prop49
280
     0
102
RTVSPost2010PropOp49
 70
     0
102
RTVSPost2010Prop50
 90
       50
102
RTVSPost2010PropOp50
 70
     0
102
RTVSPost2010Prop51ColorIndex
 90
      256
102
RTVSPost2010Prop51ColorRGB
 90
-16777216
102
RTVSPost2010PropOp51
 70
     0
102
RTVSPost2010Prop52
140
1.0
102
RTVSPost2010PropOp52
 70
     0
102
RTVSPost2010Prop53
 90
        2
102
RTVSPost2010PropOp53
 70
     0
102
RTVSPost2010Prop54
  1
strokes_ogs.tif
102
RTVSPost2010PropOp54
 70
     0
102
RTVSPost2010Prop55
280
     0
102
RTVSPost2010PropOp55
 70
     0
102
RTVSPost2010Prop56
140
1.0
102
RTVSPost2010PropOp56
 70
     0
102
RTVSPost2010Prop57
140
1.0
102
RTVSPost2010PropOp57
 70
     0
  0
XRECORD
  5
59C31
102
{ACAD_REACTORS
330
59C30
102
}
330
59C30
100
AcDbXrecord
280
     1
102
RTVSPost2010Prop28
280
     0
102
RTVSPost2010PropOp28
 70
     1
102
RTVSPost2010Prop29
280
     1
102
RTVSPost2010PropOp29
 70
     1
102
RTVSPost2010Prop30
280
     1
102
RTVSPost2010PropOp30
 70
     1
102
RTVSPost2010Prop31
280
     0
102
RTVSPost2010PropOp31
 70
     1
102
RTVSPost2010Prop32
280
     0
102
RTVSPost2010PropOp32
 70
     1
102
RTVSPost2010Prop33
280
     0
102
RTVSPost2010PropOp33
 70
     1
102
RTVSPost2010Prop34
280
     0
102
RTVSPost2010PropOp34
 70
     1
102
RTVSPost2010Prop35
280
     0
102
RTVSPost2010PropOp35
 70
     1
102
RTVSPost2010Prop36
280
     0
102
RTVSPost2010PropOp36
 70
     1
102
RTVSPost2010Prop37
 90
       50
102
RTVSPost2010PropOp37
 70
     1
102
RTVSPost2010Prop38
140
0.0
102
RTVSPost2010PropOp38
 70
     1
102
RTVSPost2010Prop39
140
1.0
102
RTVSPost2010PropOp39
 70
     1
102
RTVSPost2010Prop40
 90
        0
102
RTVSPost2010PropOp40
 70
     1
102
RTVSPost2010Prop41ColorIndex
 90
       18
102
RTVSPost2010Prop41ColorRGB
 90
-16777216
102
RTVSPost2010PropOp41
 70
     1
102
RTVSPost2010Prop42
 90
       50
102
RTVSPost2010PropOp42
 70
     1
102
RTVSPost2010Prop43
 90
        3
102
RTVSPost2010PropOp43
 70
     1
102
RTVSPost2010Prop44ColorIndex
 90
        5
102
RTVSPost2010Prop44ColorRGB
 90
      255
102
RTVSPost2010PropOp44
 70
     1
102
RTVSPost2010Prop45
280
     0
102
RTVSPost2010PropOp45
 70
     1
102
RTVSPost2010Prop46
 90
       50
102
RTVSPost2010PropOp46
 70
     1
102
RTVSPost2010Prop47
 90
       50
102
RTVSPost2010PropOp47
 70
     1
102
RTVSPost2010Prop48
 90
       50
102
RTVSPost2010PropOp48
 70
     1
102
RTVSPost2010Prop49
280
     0
102
RTVSPost2010PropOp49
 70
     1
102
RTVSPost2010Prop50
 90
       50
102
RTVSPost2010PropOp50
 70
     1
102
RTVSPost2010Prop51ColorIndex
 90
      256
102
RTVSPost2010Prop51ColorRGB
 90
-16777216
102
RTVSPost2010PropOp51
 70
     0
102
RTVSPost2010Prop52
140
1.0
102
RTVSPost2010PropOp52
 70
     0
102
RTVSPost2010Prop53
 90
        2
102
RTVSPost2010PropOp53
 70
     1
102
RTVSPost2010Prop54
  1
strokes_ogs.tif
102
RTVSPost2010PropOp54
 70
     1
102
RTVSPost2010Prop55
280
     0
102
RTVSPost2010PropOp55
 70
     1
102
RTVSPost2010Prop56
140
1.0
102
RTVSPost2010PropOp56
 70
     1
102
RTVSPost2010Prop57
140
1.0
102
RTVSPost2010PropOp57
 70
     1
  0
XRECORD
  5
59C15
102
{ACAD_REACTORS
330
59C14
102
}
330
59C14
100
AcDbXrecord
280
     1
102
RTVSPost2010Prop28
280
     0
102
RTVSPost2010PropOp28
 70
     1
102
RTVSPost2010Prop29
280
     1
102
RTVSPost2010PropOp29
 70
     1
102
RTVSPost2010Prop30
280
     1
102
RTVSPost2010PropOp30
 70
     1
102
RTVSPost2010Prop31
280
     0
102
RTVSPost2010PropOp31
 70
     1
102
RTVSPost2010Prop32
280
     0
102
RTVSPost2010PropOp32
 70
     1
102
RTVSPost2010Prop33
280
     0
102
RTVSPost2010PropOp33
 70
     1
102
RTVSPost2010Prop34
280
     0
102
RTVSPost2010PropOp34
 70
     1
102
RTVSPost2010Prop35
280
     0
102
RTVSPost2010PropOp35
 70
     1
102
RTVSPost2010Prop36
280
     0
102
RTVSPost2010PropOp36
 70
     1
102
RTVSPost2010Prop37
 90
       50
102
RTVSPost2010PropOp37
 70
     1
102
RTVSPost2010Prop38
140
0.0
102
RTVSPost2010PropOp38
 70
     1
102
RTVSPost2010Prop39
140
1.0
102
RTVSPost2010PropOp39
 70
     1
102
RTVSPost2010Prop40
 90
        0
102
RTVSPost2010PropOp40
 70
     1
102
RTVSPost2010Prop41ColorIndex
 90
       18
102
RTVSPost2010Prop41ColorRGB
 90
-16777216
102
RTVSPost2010PropOp41
 70
     1
102
RTVSPost2010Prop42
 90
       50
102
RTVSPost2010PropOp42
 70
     1
102
RTVSPost2010Prop43
 90
        3
102
RTVSPost2010PropOp43
 70
     1
102
RTVSPost2010Prop44ColorIndex
 90
        5
102
RTVSPost2010Prop44ColorRGB
 90
      255
102
RTVSPost2010PropOp44
 70
     1
102
RTVSPost2010Prop45
280
     0
102
RTVSPost2010PropOp45
 70
     1
102
RTVSPost2010Prop46
 90
       50
102
RTVSPost2010PropOp46
 70
     1
102
RTVSPost2010Prop47
 90
       50
102
RTVSPost2010PropOp47
 70
     1
102
RTVSPost2010Prop48
 90
       50
102
RTVSPost2010PropOp48
 70
     1
102
RTVSPost2010Prop49
280
     0
102
RTVSPost2010PropOp49
 70
     1
102
RTVSPost2010Prop50
 90
       50
102
RTVSPost2010PropOp50
 70
     1
102
RTVSPost2010Prop51ColorIndex
 90
      256
102
RTVSPost2010Prop51ColorRGB
 90
-16777216
102
RTVSPost2010PropOp51
 70
     0
102
RTVSPost2010Prop52
140
1.0
102
RTVSPost2010PropOp52
 70
     0
102
RTVSPost2010Prop53
 90
        2
102
RTVSPost2010PropOp53
 70
     1
102
RTVSPost2010Prop54
  1
strokes_ogs.tif
102
RTVSPost2010PropOp54
 70
     1
102
RTVSPost2010Prop55
280
     0
102
RTVSPost2010PropOp55
 70
     1
102
RTVSPost2010Prop56
140
1.0
102
RTVSPost2010PropOp56
 70
     1
102
RTVSPost2010Prop57
140
1.0
102
RTVSPost2010PropOp57
 70
     1
  0
XRECORD
  5
59C17
102
{ACAD_REACTORS
330
59C16
102
}
330
59C16
100
AcDbXrecord
280
     1
102
RTVSPost2010Prop28
280
     0
102
RTVSPost2010PropOp28
 70
     1
102
RTVSPost2010Prop29
280
     1
102
RTVSPost2010PropOp29
 70
     1
102
RTVSPost2010Prop30
280
     1
102
RTVSPost2010PropOp30
 70
     1
102
RTVSPost2010Prop31
280
     0
102
RTVSPost2010PropOp31
 70
     1
102
RTVSPost2010Prop32
280
     0
102
RTVSPost2010PropOp32
 70
     1
102
RTVSPost2010Prop33
280
     0
102
RTVSPost2010PropOp33
 70
     1
102
RTVSPost2010Prop34
280
     0
102
RTVSPost2010PropOp34
 70
     1
102
RTVSPost2010Prop35
280
     0
102
RTVSPost2010PropOp35
 70
     1
102
RTVSPost2010Prop36
280
     0
102
RTVSPost2010PropOp36
 70
     1
102
RTVSPost2010Prop37
 90
       50
102
RTVSPost2010PropOp37
 70
     1
102
RTVSPost2010Prop38
140
0.0
102
RTVSPost2010PropOp38
 70
     1
102
RTVSPost2010Prop39
140
1.0
102
RTVSPost2010PropOp39
 70
     1
102
RTVSPost2010Prop40
 90
        0
102
RTVSPost2010PropOp40
 70
     1
102
RTVSPost2010Prop41ColorIndex
 90
       18
102
RTVSPost2010Prop41ColorRGB
 90
-16777216
102
RTVSPost2010PropOp41
 70
     1
102
RTVSPost2010Prop42
 90
       50
102
RTVSPost2010PropOp42
 70
     1
102
RTVSPost2010Prop43
 90
        3
102
RTVSPost2010PropOp43
 70
     1
102
RTVSPost2010Prop44ColorIndex
 90
        5
102
RTVSPost2010Prop44ColorRGB
 90
      255
102
RTVSPost2010PropOp44
 70
     1
102
RTVSPost2010Prop45
280
     0
102
RTVSPost2010PropOp45
 70
     1
102
RTVSPost2010Prop46
 90
       50
102
RTVSPost2010PropOp46
 70
     1
102
RTVSPost2010Prop47
 90
       50
102
RTVSPost2010PropOp47
 70
     1
102
RTVSPost2010Prop48
 90
       50
102
RTVSPost2010PropOp48
 70
     1
102
RTVSPost2010Prop49
280
     0
102
RTVSPost2010PropOp49
 70
     1
102
RTVSPost2010Prop50
 90
       50
102
RTVSPost2010PropOp50
 70
     1
102
RTVSPost2010Prop51ColorIndex
 90
      256
102
RTVSPost2010Prop51ColorRGB
 90
-16777216
102
RTVSPost2010PropOp51
 70
     0
102
RTVSPost2010Prop52
140
1.0
102
RTVSPost2010PropOp52
 70
     0
102
RTVSPost2010Prop53
 90
        2
102
RTVSPost2010PropOp53
 70
     1
102
RTVSPost2010Prop54
  1
strokes_ogs.tif
102
RTVSPost2010PropOp54
 70
     1
102
RTVSPost2010Prop55
280
     0
102
RTVSPost2010PropOp55
 70
     1
102
RTVSPost2010Prop56
140
1.0
102
RTVSPost2010PropOp56
 70
     1
102
RTVSPost2010Prop57
140
1.0
102
RTVSPost2010PropOp57
 70
     1
  0
XRECORD
  5
59C19
102
{ACAD_REACTORS
330
59C18
102
}
330
59C18
100
AcDbXrecord
280
     1
102
RTVSPost2010Prop28
280
     0
102
RTVSPost2010PropOp28
 70
     1
102
RTVSPost2010Prop29
280
     1
102
RTVSPost2010PropOp29
 70
     1
102
RTVSPost2010Prop30
280
     1
102
RTVSPost2010PropOp30
 70
     1
102
RTVSPost2010Prop31
280
     0
102
RTVSPost2010PropOp31
 70
     1
102
RTVSPost2010Prop32
280
     0
102
RTVSPost2010PropOp32
 70
     1
102
RTVSPost2010Prop33
280
     0
102
RTVSPost2010PropOp33
 70
     1
102
RTVSPost2010Prop34
280
     0
102
RTVSPost2010PropOp34
 70
     1
102
RTVSPost2010Prop35
280
     0
102
RTVSPost2010PropOp35
 70
     1
102
RTVSPost2010Prop36
280
     0
102
RTVSPost2010PropOp36
 70
     1
102
RTVSPost2010Prop37
 90
       50
102
RTVSPost2010PropOp37
 70
     1
102
RTVSPost2010Prop38
140
0.0
102
RTVSPost2010PropOp38
 70
     1
102
RTVSPost2010Prop39
140
1.0
102
RTVSPost2010PropOp39
 70
     1
102
RTVSPost2010Prop40
 90
        0
102
RTVSPost2010PropOp40
 70
     1
102
RTVSPost2010Prop41ColorIndex
 90
       18
102
RTVSPost2010Prop41ColorRGB
 90
-16777216
102
RTVSPost2010PropOp41
 70
     1
102
RTVSPost2010Prop42
 90
       50
102
RTVSPost2010PropOp42
 70
     1
102
RTVSPost2010Prop43
 90
        3
102
RTVSPost2010PropOp43
 70
     1
102
RTVSPost2010Prop44ColorIndex
 90
        5
102
RTVSPost2010Prop44ColorRGB
 90
      255
102
RTVSPost2010PropOp44
 70
     1
102
RTVSPost2010Prop45
280
     0
102
RTVSPost2010PropOp45
 70
     1
102
RTVSPost2010Prop46
 90
       50
102
RTVSPost2010PropOp46
 70
     1
102
RTVSPost2010Prop47
 90
       50
102
RTVSPost2010PropOp47
 70
     1
102
RTVSPost2010Prop48
 90
       50
102
RTVSPost2010PropOp48
 70
     1
102
RTVSPost2010Prop49
280
     0
102
RTVSPost2010PropOp49
 70
     1
102
RTVSPost2010Prop50
 90
       50
102
RTVSPost2010PropOp50
 70
     1
102
RTVSPost2010Prop51ColorIndex
 90
      256
102
RTVSPost2010Prop51ColorRGB
 90
-16777216
102
RTVSPost2010PropOp51
 70
     0
102
RTVSPost2010Prop52
140
1.0
102
RTVSPost2010PropOp52
 70
     0
102
RTVSPost2010Prop53
 90
        2
102
RTVSPost2010PropOp53
 70
     1
102
RTVSPost2010Prop54
  1
strokes_ogs.tif
102
RTVSPost2010PropOp54
 70
     1
102
RTVSPost2010Prop55
280
     0
102
RTVSPost2010PropOp55
 70
     1
102
RTVSPost2010Prop56
140
1.0
102
RTVSPost2010PropOp56
 70
     1
102
RTVSPost2010Prop57
140
1.0
102
RTVSPost2010PropOp57
 70
     1
  0
XRECORD
  5
59C1B
102
{ACAD_REACTORS
330
59C1A
102
}
330
59C1A
100
AcDbXrecord
280
     1
102
RTVSPost2010Prop28
280
     0
102
RTVSPost2010PropOp28
 70
     1
102
RTVSPost2010Prop29
280
     1
102
RTVSPost2010PropOp29
 70
     1
102
RTVSPost2010Prop30
280
     1
102
RTVSPost2010PropOp30
 70
     1
102
RTVSPost2010Prop31
280
     0
102
RTVSPost2010PropOp31
 70
     1
102
RTVSPost2010Prop32
280
     0
102
RTVSPost2010PropOp32
 70
     1
102
RTVSPost2010Prop33
280
     0
102
RTVSPost2010PropOp33
 70
     1
102
RTVSPost2010Prop34
280
     0
102
RTVSPost2010PropOp34
 70
     1
102
RTVSPost2010Prop35
280
     0
102
RTVSPost2010PropOp35
 70
     1
102
RTVSPost2010Prop36
280
     0
102
RTVSPost2010PropOp36
 70
     1
102
RTVSPost2010Prop37
 90
       50
102
RTVSPost2010PropOp37
 70
     1
102
RTVSPost2010Prop38
140
0.0
102
RTVSPost2010PropOp38
 70
     1
102
RTVSPost2010Prop39
140
1.0
102
RTVSPost2010PropOp39
 70
     1
102
RTVSPost2010Prop40
 90
        0
102
RTVSPost2010PropOp40
 70
     1
102
RTVSPost2010Prop41ColorIndex
 90
       18
102
RTVSPost2010Prop41ColorRGB
 90
-16777216
102
RTVSPost2010PropOp41
 70
     1
102
RTVSPost2010Prop42
 90
       50
102
RTVSPost2010PropOp42
 70
     1
102
RTVSPost2010Prop43
 90
        3
102
RTVSPost2010PropOp43
 70
     1
102
RTVSPost2010Prop44ColorIndex
 90
        5
102
RTVSPost2010Prop44ColorRGB
 90
      255
102
RTVSPost2010PropOp44
 70
     1
102
RTVSPost2010Prop45
280
     0
102
RTVSPost2010PropOp45
 70
     1
102
RTVSPost2010Prop46
 90
       50
102
RTVSPost2010PropOp46
 70
     1
102
RTVSPost2010Prop47
 90
       50
102
RTVSPost2010PropOp47
 70
     1
102
RTVSPost2010Prop48
 90
       50
102
RTVSPost2010PropOp48
 70
     1
102
RTVSPost2010Prop49
280
     0
102
RTVSPost2010PropOp49
 70
     1
102
RTVSPost2010Prop50
 90
       50
102
RTVSPost2010PropOp50
 70
     1
102
RTVSPost2010Prop51ColorIndex
 90
      256
102
RTVSPost2010Prop51ColorRGB
 90
-16777216
102
RTVSPost2010PropOp51
 70
     0
102
RTVSPost2010Prop52
140
1.0
102
RTVSPost2010PropOp52
 70
     0
102
RTVSPost2010Prop53
 90
        2
102
RTVSPost2010PropOp53
 70
     1
102
RTVSPost2010Prop54
  1
strokes_ogs.tif
102
RTVSPost2010PropOp54
 70
     1
102
RTVSPost2010Prop55
280
     0
102
RTVSPost2010PropOp55
 70
     1
102
RTVSPost2010Prop56
140
1.0
102
RTVSPost2010PropOp56
 70
     1
102
RTVSPost2010Prop57
140
1.0
102
RTVSPost2010PropOp57
 70
     1
  0
XRECORD
  5
59C37
102
{ACAD_REACTORS
330
59C36
102
}
330
59C36
100
AcDbXrecord
280
     1
102
RTVSPost2010Prop28
280
     0
102
RTVSPost2010PropOp28
 70
     1
102
RTVSPost2010Prop29
280
     1
102
RTVSPost2010PropOp29
 70
     1
102
RTVSPost2010Prop30
280
     1
102
RTVSPost2010PropOp30
 70
     1
102
RTVSPost2010Prop31
280
     0
102
RTVSPost2010PropOp31
 70
     1
102
RTVSPost2010Prop32
280
     0
102
RTVSPost2010PropOp32
 70
     1
102
RTVSPost2010Prop33
280
     0
102
RTVSPost2010PropOp33
 70
     1
102
RTVSPost2010Prop34
280
     0
102
RTVSPost2010PropOp34
 70
     1
102
RTVSPost2010Prop35
280
     0
102
RTVSPost2010PropOp35
 70
     1
102
RTVSPost2010Prop36
280
     0
102
RTVSPost2010PropOp36
 70
     1
102
RTVSPost2010Prop37
 90
       50
102
RTVSPost2010PropOp37
 70
     1
102
RTVSPost2010Prop38
140
0.0
102
RTVSPost2010PropOp38
 70
     1
102
RTVSPost2010Prop39
140
1.0
102
RTVSPost2010PropOp39
 70
     1
102
RTVSPost2010Prop40
 90
        0
102
RTVSPost2010PropOp40
 70
     1
102
RTVSPost2010Prop41ColorIndex
 90
       18
102
RTVSPost2010Prop41ColorRGB
 90
-16777216
102
RTVSPost2010PropOp41
 70
     1
102
RTVSPost2010Prop42
 90
       50
102
RTVSPost2010PropOp42
 70
     1
102
RTVSPost2010Prop43
 90
        3
102
RTVSPost2010PropOp43
 70
     1
102
RTVSPost2010Prop44ColorIndex
 90
        5
102
RTVSPost2010Prop44ColorRGB
 90
      255
102
RTVSPost2010PropOp44
 70
     1
102
RTVSPost2010Prop45
280
     0
102
RTVSPost2010PropOp45
 70
     1
102
RTVSPost2010Prop46
 90
       50
102
RTVSPost2010PropOp46
 70
     1
102
RTVSPost2010Prop47
 90
       50
102
RTVSPost2010PropOp47
 70
     1
102
RTVSPost2010Prop48
 90
       50
102
RTVSPost2010PropOp48
 70
     1
102
RTVSPost2010Prop49
280
     0
102
RTVSPost2010PropOp49
 70
     1
102
RTVSPost2010Prop50
 90
       50
102
RTVSPost2010PropOp50
 70
     1
102
RTVSPost2010Prop51ColorIndex
 90
      256
102
RTVSPost2010Prop51ColorRGB
 90
-16777216
102
RTVSPost2010PropOp51
 70
     0
102
RTVSPost2010Prop52
140
1.0
102
RTVSPost2010PropOp52
 70
     0
102
RTVSPost2010Prop53
 90
        2
102
RTVSPost2010PropOp53
 70
     1
102
RTVSPost2010Prop54
  1
strokes_ogs.tif
102
RTVSPost2010PropOp54
 70
     1
102
RTVSPost2010Prop55
280
     0
102
RTVSPost2010PropOp55
 70
     1
102
RTVSPost2010Prop56
140
1.0
102
RTVSPost2010PropOp56
 70
     1
102
RTVSPost2010Prop57
140
1.0
102
RTVSPost2010PropOp57
 70
     1
  0
XRECORD
  5
59C43
102
{ACAD_REACTORS
330
59C42
102
}
330
59C42
100
AcDbXrecord
280
     1
102
RTVSPost2010Prop28
280
     0
102
RTVSPost2010PropOp28
 70
     0
102
RTVSPost2010Prop29
280
     1
102
RTVSPost2010PropOp29
 70
     0
102
RTVSPost2010Prop30
280
     1
102
RTVSPost2010PropOp30
 70
     0
102
RTVSPost2010Prop31
280
     0
102
RTVSPost2010PropOp31
 70
     0
102
RTVSPost2010Prop32
280
     0
102
RTVSPost2010PropOp32
 70
     0
102
RTVSPost2010Prop33
280
     0
102
RTVSPost2010PropOp33
 70
     0
102
RTVSPost2010Prop34
280
     0
102
RTVSPost2010PropOp34
 70
     0
102
RTVSPost2010Prop35
280
     0
102
RTVSPost2010PropOp35
 70
     0
102
RTVSPost2010Prop36
280
     0
102
RTVSPost2010PropOp36
 70
     0
102
RTVSPost2010Prop37
 90
       50
102
RTVSPost2010PropOp37
 70
     0
102
RTVSPost2010Prop38
140
0.0
102
RTVSPost2010PropOp38
 70
     0
102
RTVSPost2010Prop39
140
1.0
102
RTVSPost2010PropOp39
 70
     0
102
RTVSPost2010Prop40
 90
        0
102
RTVSPost2010PropOp40
 70
     0
102
RTVSPost2010Prop41ColorIndex
 90
       18
102
RTVSPost2010Prop41ColorRGB
 90
-16777216
102
RTVSPost2010PropOp41
 70
     0
102
RTVSPost2010Prop42
 90
       50
102
RTVSPost2010PropOp42
 70
     0
102
RTVSPost2010Prop43
 90
        3
102
RTVSPost2010PropOp43
 70
     0
102
RTVSPost2010Prop44ColorIndex
 90
        5
102
RTVSPost2010Prop44ColorRGB
 90
      255
102
RTVSPost2010PropOp44
 70
     0
102
RTVSPost2010Prop45
280
     0
102
RTVSPost2010PropOp45
 70
     0
102
RTVSPost2010Prop46
 90
       50
102
RTVSPost2010PropOp46
 70
     0
102
RTVSPost2010Prop47
 90
       50
102
RTVSPost2010PropOp47
 70
     0
102
RTVSPost2010Prop48
 90
       50
102
RTVSPost2010PropOp48
 70
     0
102
RTVSPost2010Prop49
280
     0
102
RTVSPost2010PropOp49
 70
     0
102
RTVSPost2010Prop50
 90
       50
102
RTVSPost2010PropOp50
 70
     0
102
RTVSPost2010Prop51ColorIndex
 90
      256
102
RTVSPost2010Prop51ColorRGB
 90
-16777216
102
RTVSPost2010PropOp51
 70
     0
102
RTVSPost2010Prop52
140
1.0
102
RTVSPost2010PropOp52
 70
     0
102
RTVSPost2010Prop53
 90
        2
102
RTVSPost2010PropOp53
 70
     0
102
RTVSPost2010Prop54
  1
strokes_ogs.tif
102
RTVSPost2010PropOp54
 70
     0
102
RTVSPost2010Prop55
280
     0
102
RTVSPost2010PropOp55
 70
     0
102
RTVSPost2010Prop56
140
1.0
102
RTVSPost2010PropOp56
 70
     0
102
RTVSPost2010Prop57
140
1.0
102
RTVSPost2010PropOp57
 70
     0
  0
XRECORD
  5
59C2F
102
{ACAD_REACTORS
330
59C2E
102
}
330
59C2E
100
AcDbXrecord
280
     1
102
RTVSPost2010Prop28
280
     0
102
RTVSPost2010PropOp28
 70
     1
102
RTVSPost2010Prop29
280
     1
102
RTVSPost2010PropOp29
 70
     1
102
RTVSPost2010Prop30
280
     1
102
RTVSPost2010PropOp30
 70
     1
102
RTVSPost2010Prop31
280
     0
102
RTVSPost2010PropOp31
 70
     1
102
RTVSPost2010Prop32
280
     0
102
RTVSPost2010PropOp32
 70
     1
102
RTVSPost2010Prop33
280
     0
102
RTVSPost2010PropOp33
 70
     1
102
RTVSPost2010Prop34
280
     0
102
RTVSPost2010PropOp34
 70
     1
102
RTVSPost2010Prop35
280
     0
102
RTVSPost2010PropOp35
 70
     1
102
RTVSPost2010Prop36
280
     0
102
RTVSPost2010PropOp36
 70
     1
102
RTVSPost2010Prop37
 90
       50
102
RTVSPost2010PropOp37
 70
     1
102
RTVSPost2010Prop38
140
0.0
102
RTVSPost2010PropOp38
 70
     1
102
RTVSPost2010Prop39
140
1.0
102
RTVSPost2010PropOp39
 70
     1
102
RTVSPost2010Prop40
 90
        0
102
RTVSPost2010PropOp40
 70
     1
102
RTVSPost2010Prop41ColorIndex
 90
       18
102
RTVSPost2010Prop41ColorRGB
 90
-16777216
102
RTVSPost2010PropOp41
 70
     1
102
RTVSPost2010Prop42
 90
       50
102
RTVSPost2010PropOp42
 70
     1
102
RTVSPost2010Prop43
 90
        3
102
RTVSPost2010PropOp43
 70
     1
102
RTVSPost2010Prop44ColorIndex
 90
        5
102
RTVSPost2010Prop44ColorRGB
 90
      255
102
RTVSPost2010PropOp44
 70
     1
102
RTVSPost2010Prop45
280
     0
102
RTVSPost2010PropOp45
 70
     1
102
RTVSPost2010Prop46
 90
       50
102
RTVSPost2010PropOp46
 70
     1
102
RTVSPost2010Prop47
 90
       50
102
RTVSPost2010PropOp47
 70
     1
102
RTVSPost2010Prop48
 90
       50
102
RTVSPost2010PropOp48
 70
     1
102
RTVSPost2010Prop49
280
     0
102
RTVSPost2010PropOp49
 70
     1
102
RTVSPost2010Prop50
 90
       50
102
RTVSPost2010PropOp50
 70
     1
102
RTVSPost2010Prop51ColorIndex
 90
      256
102
RTVSPost2010Prop51ColorRGB
 90
-16777216
102
RTVSPost2010PropOp51
 70
     0
102
RTVSPost2010Prop52
140
1.0
102
RTVSPost2010PropOp52
 70
     0
102
RTVSPost2010Prop53
 90
        2
102
RTVSPost2010PropOp53
 70
     1
102
RTVSPost2010Prop54
  1
strokes_ogs.tif
102
RTVSPost2010PropOp54
 70
     1
102
RTVSPost2010Prop55
280
     0
102
RTVSPost2010PropOp55
 70
     1
102
RTVSPost2010Prop56
140
1.0
102
RTVSPost2010PropOp56
 70
     1
102
RTVSPost2010Prop57
140
1.0
102
RTVSPost2010PropOp57
 70
     1
  0
XRECORD
  5
59C45
102
{ACAD_REACTORS
330
59C44
102
}
330
59C44
100
AcDbXrecord
280
     1
102
RTVSPost2010Prop28
280
     0
102
RTVSPost2010PropOp28
 70
     0
102
RTVSPost2010Prop29
280
     1
102
RTVSPost2010PropOp29
 70
     0
102
RTVSPost2010Prop30
280
     1
102
RTVSPost2010PropOp30
 70
     0
102
RTVSPost2010Prop31
280
     0
102
RTVSPost2010PropOp31
 70
     0
102
RTVSPost2010Prop32
280
     0
102
RTVSPost2010PropOp32
 70
     0
102
RTVSPost2010Prop33
280
     0
102
RTVSPost2010PropOp33
 70
     0
102
RTVSPost2010Prop34
280
     0
102
RTVSPost2010PropOp34
 70
     0
102
RTVSPost2010Prop35
280
     0
102
RTVSPost2010PropOp35
 70
     0
102
RTVSPost2010Prop36
280
     0
102
RTVSPost2010PropOp36
 70
     0
102
RTVSPost2010Prop37
 90
       50
102
RTVSPost2010PropOp37
 70
     0
102
RTVSPost2010Prop38
140
0.0
102
RTVSPost2010PropOp38
 70
     0
102
RTVSPost2010Prop39
140
1.0
102
RTVSPost2010PropOp39
 70
     0
102
RTVSPost2010Prop40
 90
        0
102
RTVSPost2010PropOp40
 70
     0
102
RTVSPost2010Prop41ColorIndex
 90
       18
102
RTVSPost2010Prop41ColorRGB
 90
-16777216
102
RTVSPost2010PropOp41
 70
     0
102
RTVSPost2010Prop42
 90
       50
102
RTVSPost2010PropOp42
 70
     0
102
RTVSPost2010Prop43
 90
        3
102
RTVSPost2010PropOp43
 70
     0
102
RTVSPost2010Prop44ColorIndex
 90
        5
102
RTVSPost2010Prop44ColorRGB
 90
      255
102
RTVSPost2010PropOp44
 70
     0
102
RTVSPost2010Prop45
280
     0
102
RTVSPost2010PropOp45
 70
     0
102
RTVSPost2010Prop46
 90
       50
102
RTVSPost2010PropOp46
 70
     0
102
RTVSPost2010Prop47
 90
       50
102
RTVSPost2010PropOp47
 70
     0
102
RTVSPost2010Prop48
 90
       50
102
RTVSPost2010PropOp48
 70
     0
102
RTVSPost2010Prop49
280
     0
102
RTVSPost2010PropOp49
 70
     0
102
RTVSPost2010Prop50
 90
       50
102
RTVSPost2010PropOp50
 70
     0
102
RTVSPost2010Prop51ColorIndex
 90
      256
102
RTVSPost2010Prop51ColorRGB
 90
-16777216
102
RTVSPost2010PropOp51
 70
     0
102
RTVSPost2010Prop52
140
1.0
102
RTVSPost2010PropOp52
 70
     0
102
RTVSPost2010Prop53
 90
        2
102
RTVSPost2010PropOp53
 70
     0
102
RTVSPost2010Prop54
  1
strokes_ogs.tif
102
RTVSPost2010PropOp54
 70
     0
102
RTVSPost2010Prop55
280
     0
102
RTVSPost2010PropOp55
 70
     0
102
RTVSPost2010Prop56
140
1.0
102
RTVSPost2010PropOp56
 70
     0
102
RTVSPost2010Prop57
140
1.0
102
RTVSPost2010PropOp57
 70
     0
  0
XRECORD
  5
59C27
102
{ACAD_REACTORS
330
59C26
102
}
330
59C26
100
AcDbXrecord
280
     1
102
RTVSPost2010Prop28
280
     0
102
RTVSPost2010PropOp28
 70
     1
102
RTVSPost2010Prop29
280
     1
102
RTVSPost2010PropOp29
 70
     1
102
RTVSPost2010Prop30
280
     1
102
RTVSPost2010PropOp30
 70
     1
102
RTVSPost2010Prop31
280
     0
102
RTVSPost2010PropOp31
 70
     1
102
RTVSPost2010Prop32
280
     0
102
RTVSPost2010PropOp32
 70
     1
102
RTVSPost2010Prop33
280
     0
102
RTVSPost2010PropOp33
 70
     1
102
RTVSPost2010Prop34
280
     0
102
RTVSPost2010PropOp34
 70
     1
102
RTVSPost2010Prop35
280
     0
102
RTVSPost2010PropOp35
 70
     1
102
RTVSPost2010Prop36
280
     0
102
RTVSPost2010PropOp36
 70
     1
102
RTVSPost2010Prop37
 90
       50
102
RTVSPost2010PropOp37
 70
     1
102
RTVSPost2010Prop38
140
0.0
102
RTVSPost2010PropOp38
 70
     1
102
RTVSPost2010Prop39
140
1.0
102
RTVSPost2010PropOp39
 70
     1
102
RTVSPost2010Prop40
 90
        0
102
RTVSPost2010PropOp40
 70
     1
102
RTVSPost2010Prop41ColorIndex
 90
       18
102
RTVSPost2010Prop41ColorRGB
 90
-16777216
102
RTVSPost2010PropOp41
 70
     1
102
RTVSPost2010Prop42
 90
       50
102
RTVSPost2010PropOp42
 70
     1
102
RTVSPost2010Prop43
 90
        3
102
RTVSPost2010PropOp43
 70
     1
102
RTVSPost2010Prop44ColorIndex
 90
        5
102
RTVSPost2010Prop44ColorRGB
 90
      255
102
RTVSPost2010PropOp44
 70
     1
102
RTVSPost2010Prop45
280
     0
102
RTVSPost2010PropOp45
 70
     1
102
RTVSPost2010Prop46
 90
       50
102
RTVSPost2010PropOp46
 70
     1
102
RTVSPost2010Prop47
 90
       50
102
RTVSPost2010PropOp47
 70
     1
102
RTVSPost2010Prop48
 90
       50
102
RTVSPost2010PropOp48
 70
     1
102
RTVSPost2010Prop49
280
     0
102
RTVSPost2010PropOp49
 70
     1
102
RTVSPost2010Prop50
 90
       50
102
RTVSPost2010PropOp50
 70
     1
102
RTVSPost2010Prop51ColorIndex
 90
      256
102
RTVSPost2010Prop51ColorRGB
 90
-16777216
102
RTVSPost2010PropOp51
 70
     0
102
RTVSPost2010Prop52
140
1.0
102
RTVSPost2010PropOp52
 70
     0
102
RTVSPost2010Prop53
 90
        2
102
RTVSPost2010PropOp53
 70
     1
102
RTVSPost2010Prop54
  1
strokes_ogs.tif
102
RTVSPost2010PropOp54
 70
     1
102
RTVSPost2010Prop55
280
     0
102
RTVSPost2010PropOp55
 70
     1
102
RTVSPost2010Prop56
140
1.0
102
RTVSPost2010PropOp56
 70
     1
102
RTVSPost2010Prop57
140
1.0
102
RTVSPost2010PropOp57
 70
     1
  0
XRECORD
  5
59C41
102
{ACAD_REACTORS
330
59C40
102
}
330
59C40
100
AcDbXrecord
280
     1
102
RTVSPost2010Prop28
280
     0
102
RTVSPost2010PropOp28
 70
     1
102
RTVSPost2010Prop29
280
     1
102
RTVSPost2010PropOp29
 70
     1
102
RTVSPost2010Prop30
280
     1
102
RTVSPost2010PropOp30
 70
     1
102
RTVSPost2010Prop31
280
     0
102
RTVSPost2010PropOp31
 70
     1
102
RTVSPost2010Prop32
280
     0
102
RTVSPost2010PropOp32
 70
     1
102
RTVSPost2010Prop33
280
     0
102
RTVSPost2010PropOp33
 70
     1
102
RTVSPost2010Prop34
280
     0
102
RTVSPost2010PropOp34
 70
     1
102
RTVSPost2010Prop35
280
     0
102
RTVSPost2010PropOp35
 70
     1
102
RTVSPost2010Prop36
280
     0
102
RTVSPost2010PropOp36
 70
     1
102
RTVSPost2010Prop37
 90
       50
102
RTVSPost2010PropOp37
 70
     1
102
RTVSPost2010Prop38
140
0.0
102
RTVSPost2010PropOp38
 70
     1
102
RTVSPost2010Prop39
140
1.0
102
RTVSPost2010PropOp39
 70
     1
102
RTVSPost2010Prop40
 90
        0
102
RTVSPost2010PropOp40
 70
     1
102
RTVSPost2010Prop41ColorIndex
 90
       18
102
RTVSPost2010Prop41ColorRGB
 90
-16777216
102
RTVSPost2010PropOp41
 70
     1
102
RTVSPost2010Prop42
 90
       50
102
RTVSPost2010PropOp42
 70
     1
102
RTVSPost2010Prop43
 90
        3
102
RTVSPost2010PropOp43
 70
     1
102
RTVSPost2010Prop44ColorIndex
 90
        5
102
RTVSPost2010Prop44ColorRGB
 90
      255
102
RTVSPost2010PropOp44
 70
     1
102
RTVSPost2010Prop45
280
     0
102
RTVSPost2010PropOp45
 70
     1
102
RTVSPost2010Prop46
 90
       50
102
RTVSPost2010PropOp46
 70
     1
102
RTVSPost2010Prop47
 90
       50
102
RTVSPost2010PropOp47
 70
     1
102
RTVSPost2010Prop48
 90
       50
102
RTVSPost2010PropOp48
 70
     1
102
RTVSPost2010Prop49
280
     0
102
RTVSPost2010PropOp49
 70
     1
102
RTVSPost2010Prop50
 90
       50
102
RTVSPost2010PropOp50
 70
     1
102
RTVSPost2010Prop51ColorIndex
 90
      256
102
RTVSPost2010Prop51ColorRGB
 90
-16777216
102
RTVSPost2010PropOp51
 70
     0
102
RTVSPost2010Prop52
140
1.0
102
RTVSPost2010PropOp52
 70
     0
102
RTVSPost2010Prop53
 90
        2
102
RTVSPost2010PropOp53
 70
     1
102
RTVSPost2010Prop54
  1
strokes_ogs.tif
102
RTVSPost2010PropOp54
 70
     1
102
RTVSPost2010Prop55
280
     0
102
RTVSPost2010PropOp55
 70
     1
102
RTVSPost2010Prop56
140
1.0
102
RTVSPost2010PropOp56
 70
     1
102
RTVSPost2010Prop57
140
1.0
102
RTVSPost2010PropOp57
 70
     1
  0
XRECORD
  5
59C3F
102
{ACAD_REACTORS
330
59C3E
102
}
330
59C3E
100
AcDbXrecord
280
     1
102
RTVSPost2010Prop28
280
     0
102
RTVSPost2010PropOp28
 70
     1
102
RTVSPost2010Prop29
280
     1
102
RTVSPost2010PropOp29
 70
     1
102
RTVSPost2010Prop30
280
     1
102
RTVSPost2010PropOp30
 70
     1
102
RTVSPost2010Prop31
280
     0
102
RTVSPost2010PropOp31
 70
     1
102
RTVSPost2010Prop32
280
     0
102
RTVSPost2010PropOp32
 70
     1
102
RTVSPost2010Prop33
280
     0
102
RTVSPost2010PropOp33
 70
     1
102
RTVSPost2010Prop34
280
     0
102
RTVSPost2010PropOp34
 70
     1
102
RTVSPost2010Prop35
280
     0
102
RTVSPost2010PropOp35
 70
     1
102
RTVSPost2010Prop36
280
     0
102
RTVSPost2010PropOp36
 70
     1
102
RTVSPost2010Prop37
 90
       50
102
RTVSPost2010PropOp37
 70
     1
102
RTVSPost2010Prop38
140
0.0
102
RTVSPost2010PropOp38
 70
     1
102
RTVSPost2010Prop39
140
1.0
102
RTVSPost2010PropOp39
 70
     1
102
RTVSPost2010Prop40
 90
        0
102
RTVSPost2010PropOp40
 70
     1
102
RTVSPost2010Prop41ColorIndex
 90
       18
102
RTVSPost2010Prop41ColorRGB
 90
-16777216
102
RTVSPost2010PropOp41
 70
     1
102
RTVSPost2010Prop42
 90
       50
102
RTVSPost2010PropOp42
 70
     1
102
RTVSPost2010Prop43
 90
        3
102
RTVSPost2010PropOp43
 70
     1
102
RTVSPost2010Prop44ColorIndex
 90
        5
102
RTVSPost2010Prop44ColorRGB
 90
      255
102
RTVSPost2010PropOp44
 70
     1
102
RTVSPost2010Prop45
280
     0
102
RTVSPost2010PropOp45
 70
     1
102
RTVSPost2010Prop46
 90
       50
102
RTVSPost2010PropOp46
 70
     1
102
RTVSPost2010Prop47
 90
       50
102
RTVSPost2010PropOp47
 70
     1
102
RTVSPost2010Prop48
 90
       50
102
RTVSPost2010PropOp48
 70
     1
102
RTVSPost2010Prop49
280
     0
102
RTVSPost2010PropOp49
 70
     1
102
RTVSPost2010Prop50
 90
       50
102
RTVSPost2010PropOp50
 70
     1
102
RTVSPost2010Prop51ColorIndex
 90
      256
102
RTVSPost2010Prop51ColorRGB
 90
-16777216
102
RTVSPost2010PropOp51
 70
     0
102
RTVSPost2010Prop52
140
1.0
102
RTVSPost2010PropOp52
 70
     0
102
RTVSPost2010Prop53
 90
        2
102
RTVSPost2010PropOp53
 70
     1
102
RTVSPost2010Prop54
  1
strokes_ogs.tif
102
RTVSPost2010PropOp54
 70
     1
102
RTVSPost2010Prop55
280
     0
102
RTVSPost2010PropOp55
 70
     1
102
RTVSPost2010Prop56
140
1.0
102
RTVSPost2010PropOp56
 70
     1
102
RTVSPost2010Prop57
140
1.0
102
RTVSPost2010PropOp57
 70
     1
  0
XRECORD
  5
59C39
102
{ACAD_REACTORS
330
59C38
102
}
330
59C38
100
AcDbXrecord
280
     1
102
RTVSPost2010Prop28
280
     0
102
RTVSPost2010PropOp28
 70
     1
102
RTVSPost2010Prop29
280
     1
102
RTVSPost2010PropOp29
 70
     1
102
RTVSPost2010Prop30
280
     1
102
RTVSPost2010PropOp30
 70
     1
102
RTVSPost2010Prop31
280
     0
102
RTVSPost2010PropOp31
 70
     1
102
RTVSPost2010Prop32
280
     0
102
RTVSPost2010PropOp32
 70
     1
102
RTVSPost2010Prop33
280
     0
102
RTVSPost2010PropOp33
 70
     1
102
RTVSPost2010Prop34
280
     0
102
RTVSPost2010PropOp34
 70
     1
102
RTVSPost2010Prop35
280
     0
102
RTVSPost2010PropOp35
 70
     1
102
RTVSPost2010Prop36
280
     0
102
RTVSPost2010PropOp36
 70
     1
102
RTVSPost2010Prop37
 90
       50
102
RTVSPost2010PropOp37
 70
     1
102
RTVSPost2010Prop38
140
0.0
102
RTVSPost2010PropOp38
 70
     1
102
RTVSPost2010Prop39
140
1.0
102
RTVSPost2010PropOp39
 70
     1
102
RTVSPost2010Prop40
 90
        0
102
RTVSPost2010PropOp40
 70
     1
102
RTVSPost2010Prop41ColorIndex
 90
       18
102
RTVSPost2010Prop41ColorRGB
 90
-16777216
102
RTVSPost2010PropOp41
 70
     1
102
RTVSPost2010Prop42
 90
       50
102
RTVSPost2010PropOp42
 70
     1
102
RTVSPost2010Prop43
 90
        3
102
RTVSPost2010PropOp43
 70
     1
102
RTVSPost2010Prop44ColorIndex
 90
        5
102
RTVSPost2010Prop44ColorRGB
 90
      255
102
RTVSPost2010PropOp44
 70
     1
102
RTVSPost2010Prop45
280
     0
102
RTVSPost2010PropOp45
 70
     1
102
RTVSPost2010Prop46
 90
       50
102
RTVSPost2010PropOp46
 70
     1
102
RTVSPost2010Prop47
 90
       50
102
RTVSPost2010PropOp47
 70
     1
102
RTVSPost2010Prop48
 90
       50
102
RTVSPost2010PropOp48
 70
     1
102
RTVSPost2010Prop49
280
     0
102
RTVSPost2010PropOp49
 70
     1
102
RTVSPost2010Prop50
 90
       50
102
RTVSPost2010PropOp50
 70
     1
102
RTVSPost2010Prop51ColorIndex
 90
      256
102
RTVSPost2010Prop51ColorRGB
 90
-16777216
102
RTVSPost2010PropOp51
 70
     0
102
RTVSPost2010Prop52
140
1.0
102
RTVSPost2010PropOp52
 70
     0
102
RTVSPost2010Prop53
 90
        2
102
RTVSPost2010PropOp53
 70
     1
102
RTVSPost2010Prop54
  1
strokes_ogs.tif
102
RTVSPost2010PropOp54
 70
     1
102
RTVSPost2010Prop55
280
     0
102
RTVSPost2010PropOp55
 70
     1
102
RTVSPost2010Prop56
140
1.0
102
RTVSPost2010PropOp56
 70
     1
102
RTVSPost2010Prop57
140
1.0
102
RTVSPost2010PropOp57
 70
     1
  0
XRECORD
  5
59C3B
102
{ACAD_REACTORS
330
59C3A
102
}
330
59C3A
100
AcDbXrecord
280
     1
102
RTVSPost2010Prop28
280
     0
102
RTVSPost2010PropOp28
 70
     1
102
RTVSPost2010Prop29
280
     1
102
RTVSPost2010PropOp29
 70
     1
102
RTVSPost2010Prop30
280
     1
102
RTVSPost2010PropOp30
 70
     1
102
RTVSPost2010Prop31
280
     0
102
RTVSPost2010PropOp31
 70
     1
102
RTVSPost2010Prop32
280
     0
102
RTVSPost2010PropOp32
 70
     1
102
RTVSPost2010Prop33
280
     0
102
RTVSPost2010PropOp33
 70
     1
102
RTVSPost2010Prop34
280
     0
102
RTVSPost2010PropOp34
 70
     1
102
RTVSPost2010Prop35
280
     0
102
RTVSPost2010PropOp35
 70
     1
102
RTVSPost2010Prop36
280
     0
102
RTVSPost2010PropOp36
 70
     1
102
RTVSPost2010Prop37
 90
       50
102
RTVSPost2010PropOp37
 70
     1
102
RTVSPost2010Prop38
140
0.0
102
RTVSPost2010PropOp38
 70
     1
102
RTVSPost2010Prop39
140
1.0
102
RTVSPost2010PropOp39
 70
     1
102
RTVSPost2010Prop40
 90
        0
102
RTVSPost2010PropOp40
 70
     1
102
RTVSPost2010Prop41ColorIndex
 90
       18
102
RTVSPost2010Prop41ColorRGB
 90
-16777216
102
RTVSPost2010PropOp41
 70
     1
102
RTVSPost2010Prop42
 90
       50
102
RTVSPost2010PropOp42
 70
     1
102
RTVSPost2010Prop43
 90
        3
102
RTVSPost2010PropOp43
 70
     1
102
RTVSPost2010Prop44ColorIndex
 90
        5
102
RTVSPost2010Prop44ColorRGB
 90
      255
102
RTVSPost2010PropOp44
 70
     1
102
RTVSPost2010Prop45
280
     0
102
RTVSPost2010PropOp45
 70
     1
102
RTVSPost2010Prop46
 90
       50
102
RTVSPost2010PropOp46
 70
     1
102
RTVSPost2010Prop47
 90
       50
102
RTVSPost2010PropOp47
 70
     1
102
RTVSPost2010Prop48
 90
       50
102
RTVSPost2010PropOp48
 70
     1
102
RTVSPost2010Prop49
280
     0
102
RTVSPost2010PropOp49
 70
     1
102
RTVSPost2010Prop50
 90
       50
102
RTVSPost2010PropOp50
 70
     1
102
RTVSPost2010Prop51ColorIndex
 90
      256
102
RTVSPost2010Prop51ColorRGB
 90
-16777216
102
RTVSPost2010PropOp51
 70
     0
102
RTVSPost2010Prop52
140
1.0
102
RTVSPost2010PropOp52
 70
     0
102
RTVSPost2010Prop53
 90
        2
102
RTVSPost2010PropOp53
 70
     1
102
RTVSPost2010Prop54
  1
strokes_ogs.tif
102
RTVSPost2010PropOp54
 70
     1
102
RTVSPost2010Prop55
280
     0
102
RTVSPost2010PropOp55
 70
     1
102
RTVSPost2010Prop56
140
1.0
102
RTVSPost2010PropOp56
 70
     1
102
RTVSPost2010Prop57
140
1.0
102
RTVSPost2010PropOp57
 70
     1
  0
XRECORD
  5
59C2D
102
{ACAD_REACTORS
330
59C2C
102
}
330
59C2C
100
AcDbXrecord
280
     1
102
RTVSPost2010Prop28
280
     0
102
RTVSPost2010PropOp28
 70
     1
102
RTVSPost2010Prop29
280
     1
102
RTVSPost2010PropOp29
 70
     1
102
RTVSPost2010Prop30
280
     1
102
RTVSPost2010PropOp30
 70
     1
102
RTVSPost2010Prop31
280
     0
102
RTVSPost2010PropOp31
 70
     1
102
RTVSPost2010Prop32
280
     0
102
RTVSPost2010PropOp32
 70
     1
102
RTVSPost2010Prop33
280
     0
102
RTVSPost2010PropOp33
 70
     1
102
RTVSPost2010Prop34
280
     0
102
RTVSPost2010PropOp34
 70
     1
102
RTVSPost2010Prop35
280
     0
102
RTVSPost2010PropOp35
 70
     1
102
RTVSPost2010Prop36
280
     0
102
RTVSPost2010PropOp36
 70
     1
102
RTVSPost2010Prop37
 90
       50
102
RTVSPost2010PropOp37
 70
     1
102
RTVSPost2010Prop38
140
0.0
102
RTVSPost2010PropOp38
 70
     1
102
RTVSPost2010Prop39
140
1.0
102
RTVSPost2010PropOp39
 70
     1
102
RTVSPost2010Prop40
 90
        0
102
RTVSPost2010PropOp40
 70
     1
102
RTVSPost2010Prop41ColorIndex
 90
       18
102
RTVSPost2010Prop41ColorRGB
 90
-16777216
102
RTVSPost2010PropOp41
 70
     1
102
RTVSPost2010Prop42
 90
       50
102
RTVSPost2010PropOp42
 70
     1
102
RTVSPost2010Prop43
 90
        3
102
RTVSPost2010PropOp43
 70
     1
102
RTVSPost2010Prop44ColorIndex
 90
        5
102
RTVSPost2010Prop44ColorRGB
 90
      255
102
RTVSPost2010PropOp44
 70
     1
102
RTVSPost2010Prop45
280
     0
102
RTVSPost2010PropOp45
 70
     1
102
RTVSPost2010Prop46
 90
       50
102
RTVSPost2010PropOp46
 70
     1
102
RTVSPost2010Prop47
 90
       50
102
RTVSPost2010PropOp47
 70
     1
102
RTVSPost2010Prop48
 90
       50
102
RTVSPost2010PropOp48
 70
     1
102
RTVSPost2010Prop49
280
     0
102
RTVSPost2010PropOp49
 70
     1
102
RTVSPost2010Prop50
 90
       50
102
RTVSPost2010PropOp50
 70
     1
102
RTVSPost2010Prop51ColorIndex
 90
      256
102
RTVSPost2010Prop51ColorRGB
 90
-16777216
102
RTVSPost2010PropOp51
 70
     0
102
RTVSPost2010Prop52
140
1.0
102
RTVSPost2010PropOp52
 70
     0
102
RTVSPost2010Prop53
 90
        2
102
RTVSPost2010PropOp53
 70
     1
102
RTVSPost2010Prop54
  1
strokes_ogs.tif
102
RTVSPost2010PropOp54
 70
     1
102
RTVSPost2010Prop55
280
     0
102
RTVSPost2010PropOp55
 70
     1
102
RTVSPost2010Prop56
140
1.0
102
RTVSPost2010PropOp56
 70
     1
102
RTVSPost2010Prop57
140
1.0
102
RTVSPost2010PropOp57
 70
     1
  0
XRECORD
  5
59C35
102
{ACAD_REACTORS
330
59C34
102
}
330
59C34
100
AcDbXrecord
280
     1
102
RTVSPost2010Prop28
280
     0
102
RTVSPost2010PropOp28
 70
     1
102
RTVSPost2010Prop29
280
     1
102
RTVSPost2010PropOp29
 70
     1
102
RTVSPost2010Prop30
280
     1
102
RTVSPost2010PropOp30
 70
     1
102
RTVSPost2010Prop31
280
     0
102
RTVSPost2010PropOp31
 70
     1
102
RTVSPost2010Prop32
280
     0
102
RTVSPost2010PropOp32
 70
     1
102
RTVSPost2010Prop33
280
     0
102
RTVSPost2010PropOp33
 70
     1
102
RTVSPost2010Prop34
280
     0
102
RTVSPost2010PropOp34
 70
     1
102
RTVSPost2010Prop35
280
     0
102
RTVSPost2010PropOp35
 70
     1
102
RTVSPost2010Prop36
280
     0
102
RTVSPost2010PropOp36
 70
     1
102
RTVSPost2010Prop37
 90
       50
102
RTVSPost2010PropOp37
 70
     1
102
RTVSPost2010Prop38
140
0.0
102
RTVSPost2010PropOp38
 70
     1
102
RTVSPost2010Prop39
140
1.0
102
RTVSPost2010PropOp39
 70
     1
102
RTVSPost2010Prop40
 90
        0
102
RTVSPost2010PropOp40
 70
     1
102
RTVSPost2010Prop41ColorIndex
 90
       18
102
RTVSPost2010Prop41ColorRGB
 90
-16777216
102
RTVSPost2010PropOp41
 70
     1
102
RTVSPost2010Prop42
 90
       50
102
RTVSPost2010PropOp42
 70
     1
102
RTVSPost2010Prop43
 90
        3
102
RTVSPost2010PropOp43
 70
     1
102
RTVSPost2010Prop44ColorIndex
 90
        5
102
RTVSPost2010Prop44ColorRGB
 90
      255
102
RTVSPost2010PropOp44
 70
     1
102
RTVSPost2010Prop45
280
     0
102
RTVSPost2010PropOp45
 70
     1
102
RTVSPost2010Prop46
 90
       50
102
RTVSPost2010PropOp46
 70
     1
102
RTVSPost2010Prop47
 90
       50
102
RTVSPost2010PropOp47
 70
     1
102
RTVSPost2010Prop48
 90
       50
102
RTVSPost2010PropOp48
 70
     1
102
RTVSPost2010Prop49
280
     0
102
RTVSPost2010PropOp49
 70
     1
102
RTVSPost2010Prop50
 90
       50
102
RTVSPost2010PropOp50
 70
     1
102
RTVSPost2010Prop51ColorIndex
 90
      256
102
RTVSPost2010Prop51ColorRGB
 90
-16777216
102
RTVSPost2010PropOp51
 70
     0
102
RTVSPost2010Prop52
140
1.0
102
RTVSPost2010PropOp52
 70
     0
102
RTVSPost2010Prop53
 90
        2
102
RTVSPost2010PropOp53
 70
     1
102
RTVSPost2010Prop54
  1
strokes_ogs.tif
102
RTVSPost2010PropOp54
 70
     1
102
RTVSPost2010Prop55
280
     0
102
RTVSPost2010PropOp55
 70
     1
102
RTVSPost2010Prop56
140
1.0
102
RTVSPost2010PropOp56
 70
     1
102
RTVSPost2010Prop57
140
1.0
102
RTVSPost2010PropOp57
 70
     1
  0
XRECORD
  5
59C3D
102
{ACAD_REACTORS
330
59C3C
102
}
330
59C3C
100
AcDbXrecord
280
     1
102
RTVSPost2010Prop28
280
     0
102
RTVSPost2010PropOp28
 70
     1
102
RTVSPost2010Prop29
280
     1
102
RTVSPost2010PropOp29
 70
     1
102
RTVSPost2010Prop30
280
     1
102
RTVSPost2010PropOp30
 70
     1
102
RTVSPost2010Prop31
280
     0
102
RTVSPost2010PropOp31
 70
     1
102
RTVSPost2010Prop32
280
     0
102
RTVSPost2010PropOp32
 70
     1
102
RTVSPost2010Prop33
280
     0
102
RTVSPost2010PropOp33
 70
     1
102
RTVSPost2010Prop34
280
     0
102
RTVSPost2010PropOp34
 70
     1
102
RTVSPost2010Prop35
280
     0
102
RTVSPost2010PropOp35
 70
     1
102
RTVSPost2010Prop36
280
     0
102
RTVSPost2010PropOp36
 70
     1
102
RTVSPost2010Prop37
 90
       50
102
RTVSPost2010PropOp37
 70
     1
102
RTVSPost2010Prop38
140
0.0
102
RTVSPost2010PropOp38
 70
     1
102
RTVSPost2010Prop39
140
1.0
102
RTVSPost2010PropOp39
 70
     1
102
RTVSPost2010Prop40
 90
        0
102
RTVSPost2010PropOp40
 70
     1
102
RTVSPost2010Prop41ColorIndex
 90
       18
102
RTVSPost2010Prop41ColorRGB
 90
-16777216
102
RTVSPost2010PropOp41
 70
     1
102
RTVSPost2010Prop42
 90
       50
102
RTVSPost2010PropOp42
 70
     1
102
RTVSPost2010Prop43
 90
        3
102
RTVSPost2010PropOp43
 70
     1
102
RTVSPost2010Prop44ColorIndex
 90
        5
102
RTVSPost2010Prop44ColorRGB
 90
      255
102
RTVSPost2010PropOp44
 70
     1
102
RTVSPost2010Prop45
280
     0
102
RTVSPost2010PropOp45
 70
     1
102
RTVSPost2010Prop46
 90
       50
102
RTVSPost2010PropOp46
 70
     1
102
RTVSPost2010Prop47
 90
       50
102
RTVSPost2010PropOp47
 70
     1
102
RTVSPost2010Prop48
 90
       50
102
RTVSPost2010PropOp48
 70
     1
102
RTVSPost2010Prop49
280
     0
102
RTVSPost2010PropOp49
 70
     1
102
RTVSPost2010Prop50
 90
       50
102
RTVSPost2010PropOp50
 70
     1
102
RTVSPost2010Prop51ColorIndex
 90
      256
102
RTVSPost2010Prop51ColorRGB
 90
-16777216
102
RTVSPost2010PropOp51
 70
     0
102
RTVSPost2010Prop52
140
1.0
102
RTVSPost2010PropOp52
 70
     0
102
RTVSPost2010Prop53
 90
        2
102
RTVSPost2010PropOp53
 70
     1
102
RTVSPost2010Prop54
  1
strokes_ogs.tif
102
RTVSPost2010PropOp54
 70
     1
102
RTVSPost2010Prop55
280
     0
102
RTVSPost2010PropOp55
 70
     1
102
RTVSPost2010Prop56
140
1.0
102
RTVSPost2010PropOp56
 70
     1
102
RTVSPost2010Prop57
140
1.0
102
RTVSPost2010PropOp57
 70
     1
  0
ENDSEC
  0
EOF
